osu file format v14

[General]
AudioFilename: Demetori_-_End_of_Illusions_and_Dreams (1).mp3
AudioLeadIn: 0
PreviewTime: 191584
Countdown: 0
SampleSet: Soft
StackLeniency: 0.7
Mode: 0
LetterboxInBreaks: 0
WidescreenStoryboard: 0

[Editor]
Bookmarks: 112895
DistanceSpacing: 2.2
BeatDivisor: 4
GridSize: 4
TimelineZoom: 2.3

[Metadata]
Title:gensou.yume no owari
TitleUnicode:幻想、夢の終わり
Artist:Demetori
ArtistUnicode:Demetori
Creator:EvilElvis
Version:Lunatic
Source:東方Project
Tags:闡提宗祀 ~ Offering to The Sukhavati (Bonus) 花は幻想のままに 東方花映塚 ~ Phantasmagoria of Flower View
BeatmapID:759845
BeatmapSetID:343921

[Difficulty]
HPDrainRate:7
CircleSize:4.5
OverallDifficulty:7
ApproachRate:7.5
SliderMultiplier:1.4
SliderTickRate:1

[Events]
//Background and Video events
0,0,"bgnicesong.jpg",0,0
//Break Periods
//Storyboard Layer 0 (Background)
//Storyboard Layer 1 (Fail)
//Storyboard Layer 2 (Pass)
//Storyboard Layer 3 (Foreground)
//Storyboard Sound Samples

[TimingPoints]
4207,491.803278688525,4,2,1,20,1,0
5682,-133.333333333333,4,2,1,20,0,0
18961,-133.333333333333,4,2,1,15,0,0
19207,-133.333333333333,4,2,1,20,0,0
19944,-100,4,2,1,20,0,0
33223,-100,4,2,1,10,0,0
34207,-100,4,2,1,20,0,0
34329,-100,4,2,1,30,0,0
34452,-100,4,2,1,40,0,0
35190,-200,4,2,1,40,0,0
35682,-76.9230769230769,4,2,1,40,0,0
46993,-76.9230769230769,4,2,1,30,0,0
47239,-76.9230769230769,4,2,1,40,0,0
50928,-200,4,2,1,40,0,0
51420,-76.9230769230769,4,2,1,40,0,0
54616,-76.9230769230769,4,2,1,30,0,0
54739,-76.9230769230769,4,2,1,40,0,0
55354,-76.9230769230769,4,2,1,40,0,0
55477,-76.9230769230769,4,2,1,40,0,0
58305,-76.9230769230769,4,2,1,30,0,0
58428,-76.9230769230769,4,2,1,40,0,0
59043,-76.9230769230769,4,2,1,25,0,0
59288,-76.9230769230769,4,2,1,40,0,0
60026,-76.9230769230769,4,2,1,25,0,0
60149,-76.9230769230769,4,2,1,40,0,0
61010,-76.9230769230769,4,2,1,25,0,0
61133,-76.9230769230769,4,2,1,40,0,0
61993,-76.9230769230769,4,2,1,25,0,0
62239,-76.9230769230769,4,2,1,40,0,0
62731,-76.9230769230769,4,2,1,25,0,0
63223,-76.9230769230769,4,2,1,40,0,0
63961,-76.9230769230769,4,2,1,20,0,0
64207,-76.9230769230769,4,2,1,40,0,0
64698,-200,4,2,1,40,0,0
65682,-100,4,2,1,40,0,0
66666,-100,4,2,1,30,0,0
71092,-76.9230769230769,4,2,1,40,0,0
71829,-76.9230769230769,4,2,1,20,0,0
72075,-76.9230769230769,4,2,1,40,0,0
72813,-76.9230769230769,4,2,1,20,0,0
72936,-76.9230769230769,4,2,1,40,0,0
73797,-76.9230769230769,4,2,1,20,0,0
74043,-76.9230769230769,4,2,1,40,0,0
75764,-76.9230769230769,4,2,1,20,0,0
75887,-76.9230769230769,4,2,1,40,0,0
76747,-76.9230769230769,4,2,1,20,0,0
76870,-76.9230769230769,4,2,1,40,0,0
77731,-76.9230769230769,4,2,1,20,0,0
77854,-76.9230769230769,4,2,1,40,0,0
78715,-76.9230769230769,4,2,1,20,0,0
78838,-76.9230769230769,4,2,1,40,0,0
79698,-76.9230769230769,4,2,1,25,0,0
79944,-76.9230769230769,4,2,1,40,0,0
80682,-76.9230769230769,4,2,1,30,0,0
80805,-76.9230769230769,4,2,1,40,0,0
81666,-76.9230769230769,4,2,1,25,0,0
81911,-76.9230769230769,4,2,1,40,0,0
82157,-76.9230769230769,4,2,1,20,0,0
82403,-76.9230769230769,4,2,1,30,0,0
82649,-76.9230769230769,4,2,1,40,0,0
83633,-76.9230769230769,4,2,1,25,0,0
83756,-76.9230769230769,4,2,1,40,0,0
84616,-76.9230769230769,4,2,1,25,0,0
84739,-76.9230769230769,4,2,1,40,0,0
85600,-76.9230769230769,4,2,1,25,0,0
85723,-76.9230769230769,4,2,1,40,0,0
86584,-76.9230769230769,4,2,1,25,0,0
86707,-76.9230769230769,4,2,1,40,0,0
87567,-76.9230769230769,4,2,1,25,0,0
87690,-76.9230769230769,4,2,1,40,0,0
88551,-76.9230769230769,4,2,1,25,0,0
88674,-76.9230769230769,4,2,1,40,0,0
89534,-76.9230769230769,4,2,1,25,0,0
89657,-76.9230769230769,4,2,1,40,0,0
90518,-76.9230769230769,4,2,1,25,0,0
90764,-76.9230769230769,4,2,1,40,0,0
91502,-76.9230769230769,4,2,1,25,0,0
91747,-76.9230769230769,4,2,1,40,0,0
92485,-76.9230769230769,4,2,1,25,0,0
92731,-76.9230769230769,4,2,1,40,0,0
93469,-76.9230769230769,4,2,1,25,0,0
93592,-76.9230769230769,4,2,1,40,0,0
94452,-76.9230769230769,4,2,1,25,0,0
94575,-76.9230769230769,4,2,1,40,0,0
95436,-76.9230769230769,4,2,1,25,0,0
95682,-76.9230769230769,4,2,1,40,0,0
96666,-200,4,2,1,40,0,0
98633,-200,4,2,1,20,0,0
108961,-200,4,2,1,10,0,0
109084,-200,4,2,1,20,0,0
112895,491.803278688525,4,2,1,20,1,0
191584,491.803278688525,4,2,1,20,1,0
304013,491.803278688525,4,2,1,20,1,0

[Colours]
Combo1 : 17,254,176
Combo2 : 173,255,95
Combo3 : 255,88,100
Combo4 : 255,94,55

[HitObjects]
62,81,4206,5,0,0:3:0:0:
62,81,4575,1,0,0:0:0:0:
62,81,4944,1,2,0:0:0:0:
62,81,6174,6,0,P|65:117|60:177,1,78.7500030040742
109,244,6911,1,2,0:0:0:0:
404,62,8141,6,0,P|356:67|308:68,2,78.7500030040742,0|0|2,0:0|0:0|0:0,0:0:0:0:
246,213,10108,5,0,0:0:0:0:
359,219,10477,1,0,0:0:0:0:
359,219,10846,1,2,0:0:0:0:
130,360,11829,5,2,0:0:0:0:
130,360,12075,2,0,P|89:362|48:366,1,78.7500030040742,0|2,0:0|0:0,0:0:0:0:
4,278,12813,1,2,0:0:0:0:
244,99,14043,6,0,P|287:96|330:91,2,78.7500030040742,0|0|2,0:0|0:0|0:0,0:0:0:0:
494,218,16010,5,0,0:0:0:0:
494,218,16379,1,0,0:0:0:0:
494,218,16747,1,2,0:0:0:0:
85,171,18961,5,4,0:0:0:0:
85,171,19207,1,0,3:0:0:0:
160,195,19452,2,0,L|191:187,2,26.2500010013581,2|0|2,0:0|3:0|0:0,0:0:0:0:
272,235,19944,6,0,P|272:188|265:153,2,70,4|2|8,0:0|0:0|3:0,0:0:0:0:
214,296,20682,1,0,3:0:0:0:
214,296,20805,1,2,0:0:0:0:
305,322,21051,1,2,0:0:0:0:
305,322,21174,1,0,0:3:0:0:
243,368,21420,2,0,L|191:381,2,35,2|2|0,0:0|0:0|3:0,0:0:0:0:
406,352,21911,6,0,P|410:315|394:240,1,105,0|0,3:0|0:0,0:0:0:0:
397,248,22403,2,0,P|434:244|479:237,1,70,8|2,3:0|0:0,0:0:0:0:
497,159,22895,1,2,0:0:0:0:
497,159,23018,1,0,0:0:0:0:
497,159,23141,1,2,0:0:0:0:
453,68,23387,1,4,0:0:0:0:
453,68,23756,5,2,0:0:0:0:
453,68,23879,2,0,P|398:58|363:56,1,70,4|2,3:0|0:0,0:0:0:0:
300,49,24370,1,8,3:0:0:0:
219,85,24616,1,0,3:0:0:0:
219,85,24739,1,2,0:0:0:0:
143,43,24985,1,2,0:0:0:0:
143,43,25108,1,2,0:0:0:0:
63,69,25354,1,0,0:0:0:0:
63,69,25477,1,2,0:0:0:0:
63,69,25600,1,0,3:0:0:0:
243,201,25846,5,2,0:0:0:0:
243,201,26092,1,4,0:0:0:0:
81,264,26338,1,8,3:0:0:0:
160,168,26584,1,4,3:0:0:0:
155,322,26829,2,0,L|142:369,3,35,0|2|4|0,0:0|0:0|3:0|0:0,0:0:0:0:
117,371,27321,2,0,P|72:353|3:351,1,105,4|0,0:0|0:0,0:0:0:0:
13,328,27813,5,4,1:0:0:0:
260,264,28182,1,2,0:0:0:0:
25,185,28551,1,2,0:0:0:0:
25,185,29780,5,2,0:0:0:0:
309,126,30149,1,2,0:0:0:0:
92,44,30518,1,2,0:0:0:0:
92,44,31747,6,0,P|88:86|101:187,1,140,2|0,0:0|0:0,0:0:0:0:
254,278,32485,2,0,P|264:237|267:135,1,140,2|2,0:0|0:0,0:0:0:0:
252,54,33223,1,4,0:0:0:0:
252,54,33715,1,2,0:0:0:0:
263,63,33961,6,0,L|287:58,3,17.5,0|0|0|0,1:0|0:0|0:0|0:0,0:0:0:0:
314,68,34207,2,0,L|338:63,3,17.5,0|0|0|0,1:0|1:0|1:0|1:0,0:0:0:0:
372,75,34452,6,0,L|367:117,1,35,0|8,1:0|1:0,0:0:0:0:
408,334,34821,1,8,1:0:0:0:
408,334,35067,1,8,1:0:0:0:
408,334,35190,6,0,P|405:309|396:280,1,52.5,4|0,1:3|0:0,0:0:0:0:
288,224,35682,6,0,B|371:236|350:203|422:211,1,136.499993751526,4|8,1:0|0:1,0:0:0:0:
422,211,36174,2,0,P|422:166|431:104,1,90.9999958343508,8|8,0:0|0:0,0:0:0:0:
229,37,36666,1,8,1:0:0:0:
341,138,36911,1,8,0:0:0:0:
341,138,37034,2,0,P|349:92|345:34,1,90.9999958343508,8|0,0:1|0:0,0:0:0:0:
361,34,37403,2,0,P|340:40|311:42,1,45.4999979171754,0|8,0:0|0:1,0:0:0:0:
248,121,37649,6,0,P|193:126|126:102,1,90.9999958343508,8|8,0:0|0:0,0:0:0:0:
35,226,38141,1,8,0:0:0:0:
35,226,38264,2,0,P|81:218|133:229,1,90.9999958343508,8|0,0:0|0:0,0:0:0:0:
154,196,38633,2,0,P|150:257|157:297,1,90.9999958343508,8|0,1:0|0:0,0:0:0:0:
146,312,39002,1,8,0:1:0:0:
139,338,39125,2,0,B|203:344,1,45.4999979171754,0|8,0:0|0:0,0:0:0:0:
317,292,39370,2,0,L|261:289,1,45.4999979171754,8|8,0:1|0:0,0:0:0:0:
260,210,39616,6,0,P|307:241|393:243,1,136.499993751526,8|8,0:0|0:1,0:0:0:0:
385,245,40108,2,0,L|395:335,1,90.9999958343508,8|8,0:0|0:0,0:0:0:0:
480,159,40600,2,0,L|471:62,1,90.9999958343508,8|8,1:0|0:0,0:0:0:0:
488,38,40969,2,0,P|434:57|383:50,1,90.9999958343508,8|0,0:1|0:0,0:0:0:0:
401,55,41338,2,0,P|373:38|355:33,1,45.4999979171754,8|8,0:0|0:1,0:0:0:0:
348,105,41584,6,0,P|326:62|274:40,1,90.9999958343508,8|8,0:0|0:0,0:0:0:0:
263,34,41952,1,0,0:0:0:0:
234,30,42075,2,0,L|136:38,1,90.9999958343508,8|8,0:0|0:0,0:0:0:0:
21,156,42567,2,0,P|72:138|154:135,1,136.499993751526,8|8,1:0|0:1,0:0:0:0:
153,135,43059,2,0,L|144:194,1,45.4999979171754
177,249,43305,1,8,0:0:0:0:
169,267,43428,1,8,0:1:0:0:
161,284,43551,6,0,P|169:329|204:371,1,90.9999958343508,4|0,0:0|0:0,0:0:0:0:
222,371,43920,1,8,0:1:0:0:
248,366,44043,2,0,L|353:340,1,90.9999958343508,8|8,0:0|0:0,0:0:0:0:
441,302,44534,1,8,1:0:0:0:
441,302,44657,1,0,0:0:0:0:
497,220,44903,1,8,0:1:0:0:
497,220,45026,1,8,0:0:0:0:
388,202,45272,2,0,L|340:226,1,45.4999979171754,8|8,0:0|0:1,0:0:0:0:
273,215,45518,6,0,P|293:281|357:309,1,136.499993751526,8|8,0:0|0:1,0:0:0:0:
350,308,46010,2,0,P|394:289|434:267,1,90.9999958343508,8|8,0:0|0:0,0:0:0:0:
472,145,46502,2,0,P|452:95|441:55,1,90.9999958343508,8|8,1:0|0:0,0:0:0:0:
430,34,46870,1,8,0:1:0:0:
419,8,46993,1,4,0:0:0:0:
312,176,47239,1,8,0:1:0:0:
112,33,47485,6,0,L|262:44,1,136.499993751526,8|8,0:0|0:1,0:0:0:0:
248,42,47977,2,0,P|243:92|246:145,1,90.9999958343508,8|8,0:0|0:0,0:0:0:0:
62,232,48469,2,0,P|67:182|64:129,1,90.9999958343508,8|0,1:0|0:0,0:0:0:0:
65,141,48838,1,8,0:1:0:0:
65,141,48961,2,0,L|111:145,1,45.4999979171754,8|8,0:0|0:0,0:0:0:0:
206,222,49207,2,0,L|160:218,1,45.4999979171754,8|0,1:0|1:0,0:0:0:0:
108,292,49452,5,0,1:0:0:0:
113,313,49575,2,0,P|163:318|221:312,1,90.9999958343508,0|8,1:0|0:1,0:0:0:0:
224,309,49944,2,0,L|226:346,4,22.7499989585877,0|0|0|0|8,1:0|0:0|0:0|0:0|1:0,0:0:0:0:
262,174,50436,2,0,L|250:67,1,90.9999958343508,4|8,0:0|0:0,0:0:0:0:
262,62,50805,1,8,0:1:0:0:
270,40,50928,6,0,L|325:32,1,52.5,4|0,3:0|0:0,0:0:0:0:
365,14,51420,6,0,P|344:63|362:154,1,136.499993751526,4|8,1:0|0:1,0:0:0:0:
372,165,51911,1,8,0:0:0:0:
493,252,52157,1,8,0:0:0:0:
410,367,52403,1,8,1:0:0:0:
410,367,52526,2,0,P|404:332|403:266,1,90.9999958343508,8|8,0:0|0:1,0:0:0:0:
409,248,52895,1,8,0:0:0:0:
277,172,53141,2,0,L|232:182,1,45.4999979171754,8|8,0:0|0:1,0:0:0:0:
203,162,53387,6,0,P|210:218|210:267,1,90.9999958343508,8|8,0:0|0:0,0:0:0:0:
236,274,53756,2,0,L|142:283,1,90.9999958343508,8|0,0:1|0:0,0:0:0:0:
134,311,54125,2,0,L|128:256,1,45.4999979171754,8|0,0:0|0:0,0:0:0:0:
55,217,54370,2,0,L|50:166,1,45.4999979171754,8|0,1:0|0:0,0:0:0:0:
72,147,54616,1,4,0:0:0:0:
92,113,54739,1,0,0:0:0:0:
113,79,54862,2,0,P|164:90|216:81,1,90.9999958343508,4|8,0:3|1:0,0:0:0:0:
229,63,55231,1,0,1:0:0:0:
254,31,55354,6,0,L|361:54,1,90.9999958343508,4|0,1:0|0:0,0:0:0:0:
386,28,55723,2,0,P|363:71|356:120,1,90.9999958343508,8|0,0:1|0:0,0:0:0:0:
361,144,56092,1,8,0:0:0:0:
502,306,56338,2,0,P|505:246|472:165,1,136.499993751526,8|8,1:0|0:1,0:0:0:0:
491,149,56829,2,0,L|436:173,1,45.4999979171754
397,232,57075,2,0,L|343:253,1,45.4999979171754,8|8,0:0|0:1,0:0:0:0:
301,315,57321,5,8,0:0:0:0:
77,175,57567,1,8,0:0:0:0:
77,175,57690,1,8,0:1:0:0:
210,369,57936,1,8,0:1:0:0:
210,369,58059,1,8,0:0:0:0:
234,112,58305,2,0,P|198:79|100:75,1,136.499993751526,4|0,1:2|0:0,0:0:0:0:
86,84,58797,1,4,3:0:0:0:
86,84,59043,1,2,0:3:0:0:
65,283,59288,6,0,B|148:288|125:258|201:260,1,136.499993751526,4|8,1:2|0:1,0:0:0:0:
223,280,59780,1,8,0:0:0:0:
357,220,60026,1,2,0:3:0:0:
357,220,60149,1,0,0:0:0:0:
357,220,60272,2,0,P|362:165|345:101,1,90.9999958343508,8|2,1:0|0:0,0:0:0:0:
332,103,60641,2,0,L|428:99,1,90.9999958343508,8|0,0:1|0:0,0:0:0:0:
446,71,61010,2,0,L|451:131,1,45.4999979171754,2|8,0:3|0:1,0:0:0:0:
485,31,61256,6,0,P|472:104|483:193,1,136.499993751526,4|8,0:0|0:1,0:0:0:0:
506,181,61747,2,0,P|474:195|425:239,1,90.9999958343508,8|2,0:0|0:3,0:0:0:0:
277,369,62239,2,0,P|202:370|115:306,1,181.999991668702,8|4,1:0|0:0,0:0:0:0:
36,213,62977,1,2,0:3:0:0:
255,40,63223,6,0,P|264:92|257:140,1,90.9999958343508,4|0,1:0|0:0,0:0:0:0:
120,125,63592,2,0,P|116:79|124:35,1,90.9999958343508,8|0,0:1|0:0,0:0:0:0:
149,20,63961,1,2,0:3:0:0:
339,144,64207,2,0,P|388:141|448:135,1,90.9999958343508,8|4,1:0|3:0,0:0:0:0:
494,300,64698,6,0,P|456:302|433:306,1,52.5,4|0,3:0|0:0,0:0:0:0:
400,308,65190,5,4,1:0:0:0:
400,308,65928,2,0,L|393:281,4,17.5,8|8|4|0|4,0:0|0:0|0:3|0:0|0:3,0:0:0:0:
320,365,66420,1,8,0:0:0:0:
56,191,66666,5,8,1:0:0:0:
56,191,67157,5,4,1:0:0:0:
72,124,67526,1,0,0:0:0:0:
91,58,67895,1,0,0:0:0:0:
163,138,68387,5,2,0:0:0:0:
163,138,68633,1,2,0:0:0:0:
280,181,68879,5,8,0:0:0:0:
280,181,69125,1,4,1:0:0:0:
205,206,69493,1,0,0:0:0:0:
133,229,69862,1,2,0:3:0:0:
230,274,70108,6,0,L|236:297,3,17.5,0|0|0|0,1:0|0:0|0:0|0:0,0:0:0:0:
261,305,70354,2,0,L|255:328,3,17.5,0|0|0|0,1:0|1:0|1:0|1:0,0:0:0:0:
276,338,70600,5,4,1:3:0:0:
488,216,71092,6,0,P|486:172|492:110,1,90.9999958343508,4|0,1:0|0:0,0:0:0:0:
510,98,71461,2,0,P|468:101|410:94,1,90.9999958343508,8|0,0:1|0:0,0:0:0:0:
398,75,71829,1,2,0:3:0:0:
202,173,72075,2,0,P|247:177|293:175,1,90.9999958343508,8|8,1:0|0:0,0:0:0:0:
320,171,72444,1,8,0:1:0:0:
345,161,72567,2,0,L|339:215,1,45.4999979171754,8|0,0:0|0:0,0:0:0:0:
311,275,72813,1,2,0:3:0:0:
289,270,72936,1,8,0:1:0:0:
257,260,73059,6,0,P|258:314|263:357,1,90.9999958343508,8|0,0:0|0:0,0:0:0:0:
262,350,73428,1,8,0:1:0:0:
262,350,73551,1,8,0:0:0:0:
409,274,73797,1,2,0:3:0:0:
260,178,74043,1,8,1:0:0:0:
116,266,74288,1,8,1:0:0:0:
192,269,74534,2,0,L|223:263,3,22.7499989585877,4|0|8|0,1:3|0:0|0:0|0:0,0:0:0:0:
242,259,74780,1,4,3:0:0:0:
328,161,75026,6,0,P|329:123|320:18,1,136.499993751526,4|8,1:0|0:1,0:0:0:0:
321,24,75518,2,0,P|283:26|221:35,1,90.9999958343508,8|2,0:0|0:3,0:0:0:0:
50,178,76010,2,0,P|94:185|140:183,1,90.9999958343508,8|8,1:0|0:0,0:0:0:0:
150,206,76379,1,8,0:1:0:0:
280,323,76625,1,8,0:0:0:0:
286,296,76747,2,0,L|336:308,1,45.4999979171754,2|8,0:3|0:1,0:0:0:0:
387,366,76993,6,0,P|400:336|381:238,1,136.499993751526,8|8,0:0|0:1,0:0:0:0:
408,213,77485,2,0,P|364:222|302:208,1,90.9999958343508,8|2,0:0|0:3,0:0:0:0:
228,113,77977,1,8,1:0:0:0:
352,31,78223,1,2,0:0:0:0:
483,129,78469,2,0,L|437:122,1,45.4999979171754,0|8,1:0|1:0,0:0:0:0:
405,113,78715,1,2,0:3:0:0:
208,201,78961,6,0,P|203:255|214:342,2,136.499993751526,4|4|2,1:0|0:3|0:3,0:0:0:0:
283,81,79944,2,0,P|239:82|185:76,1,90.9999958343508,8|8,1:0|0:0,0:0:0:0:
176,53,80313,2,0,L|86:69,1,90.9999958343508,8|0,0:1|0:0,0:0:0:0:
46,52,80682,2,0,P|56:86|64:111,1,45.4999979171754,2|8,0:3|0:1,0:0:0:0:
21,211,80928,6,0,P|57:206|163:209,1,136.499993751526,4|8,0:0|0:1,0:0:0:0:
187,218,81420,1,8,0:0:0:0:
261,270,81666,1,2,0:3:0:0:
331,79,81911,5,4,1:2:0:0:
348,58,82034,1,0,1:0:0:0:
372,46,82157,1,0,1:0:0:0:
399,42,82280,1,0,1:0:0:0:
429,44,82403,1,4,1:3:0:0:
459,59,82526,1,0,1:0:0:0:
473,87,82649,1,4,1:3:0:0:
478,118,82772,1,0,1:0:0:0:
509,150,82895,6,0,B|434:162|446:133|367:139,1,136.499993751526,4|8,1:0|0:1,0:0:0:0:
374,138,83387,2,0,L|366:239,1,90.9999958343508,8|2,0:0|0:3,0:0:0:0:
377,254,83756,1,0,0:0:0:0:
386,279,83879,1,8,1:0:0:0:
234,253,84125,1,0,0:0:0:0:
255,233,84247,1,8,0:1:0:0:
275,214,84370,2,0,P|274:266|279:321,1,90.9999958343508,8|2,0:0|0:3,0:0:0:0:
279,332,84739,1,8,0:1:0:0:
290,358,84862,6,0,L|148:367,1,136.499993751526,8|8,0:0|0:1,0:0:0:0:
153,366,85354,2,0,P|158:332|154:270,1,90.9999958343508,8|2,0:0|0:3,0:0:0:0:
10,73,85846,2,0,P|2:113|9:215,1,136.499993751526,8|8,1:0|0:1,0:0:0:0:
3,233,86338,2,0,L|27:228,4,22.7499989585877,2|0|0|0|2,0:0|0:0|0:0|0:0|0:3,0:0:0:0:
261,135,86829,6,0,L|110:129,1,136.499993751526,4|8,0:0|0:1,0:0:0:0:
124,129,87321,2,0,P|128:89|117:26,1,90.9999958343508,8|2,0:0|0:3,0:0:0:0:
121,39,87690,1,0,0:0:0:0:
121,39,87813,1,8,1:0:0:0:
208,220,88059,1,8,0:0:0:0:
208,220,88182,2,0,P|204:259|204:322,1,90.9999958343508,8|8,0:1|0:0,0:0:0:0:
187,332,88551,2,0,L|237:337,1,45.4999979171754,2|8,0:3|0:1,0:0:0:0:
298,287,88797,6,0,P|337:295|390:298,1,90.9999958343508,8|0,0:0|0:0,0:0:0:0:
409,325,89166,2,0,P|407:278|411:227,1,90.9999958343508,8|0,0:1|0:0,0:0:0:0:
434,208,89534,2,0,L|425:157,1,45.4999979171754,2|8,0:3|0:0,0:0:0:0:
445,130,89780,1,4,0:2:0:0:
311,35,90026,1,0,1:0:0:0:
311,35,90149,1,0,1:0:0:0:
311,35,90272,1,4,0:3:0:0:
231,55,90518,1,2,0:3:0:0:
78,124,90764,6,0,P|125:129|199:177,1,136.499993751526,4|8,1:0|0:1,0:0:0:0:
219,162,91256,2,0,L|200:261,1,90.9999958343508,8|2,0:0|0:3,0:0:0:0:
58,296,91747,1,8,1:0:0:0:
202,374,91993,1,0,0:0:0:0:
115,237,92239,1,0,1:0:0:0:
115,237,92485,1,2,1:3:0:0:
275,342,92731,6,0,P|321:348|402:309,1,136.499993751526,4|8,1:0|0:1,0:0:0:0:
414,284,93223,1,8,0:0:0:0:
357,199,93469,1,2,0:3:0:0:
357,199,93592,1,8,0:0:0:0:
357,199,93715,2,0,P|377:173|447:158,1,90.9999958343508,8|0,1:0|0:0,0:0:0:0:
448,140,94084,1,8,0:1:0:0:
464,121,94207,2,0,L|471:55,1,45.4999979171754,0|0,1:0|0:0,0:0:0:0:
397,5,94452,2,0,L|390:71,1,45.4999979171754,2|8,1:3|0:1,0:0:0:0:
326,109,94698,6,0,B|249:120|267:89|174:97,1,136.499993751526,4|8,1:0|0:1,0:0:0:0:
164,76,95190,1,8,0:0:0:0:
90,40,95436,1,2,0:3:0:0:
41,186,95682,1,8,1:0:0:0:
41,186,96174,1,2,0:0:0:0:
114,211,96420,1,8,0:0:0:0:
190,235,96666,6,0,L|328:217,1,140,4|0,1:0|0:0,0:0:0:0:
256,192,97711,12,2,98633,0:0:0:0:
57,195,98879,5,0,0:0:0:0:
132,181,99125,1,8,0:0:0:0:
206,200,99370,1,0,0:0:0:0:
282,188,99616,1,2,0:0:0:0:
282,188,99985,1,0,0:0:0:0:
282,188,100108,2,0,P|286:208|288:225,1,35,8|8,0:0|0:0,0:0:0:0:
333,284,100600,1,2,0:0:0:0:
406,260,100846,1,0,0:0:0:0:
393,335,101092,1,8,0:0:0:0:
333,284,101338,1,8,0:0:0:0:
406,260,101584,2,0,L|442:262,1,35,2|8,0:0|0:0,0:0:0:0:
492,204,102075,1,2,0:0:0:0:
492,204,102321,1,8,0:0:0:0:
396,93,102567,6,0,P|387:135|390:161,1,70,2|0,0:0|0:0,0:0:0:0:
337,218,103305,1,8,0:0:0:0:
337,218,103551,1,8,0:0:0:0:
337,218,103920,1,0,0:0:0:0:
337,218,104043,2,0,P|336:242|337:257,1,35,2|8,0:0|0:0,0:0:0:0:
305,324,104534,5,2,0:0:0:0:
231,347,104780,1,8,0:0:0:0:
205,274,105026,1,8,0:0:0:0:
275,242,105272,1,8,0:0:0:0:
55,204,105518,5,2,0:0:0:0:
127,229,105764,1,0,0:0:0:0:
157,158,106010,1,0,0:0:0:0:
87,125,106256,1,8,0:0:0:0:
188,79,106502,6,0,L|259:82,1,70,10|0,0:0|0:0,0:0:0:0:
310,138,107239,1,0,0:0:0:0:
383,113,107485,1,8,0:0:0:0:
420,180,107731,1,2,0:0:0:0:
495,167,107977,1,0,0:0:0:0:
429,208,108223,1,8,0:0:0:0:
470,272,108469,1,10,0:0:0:0:
407,317,108715,1,8,0:0:0:0:
295,369,108961,6,0,P|286:304|301:195,1,175,2|0,0:3|0:0,0:0:0:0:
300,196,110559,1,0,0:0:0:0:
212,57,110928,6,0,P|161:61|104:59,1,105,0|2,0:0|0:0,0:0:0:0:
98,77,111727,2,0,L|98:87,1,8.75,2|0,0:0|0:0,0:0:0:0:
149,147,111911,2,0,L|149:157,1,8.75,2|2,0:0|0:0,0:0:0:0:
93,213,112157,1,8,0:0:0:0:
253,324,112403,6,0,L|270:322,5,11.6666666666667
