osu file format v14

[General]
AudioFilename: audio.mp3
AudioLeadIn: 0
PreviewTime: -1
Countdown: 0
SampleSet: Soft
StackLeniency: 0.7
Mode: 0
LetterboxInBreaks: 0
WidescreenStoryboard: 0

[Editor]
DistanceSpacing: 2
BeatDivisor: 3
GridSize: 8
TimelineZoom: 1.6

[Metadata]
Title:Yuuga ni Sakase, Sumizome no Sakura ~ The Harm of Coming into Existence
TitleUnicode:幽雅に咲かせ、墨染の桜 ~ The Harm of Coming into Existence
Artist:Demetori
ArtistUnicode:Demetori
Creator:Micro360-Player
Version:SIX STAGE ULTRA MODE LUNATIC PERFECT
Source:東方妖々夢 ~ Perfect Cherry Blossom
Tags:
BeatmapID:2159478
BeatmapSetID:1032853

[Difficulty]
HPDrainRate:6
CircleSize:4
OverallDifficulty:8
ApproachRate:9.6
SliderMultiplier:1.4
SliderTickRate:1

[Events]
//Background and Video events
0,0,"42a7fb95dbe4b1d5b2cfd28f3519f73f[1].png",0,0
//Break Periods
//Storyboard Layer 0 (Background)
//Storyboard Layer 1 (Fail)
//Storyboard Layer 2 (Pass)
//Storyboard Layer 3 (Foreground)
//Storyboard Layer 4 (Overlay)
//Storyboard Sound Samples

[TimingPoints]
6641,833.333333333333,4,2,0,100,1,0
18307,648.648648648649,4,2,0,100,1,0
18307,-50,4,2,0,100,0,0
19604,-40,4,2,0,100,0,0
20252,-36.3636363636364,4,2,0,100,0,0
20901,324.324324324324,4,2,0,100,1,0
20901,-50,4,2,0,100,0,0
25603,-40,4,2,0,100,0,0
26090,-50,4,2,0,100,0,0
36468,-133.333333333333,4,2,0,100,0,0
36792,-50,4,2,0,100,0,0
37117,-133.333333333333,4,2,0,100,0,0
37441,-50,4,2,0,100,0,0
37765,-47.6190476190476,4,2,0,100,0,0
39063,-66.6666666666667,4,2,0,100,0,0
39549,-100,4,2,0,100,0,0
40036,-200,4,2,0,100,0,0
40360,-153.846153846153,4,2,0,100,0,0
40684,-117.647058823529,4,2,0,100,0,0
40846,-66.6666666666667,4,2,0,100,0,0
40928,-117.647058823529,4,2,0,100,0,0
41009,-100,4,2,0,100,0,0
41171,-90.9090909090909,4,2,0,100,0,0
41252,-83.3333333333333,4,2,0,100,0,0
41333,-76.9230769230769,4,2,0,100,0,0
41414,-71.4285714285714,4,2,0,100,0,0
41495,-66.6666666666667,4,2,0,100,0,0
41576,-62.5,4,2,0,100,0,0
41657,-55.5555555555556,4,2,0,100,0,0
41711,324.324324324324,4,2,0,100,1,0
41711,-50,4,2,0,100,0,1
44305,-40,4,2,0,100,0,1
44629,-55.5555555555556,4,2,0,100,0,1
44954,-40,4,2,0,100,0,1
45278,-55.5555555555556,4,2,0,100,0,1
45602,-50,4,2,0,100,0,1
46575,-45.4545454545455,4,2,0,100,0,1
46900,-50,4,2,0,100,0,1
49494,-40,4,2,0,100,0,1
49819,-55.5555555555556,4,2,0,100,0,1
50143,-40,4,2,0,100,0,1
50467,-55.5555555555556,4,2,0,100,0,1
50792,-45.4545454545455,4,2,0,100,0,1
51765,-40,4,2,0,100,0,1
52089,-50,4,2,0,100,0,1
54683,-45.4545454545455,4,2,0,100,0,1
55008,-41.6666666666667,4,2,0,100,0,1
55332,-38.4615384615385,4,2,0,100,0,1
55656,-35.7142857142857,4,2,0,100,0,1
55981,-40,4,2,0,100,0,1
57278,-45.4545454545455,4,2,0,100,0,1
58575,-47.6190476190476,4,2,0,100,0,1
59873,-40,4,2,0,100,0,0
60035,-66.6666666666667,4,2,0,100,0,0
60197,-38.4615384615385,4,2,0,100,0,0
60359,-71.4285714285714,4,2,0,100,0,0
60521,-37.037037037037,4,2,0,100,0,0
60683,-76.9230769230769,4,2,0,100,0,0
60846,-35.7142857142857,4,2,0,100,0,0
61008,-83.3333333333333,4,2,0,100,0,0
61170,-33.3333333333333,4,2,0,100,0,0
61251,-100,4,2,0,100,0,0
62467,-133.333333333333,4,2,0,100,0,0
71873,-100,4,2,0,100,0,0
72197,-79.9999999999999,4,2,0,100,0,0
72521,-66.6666666666667,4,2,0,100,0,0
72846,-79.9999999999999,4,2,0,100,0,0
83224,-66.6666666666667,4,2,0,100,0,0
92954,-62.5,4,2,0,100,0,0
93602,-57.1428571428571,4,2,0,100,0,0
101386,-66.6666666666667,4,2,0,100,0,0
102521,-79.9999999999999,4,2,0,100,0,0
103332,-100,4,2,0,100,0,0
103494,-133.333333333333,4,2,0,100,0,0
103656,-200,4,2,0,100,0,0
103819,-133.333333333333,4,2,0,100,0,0
103981,-100,4,2,0,100,0,0
106575,-79.9999999999999,4,2,0,100,0,0
112089,-66.6666666666667,4,2,0,100,0,0
113224,-100,4,2,0,100,0,0
114359,-79.9999999999999,4,2,0,100,0,0
116954,-66.6666666666667,4,2,0,100,0,0
119548,-100,4,2,0,100,0,0
119710,-133.333333333333,4,2,0,100,0,0
119873,-76.9230769230769,4,2,0,100,0,0
123440,-71.4285714285714,4,2,0,100,0,0
123765,-66.6666666666667,4,2,0,100,0,0
124089,-62.5,4,2,0,100,0,0
124413,-58.8235294117647,4,2,0,100,0,0
124738,-57.1428571428571,4,2,0,100,0,1
134467,-50,4,2,0,100,0,1
134792,-55.5555555555556,4,2,0,100,0,1
135116,-57.1428571428571,4,2,0,100,0,1
139008,-66.6666666666667,4,2,0,100,0,1
140305,-50,4,2,0,100,0,1
142900,-52.6315789473684,4,2,0,100,0,1
143224,-55.5555555555556,4,2,0,100,0,1
143548,-58.8235294117647,4,2,0,100,0,1
143873,-62.5,4,2,0,100,0,1
144197,-61.7283950617284,4,2,0,100,0,1
144278,-60.9756097560976,4,2,0,100,0,1
144359,-60.2409638554217,4,2,0,100,0,1
144440,-59.5238095238095,4,2,0,100,0,1
144521,-58.1395348837209,4,2,0,100,0,1
144602,-57.4712643678161,4,2,0,100,0,1
144683,-56.8181818181818,4,2,0,100,0,1
144765,-56.1797752808989,4,2,0,100,0,1
144846,-54.9450549450549,4,2,0,100,0,1
144927,-54.3478260869565,4,2,0,100,0,1
145008,-53.763440860215,4,2,0,100,0,1
145089,-53.1914893617021,4,2,0,100,0,1
145170,-52.0833333333333,4,2,0,100,0,1
145251,-51.5463917525773,4,2,0,100,0,1
145332,-51.0204081632653,4,2,0,100,0,1
145413,-50.5050505050505,4,2,0,100,0,1
145494,-50,4,2,0,100,0,0
154738,-47.6190476190476,4,2,0,100,0,0
154900,-45.4545454545455,4,2,0,100,0,0
155062,-50,4,2,0,100,0,0
155224,-55.5555555555556,4,2,0,100,0,0
155386,-62.5,4,2,0,100,0,0
155548,-71.4285714285714,4,2,0,100,0,0
155710,-83.3333333333333,4,2,0,100,0,0
155873,-66.6666666666667,4,2,0,100,0,1
163656,-71.4285714285714,4,2,0,100,0,1
164305,-79.9999999999999,4,2,0,100,0,0
164954,-83.3333333333333,4,2,0,100,0,0
165062,-86.9565217391304,4,2,0,100,0,0
165170,-90.9090909090909,4,2,0,100,0,0
165278,-95.2380952380952,4,2,0,100,0,0
165386,-100,4,2,0,100,0,0
165494,-105.263157894737,4,2,0,100,0,0
165602,-111.111111111111,4,2,0,100,0,0
165710,-117.647058823529,4,2,0,100,0,0
165819,-125,4,2,0,100,0,0
165927,-133.333333333333,4,2,0,100,0,0
166035,-142.857142857143,4,2,0,100,0,0
166143,-153.846153846154,4,2,0,100,0,0
166251,-200,4,2,0,100,0,0
175981,-153.846153846153,4,2,0,100,0,0
176305,-125,4,2,0,100,0,0
176629,-100,4,2,0,100,0,0
179062,-80,4,2,0,100,0,0
179224,-100,4,2,0,100,0,0
181656,-80,4,2,0,100,0,0
181819,-100,4,2,0,100,0,0
184251,-80,4,2,0,100,0,0
184413,-133.333333333333,4,2,0,100,0,0
184900,-166.666666666667,4,2,0,100,0,0
185386,-200,4,2,0,100,0,0
185710,-181.818181818181,4,2,0,100,0,0
186035,-153.846153846153,4,2,0,100,0,0
186359,-133.333333333333,4,2,0,100,0,0
186683,-100,4,2,0,100,0,0
187008,-80,4,2,0,100,0,1
192197,-66.6666666666667,4,2,0,100,0,1
193008,-76.9230769230769,4,2,0,100,0,1
196089,-66.6666666666667,4,2,0,100,0,1
197873,-83.3333333333333,4,2,0,100,0,1
199981,-133.333333333333,4,2,0,100,0,1
200305,-66.6666666666667,4,2,0,100,0,1
201278,-71.4285714285714,4,2,0,100,0,1
201602,-76.9230769230769,4,2,0,100,0,1
201927,-83.3333333333333,4,2,0,100,0,1
202251,-399.999999999997,4,2,0,100,0,1
202575,-100,4,2,0,100,0,0
204846,-90.9090909090909,4,2,0,100,0,0
205170,-80,4,2,0,100,0,0
206467,-66.6666666666667,4,2,0,100,0,0
207440,-62.5,4,2,0,100,0,0
207765,-80,4,2,0,100,0,1
217494,-74.0740740740741,4,2,0,100,0,0
217819,-68.9655172413793,4,2,0,100,0,0
218143,-66.6666666666667,4,2,0,100,0,1
227224,-79.9999999999999,4,2,0,100,0,0
227710,-100,4,2,0,100,0,0
228197,-133.333333333333,4,2,0,100,0,0
228521,-66.6666666666667,4,2,0,100,0,0
238251,-62.5,4,2,0,100,0,0
238900,-57.1428571428571,4,2,0,100,0,0
244089,-55.5555555555556,4,2,0,100,0,0
245386,-54.054054054054,4,2,0,100,0,0
246683,-52.6315789473684,4,2,0,100,0,0
247981,-51.2820512820513,4,2,0,100,0,0
249278,-50,4,2,0,100,0,0
251873,-66.6666666666667,4,2,0,100,0,0
252197,-57.1428571428571,4,2,0,100,0,0
252359,-66.6666666666667,4,2,0,100,0,0
252683,-80,4,2,0,100,0,0
252846,-100,4,2,0,100,0,0
253170,-133.333333333333,4,2,0,100,0,0
254467,-66.6666666666667,4,2,0,100,0,0
254629,-50,4,2,0,100,0,0
254792,-100,4,2,0,100,0,0
255602,-66.6666666666667,4,2,0,100,0,0
255765,-79.9999999999999,4,2,0,100,0,0
255927,-100,4,2,0,100,0,0
256738,-133.333333333333,4,2,0,100,0,0
256900,-66.6666666666667,4,2,0,100,0,0
257062,-100,4,2,0,100,0,0
258035,-133.333333333333,4,2,0,100,0,0
258197,-66.6666666666667,4,2,0,100,0,0
258521,-100,4,2,0,100,0,0
258683,-133.333333333333,4,2,0,100,0,0
258846,-66.6666666666667,4,2,0,100,0,0
259656,-100,4,2,0,100,0,0
261602,-66.6666666666667,4,2,0,100,0,0
261765,-57.1428571428571,4,2,0,100,0,0
261927,-54.054054054054,4,2,0,100,0,0
262089,-51.2820512820513,4,2,0,100,0,0
262413,-54.054054054054,4,2,0,100,0,0
262575,-48.780487804878,4,2,0,100,0,0
262738,-51.2820512820513,4,2,0,100,0,0
262900,-46.5116279069767,4,2,0,100,0,0
263062,-48.780487804878,4,2,0,100,0,0
263224,-44.4444444444445,4,2,0,100,0,0
263386,-46.5116279069767,4,2,0,100,0,0
263548,-66.6666666666667,4,2,0,100,0,0
265170,-57.1428571428571,4,2,0,100,0,1
270035,-66.6666666666667,4,2,0,100,0,0
270359,-50,4,2,0,100,0,1
273927,-47.6190476190476,4,2,0,100,0,0
274170,-46.5116279069767,4,2,0,100,0,0
274413,-45.4545454545455,4,2,0,100,0,0
274656,-44.9438202247191,4,2,0,100,0,0
274900,-44.4444444444445,4,2,0,100,0,0
275143,-43.4782608695652,4,2,0,100,0,0
276521,648.648648648649,4,2,0,100,1,0
276521,-57.1428571428571,4,2,0,100,0,0
285602,-50,4,2,0,100,0,0
286899,-40,4,2,0,100,0,0
291602,-38.4615384615385,4,2,0,100,0,0
291764,-37.037037037037,4,2,0,100,0,0
291926,-35.7142857142857,4,2,0,100,0,0
292088,-133.333333333333,4,2,0,100,0,0
293385,-100,4,2,0,100,0,0
294683,-66.6666666666667,4,2,0,100,0,0
295331,-44.4444444444444,4,2,0,100,0,0
295980,-33.3333333333333,4,2,0,100,0,0
297277,-28.5714285714286,4,2,0,100,0,0
298575,324.324324324324,4,2,0,100,1,0
298575,-50,4,2,0,100,0,1
316737,-55.5555555555556,4,2,0,100,0,0
317061,-45.4545454545455,4,2,0,100,0,0
317385,-66.6666666666667,4,2,0,100,0,0
317710,-40,4,2,0,100,0,0
318034,-100,4,2,0,100,0,0
319331,-66.6666666666667,4,2,0,100,0,0
327115,-62.5,4,2,0,100,0,0
327439,-58.8235294117647,4,2,0,100,0,0
327764,-55.5555555555556,4,2,0,100,0,0
328088,-52.6315789473684,4,2,0,100,0,0
328412,-50,4,2,0,100,0,0
329710,-44.4444444444445,4,2,0,100,0,1
334899,-40,4,2,0,100,0,1
337493,-50,4,2,0,100,0,0
338142,-100,4,2,0,100,0,0
338791,-1000,4,2,0,100,0,0
341385,-40,4,2,0,100,0,0
346088,-33.3333333333333,4,2,0,100,0,0
346574,-40,4,2,0,100,0,0
350466,-36.3636363636364,4,2,0,100,0,0
351764,-33.3333333333333,4,2,0,100,0,1
354358,-40,4,2,0,100,0,1
355656,-44.4444444444444,4,2,0,100,0,1
356953,-33.3333333333333,4,2,0,100,0,1
358250,-36.3636363636364,4,2,0,100,0,1
359547,-33.3333333333333,4,2,0,100,0,1
359872,-32.258064516129,4,2,0,100,0,1
360196,-31.25,4,2,0,100,0,1
360520,-30.3030303030303,4,2,0,100,0,1
360845,-29.4117647058824,4,2,0,100,0,1
362142,-25,4,2,0,100,0,1
369926,-25.6410256410256,4,2,0,100,0,0
370412,-26.3157894736842,4,2,0,100,0,0
370899,-27.027027027027,4,2,0,100,0,0
371223,-25,4,2,0,100,0,0
372520,-25.6410256410256,4,2,0,100,0,0
372953,-28.5714285714286,4,2,0,100,0,0
373385,-36.3636363636364,4,2,0,100,0,0
373818,-46.5116279069767,4,2,0,100,0,0
374250,-133.333333333333,4,2,0,100,0,0
374683,-400,4,2,0,100,0,0
375115,-1000,4,2,0,100,0,0
376412,-100,4,2,0,100,0,0

[Colours]
Combo1 : 128,128,128
Combo2 : 128,128,255
Combo3 : 255,128,192
Combo4 : 255,128,255
Combo5 : 128,0,255
Combo6 : 255,0,128
Combo7 : 255,0,255
Combo8 : 192,192,192

[HitObjects]
56,192,6641,102,2,L|104:192,2,35
128,192,7266,2,0,L|176:192,2,35
200,192,7891,2,0,L|248:192,1,35
272,256,8307,6,0,L|224:256,2,35
200,256,8932,2,0,L|152:256,2,35
128,256,9557,2,0,L|80:256,1,35
40,304,9922,101,0,0:0:0:0:
40,304,9974,2,0,L|76:334,1,35
136,336,10390,2,0,L|177:360,1,35
232,336,10807,2,0,L|277:352,1,35
336,336,11224,2,0,L|383:344,1,35
432,312,11640,2,0,L|480:312,3,35
400,312,12474,5,0,0:0:0:0:
328,312,12682,1,0,0:0:0:0:
256,312,12890,1,0,0:0:0:0:
120,288,13307,102,0,P|104:272|88:240,2,35
152,224,13932,2,0,P|152:201|163:167,2,35
216,208,14557,2,0,P|231:192|263:176,1,35
312,192,14974,6,0,P|328:208|344:240,2,35
280,256,15599,2,0,P|280:278|268:312,2,35
216,272,16224,2,0,P|200:288|168:304,1,35
120,312,16640,102,0,P|96:312|64:296,1,35
112,240,17057,2,0,P|95:223|83:189,1,35
152,184,17474,2,0,P|152:160|168:128,1,35
224,176,17890,2,0,P|240:159|274:147,1,35
308,120,18307,70,0,L|356:114,15,35
408,113,19604,2,0,P|437:133|447:155,7,43.75
468,186,20252,1,0,0:0:0:0:
477,232,20333,1,0,0:0:0:0:
466,279,20414,1,0,0:0:0:0:
437,317,20495,1,0,0:0:0:0:
396,341,20576,1,0,0:0:0:0:
348,345,20657,1,0,0:0:0:0:
303,330,20738,1,0,0:0:0:0:
267,298,20819,1,0,0:0:0:0:
239,260,20901,70,0,P|219:180|225:151,1,70
222,54,21063,2,0,P|242:134|236:163,1,70
242,120,21225,1,0,0:0:0:0:
242,120,21306,1,0,0:0:0:0:
358,197,21387,6,0,P|278:217|249:211,1,70
152,214,21549,2,0,P|232:194|261:200,1,70
218,194,21711,1,0,0:0:0:0:
218,194,21792,1,0,0:0:0:0:
333,277,21873,6,0,P|253:297|224:291,1,70
127,294,22035,2,0,P|207:274|236:280,1,70
242,120,22198,86,0,P|313:143|350:184,1,70
180,83,22360,2,0,P|246:49|301:51,1,70
240,50,22522,1,0,0:0:0:0:
240,50,22603,1,0,0:0:0:0:
355,129,22684,6,0,P|388:195|386:250,1,70
338,59,22846,2,0,P|409:82|446:123,1,70
404,78,23008,1,0,0:0:0:0:
404,78,23089,1,0,0:0:0:0:
437,215,23171,6,0,P|413:285|373:322,1,70
474,154,23333,2,0,P|507:220|505:275,1,70
459,346,23495,86,0,L|346:309,1,70
259,280,23657,2,0,L|180:249,1,70
193,255,23819,1,0,0:0:0:0:
193,255,23900,1,0,0:0:0:0:
59,214,23982,6,0,L|172:251,1,70
259,280,24144,2,0,L|338:311,1,70
325,305,24306,1,0,0:0:0:0:
325,305,24387,1,0,0:0:0:0:
409,193,24468,6,0,L|330:162,1,70
213,116,24630,2,0,L|292:147,1,70
401,75,24792,86,0,P|445:111|491:123,1,70
458,257,24955,2,0,P|463:313|487:354,1,70
325,305,25117,2,0,P|289:349|276:395,1,70
144,361,25279,2,0,P|87:366|46:390,1,70
90,232,25441,2,0,P|46:196|0:183,1,70
71,20,25603,38,0,L|0:125,1,87.5
195,68,25765,2,0,L|169:181,1,87.5
341,93,25928,2,0,L|345:249,1,87.5
359,319,26090,70,0,P|396:314|430:245,1,70
281,314,26252,2,0,P|244:309|210:240,1,70
219,288,26414,1,0,0:0:0:0:
219,288,26495,1,0,0:0:0:0:
314,186,26576,6,0,P|351:191|385:260,1,70
236,191,26738,2,0,P|199:196|165:265,1,70
176,216,26900,1,0,0:0:0:0:
176,217,26981,1,0,0:0:0:0:
266,107,27063,6,0,P|303:102|337:33,1,70
188,102,27225,2,0,P|151:97|117:28,1,70
48,192,27387,86,0,L|54:288,1,70
166,342,27549,2,0,L|255:339,1,70
235,339,27711,1,0,0:0:0:0:
235,339,27792,1,0,0:0:0:0:
96,346,27873,6,0,L|192:340,1,70
246,228,28035,2,0,L|243:139,1,70
243,158,28197,1,0,0:0:0:0:
243,158,28278,1,0,0:0:0:0:
250,297,28360,6,0,L|244:201,1,70
132,147,28522,2,0,L|43:150,1,70
180,75,28684,86,0,P|259:52|296:52,1,70
385,44,28846,2,0,P|406:84|422:157,1,70
413,107,29009,1,0,0:0:0:0:
413,107,29090,1,0,0:0:0:0:
275,88,29171,6,0,P|298:167|298:204,1,70
306,293,29333,2,0,P|266:314|193:330,1,70
243,322,29496,1,0,0:0:0:0:
243,322,29577,1,0,0:0:0:0:
270,186,29657,6,0,P|191:209|154:209,1,70
65,217,29819,2,0,P|44:177|28:104,1,70
110,33,29982,38,0,P|126:96|129:134,1,70
247,25,30144,2,0,P|258:93|258:124,1,70
374,13,30306,2,0,P|385:83|385:114,1,70
461,199,30468,2,0,P|380:221|351:222,1,70
466,339,30630,2,0,P|389:349|347:342,1,70
330,349,30792,1,0,0:0:0:0:
262,337,30873,1,0,0:0:0:0:
214,287,30954,1,0,0:0:0:0:
205,219,31035,1,0,0:0:0:0:
237,158,31116,1,0,0:0:0:0:
300,129,31197,1,0,0:0:0:0:
361,142,31279,70,0,P|394:166|408:197,1,70
416,255,31441,2,0,P|413:294|385:322,1,70
393,316,31603,1,0,0:0:0:0:
393,316,31684,1,0,0:0:0:0:
270,247,31765,86,0,P|245:280|215:294,1,70
157,302,31928,2,0,P|118:299|90:271,1,70
95,280,32090,1,0,0:0:0:0:
95,280,32171,1,0,0:0:0:0:
160,156,32252,6,0,P|119:162|87:150,1,70
41,115,32414,2,0,P|15:85|15:45,1,70
152,69,32576,6,0,P|216:40|267:43,1,70
354,45,32738,2,0,P|293:79|274:110,1,70
293,78,32900,1,0,0:0:0:0:
293,78,32982,1,0,0:0:0:0:
220,197,33063,86,0,P|284:168|335:171,1,70
422,173,33225,2,0,P|361:207|342:238,1,70
362,206,33387,1,0,0:0:0:0:
362,206,33469,1,0,0:0:0:0:
290,324,33549,6,0,P|354:295|405:298,1,70
492,300,33711,2,0,P|431:334|412:365,1,70
292,324,33873,6,0,L|204:283,1,70
97,348,34036,2,0,L|69:253,1,70
77,280,34198,1,0,0:0:0:0:
77,280,34279,1,0,0:0:0:0:
213,251,34360,86,0,L|254:163,1,70
189,56,34523,2,0,L|284:28,1,70
256,36,34685,1,0,0:0:0:0:
256,36,34766,1,0,0:0:0:0:
282,168,34846,38,0,L|370:209,1,70
477,144,35009,2,0,L|505:239,1,70
437,337,35171,2,0,L|346:357,1,70
228,354,35333,2,0,L|143:332,1,70
28,288,35495,2,0,L|64:209,1,70
118,98,35657,2,0,L|201:71,1,70
249,53,35819,5,0,0:0:0:0:
317,44,35900,1,0,0:0:0:0:
380,73,35981,1,0,0:0:0:0:
418,131,36062,1,0,0:0:0:0:
420,200,36143,1,0,0:0:0:0:
385,259,36224,1,0,0:0:0:0:
324,292,36305,1,0,0:0:0:0:
255,287,36386,1,0,0:0:0:0:
196,253,36468,53,0,0:0:0:0:
185,229,36549,1,0,0:0:0:0:
182,203,36630,1,0,0:0:0:0:
186,177,36711,1,0,0:0:0:0:
196,157,36792,37,0,0:0:0:0:
201,91,36873,1,0,0:0:0:0:
141,65,36954,1,0,0:0:0:0:
97,113,37035,1,0,0:0:0:0:
94,177,37117,85,0,0:0:0:0:
100,202,37198,1,0,0:0:0:0:
101,228,37279,1,0,0:0:0:0:
99,254,37360,1,0,0:0:0:0:
94,279,37441,37,0,0:0:0:0:
106,344,37522,1,0,0:0:0:0:
170,361,37603,1,0,0:0:0:0:
214,311,37684,1,0,0:0:0:0:
210,237,37765,6,0,L|156:169,1,73.4999977569581
238,172,37928,2,0,L|226:99,1,73.4999977569581
294,121,38090,2,0,L|308:41,1,73.4999977569581
361,93,38252,2,0,L|406:29,1,73.4999977569581
437,92,38414,2,0,L|509:68,1,73.4999977569581
390,158,38576,2,0,L|468:166,1,73.4999977569581
317,186,38738,2,0,L|383:253,1,73.4999977569581
238,172,38900,2,0,L|257:269,1,73.4999977569581
280,346,39063,5,0,0:0:0:0:
228,354,39144,1,0,0:0:0:0:
176,346,39225,1,0,0:0:0:0:
130,321,39306,1,0,0:0:0:0:
95,283,39387,1,0,0:0:0:0:
73,235,39468,1,0,0:0:0:0:
82,189,39549,5,0,0:0:0:0:
107,165,39630,1,0,0:0:0:0:
139,151,39711,1,0,0:0:0:0:
174,147,39792,1,0,0:0:0:0:
208,154,39873,1,0,0:0:0:0:
238,172,39954,1,0,0:0:0:0:
254,202,40036,5,0,0:0:0:0:
257,219,40117,1,0,0:0:0:0:
265,234,40198,1,0,0:0:0:0:
276,247,40279,1,0,0:0:0:0:
314,273,40360,5,0,0:0:0:0:
352,297,40441,1,0,0:0:0:0:
397,303,40522,1,0,0:0:0:0:
440,290,40603,1,0,0:0:0:0:
487,254,40684,5,0,0:0:0:0:
508,198,40765,1,0,0:0:0:0:
495,93,40846,1,0,0:0:0:0:
468,38,40928,1,0,0:0:0:0:
402,12,41009,37,0,0:0:0:0:
332,19,41090,1,0,0:0:0:0:
264,55,41171,2,0,L|275:62,1,9.6250002937317
227,105,41252,2,0,L|236:114,1,10.4999996795654
208,175,41333,2,0,L|224:175,1,11.3749994792938
220,248,41414,2,0,L|236:249,1,12.2499996261597
269,318,41495,2,0,L|283:301,1,13.125000500679
355,340,41576,2,0,L|363:318,1,14
454,318,41657,2,0,L|457:293,1,15.7499995193482
456,242,41711,86,0,P|329:168|94:126,1,350
239,36,42197,2,0,P|163:173|103:365,1,350
24,241,42683,2,0,P|116:282|267:306,1,210
364,307,43008,6,0,P|429:248|245:145,1,350
359,229,43494,2,0,P|327:144|102:210,1,350
244,225,43981,2,0,P|286:112|228:20,1,210
78,76,44305,6,0,P|36:189|86:277,1,175
282,334,44629,1,0,0:0:0:0:
282,334,44711,1,0,0:0:0:0:
282,334,44792,1,0,0:0:0:0:
499,59,44954,2,0,P|410:31|282:64,1,175
103,149,45278,1,0,0:0:0:0:
103,149,45359,1,0,0:0:0:0:
103,149,45440,1,0,0:0:0:0:
347,285,45602,86,0,P|398:222|401:157,1,140
158,29,45927,2,0,P|107:92|104:157,1,140
381,138,46251,2,0,P|432:75|435:9,1,140
158,29,46575,1,0,0:0:0:0:
123,97,46656,1,0,0:0:0:0:
88,166,46737,1,0,0:0:0:0:
53,235,46818,1,0,0:0:0:0:
1,343,46900,6,0,L|394:343,1,350
211,349,47386,2,0,L|211:-44,1,350
209,140,47873,2,0,L|-50:138,1,210
75,21,48197,6,0,L|365:289,1,350
466,296,48683,2,0,L|176:28,1,350
79,115,49170,2,0,L|235:257,1,210
364,372,49494,86,0,L|423:142,1,175
197,344,49819,1,0,0:0:0:0:
197,344,49900,1,0,0:0:0:0:
197,344,49981,1,0,0:0:0:0:
374,42,50143,6,0,L|144:-16,1,175
345,209,50468,1,0,0:0:0:0:
345,209,50549,1,0,0:0:0:0:
345,209,50630,1,0,0:0:0:0:
95,28,50792,5,0,0:0:0:0:
65,98,50873,1,0,0:0:0:0:
61,175,50954,1,0,0:0:0:0:
83,248,51035,1,0,0:0:0:0:
128,310,51116,1,0,0:0:0:0:
192,352,51197,1,0,0:0:0:0:
267,370,51278,1,0,0:0:0:0:
343,362,51359,1,0,0:0:0:0:
412,329,51440,1,0,0:0:0:0:
465,275,51521,1,0,0:0:0:0:
497,205,51602,1,0,0:0:0:0:
504,129,51683,1,0,0:0:0:0:
482,58,51765,85,0,0:0:0:0:
396,42,51846,1,0,0:0:0:0:
308,46,51927,1,0,0:0:0:0:
224,70,52008,1,0,0:0:0:0:
151,110,52089,5,0,0:0:0:0:
117,170,52170,1,0,0:0:0:0:
121,239,52251,1,0,0:0:0:0:
160,296,52332,1,0,0:0:0:0:
224,322,52413,1,0,0:0:0:0:
296,316,52494,1,0,0:0:0:0:
360,288,52575,5,0,0:0:0:0:
321,229,52656,1,0,0:0:0:0:
272,179,52737,1,0,0:0:0:0:
215,139,52818,1,0,0:0:0:0:
151,110,52899,1,0,0:0:0:0:
84,92,52980,1,0,0:0:0:0:
133,44,53062,85,0,0:0:0:0:
201,31,53143,1,0,0:0:0:0:
271,34,53224,1,0,0:0:0:0:
338,53,53305,1,0,0:0:0:0:
385,107,53386,5,0,0:0:0:0:
363,173,53467,1,0,0:0:0:0:
321,229,53548,1,0,0:0:0:0:
264,268,53629,1,0,0:0:0:0:
197,287,53710,1,0,0:0:0:0:
127,283,53791,1,0,0:0:0:0:
60,264,53873,5,0,0:0:0:0:
94,204,53954,1,0,0:0:0:0:
147,159,54035,1,0,0:0:0:0:
215,139,54116,1,0,0:0:0:0:
289,148,54197,1,0,0:0:0:0:
363,173,54278,1,0,0:0:0:0:
427,217,54359,85,0,0:0:0:0:
446,149,54440,1,0,0:0:0:0:
465,82,54521,1,0,0:0:0:0:
484,14,54602,1,0,0:0:0:0:
330,25,54683,6,0,L|342:112,3,77.0000023498536
315,269,55008,2,0,L|295:165,3,83.9999974365235
210,27,55332,2,0,L|228:135,3,90.9999958343508
181,307,55656,2,0,L|160:189,3,97.9999970092774
59,67,55981,53,0,0:0:0:0:
59,67,56062,1,0,0:0:0:0:
59,67,56143,2,0,L|156:74,1,87.5
312,110,56305,5,0,0:0:0:0:
312,110,56386,1,0,0:0:0:0:
312,110,56467,2,0,L|215:117,1,87.5
76,204,56629,5,0,0:0:0:0:
76,204,56710,1,0,0:0:0:0:
76,204,56791,2,0,L|173:211,1,87.5
228,216,56954,5,0,0:0:0:0:
314,212,57035,1,0,0:0:0:0:
390,171,57116,1,0,0:0:0:0:
440,100,57197,1,0,0:0:0:0:
439,18,57278,5,0,0:0:0:0:
362,24,57359,1,0,0:0:0:0:
286,38,57440,1,0,0:0:0:0:
213,61,57521,1,0,0:0:0:0:
142,92,57602,1,0,0:0:0:0:
76,130,57683,1,0,0:0:0:0:
136,16,57765,5,0,0:0:0:0:
142,92,57846,1,0,0:0:0:0:
156,168,57927,1,0,0:0:0:0:
179,241,58008,1,0,0:0:0:0:
210,312,58089,1,0,0:0:0:0:
248,378,58170,1,0,0:0:0:0:
134,318,58251,85,0,0:0:0:0:
210,312,58332,1,0,0:0:0:0:
286,298,58413,1,0,0:0:0:0:
359,275,58494,1,0,0:0:0:0:
426,242,58575,5,0,0:0:0:0:
459,178,58656,1,0,0:0:0:0:
442,107,58737,1,0,0:0:0:0:
385,65,58818,1,0,0:0:0:0:
313,70,58899,1,0,0:0:0:0:
261,120,58980,1,0,0:0:0:0:
335,138,59062,5,0,0:0:0:0:
313,70,59143,1,0,0:0:0:0:
252,32,59224,1,0,0:0:0:0:
181,42,59305,1,0,0:0:0:0:
133,97,59386,1,0,0:0:0:0:
133,169,59467,1,0,0:0:0:0:
197,129,59548,85,0,0:0:0:0:
133,97,59629,1,0,0:0:0:0:
63,112,59710,1,0,0:0:0:0:
19,169,59791,1,0,0:0:0:0:
51,343,59873,101,0,0:0:0:0:
260,344,60035,1,0,0:0:0:0:
462,42,60197,85,0,0:0:0:0:
269,4,60359,1,0,0:0:0:0:
465,326,60521,5,0,0:0:0:0:
453,144,60683,1,0,0:0:0:0:
84,282,60846,69,0,0:0:0:0:
34,121,61008,1,0,0:0:0:0:
437,236,61170,5,0,0:0:0:0:
437,236,61251,2,0,B|205:338|205:338|274:227|219:110,1,490
190,68,62467,5,0,0:0:0:0:
113,139,62629,1,0,0:0:0:0:
102,244,62792,1,0,0:0:0:0:
159,331,62954,2,0,L|200:341,1,26.2500010013581
236,347,63116,1,0,0:0:0:0:
333,308,63278,5,0,0:0:0:0:
258,233,63440,1,0,0:0:0:0:
359,206,63602,2,0,L|328:172,1,26.2500010013581
304,148,63765,2,0,P|275:118|256:102,1,52.5000020027161
190,183,64089,2,0,P|148:182|123:184,1,52.5000020027161
85,189,64332,1,0,0:0:0:0:
33,199,64413,6,0,L|-9:205,2,26.2500010013581
87,289,64738,2,0,P|127:299|158:299,1,52.5000020027161
190,300,64981,1,0,0:0:0:0:
242,297,65062,85,0,0:0:0:0:
332,243,65224,1,0,0:0:0:0:
320,138,65386,1,0,0:0:0:0:
399,69,65548,2,0,L|414:113,1,26.2500010013581
431,140,65710,1,0,0:0:0:0:
340,85,65873,5,0,0:0:0:0:
241,120,66035,1,0,0:0:0:0:
145,76,66197,2,0,L|117:98,1,26.2500010013581
89,131,66359,6,0,P|74:165|68:195,1,52.5000020027161
64,284,66683,2,0,P|86:283|106:275,1,26.2500010013581
137,259,66846,2,0,P|160:244|167:229,1,26.2500010013581
196,209,67008,2,0,P|207:192|214:172,1,26.2500010013581
230,138,67170,85,0,0:0:0:0:
292,53,67332,1,0,0:0:0:0:
395,70,67494,2,0,L|413:93,1,26.2500010013581
441,133,67656,5,0,0:0:0:0:
458,237,67819,1,0,0:0:0:0:
420,334,67981,1,0,0:0:0:0:
318,360,68143,2,0,L|278:348,1,26.2500010013581
245,330,68305,1,0,0:0:0:0:
330,269,68467,5,0,0:0:0:0:
234,225,68629,1,0,0:0:0:0:
319,163,68792,2,0,L|317:122,1,26.2500010013581
314,84,68954,2,0,P|306:40|295:15,1,52.5000020027161
247,121,69278,2,0,P|210:95|184:85,1,52.5000020027161
154,72,69521,1,0,0:0:0:0:
103,59,69602,86,0,L|76:97,2,26.2500010013581
42,145,69927,2,0,P|34:193|35:216,1,52.5000020027161
41,248,70170,1,0,0:0:0:0:
51,299,70251,5,0,0:0:0:0:
144,346,70413,1,0,0:0:0:0:
236,297,70575,1,0,0:0:0:0:
324,240,70738,2,0,L|356:215,1,26.2500010013581
386,191,70900,1,0,0:0:0:0:
457,114,71062,5,0,0:0:0:0:
371,53,71224,1,0,0:0:0:0:
282,109,71386,2,0,L|248:85,1,26.2500010013581
215,66,71548,2,0,P|163:54|92:70,1,105.000004005432
74,120,71954,5,0,0:0:0:0:
69,195,72035,1,0,0:0:0:0:
89,261,72116,1,0,0:0:0:0:
147,325,72197,5,0,0:0:0:0:
216,164,72359,2,0,L|238:217,1,43.75
287,293,72521,5,0,0:0:0:0:
249,86,72683,1,0,0:0:0:0:
390,190,72846,38,0,P|386:128|359:84,1,87.5
393,279,73170,2,0,P|346:237|296:225,1,87.5
236,216,73413,1,0,0:0:0:0:
149,224,73494,2,0,P|109:242|79:273,1,87.5
240,324,73819,2,0,P|304:273|325:205,1,131.25
340,143,74143,6,0,P|333:89|283:36,1,87.5
236,216,74467,2,0,P|192:182|120:180,1,87.5
74,169,74710,1,0,0:0:0:0:
93,255,74792,2,0,P|116:300|164:343,1,87.5
315,333,75116,2,0,P|347:299|365:240,1,87.5
379,175,75359,1,0,0:0:0:0:
370,87,75440,6,0,P|311:66|259:67,1,87.5
248,236,75765,2,0,P|173:215|129:220,1,87.5
76,217,76008,1,0,0:0:0:0:
123,290,76089,2,0,P|191:317|235:312,1,87.5
376,286,76413,2,0,P|416:236|432:164,1,131.25
431,83,76738,86,0,P|359:62|323:57,1,87.5
172,54,77062,2,0,P|165:115|173:178,1,87.5
175,181,77305,1,0,0:0:0:0:
199,216,77386,1,0,0:0:0:0:
236,238,77467,1,0,0:0:0:0:
280,240,77548,1,0,0:0:0:0:
319,222,77629,1,0,0:0:0:0:
349,190,77710,2,0,P|375:137|354:80,1,87.5
195,106,78035,6,0,P|116:121|78:141,1,87.5
236,238,78359,2,0,P|157:253|119:273,1,87.5
70,290,78602,1,0,0:0:0:0:
146,331,78683,2,0,P|211:347|270:341,1,87.5
316,192,79008,2,0,P|331:110|322:73,1,87.5
301,24,79251,1,0,0:0:0:0:
240,86,79332,6,0,P|230:145|245:201,1,87.5
293,336,79656,2,0,P|366:343|410:323,1,87.5
438,274,79900,1,0,0:0:0:0:
462,190,79981,2,0,P|474:153|472:120,2,43.75
300,256,80305,2,0,P|245:257|183:224,1,87.5
141,198,80548,1,0,0:0:0:0:
83,132,80629,86,0,P|68:79|75:19,1,87.5
218,138,80954,2,0,P|249:90|303:50,1,87.5
350,32,81197,1,0,0:0:0:0:
337,118,81278,2,0,P|406:98|462:104,1,87.5
303,227,81602,2,0,P|367:197|408:198,1,87.5
470,203,81846,1,0,0:0:0:0:
445,286,81927,6,0,P|401:316|332:313,1,87.5
196,285,82251,2,0,P|132:269|101:226,1,87.5
73,181,82494,1,0,0:0:0:0:
79,93,82575,21,0,0:0:0:0:
106,59,82656,1,0,0:0:0:0:
143,36,82737,5,0,0:0:0:0:
186,28,82818,1,0,0:0:0:0:
229,35,82899,5,0,0:0:0:0:
266,56,82980,1,0,0:0:0:0:
295,89,83061,85,0,0:0:0:0:
310,130,83142,1,0,0:0:0:0:
312,236,83224,69,0,0:0:0:0:
107,283,83386,1,0,0:0:0:0:
152,78,83548,1,0,0:0:0:0:
217,277,83710,1,0,0:0:0:0:
217,277,84035,5,0,0:0:0:0:
65,131,84197,1,0,0:0:0:0:
254,41,84359,1,0,0:0:0:0:
137,215,84521,2,0,P|85:268|41:287,1,105.000004005432
236,175,84846,2,0,P|230:242|203:299,1,105.000004005432
317,92,85170,5,0,0:0:0:0:
385,171,85251,1,0,0:0:0:0:
380,275,85332,1,0,0:0:0:0:
179,335,85494,2,0,P|113:293|84:248,1,105.000004005432
147,67,85819,85,0,0:0:0:0:
227,260,85981,1,0,0:0:0:0:
28,193,86143,1,0,0:0:0:0:
226,125,86305,1,0,0:0:0:0:
226,125,86629,5,0,0:0:0:0:
424,52,86792,1,0,0:0:0:0:
369,254,86954,1,0,0:0:0:0:
290,59,87116,2,0,P|151:55|214:221,1,367.500014019013
255,225,87765,1,0,0:0:0:0:
302,242,87846,1,0,0:0:0:0:
319,290,87927,21,0,0:0:0:0:
293,334,88008,1,0,0:0:0:0:
244,348,88089,6,0,P|185:321|177:296,1,52.5000020027161
162,296,88251,6,0,P|160:235|174:210,1,52.5000020027161
185,143,88413,37,0,0:0:0:0:
378,62,88575,1,0,0:0:0:0:
255,225,88738,1,0,0:0:0:0:
451,150,88900,1,0,0:0:0:0:
451,150,89224,5,0,0:0:0:0:
372,344,89386,1,0,0:0:0:0:
374,134,89548,1,0,0:0:0:0:
293,334,89710,2,0,P|221:298|185:244,1,105.000004005432
21,176,90035,2,0,P|97:150|161:163,1,105.000004005432
327,189,90359,5,0,0:0:0:0:
408,255,90440,1,0,0:0:0:0:
467,341,90521,1,0,0:0:0:0:
275,254,90683,2,0,P|211:175|199:136,1,105.000004005432
379,46,91008,85,0,0:0:0:0:
475,232,91170,1,0,0:0:0:0:
289,134,91332,1,0,0:0:0:0:
498,117,91494,1,0,0:0:0:0:
498,117,91819,5,0,0:0:0:0:
346,262,91981,1,0,0:0:0:0:
156,171,92143,2,0,P|246:142|449:228,1,315.000012016297
264,333,92792,6,0,L|190:335,1,52.5000020027161
157,332,92954,5,0,0:0:0:0:
105,310,93035,1,0,0:0:0:0:
66,271,93116,5,0,0:0:0:0:
45,220,93197,1,0,0:0:0:0:
45,164,93278,5,0,0:0:0:0:
68,113,93359,1,0,0:0:0:0:
108,74,93440,85,0,0:0:0:0:
160,54,93521,1,0,0:0:0:0:
281,42,93602,5,0,0:0:0:0:
500,153,93765,1,0,0:0:0:0:
258,111,93927,5,0,0:0:0:0:
344,339,94089,1,0,0:0:0:0:
381,97,94251,85,0,0:0:0:0:
257,308,94413,1,0,0:0:0:0:
501,311,94575,5,0,0:0:0:0:
280,202,94738,1,0,0:0:0:0:
280,202,94819,1,0,0:0:0:0:
179,132,94900,5,0,0:0:0:0:
407,220,95062,1,0,0:0:0:0:
257,26,95224,85,0,0:0:0:0:
135,238,95386,1,0,0:0:0:0:
135,238,95467,1,0,0:0:0:0:
233,165,95548,6,0,L|209:243,1,61.2500005841255
223,345,95710,2,0,L|246:275,1,61.2500005841255
304,179,95873,6,0,L|280:257,1,61.2500005841255
294,359,96035,2,0,L|317:289,1,61.2500005841255
427,345,96197,85,0,0:0:0:0:
418,100,96359,1,0,0:0:0:0:
360,338,96521,5,0,0:0:0:0:
481,125,96683,1,0,0:0:0:0:
256,24,96846,5,0,0:0:0:0:
280,267,97008,1,0,0:0:0:0:
348,31,97170,85,0,0:0:0:0:
205,230,97332,1,0,0:0:0:0:
205,230,97413,1,0,0:0:0:0:
140,333,97494,5,0,0:0:0:0:
71,98,97656,1,0,0:0:0:0:
45,342,97819,5,0,0:0:0:0:
145,118,97981,1,0,0:0:0:0:
246,340,98143,85,0,0:0:0:0:
363,125,98305,1,0,0:0:0:0:
363,125,98386,1,0,0:0:0:0:
427,20,98467,5,0,0:0:0:0:
438,264,98629,1,0,0:0:0:0:
438,264,98710,1,0,0:0:0:0:
357,358,98792,5,0,0:0:0:0:
138,248,98954,1,0,0:0:0:0:
379,210,99116,85,0,0:0:0:0:
163,326,99278,1,0,0:0:0:0:
202,84,99440,5,0,0:0:0:0:
249,324,99602,1,0,0:0:0:0:
326,90,99765,5,0,0:0:0:0:
103,192,99927,1,0,0:0:0:0:
343,236,100089,85,0,0:0:0:0:
226,20,100251,1,0,0:0:0:0:
220,264,100413,5,0,0:0:0:0:
92,55,100575,1,0,0:0:0:0:
92,55,100656,1,0,0:0:0:0:
36,165,100738,5,0,0:0:0:0:
85,276,100819,1,0,0:0:0:0:
182,349,100900,1,0,0:0:0:0:
182,349,100981,1,0,0:0:0:0:
304,346,101062,85,0,0:0:0:0:
380,113,101224,1,0,0:0:0:0:
380,113,101305,1,0,0:0:0:0:
377,235,101386,5,0,0:0:0:0:
177,169,101548,2,0,L|96:133,1,52.5000020027161
37,97,101710,5,0,0:0:0:0:
101,298,101873,1,0,0:0:0:0:
246,149,102035,70,0,L|307:188,1,52.5000020027161
377,235,102197,1,0,0:0:0:0:
470,46,102359,1,0,0:0:0:0:
295,40,102521,70,0,P|216:44|63:154,1,262.5
41,318,103170,2,0,P|67:332|96:339,2,43.75
143,340,103494,5,0,0:0:0:0:
209,317,103656,1,0,0:0:0:0:
271,232,103819,1,0,0:0:0:0:
306,96,103981,2,0,P|286:62|116:143,1,280
140,269,104792,5,0,0:0:0:0:
263,335,104954,1,0,0:0:0:0:
400,310,105116,1,0,0:0:0:0:
479,195,105278,2,0,P|431:139|213:145,1,280
111,197,106089,5,0,0:0:0:0:
200,304,106251,1,0,0:0:0:0:
289,196,106413,1,0,0:0:0:0:
183,56,106575,1,0,0:0:0:0:
213,229,106738,1,0,0:0:0:0:
318,89,106900,1,0,0:0:0:0:
161,166,107062,1,0,0:0:0:0:
291,282,107224,1,0,0:0:0:0:
228,118,107386,1,0,0:0:0:0:
164,280,107548,1,0,0:0:0:0:
319,359,107710,2,0,P|386:313|280:32,1,437.5
118,15,108683,85,0,0:0:0:0:
252,128,108846,1,0,0:0:0:0:
79,153,109008,1,0,0:0:0:0:
201,278,109170,2,0,P|259:289|452:83,1,350
294,34,109981,5,0,0:0:0:0:
248,202,110143,1,0,0:0:0:0:
125,77,110305,2,0,P|66:161|262:352,1,437.5
415,269,111278,5,0,0:0:0:0:
374,98,111440,1,0,0:0:0:0:
213,28,111602,2,0,P|162:67|144:113,1,87.5
109,257,111927,1,0,0:0:0:0:
302,337,112089,1,0,0:0:0:0:
250,133,112251,1,0,0:0:0:0:
215,339,112413,1,0,0:0:0:0:
416,280,112575,1,0,0:0:0:0:
210,232,112738,1,0,0:0:0:0:
383,349,112900,86,0,P|452:345|457:220,1,210.000008010865
415,177,113305,1,0,0:0:0:0:
359,134,113386,2,0,L|309:104,1,35
259,116,113548,2,0,L|214:114,1,35
164,150,113710,2,0,L|116:171,1,35
87,219,113873,37,0,0:0:0:0:
73,250,113954,1,0,0:0:0:0:
75,285,114035,5,0,0:0:0:0:
93,315,114116,1,0,0:0:0:0:
122,333,114197,5,0,0:0:0:0:
157,335,114278,1,0,0:0:0:0:
238,303,114359,70,0,P|300:276|489:38,1,350
326,153,115170,85,0,0:0:0:0:
479,66,115332,1,0,0:0:0:0:
307,32,115494,1,0,0:0:0:0:
451,130,115656,2,0,P|467:211|251:335,1,350
138,234,116467,5,0,0:0:0:0:
311,252,116629,1,0,0:0:0:0:
152,329,116792,1,0,0:0:0:0:
260,149,116954,1,0,0:0:0:0:
305,353,117116,1,0,0:0:0:0:
185,180,117278,1,0,0:0:0:0:
391,217,117440,1,0,0:0:0:0:
186,265,117602,1,0,0:0:0:0:
291,82,117765,1,0,0:0:0:0:
273,291,117927,1,0,0:0:0:0:
172,106,118089,2,0,P|331:92|373:113,1,210.000008010865
371,112,118494,1,0,0:0:0:0:
371,112,118575,6,0,L|415:153,1,52.5000020027161
303,149,118738,2,0,L|329:211,1,52.5000020027161
229,149,118900,2,0,L|222:214,1,52.5000020027161
156,120,119062,5,0,0:0:0:0:
191,81,119143,1,0,0:0:0:0:
234,52,119224,5,0,0:0:0:0:
284,35,119305,1,0,0:0:0:0:
336,30,119386,5,0,0:0:0:0:
388,38,119467,1,0,0:0:0:0:
451,67,119548,5,0,0:0:0:0:
425,168,119710,1,0,0:0:0:0:
314,312,119873,22,0,P|385:251|427:164,1,181.999991668702
261,253,120359,5,0,0:0:0:0:
376,112,120521,1,0,0:0:0:0:
429,285,120683,2,0,P|356:206|9:108,1,454.999979171754
158,238,121656,5,0,0:0:0:0:
183,56,121819,1,0,0:0:0:0:
49,179,121981,2,0,P|50:253|64:307,1,90.9999958343508
219,343,122305,1,0,0:0:0:0:
370,243,122467,1,0,0:0:0:0:
195,191,122629,1,0,0:0:0:0:
322,321,122792,1,0,0:0:0:0:
291,141,122954,1,0,0:0:0:0:
291,141,123035,1,0,0:0:0:0:
262,227,123116,2,0,L|315:212,1,45.4999979171754
385,170,123278,2,0,L|385:111,1,45.4999979171754
352,32,123440,53,0,0:0:0:0:
303,29,123521,1,0,0:0:0:0:
254,37,123602,1,0,0:0:0:0:
209,54,123683,1,0,0:0:0:0:
106,27,123765,5,0,0:0:0:0:
84,74,123846,1,0,0:0:0:0:
71,125,123927,1,0,0:0:0:0:
68,177,124008,1,0,0:0:0:0:
8,271,124089,5,0,0:0:0:0:
49,308,124170,1,0,0:0:0:0:
99,333,124251,1,0,0:0:0:0:
154,343,124332,1,0,0:0:0:0:
268,374,124413,37,0,0:0:0:0:
324,356,124494,1,0,0:0:0:0:
372,321,124575,1,0,0:0:0:0:
406,273,124656,1,0,0:0:0:0:
507,200,124738,5,0,0:0:0:0:
503,140,124819,1,0,0:0:0:0:
476,85,124900,1,0,0:0:0:0:
430,46,124981,1,0,0:0:0:0:
372,27,125062,1,0,0:0:0:0:
311,33,125143,1,0,0:0:0:0:
260,61,125224,5,0,0:0:0:0:
221,107,125305,1,0,0:0:0:0:
218,167,125386,1,0,0:0:0:0:
252,216,125467,1,0,0:0:0:0:
309,235,125548,1,0,0:0:0:0:
366,216,125629,1,0,0:0:0:0:
394,169,125710,85,0,0:0:0:0:
338,142,125791,1,0,0:0:0:0:
281,121,125872,1,0,0:0:0:0:
221,107,125953,1,0,0:0:0:0:
160,96,126035,5,0,0:0:0:0:
134,151,126116,1,0,0:0:0:0:
131,211,126197,1,0,0:0:0:0:
151,269,126278,1,0,0:0:0:0:
192,314,126359,1,0,0:0:0:0:
247,339,126440,1,0,0:0:0:0:
306,347,126521,5,0,0:0:0:0:
366,344,126602,1,0,0:0:0:0:
421,317,126683,1,0,0:0:0:0:
459,270,126764,1,0,0:0:0:0:
475,211,126845,1,0,0:0:0:0:
466,151,126926,1,0,0:0:0:0:
432,102,127008,85,0,0:0:0:0:
371,111,127089,1,0,0:0:0:0:
313,131,127170,1,0,0:0:0:0:
260,160,127251,1,0,0:0:0:0:
134,151,127332,6,0,P|103:191|93:219,3,61.2500005841255
77,253,127656,1,0,0:0:0:0:
75,312,127737,1,0,0:0:0:0:
118,353,127818,1,0,0:0:0:0:
177,348,127899,1,0,0:0:0:0:
221,315,127981,6,0,P|255:268|264:245,3,61.2500005841255
279,216,128305,1,0,0:0:0:0:
289,156,128386,1,0,0:0:0:0:
265,101,128467,1,0,0:0:0:0:
214,69,128548,1,0,0:0:0:0:
94,41,128629,69,0,0:0:0:0:
94,41,128710,1,0,0:0:0:0:
94,41,128792,2,0,L|73:122,1,61.2500005841255
183,163,128954,85,0,0:0:0:0:
183,163,129035,1,0,0:0:0:0:
183,163,129116,2,0,L|205:232,1,61.2500005841255
79,229,129278,5,0,0:0:0:0:
79,229,129359,1,0,0:0:0:0:
79,229,129440,2,0,L|59:312,1,61.2500005841255
174,342,129602,37,0,0:0:0:0:
233,353,129683,1,0,0:0:0:0:
294,344,129764,1,0,0:0:0:0:
348,317,129845,1,0,0:0:0:0:
387,273,129927,5,0,0:0:0:0:
423,224,130008,1,0,0:0:0:0:
434,164,130089,1,0,0:0:0:0:
418,106,130170,1,0,0:0:0:0:
377,60,130251,1,0,0:0:0:0:
321,38,130332,1,0,0:0:0:0:
263,62,130413,85,0,0:0:0:0:
237,117,130494,1,0,0:0:0:0:
227,177,130575,1,0,0:0:0:0:
234,238,130656,1,0,0:0:0:0:
256,295,130737,1,0,0:0:0:0:
293,343,130818,1,0,0:0:0:0:
348,317,130900,5,0,0:0:0:0:
326,259,130981,1,0,0:0:0:0:
286,210,131062,1,0,0:0:0:0:
227,177,131143,1,0,0:0:0:0:
165,161,131224,5,0,0:0:0:0:
114,194,131305,1,0,0:0:0:0:
93,250,131386,1,0,0:0:0:0:
110,308,131467,1,0,0:0:0:0:
158,344,131548,1,0,0:0:0:0:
218,345,131629,1,0,0:0:0:0:
195,290,131710,85,0,0:0:0:0:
218,345,131791,1,0,0:0:0:0:
277,358,131872,1,0,0:0:0:0:
334,338,131953,1,0,0:0:0:0:
368,287,132034,1,0,0:0:0:0:
361,227,132115,1,0,0:0:0:0:
307,251,132197,5,0,0:0:0:0:
361,227,132278,1,0,0:0:0:0:
374,169,132359,1,0,0:0:0:0:
354,112,132440,1,0,0:0:0:0:
305,73,132521,5,0,0:0:0:0:
246,55,132602,1,0,0:0:0:0:
185,50,132683,1,0,0:0:0:0:
125,60,132764,1,0,0:0:0:0:
222,137,132846,85,0,0:0:0:0:
163,155,132927,1,0,0:0:0:0:
112,188,133008,1,0,0:0:0:0:
69,232,133089,1,0,0:0:0:0:
207,311,133170,5,0,0:0:0:0:
265,328,133251,1,0,0:0:0:0:
326,333,133332,1,0,0:0:0:0:
386,323,133413,1,0,0:0:0:0:
289,247,133495,5,0,0:0:0:0:
347,228,133576,1,0,0:0:0:0:
398,195,133657,1,0,0:0:0:0:
441,151,133738,1,0,0:0:0:0:
362,57,133819,69,0,0:0:0:0:
302,42,133900,1,0,0:0:0:0:
242,49,133981,2,0,P|205:63|174:87,1,61.2500005841255
27,167,134143,85,0,0:0:0:0:
82,192,134224,1,0,0:0:0:0:
142,193,134305,2,0,P|196:182|226:162,1,61.2500005841255
160,54,134467,5,0,0:0:0:0:
148,123,134548,1,0,0:0:0:0:
142,193,134629,1,0,0:0:0:0:
144,263,134710,1,0,0:0:0:0:
225,361,134792,5,0,0:0:0:0:
237,305,134873,1,0,0:0:0:0:
244,251,134954,1,0,0:0:0:0:
237,197,135035,1,0,0:0:0:0:
218,141,135116,5,0,0:0:0:0:
271,111,135197,1,0,0:0:0:0:
331,103,135278,1,0,0:0:0:0:
391,118,135359,1,0,0:0:0:0:
441,152,135440,1,0,0:0:0:0:
475,203,135521,1,0,0:0:0:0:
474,264,135602,5,0,0:0:0:0:
418,288,135683,1,0,0:0:0:0:
358,303,135764,1,0,0:0:0:0:
298,308,135845,1,0,0:0:0:0:
237,305,135926,1,0,0:0:0:0:
177,291,136007,1,0,0:0:0:0:
126,260,136089,5,0,0:0:0:0:
152,204,136170,1,0,0:0:0:0:
187,154,136251,1,0,0:0:0:0:
230,111,136332,1,0,0:0:0:0:
281,78,136413,85,0,0:0:0:0:
340,75,136494,1,0,0:0:0:0:
385,115,136575,1,0,0:0:0:0:
391,174,136656,1,0,0:0:0:0:
354,221,136737,1,0,0:0:0:0:
295,230,136818,1,0,0:0:0:0:
311,182,136900,5,0,0:0:0:0:
354,221,136981,1,0,0:0:0:0:
358,281,137062,1,0,0:0:0:0:
320,327,137143,1,0,0:0:0:0:
261,334,137224,1,0,0:0:0:0:
213,299,137305,1,0,0:0:0:0:
265,267,137386,5,0,0:0:0:0:
213,299,137467,1,0,0:0:0:0:
155,320,137548,1,0,0:0:0:0:
95,331,137629,1,0,0:0:0:0:
40,221,137710,85,0,0:0:0:0:
24,161,137791,1,0,0:0:0:0:
20,100,137872,1,0,0:0:0:0:
28,40,137953,1,0,0:0:0:0:
103,138,138035,5,0,0:0:0:0:
114,78,138116,1,0,0:0:0:0:
157,36,138197,1,0,0:0:0:0:
217,25,138278,1,0,0:0:0:0:
210,148,138359,5,0,0:0:0:0:
268,133,138440,1,0,0:0:0:0:
325,154,138521,1,0,0:0:0:0:
361,203,138602,1,0,0:0:0:0:
248,250,138683,85,0,0:0:0:0:
274,301,138764,1,0,0:0:0:0:
241,349,138845,1,0,0:0:0:0:
183,342,138926,1,0,0:0:0:0:
100,275,139008,69,0,0:0:0:0:
80,226,139089,1,0,0:0:0:0:
72,174,139170,1,0,0:0:0:0:
76,122,139251,1,0,0:0:0:0:
88,72,139332,2,0,P|113:37|134:23,1,52.5000020027161
177,119,139494,5,0,0:0:0:0:
224,140,139575,1,0,0:0:0:0:
267,170,139656,1,0,0:0:0:0:
301,210,139737,1,0,0:0:0:0:
329,254,139818,2,0,P|336:296|331:321,1,52.5000020027161
230,320,139981,37,0,0:0:0:0:
231,267,140062,1,0,0:0:0:0:
243,216,140143,1,0,0:0:0:0:
266,169,140224,1,0,0:0:0:0:
358,64,140305,5,0,0:0:0:0:
440,331,140467,1,0,0:0:0:0:
448,51,140629,85,0,0:0:0:0:
342,311,140792,1,0,0:0:0:0:
196,72,140954,5,0,0:0:0:0:
253,345,141116,1,0,0:0:0:0:
296,68,141278,5,0,0:0:0:0:
173,319,141440,1,0,0:0:0:0:
361,112,141602,85,0,0:0:0:0:
84,57,141765,1,0,0:0:0:0:
362,30,141927,5,0,0:0:0:0:
167,230,142089,1,0,0:0:0:0:
435,290,142251,5,0,0:0:0:0:
225,104,142413,1,0,0:0:0:0:
494,29,142575,85,0,0:0:0:0:
327,255,142738,1,0,0:0:0:0:
73,336,142900,6,0,P|43:241|59:120,1,199.499994672775
148,222,143224,2,0,P|157:185|187:148,1,62.9999980773926
201,286,143386,2,0,P|231:241|261:221,1,62.9999980773926
258,118,143548,6,0,P|294:127|336:172,1,59.5000011348725
399,58,143710,2,0,P|421:134|417:160,1,59.5000011348725
354,205,143873,2,0,P|346:275|353:313,1,56
454,286,144035,2,0,P|414:334|381:347,1,56
308,350,144197,5,0,0:0:0:0:
249,349,144278,1,0,0:0:0:0:
197,330,144359,1,0,0:0:0:0:
153,290,144440,1,0,0:0:0:0:
126,239,144521,1,0,0:0:0:0:
117,183,144602,1,0,0:0:0:0:
127,124,144683,1,0,0:0:0:0:
158,73,144764,1,0,0:0:0:0:
205,35,144845,1,0,0:0:0:0:
266,19,144926,1,0,0:0:0:0:
327,32,145007,1,0,0:0:0:0:
382,67,145088,1,0,0:0:0:0:
411,129,145169,1,0,0:0:0:0:
412,197,145251,1,0,0:0:0:0:
387,255,145332,1,0,0:0:0:0:
337,289,145413,1,0,0:0:0:0:
205,336,145494,22,0,P|92:325|308:199,1,700
22,157,146467,1,0,0:0:0:0:
55,97,146548,1,0,0:0:0:0:
112,59,146629,1,0,0:0:0:0:
257,300,146792,6,0,P|176:204|411:280,1,700
172,177,147765,1,0,0:0:0:0:
182,110,147846,1,0,0:0:0:0:
223,55,147927,1,0,0:0:0:0:
295,325,148089,6,0,P|212:343|142:331,1,140
303,96,148413,2,0,P|386:78|456:90,2,140
39,194,148900,85,0,0:0:0:0:
317,172,149062,1,0,0:0:0:0:
99,347,149224,1,0,0:0:0:0:
373,292,149386,2,0,P|418:224|436:143,1,140
163,239,149710,2,0,P|136:157|140:84,1,140
411,46,150035,5,0,0:0:0:0:
238,266,150197,1,0,0:0:0:0:
67,43,150359,1,0,0:0:0:0:
337,113,150521,1,0,0:0:0:0:
85,235,150683,2,0,P|128:152|418:196,1,420
165,320,151332,2,0,P|143:218|359:21,1,420
73,78,151981,2,0,P|235:72|46:333,1,700
92,69,152954,5,0,0:0:0:0:
370,43,153116,1,0,0:0:0:0:
123,175,153278,2,0,P|193:116|210:55,1,140
341,318,153602,2,0,P|278:222|289:164,1,140
9,118,153927,2,0,P|66:204|64:275,1,140
299,78,154251,2,0,P|216:129|216:202,1,140
494,164,154575,85,0,0:0:0:0:
434,127,154656,1,0,0:0:0:0:
369,100,154738,1,0,0:0:0:0:
299,78,154819,1,0,0:0:0:0:
226,74,154900,1,0,0:0:0:0:
151,89,154981,1,0,0:0:0:0:
94,140,155062,1,0,0:0:0:0:
64,202,155143,1,0,0:0:0:0:
63,273,155224,1,0,0:0:0:0:
92,329,155305,1,0,0:0:0:0:
147,356,155386,1,0,0:0:0:0:
201,363,155467,1,0,0:0:0:0:
251,339,155548,38,0,P|254:285|244:264,1,48.9999985046387
336,268,155710,6,0,P|312:225|288:209,1,41.9999987182618
390,154,155873,5,0,0:0:0:0:
370,105,155954,1,0,0:0:0:0:
335,66,156035,1,0,0:0:0:0:
289,41,156116,1,0,0:0:0:0:
238,33,156197,1,0,0:0:0:0:
186,42,156278,1,0,0:0:0:0:
141,68,156359,1,0,0:0:0:0:
107,108,156440,1,0,0:0:0:0:
89,157,156521,1,0,0:0:0:0:
87,209,156602,1,0,0:0:0:0:
104,259,156683,1,0,0:0:0:0:
136,300,156764,1,0,0:0:0:0:
179,329,156846,86,0,P|229:351|268:344,1,52.5000020027161
330,347,157008,6,0,P|377:328|394:286,1,52.5000020027161
432,238,157170,5,0,0:0:0:0:
445,187,157251,1,0,0:0:0:0:
439,135,157332,1,0,0:0:0:0:
413,90,157413,1,0,0:0:0:0:
373,58,157494,1,0,0:0:0:0:
322,43,157575,1,0,0:0:0:0:
271,49,157656,1,0,0:0:0:0:
225,74,157737,1,0,0:0:0:0:
192,114,157818,1,0,0:0:0:0:
177,164,157899,1,0,0:0:0:0:
182,216,157980,1,0,0:0:0:0:
201,265,158062,1,0,0:0:0:0:
290,319,158143,86,0,P|350:321|372:311,1,52.5000020027161
397,233,158305,6,0,P|354:221|303:222,1,52.5000020027161
284,135,158467,6,0,P|342:120|379:132,1,52.5000020027161
389,118,158629,1,0,0:0:0:0:
440,127,158710,1,0,0:0:0:0:
393,31,158792,86,0,L|292:29,1,52.5000020027161
238,52,158954,6,0,L|179:54,1,52.5000020027161
132,56,159116,1,0,0:0:0:0:
79,59,159197,1,0,0:0:0:0:
51,160,159278,6,0,L|29:83,1,52.5000020027161
162,199,159440,2,0,L|187:125,1,52.5000020027161
94,313,159602,2,0,L|72:235,1,52.5000020027161
207,326,159765,86,0,P|277:320|308:326,1,52.5000020027161
259,319,159927,1,0,0:0:0:0:
259,319,160008,1,0,0:0:0:0:
288,218,160089,6,0,P|341:263|359:289,1,52.5000020027161
330,250,160251,1,0,0:0:0:0:
330,250,160332,1,0,0:0:0:0:
428,213,160413,6,0,P|433:283|428:314,1,52.5000020027161
428,112,160575,86,0,P|481:157|499:183,1,52.5000020027161
356,33,160738,6,0,P|426:27|457:33,1,52.5000020027161
247,41,160900,6,0,P|292:-12|318:-30,1,52.5000020027161
294,103,161062,85,0,0:0:0:0:
245,121,161143,1,0,0:0:0:0:
208,158,161224,1,0,0:0:0:0:
189,206,161305,1,0,0:0:0:0:
190,258,161386,1,0,0:0:0:0:
213,305,161467,1,0,0:0:0:0:
252,339,161548,1,0,0:0:0:0:
302,355,161629,1,0,0:0:0:0:
293,311,161711,5,0,0:0:0:0:
274,262,161792,1,0,0:0:0:0:
238,225,161873,1,0,0:0:0:0:
189,206,161954,1,0,0:0:0:0:
137,208,162035,1,0,0:0:0:0:
90,230,162116,1,0,0:0:0:0:
56,270,162197,1,0,0:0:0:0:
43,320,162278,1,0,0:0:0:0:
84,310,162359,101,0,0:0:0:0:
133,291,162440,1,0,0:0:0:0:
170,255,162521,1,0,0:0:0:0:
189,206,162602,1,0,0:0:0:0:
201,155,162683,1,0,0:0:0:0:
220,106,162764,1,0,0:0:0:0:
257,70,162845,1,0,0:0:0:0:
306,51,162926,1,0,0:0:0:0:
358,53,163008,1,0,0:0:0:0:
407,72,163089,1,0,0:0:0:0:
444,108,163170,1,0,0:0:0:0:
463,157,163251,1,0,0:0:0:0:
446,260,163332,6,0,P|410:301|369:314,1,52.5000020027161
314,337,163494,6,0,P|272:339|230:326,1,52.5000020027161
164,330,163656,70,0,P|197:255|205:251,1,52.5000020027161
198,235,163819,1,0,0:0:0:0:
234,203,163900,1,0,0:0:0:0:
145,160,163981,6,0,P|222:131|230:133,1,52.5000020027161
236,116,164144,1,0,0:0:0:0:
284,119,164225,1,0,0:0:0:0:
282,32,164305,70,0,P|357:65|361:73,1,52.5000020027161
377,66,164468,1,0,0:0:0:0:
409,102,164549,1,0,0:0:0:0:
452,19,164630,6,0,P|480:96|478:104,1,52.5000020027161
496,104,164793,1,0,0:0:0:0:
493,152,164874,1,0,0:0:0:0:
473,232,164954,37,0,0:0:0:0:
406,316,165062,5,0,0:0:0:0:
309,350,165170,69,0,0:0:0:0:
211,346,165278,85,0,0:0:0:0:
133,293,165386,37,0,0:0:0:0:
87,216,165494,5,0,0:0:0:0:
87,132,165602,101,0,0:0:0:0:
123,61,165710,69,0,0:0:0:0:
190,28,165819,5,0,0:0:0:0:
259,31,165927,5,0,0:0:0:0:
301,80,166035,53,0,0:0:0:0:
285,138,166143,5,0,0:0:0:0:
251,170,166251,5,0,0:0:0:0:
235,178,166332,1,0,0:0:0:0:
219,184,166413,1,0,0:0:0:0:
202,187,166494,1,0,0:0:0:0:
184,187,166575,1,0,0:0:0:0:
181,257,166738,5,0,0:0:0:0:
192,270,166819,1,0,0:0:0:0:
206,280,166900,1,0,0:0:0:0:
223,286,166981,1,0,0:0:0:0:
240,288,167062,1,0,0:0:0:0:
308,271,167224,5,0,0:0:0:0:
301,254,167305,1,0,0:0:0:0:
298,237,167386,1,0,0:0:0:0:
298,220,167467,1,0,0:0:0:0:
301,202,167548,1,0,0:0:0:0:
369,186,167710,85,0,0:0:0:0:
379,200,167791,1,0,0:0:0:0:
385,216,167872,1,0,0:0:0:0:
388,233,167953,1,0,0:0:0:0:
387,251,168034,1,0,0:0:0:0:
366,317,168197,5,0,0:0:0:0:
351,327,168278,1,0,0:0:0:0:
335,333,168359,1,0,0:0:0:0:
318,336,168440,1,0,0:0:0:0:
301,338,168521,2,0,P|276:338|242:329,1,52.5
216,319,168846,5,0,0:0:0:0:
199,312,168927,1,0,0:0:0:0:
185,302,169008,1,0,0:0:0:0:
173,289,169089,1,0,0:0:0:0:
163,275,169170,1,0,0:0:0:0:
183,208,169332,85,0,0:0:0:0:
182,190,169413,1,0,0:0:0:0:
185,173,169494,1,0,0:0:0:0:
191,156,169575,1,0,0:0:0:0:
199,141,169656,1,0,0:0:0:0:
268,124,169819,5,0,0:0:0:0:
274,108,169900,1,0,0:0:0:0:
284,94,169981,1,0,0:0:0:0:
297,81,170062,1,0,0:0:0:0:
311,72,170143,1,0,0:0:0:0:
379,91,170305,5,0,0:0:0:0:
396,91,170386,1,0,0:0:0:0:
413,94,170467,1,0,0:0:0:0:
430,99,170548,1,0,0:0:0:0:
445,108,170629,1,0,0:0:0:0:
435,177,170792,85,0,0:0:0:0:
443,192,170873,1,0,0:0:0:0:
449,208,170954,1,0,0:0:0:0:
452,226,171035,1,0,0:0:0:0:
452,243,171116,2,0,P|447:273|434:294,1,52.5
413,318,171440,5,0,0:0:0:0:
399,328,171521,1,0,0:0:0:0:
383,336,171602,1,0,0:0:0:0:
366,341,171683,1,0,0:0:0:0:
349,343,171764,1,0,0:0:0:0:
309,286,171927,5,0,0:0:0:0:
311,268,172008,1,0,0:0:0:0:
311,251,172089,1,0,0:0:0:0:
308,234,172170,1,0,0:0:0:0:
303,217,172251,1,0,0:0:0:0:
250,170,172413,85,0,0:0:0:0:
236,181,172494,1,0,0:0:0:0:
220,189,172575,1,0,0:0:0:0:
204,194,172656,1,0,0:0:0:0:
186,196,172737,1,0,0:0:0:0:
146,138,172900,5,0,0:0:0:0:
148,120,172981,1,0,0:0:0:0:
148,103,173062,1,0,0:0:0:0:
145,86,173143,1,0,0:0:0:0:
140,69,173224,1,0,0:0:0:0:
70,74,173386,5,0,0:0:0:0:
68,92,173467,1,0,0:0:0:0:
68,109,173548,1,0,0:0:0:0:
71,126,173629,1,0,0:0:0:0:
74,141,173710,2,0,P|84:169|102:197,1,52.5
119,214,174035,85,0,0:0:0:0:
131,226,174116,1,0,0:0:0:0:
146,235,174197,1,0,0:0:0:0:
162,243,174278,1,0,0:0:0:0:
178,247,174359,1,0,0:0:0:0:
241,217,174521,5,0,0:0:0:0:
245,200,174602,1,0,0:0:0:0:
247,182,174683,1,0,0:0:0:0:
246,165,174764,1,0,0:0:0:0:
243,148,174845,1,0,0:0:0:0:
241,217,175008,5,0,0:0:0:0:
254,229,175089,1,0,0:0:0:0:
269,238,175170,1,0,0:0:0:0:
284,246,175251,1,0,0:0:0:0:
301,251,175332,1,0,0:0:0:0:
363,220,175494,85,0,0:0:0:0:
368,203,175575,1,0,0:0:0:0:
369,185,175656,1,0,0:0:0:0:
369,168,175737,1,0,0:0:0:0:
366,151,175818,1,0,0:0:0:0:
329,67,175981,6,0,P|312:58|291:51,1,22.7499989585877
264,44,176143,1,0,0:0:0:0:
218,44,176224,1,0,0:0:0:0:
163,58,176305,6,0,P|140:67|114:80,3,28
83,113,176629,5,0,0:0:0:0:
69,145,176710,1,0,0:0:0:0:
65,179,176791,1,0,0:0:0:0:
70,214,176872,1,0,0:0:0:0:
19,262,176954,1,0,0:0:0:0:
51,275,177035,1,0,0:0:0:0:
85,279,177116,1,0,0:0:0:0:
120,274,177197,1,0,0:0:0:0:
171,321,177278,1,0,0:0:0:0:
184,288,177359,1,0,0:0:0:0:
188,254,177440,1,0,0:0:0:0:
183,219,177521,1,0,0:0:0:0:
234,172,177602,1,0,0:0:0:0:
201,158,177683,1,0,0:0:0:0:
167,154,177764,1,0,0:0:0:0:
132,159,177845,1,0,0:0:0:0:
82,208,177927,5,0,0:0:0:0:
68,240,178008,1,0,0:0:0:0:
64,274,178089,1,0,0:0:0:0:
69,309,178170,1,0,0:0:0:0:
127,269,178251,1,0,0:0:0:0:
139,301,178332,1,0,0:0:0:0:
161,328,178413,1,0,0:0:0:0:
189,349,178494,1,0,0:0:0:0:
203,280,178575,1,0,0:0:0:0:
235,293,178656,1,0,0:0:0:0:
269,297,178737,1,0,0:0:0:0:
304,292,178818,1,0,0:0:0:0:
268,229,178900,1,0,0:0:0:0:
297,211,178981,1,0,0:0:0:0:
324,179,179062,1,0,0:0:0:0:
343,141,179143,1,0,0:0:0:0:
342,71,179224,5,0,0:0:0:0:
322,42,179305,1,0,0:0:0:0:
294,21,179386,1,0,0:0:0:0:
261,10,179467,1,0,0:0:0:0:
270,79,179548,1,0,0:0:0:0:
235,72,179629,1,0,0:0:0:0:
201,77,179710,1,0,0:0:0:0:
170,93,179791,1,0,0:0:0:0:
229,132,179873,1,0,0:0:0:0:
222,166,179954,1,0,0:0:0:0:
227,200,180035,1,0,0:0:0:0:
243,231,180116,1,0,0:0:0:0:
286,178,180197,1,0,0:0:0:0:
305,206,180278,1,0,0:0:0:0:
333,227,180359,1,0,0:0:0:0:
366,238,180440,1,0,0:0:0:0:
392,176,180521,85,0,0:0:0:0:
372,148,180602,1,0,0:0:0:0:
344,127,180683,1,0,0:0:0:0:
311,116,180764,1,0,0:0:0:0:
320,184,180845,1,0,0:0:0:0:
286,178,180926,1,0,0:0:0:0:
251,183,181007,1,0,0:0:0:0:
220,199,181088,1,0,0:0:0:0:
279,237,181170,1,0,0:0:0:0:
273,272,181251,1,0,0:0:0:0:
278,306,181332,1,0,0:0:0:0:
293,337,181413,1,0,0:0:0:0:
336,283,181494,1,0,0:0:0:0:
356,312,181575,1,0,0:0:0:0:
395,334,181656,1,0,0:0:0:0:
437,344,181737,1,0,0:0:0:0:
474,283,181819,5,0,0:0:0:0:
478,248,181900,1,0,0:0:0:0:
483,213,181981,1,0,0:0:0:0:
487,178,182062,1,0,0:0:0:0:
421,200,182143,1,0,0:0:0:0:
419,165,182224,1,0,0:0:0:0:
417,130,182305,1,0,0:0:0:0:
416,95,182386,1,0,0:0:0:0:
353,125,182467,1,0,0:0:0:0:
339,92,182548,1,0,0:0:0:0:
326,60,182629,1,0,0:0:0:0:
313,27,182710,1,0,0:0:0:0:
268,82,182792,1,0,0:0:0:0:
239,61,182873,1,0,0:0:0:0:
210,41,182954,1,0,0:0:0:0:
182,21,183035,1,0,0:0:0:0:
125,62,183116,5,0,0:0:0:0:
121,96,183197,1,0,0:0:0:0:
116,131,183278,1,0,0:0:0:0:
112,166,183359,1,0,0:0:0:0:
178,145,183440,1,0,0:0:0:0:
180,180,183521,1,0,0:0:0:0:
181,215,183602,1,0,0:0:0:0:
183,250,183683,1,0,0:0:0:0:
246,220,183764,1,0,0:0:0:0:
259,252,183845,1,0,0:0:0:0:
273,285,183926,1,0,0:0:0:0:
286,317,184007,1,0,0:0:0:0:
331,263,184089,1,0,0:0:0:0:
360,283,184170,1,0,0:0:0:0:
394,306,184251,1,0,0:0:0:0:
428,334,184332,1,0,0:0:0:0:
483,292,184413,5,0,0:0:0:0:
482,265,184494,1,0,0:0:0:0:
480,239,184575,1,0,0:0:0:0:
475,213,184656,1,0,0:0:0:0:
469,188,184738,2,0,P|459:157|454:145,1,26.2500010013581
450,147,184900,5,0,0:0:0:0:
437,130,184981,1,0,0:0:0:0:
421,116,185062,1,0,0:0:0:0:
402,107,185143,1,0,0:0:0:0:
384,100,185224,2,0,P|372:97|355:97,1,20.9999993591309
340,94,185386,102,0,P|321:94|294:100,1,35
289,103,185629,1,0,0:0:0:0:
272,116,185710,21,0,0:0:0:0:
259,130,185791,1,0,0:0:0:0:
249,147,185872,1,0,0:0:0:0:
243,165,185953,1,0,0:0:0:0:
309,169,186035,5,0,0:0:0:0:
302,190,186116,1,0,0:0:0:0:
301,213,186197,1,0,0:0:0:0:
303,236,186278,1,0,0:0:0:0:
367,205,186359,5,0,0:0:0:0:
369,231,186440,1,0,0:0:0:0:
380,254,186521,1,0,0:0:0:0:
399,272,186602,1,0,0:0:0:0:
434,212,186683,85,0,0:0:0:0:
437,177,186764,1,0,0:0:0:0:
426,144,186845,1,0,0:0:0:0:
404,117,186926,1,0,0:0:0:0:
382,98,187008,5,0,0:0:0:0:
340,84,187089,5,0,0:0:0:0:
297,82,187170,5,0,0:0:0:0:
254,73,187251,5,0,0:0:0:0:
210,70,187332,53,0,0:0:0:0:
166,71,187413,5,0,0:0:0:0:
123,74,187494,5,0,0:0:0:0:
83,90,187575,5,0,0:0:0:0:
67,130,187656,5,0,0:0:0:0:
46,170,187737,5,0,0:0:0:0:
54,214,187818,37,0,0:0:0:0:
77,255,187899,5,0,0:0:0:0:
88,292,187980,5,0,0:0:0:0:
116,334,188062,5,0,0:0:0:0:
163,336,188143,5,0,0:0:0:0:
209,333,188224,5,0,0:0:0:0:
248,355,188305,37,0,0:0:0:0:
292,347,188386,5,0,0:0:0:0:
336,357,188467,5,0,0:0:0:0:
385,362,188548,5,0,0:0:0:0:
419,331,188629,5,0,0:0:0:0:
424,291,188710,5,0,0:0:0:0:
445,256,188791,37,0,0:0:0:0:
428,214,188872,5,0,0:0:0:0:
380,199,188953,5,0,0:0:0:0:
333,196,189035,5,0,0:0:0:0:
297,173,189116,5,0,0:0:0:0:
252,158,189197,5,0,0:0:0:0:
210,178,189278,37,0,0:0:0:0:
161,183,189359,5,0,0:0:0:0:
157,232,189440,5,0,0:0:0:0:
189,261,189521,5,0,0:0:0:0:
230,276,189602,6,0,B|267:298|271:335|284:111|281:382|296:105|303:377|312:205|326:373|335:223|381:286,1,175
428,214,190008,1,0,0:0:0:0:
454,130,190089,2,0,P|461:97|459:66,1,43.75
382,48,190251,6,0,P|337:35|300:34,1,43.75
253,28,190413,2,0,L|170:27,1,43.75
124,50,190575,85,0,0:0:0:0:
88,129,190656,1,0,0:0:0:0:
87,217,190738,2,0,P|95:268|111:291,1,43.75
156,319,190900,6,0,P|200:329|237:324,1,43.75
285,324,191062,2,0,L|346:319,1,43.75
409,286,191224,5,0,0:0:0:0:
448,207,191305,1,0,0:0:0:0:
435,120,191386,2,0,P|416:78|402:54,1,43.75
340,35,191548,86,0,P|314:31|261:37,1,43.75
218,69,191710,2,0,P|191:113|188:131,1,43.75
194,193,191873,5,0,0:0:0:0:
247,262,191954,1,0,0:0:0:0:
322,217,192035,2,0,P|336:182|332:148,1,43.75
293,80,192197,6,0,L|12:48,1,262.500010013581
71,147,192683,2,0,L|130:323,1,157.500006008148
156,327,193008,37,0,0:0:0:0:
199,340,193089,1,0,0:0:0:0:
244,339,193170,1,0,0:0:0:0:
285,322,193251,2,0,P|298:315|316:296,1,22.7499989585877
336,276,193332,1,0,0:0:0:0:
363,239,193413,1,0,0:0:0:0:
382,198,193494,5,0,0:0:0:0:
392,153,193575,1,0,0:0:0:0:
390,108,193656,1,0,0:0:0:0:
377,65,193737,1,0,0:0:0:0:
344,33,193819,5,0,0:0:0:0:
318,70,193900,1,0,0:0:0:0:
300,112,193981,1,0,0:0:0:0:
292,157,194062,1,0,0:0:0:0:
292,203,194143,85,0,0:0:0:0:
253,178,194224,1,0,0:0:0:0:
211,160,194305,1,0,0:0:0:0:
167,149,194386,1,0,0:0:0:0:
125,144,194467,5,0,0:0:0:0:
121,189,194548,1,0,0:0:0:0:
124,234,194629,1,0,0:0:0:0:
134,279,194710,1,0,0:0:0:0:
155,317,194792,5,0,0:0:0:0:
199,307,194873,1,0,0:0:0:0:
241,289,194954,1,0,0:0:0:0:
278,263,195035,1,0,0:0:0:0:
320,281,195116,85,0,0:0:0:0:
344,242,195197,1,0,0:0:0:0:
361,200,195278,1,0,0:0:0:0:
368,155,195359,1,0,0:0:0:0:
403,127,195440,5,0,0:0:0:0:
364,102,195521,1,0,0:0:0:0:
321,85,195602,1,0,0:0:0:0:
277,77,195683,1,0,0:0:0:0:
260,35,195764,5,0,0:0:0:0:
215,45,195845,1,0,0:0:0:0:
173,63,195926,1,0,0:0:0:0:
137,90,196007,1,0,0:0:0:0:
97,76,196089,5,0,0:0:0:0:
68,120,196170,1,0,0:0:0:0:
50,169,196251,1,0,0:0:0:0:
44,220,196332,1,0,0:0:0:0:
4,250,196413,5,0,0:0:0:0:
47,279,196494,1,0,0:0:0:0:
97,297,196575,1,0,0:0:0:0:
149,303,196656,1,0,0:0:0:0:
177,346,196738,5,0,0:0:0:0:
228,335,196819,1,0,0:0:0:0:
275,313,196900,1,0,0:0:0:0:
317,280,196981,1,0,0:0:0:0:
365,288,197062,85,0,0:0:0:0:
355,237,197143,1,0,0:0:0:0:
333,189,197224,1,0,0:0:0:0:
300,148,197305,1,0,0:0:0:0:
264,124,197386,6,0,B|208:88|217:68|195:98|219:93|180:67|169:84|189:76|146:67|137:80|155:75|129:78|96:113|111:103|119:79|120:102|152:85|103:92|96:96|98:104|107:108|111:105|111:100|99:99|51:126|37:145|49:222,1,315.000012016297
84,291,197954,1,0,0:0:0:0:
151,340,198035,2,0,P|185:350|226:350,1,41.9999987182618
274,342,198197,2,0,P|307:334|328:321,1,41.9999987182618
371,269,198359,5,0,0:0:0:0:
397,189,198440,1,0,0:0:0:0:
395,105,198521,2,0,P|385:60|366:31,1,41.9999987182618
307,36,198683,86,0,P|291:71|291:110,1,41.9999987182618
245,146,198846,2,0,P|215:113|183:102,1,41.9999987182618
146,70,199008,5,0,0:0:0:0:
63,56,199089,1,0,0:0:0:0:
80,138,199170,2,0,P|95:173|118:198,1,41.9999987182618
155,236,199332,6,0,P|194:261|217:263,2,41.9999987182618
163,152,199575,1,0,0:0:0:0:
221,91,199656,1,0,0:0:0:0:
305,86,199738,85,0,0:0:0:0:
373,134,199819,2,0,P|385:163|376:206,1,41.9999987182618
382,225,199981,6,0,P|376:272|359:318,1,78.7500030040742
339,337,200305,6,0,P|265:344|51:-13,1,525.000020027161
143,30,201197,86,0,P|142:79|123:145,1,105.000004005432
46,186,201440,2,0,P|83:179|135:184,1,48.9999985046387
183,193,201602,1,0,0:0:0:0:
271,212,201683,1,0,0:0:0:0:
362,208,201765,2,0,P|402:199|426:185,1,45.4999979171754
468,141,201927,2,0,P|490:80|491:20,1,125.999996154785
416,48,202251,5,0,0:0:0:0:
410,48,202305,1,0,0:0:0:0:
404,48,202359,1,0,0:0:0:0:
398,48,202413,1,0,0:0:0:0:
392,48,202467,1,0,0:0:0:0:
386,48,202521,1,0,0:0:0:0:
380,48,202575,70,0,P|308:52|162:164,1,245
191,216,203224,2,0,P|153:120|14:67,1,245
61,3,203873,6,0,P|36:52|36:199,1,175
94,150,204359,2,0,P|182:125|257:70,1,175
259,154,204846,86,0,P|262:223|288:271,1,115.50000352478
330,305,205170,37,0,0:0:0:0:
371,290,205251,1,0,0:0:0:0:
404,262,205332,1,0,0:0:0:0:
426,224,205413,1,0,0:0:0:0:
432,182,205494,2,0,P|436:151|431:118,1,43.75
488,67,205657,5,0,0:0:0:0:
448,47,205738,1,0,0:0:0:0:
405,43,205819,1,0,0:0:0:0:
363,55,205900,1,0,0:0:0:0:
329,80,205981,2,0,P|304:99|285:126,1,43.75
296,196,206143,5,0,0:0:0:0:
263,167,206224,1,0,0:0:0:0:
224,146,206305,1,0,0:0:0:0:
182,135,206386,1,0,0:0:0:0:
77,137,206467,85,0,0:0:0:0:
88,187,206548,1,0,0:0:0:0:
117,231,206629,1,0,0:0:0:0:
160,261,206710,1,0,0:0:0:0:
211,274,206792,2,0,P|249:273|286:264,1,52.5000020027161
205,357,206954,5,0,0:0:0:0:
256,344,207035,1,0,0:0:0:0:
299,315,207116,1,0,0:0:0:0:
329,273,207197,1,0,0:0:0:0:
342,223,207279,2,0,P|340:185|331:148,1,52.5000020027161
424,239,207440,5,0,0:0:0:0:
426,183,207521,1,0,0:0:0:0:
410,130,207602,1,0,0:0:0:0:
376,85,207683,1,0,0:0:0:0:
297,43,207765,69,0,0:0:0:0:
255,32,207846,1,0,0:0:0:0:
211,29,207927,1,0,0:0:0:0:
168,34,208008,1,0,0:0:0:0:
126,47,208089,1,0,0:0:0:0:
87,66,208170,1,0,0:0:0:0:
152,124,208251,85,0,0:0:0:0:
120,154,208332,1,0,0:0:0:0:
95,190,208413,1,0,0:0:0:0:
77,229,208494,1,0,0:0:0:0:
68,272,208575,1,0,0:0:0:0:
66,316,208656,1,0,0:0:0:0:
144,274,208738,5,0,0:0:0:0:
180,298,208819,1,0,0:0:0:0:
220,315,208900,1,0,0:0:0:0:
263,323,208981,1,0,0:0:0:0:
307,322,209062,1,0,0:0:0:0:
349,312,209143,1,0,0:0:0:0:
389,295,209224,1,0,0:0:0:0:
424,269,209305,1,0,0:0:0:0:
454,237,209386,1,0,0:0:0:0:
476,199,209467,1,0,0:0:0:0:
491,158,209548,1,0,0:0:0:0:
496,115,209629,1,0,0:0:0:0:
493,71,209710,1,0,0:0:0:0:
481,29,209792,1,0,0:0:0:0:
422,93,209873,5,0,0:0:0:0:
390,62,209954,1,0,0:0:0:0:
352,42,210035,1,0,0:0:0:0:
309,32,210116,1,0,0:0:0:0:
266,35,210197,1,0,0:0:0:0:
182,61,210278,5,0,0:0:0:0:
109,109,210359,69,0,0:0:0:0:
84,145,210440,1,0,0:0:0:0:
68,185,210521,1,0,0:0:0:0:
61,228,210602,1,0,0:0:0:0:
63,272,210683,1,0,0:0:0:0:
74,314,210764,1,0,0:0:0:0:
153,277,210846,5,0,0:0:0:0:
147,234,210927,1,0,0:0:0:0:
138,191,211008,1,0,0:0:0:0:
125,149,211089,1,0,0:0:0:0:
109,109,211170,1,0,0:0:0:0:
89,69,211251,1,0,0:0:0:0:
9,110,211332,5,0,0:0:0:0:
10,154,211413,1,0,0:0:0:0:
20,197,211494,1,0,0:0:0:0:
38,237,211575,1,0,0:0:0:0:
63,272,211656,1,0,0:0:0:0:
94,303,211737,1,0,0:0:0:0:
131,326,211818,1,0,0:0:0:0:
171,343,211899,1,0,0:0:0:0:
214,351,211980,1,0,0:0:0:0:
258,351,212061,1,0,0:0:0:0:
301,343,212142,1,0,0:0:0:0:
341,326,212223,1,0,0:0:0:0:
378,302,212304,1,0,0:0:0:0:
409,272,212386,1,0,0:0:0:0:
434,236,212467,1,0,0:0:0:0:
452,196,212548,1,0,0:0:0:0:
462,154,212629,1,0,0:0:0:0:
463,110,212710,1,0,0:0:0:0:
456,67,212791,1,0,0:0:0:0:
441,26,212872,1,0,0:0:0:0:
382,92,212954,85,0,0:0:0:0:
341,74,213035,1,0,0:0:0:0:
299,62,213116,1,0,0:0:0:0:
256,55,213197,1,0,0:0:0:0:
212,53,213278,1,0,0:0:0:0:
169,57,213359,1,0,0:0:0:0:
200,138,213440,5,0,0:0:0:0:
215,178,213521,1,0,0:0:0:0:
237,216,213602,1,0,0:0:0:0:
265,250,213683,1,0,0:0:0:0:
297,280,213764,1,0,0:0:0:0:
333,304,213845,1,0,0:0:0:0:
415,270,213927,5,0,0:0:0:0:
376,289,214008,1,0,0:0:0:0:
334,301,214089,1,0,0:0:0:0:
290,306,214170,1,0,0:0:0:0:
247,304,214251,1,0,0:0:0:0:
204,296,214332,1,0,0:0:0:0:
163,281,214413,1,0,0:0:0:0:
125,259,214494,1,0,0:0:0:0:
90,232,214575,1,0,0:0:0:0:
61,200,214656,1,0,0:0:0:0:
36,164,214737,1,0,0:0:0:0:
18,124,214818,1,0,0:0:0:0:
6,82,214899,1,0,0:0:0:0:
5,39,214981,1,0,0:0:0:0:
86,71,215062,85,0,0:0:0:0:
113,104,215143,1,0,0:0:0:0:
131,144,215224,1,0,0:0:0:0:
208,103,215305,5,0,0:0:0:0:
216,145,215386,1,0,0:0:0:0:
216,189,215467,1,0,0:0:0:0:
191,273,215548,5,0,0:0:0:0:
232,259,215629,1,0,0:0:0:0:
275,250,215710,1,0,0:0:0:0:
319,248,215791,1,0,0:0:0:0:
362,252,215872,1,0,0:0:0:0:
405,261,215953,1,0,0:0:0:0:
442,272,216035,1,0,0:0:0:0:
422,234,216116,1,0,0:0:0:0:
393,201,216197,1,0,0:0:0:0:
357,177,216278,1,0,0:0:0:0:
316,162,216359,1,0,0:0:0:0:
335,122,216440,1,0,0:0:0:0:
363,89,216521,1,0,0:0:0:0:
399,65,216602,1,0,0:0:0:0:
441,51,216683,1,0,0:0:0:0:
484,49,216764,1,0,0:0:0:0:
488,89,216846,1,0,0:0:0:0:
488,132,216927,1,0,0:0:0:0:
483,176,217008,1,0,0:0:0:0:
472,218,217089,1,0,0:0:0:0:
454,258,217170,1,0,0:0:0:0:
431,295,217251,1,0,0:0:0:0:
403,329,217332,1,0,0:0:0:0:
371,358,217413,1,0,0:0:0:0:
276,362,217494,37,0,0:0:0:0:
229,362,217575,1,0,0:0:0:0:
182,362,217656,1,0,0:0:0:0:
135,363,217737,1,0,0:0:0:0:
208,291,217819,85,0,0:0:0:0:
157,291,217900,1,0,0:0:0:0:
107,291,217981,1,0,0:0:0:0:
56,291,218062,1,0,0:0:0:0:
11,195,218143,5,0,0:0:0:0:
46,156,218224,1,0,0:0:0:0:
89,126,218305,1,0,0:0:0:0:
137,105,218386,1,0,0:0:0:0:
188,95,218467,1,0,0:0:0:0:
241,97,218548,1,0,0:0:0:0:
302,12,218629,5,0,0:0:0:0:
351,27,218710,1,0,0:0:0:0:
398,52,218791,1,0,0:0:0:0:
438,86,218872,1,0,0:0:0:0:
471,126,218953,1,0,0:0:0:0:
496,173,219035,1,0,0:0:0:0:
471,271,219116,85,0,0:0:0:0:
429,302,219197,1,0,0:0:0:0:
381,325,219278,1,0,0:0:0:0:
331,337,219359,1,0,0:0:0:0:
278,339,219440,1,0,0:0:0:0:
227,331,219521,1,0,0:0:0:0:
178,312,219602,1,0,0:0:0:0:
133,284,219683,1,0,0:0:0:0:
96,247,219764,1,0,0:0:0:0:
66,204,219845,1,0,0:0:0:0:
46,156,219926,1,0,0:0:0:0:
36,104,220007,1,0,0:0:0:0:
36,52,220088,1,0,0:0:0:0:
47,1,220170,1,0,0:0:0:0:
103,89,220251,5,0,0:0:0:0:
147,61,220332,1,0,0:0:0:0:
197,45,220413,1,0,0:0:0:0:
249,43,220494,1,0,0:0:0:0:
300,54,220575,1,0,0:0:0:0:
397,94,220656,5,0,0:0:0:0:
464,175,220738,85,0,0:0:0:0:
463,227,220819,1,0,0:0:0:0:
444,276,220900,1,0,0:0:0:0:
410,315,220981,1,0,0:0:0:0:
364,340,221062,1,0,0:0:0:0:
313,348,221143,1,0,0:0:0:0:
356,252,221224,5,0,0:0:0:0:
305,267,221305,1,0,0:0:0:0:
254,275,221386,1,0,0:0:0:0:
201,277,221467,1,0,0:0:0:0:
149,272,221548,1,0,0:0:0:0:
98,260,221629,1,0,0:0:0:0:
20,196,221710,5,0,0:0:0:0:
51,153,221791,1,0,0:0:0:0:
89,118,221872,1,0,0:0:0:0:
134,91,221953,1,0,0:0:0:0:
184,73,222034,1,0,0:0:0:0:
236,66,222115,1,0,0:0:0:0:
288,68,222196,1,0,0:0:0:0:
339,81,222277,1,0,0:0:0:0:
386,104,222358,1,0,0:0:0:0:
428,135,222439,1,0,0:0:0:0:
463,174,222520,1,0,0:0:0:0:
485,218,222602,1,0,0:0:0:0:
432,224,222683,1,0,0:0:0:0:
380,225,222764,1,0,0:0:0:0:
328,220,222845,1,0,0:0:0:0:
276,210,222926,1,0,0:0:0:0:
226,194,223007,1,0,0:0:0:0:
178,174,223088,1,0,0:0:0:0:
132,148,223169,1,0,0:0:0:0:
89,118,223250,1,0,0:0:0:0:
80,15,223332,85,0,0:0:0:0:
91,66,223413,1,0,0:0:0:0:
89,118,223494,1,0,0:0:0:0:
74,168,223575,1,0,0:0:0:0:
47,213,223656,1,0,0:0:0:0:
12,249,223737,1,0,0:0:0:0:
97,308,223819,5,0,0:0:0:0:
148,298,223900,1,0,0:0:0:0:
197,278,223981,1,0,0:0:0:0:
240,248,224062,1,0,0:0:0:0:
276,210,224143,1,0,0:0:0:0:
304,166,224224,1,0,0:0:0:0:
328,71,224305,5,0,0:0:0:0:
381,70,224386,1,0,0:0:0:0:
432,79,224467,1,0,0:0:0:0:
475,108,224548,1,0,0:0:0:0:
497,155,224629,1,0,0:0:0:0:
493,207,224710,1,0,0:0:0:0:
464,250,224791,1,0,0:0:0:0:
417,271,224872,1,0,0:0:0:0:
365,264,224953,1,0,0:0:0:0:
319,240,225034,1,0,0:0:0:0:
276,210,225115,1,0,0:0:0:0:
232,182,225196,1,0,0:0:0:0:
183,163,225277,1,0,0:0:0:0:
131,157,225359,1,0,0:0:0:0:
26,170,225440,85,0,0:0:0:0:
40,220,225521,1,0,0:0:0:0:
67,265,225602,2,0,P|95:288|121:299,1,52.5000020027161
216,295,225765,5,0,0:0:0:0:
260,268,225846,1,0,0:0:0:0:
323,184,225927,5,0,0:0:0:0:
293,140,226008,1,0,0:0:0:0:
254,105,226089,1,0,0:0:0:0:
208,80,226170,1,0,0:0:0:0:
157,67,226251,1,0,0:0:0:0:
105,66,226332,1,0,0:0:0:0:
54,90,226413,1,0,0:0:0:0:
101,113,226494,1,0,0:0:0:0:
152,123,226575,1,0,0:0:0:0:
204,121,226656,1,0,0:0:0:0:
254,105,226737,1,0,0:0:0:0:
299,78,226818,1,0,0:0:0:0:
339,43,226900,1,0,0:0:0:0:
389,28,226981,1,0,0:0:0:0:
441,33,227062,1,0,0:0:0:0:
487,56,227143,1,0,0:0:0:0:
490,143,227224,69,0,0:0:0:0:
480,185,227305,1,0,0:0:0:0:
471,228,227386,1,0,0:0:0:0:
461,271,227467,1,0,0:0:0:0:
452,313,227548,1,0,0:0:0:0:
443,356,227629,1,0,0:0:0:0:
401,188,227710,53,0,0:0:0:0:
392,221,227791,1,0,0:0:0:0:
384,255,227872,1,0,0:0:0:0:
375,289,227953,1,0,0:0:0:0:
367,323,228034,1,0,0:0:0:0:
358,357,228115,1,0,0:0:0:0:
289,275,228197,5,0,0:0:0:0:
281,300,228278,1,0,0:0:0:0:
274,325,228359,1,0,0:0:0:0:
267,350,228440,1,0,0:0:0:0:
195,273,228521,5,0,0:0:0:0:
154,304,228602,1,0,0:0:0:0:
102,307,228683,1,0,0:0:0:0:
58,280,228764,1,0,0:0:0:0:
36,232,228846,2,0,P|31:184|40:157,1,52.5000020027161
133,205,229008,5,0,0:0:0:0:
164,163,229089,1,0,0:0:0:0:
211,141,229170,1,0,0:0:0:0:
263,143,229251,1,0,0:0:0:0:
307,169,229332,2,0,P|334:188|353:221,1,52.5000020027161
403,292,229494,5,0,0:0:0:0:
424,244,229575,1,0,0:0:0:0:
446,196,229656,2,0,L|476:135,1,52.5000020027161
410,64,229819,85,0,0:0:0:0:
361,45,229900,1,0,0:0:0:0:
310,55,229981,1,0,0:0:0:0:
274,92,230062,1,0,0:0:0:0:
263,143,230143,2,0,P|269:176|313:223,1,52.5000020027161
274,92,230305,5,0,0:0:0:0:
232,62,230386,1,0,0:0:0:0:
181,57,230467,1,0,0:0:0:0:
136,85,230548,1,0,0:0:0:0:
112,131,230629,2,0,P|109:164|140:221,1,52.5000020027161
19,133,230792,5,0,0:0:0:0:
18,185,230873,1,0,0:0:0:0:
31,235,230954,2,0,P|46:266|100:300,1,52.5000020027161
156,319,231116,85,0,0:0:0:0:
207,325,231197,1,0,0:0:0:0:
259,316,231278,1,0,0:0:0:0:
305,292,231359,1,0,0:0:0:0:
342,255,231440,2,0,P|363:229|370:192,1,52.5000020027161
375,106,231602,5,0,0:0:0:0:
343,64,231683,1,0,0:0:0:0:
300,34,231764,1,0,0:0:0:0:
250,19,231845,1,0,0:0:0:0:
198,19,231926,2,0,P|165:23|133:44,1,52.5000020027161
80,113,232089,6,0,P|65:172|70:204,1,52.5000020027161
70,267,232251,2,0,P|101:319|127:338,1,52.5000020027161
198,329,232413,86,0,P|166:276|140:257,1,52.5000020027161
278,282,232575,6,0,P|317:252|332:212,1,52.5000020027161
275,152,232738,6,0,P|281:103|263:64,1,52.5000020027161
178,62,232900,85,0,0:0:0:0:
146,22,232981,1,0,0:0:0:0:
95,23,233062,1,0,0:0:0:0:
65,63,233143,1,0,0:0:0:0:
79,112,233224,2,0,P|116:138|159:141,1,52.5000020027161
26,181,233386,5,0,0:0:0:0:
68,211,233467,1,0,0:0:0:0:
118,227,233548,2,0,P|174:235|215:221,1,52.5000020027161
112,323,233710,5,0,0:0:0:0:
163,331,233791,1,0,0:0:0:0:
214,322,233872,1,0,0:0:0:0:
260,297,233953,1,0,0:0:0:0:
293,256,234035,2,0,P|306:217|300:182,1,52.5000020027161
383,135,234197,85,0,0:0:0:0:
332,126,234278,1,0,0:0:0:0:
280,135,234359,1,0,0:0:0:0:
235,161,234440,1,0,0:0:0:0:
202,202,234522,2,0,P|189:241|195:276,1,52.5000020027161
293,256,234683,5,0,0:0:0:0:
252,223,234764,1,0,0:0:0:0:
204,202,234846,2,0,P|166:188|116:188,1,52.5000020027161
49,189,235008,5,0,0:0:0:0:
64,239,235089,1,0,0:0:0:0:
91,283,235170,1,0,0:0:0:0:
130,319,235251,1,0,0:0:0:0:
177,342,235332,2,0,P|219:356|263:349,1,52.5000020027161
333,353,235494,85,0,0:0:0:0:
318,303,235575,1,0,0:0:0:0:
291,259,235656,1,0,0:0:0:0:
252,223,235737,1,0,0:0:0:0:
205,200,235818,2,0,P|163:186|119:193,1,52.5000020027161
252,223,235981,5,0,0:0:0:0:
289,186,236062,1,0,0:0:0:0:
305,137,236143,2,0,P|313:100|306:68,1,52.5000020027161
414,106,236305,5,0,0:0:0:0:
377,142,236386,1,0,0:0:0:0:
361,192,236467,1,0,0:0:0:0:
369,243,236548,1,0,0:0:0:0:
399,286,236629,2,0,P|435:314|469:315,1,52.5000020027161
337,339,236792,85,0,0:0:0:0:
297,305,236873,1,0,0:0:0:0:
248,287,236954,1,0,0:0:0:0:
196,287,237035,1,0,0:0:0:0:
147,305,237116,2,0,P|114:331|95:365,1,52.5000020027161
58,246,237278,5,0,0:0:0:0:
89,204,237359,1,0,0:0:0:0:
92,153,237440,2,0,P|76:116|65:102,1,52.5000020027161
104,8,237602,5,0,0:0:0:0:
147,35,237683,1,0,0:0:0:0:
176,79,237765,2,0,P|186:109|183:143,1,52.5000020027161
247,45,237927,85,0,0:0:0:0:
261,95,238008,1,0,0:0:0:0:
260,147,238089,2,0,P|253:197|240:221,1,52.5000020027161
161,264,238251,37,0,0:0:0:0:
203,299,238332,1,0,0:0:0:0:
257,314,238413,1,0,0:0:0:0:
312,306,238494,1,0,0:0:0:0:
358,276,238575,1,0,0:0:0:0:
336,225,238656,1,0,0:0:0:0:
333,169,238737,1,0,0:0:0:0:
350,116,238818,1,0,0:0:0:0:
464,68,238900,5,0,0:0:0:0:
471,128,238981,1,0,0:0:0:0:
468,189,239062,1,0,0:0:0:0:
455,249,239143,1,0,0:0:0:0:
431,305,239224,1,0,0:0:0:0:
397,356,239305,1,0,0:0:0:0:
312,306,239386,5,0,0:0:0:0:
272,259,239467,1,0,0:0:0:0:
242,206,239548,1,0,0:0:0:0:
223,148,239629,1,0,0:0:0:0:
216,87,239710,1,0,0:0:0:0:
220,26,239791,1,0,0:0:0:0:
328,87,239873,85,0,0:0:0:0:
280,125,239954,1,0,0:0:0:0:
223,148,240035,1,0,0:0:0:0:
163,153,240116,1,0,0:0:0:0:
87,56,240197,5,0,0:0:0:0:
95,116,240278,1,0,0:0:0:0:
94,177,240359,1,0,0:0:0:0:
84,238,240440,1,0,0:0:0:0:
65,296,240521,1,0,0:0:0:0:
37,350,240602,1,0,0:0:0:0:
152,309,240683,5,0,0:0:0:0:
202,276,240764,1,0,0:0:0:0:
259,253,240845,1,0,0:0:0:0:
319,242,240926,1,0,0:0:0:0:
380,243,241007,1,0,0:0:0:0:
440,257,241088,1,0,0:0:0:0:
359,356,241170,85,0,0:0:0:0:
330,302,241251,1,0,0:0:0:0:
319,242,241332,1,0,0:0:0:0:
327,182,241413,1,0,0:0:0:0:
412,94,241494,5,0,0:0:0:0:
377,144,241575,1,0,0:0:0:0:
328,180,241656,1,0,0:0:0:0:
270,199,241737,1,0,0:0:0:0:
209,199,241818,1,0,0:0:0:0:
151,179,241899,1,0,0:0:0:0:
192,59,241981,5,0,0:0:0:0:
248,35,242062,1,0,0:0:0:0:
309,33,242143,1,0,0:0:0:0:
366,53,242224,1,0,0:0:0:0:
412,94,242305,1,0,0:0:0:0:
439,148,242386,1,0,0:0:0:0:
328,180,242467,101,0,0:0:0:0:
360,232,242548,1,0,0:0:0:0:
372,292,242629,1,0,0:0:0:0:
365,352,242710,1,0,0:0:0:0:
285,257,242792,5,0,0:0:0:0:
251,307,242873,1,0,0:0:0:0:
197,335,242954,1,0,0:0:0:0:
137,333,243035,1,0,0:0:0:0:
85,303,243116,1,0,0:0:0:0:
54,250,243197,1,0,0:0:0:0:
74,130,243278,2,0,P|132:101|180:111,1,61.2500005841255
248,92,243440,69,0,0:0:0:0:
248,92,243521,1,0,0:0:0:0:
248,92,243602,2,0,L|320:92,1,61.2500005841255
257,204,243765,101,0,0:0:0:0:
257,204,243846,1,0,0:0:0:0:
257,204,243927,2,0,L|167:207,1,61.2500005841255
247,91,244089,21,0,0:0:0:0:
301,61,244170,1,0,0:0:0:0:
364,59,244251,1,0,0:0:0:0:
420,86,244332,1,0,0:0:0:0:
458,136,244413,1,0,0:0:0:0:
469,197,244494,1,0,0:0:0:0:
355,143,244575,5,0,0:0:0:0:
385,197,244656,1,0,0:0:0:0:
384,259,244737,1,0,0:0:0:0:
350,311,244818,1,0,0:0:0:0:
295,339,244899,1,0,0:0:0:0:
233,335,244980,1,0,0:0:0:0:
298,225,245062,5,0,0:0:0:0:
239,243,245143,1,0,0:0:0:0:
189,208,245224,1,0,0:0:0:0:
184,148,245305,1,0,0:0:0:0:
110,253,245386,85,0,0:0:0:0:
82,195,245467,1,0,0:0:0:0:
83,131,245548,1,0,0:0:0:0:
114,74,245629,1,0,0:0:0:0:
166,37,245710,1,0,0:0:0:0:
230,29,245791,1,0,0:0:0:0:
184,148,245873,5,0,0:0:0:0:
247,137,245954,1,0,0:0:0:0:
306,163,246035,1,0,0:0:0:0:
339,217,246116,1,0,0:0:0:0:
336,281,246197,1,0,0:0:0:0:
299,332,246278,1,0,0:0:0:0:
209,239,246359,5,0,0:0:0:0:
190,300,246440,1,0,0:0:0:0:
141,340,246521,1,0,0:0:0:0:
77,344,246602,1,0,0:0:0:0:
130,222,246683,85,0,0:0:0:0:
172,171,246764,1,0,0:0:0:0:
229,137,246845,1,0,0:0:0:0:
294,123,246926,1,0,0:0:0:0:
359,131,247007,1,0,0:0:0:0:
419,161,247088,1,0,0:0:0:0:
321,254,247170,5,0,0:0:0:0:
276,302,247251,1,0,0:0:0:0:
216,331,247332,1,0,0:0:0:0:
150,336,247413,1,0,0:0:0:0:
87,317,247494,1,0,0:0:0:0:
35,276,247575,1,0,0:0:0:0:
167,276,247656,5,0,0:0:0:0:
207,223,247737,1,0,0:0:0:0:
265,192,247818,1,0,0:0:0:0:
331,186,247899,1,0,0:0:0:0:
405,302,247981,85,0,0:0:0:0:
337,311,248062,1,0,0:0:0:0:
269,320,248143,1,0,0:0:0:0:
202,330,248224,1,0,0:0:0:0:
134,339,248305,1,0,0:0:0:0:
67,349,248386,1,0,0:0:0:0:
49,213,248467,5,0,0:0:0:0:
107,177,248548,1,0,0:0:0:0:
165,141,248629,1,0,0:0:0:0:
223,105,248710,1,0,0:0:0:0:
281,69,248791,1,0,0:0:0:0:
339,33,248873,1,0,0:0:0:0:
421,144,248954,5,0,0:0:0:0:
361,176,249035,1,0,0:0:0:0:
301,209,249116,1,0,0:0:0:0:
241,241,249197,1,0,0:0:0:0:
100,260,249278,85,0,0:0:0:0:
49,213,249359,1,0,0:0:0:0:
23,149,249440,1,0,0:0:0:0:
30,80,249521,1,0,0:0:0:0:
128,179,249602,5,0,0:0:0:0:
121,110,249683,1,0,0:0:0:0:
153,49,249764,1,0,0:0:0:0:
213,15,249845,1,0,0:0:0:0:
200,156,249927,5,0,0:0:0:0:
244,103,250008,1,0,0:0:0:0:
311,87,250089,1,0,0:0:0:0:
374,113,250170,1,0,0:0:0:0:
274,211,250251,85,0,0:0:0:0:
342,218,250332,1,0,0:0:0:0:
395,262,250413,1,0,0:0:0:0:
413,329,250494,1,0,0:0:0:0:
276,302,250575,5,0,0:0:0:0:
207,317,250656,1,0,0:0:0:0:
139,333,250737,1,0,0:0:0:0:
71,348,250818,1,0,0:0:0:0:
173,250,250900,5,0,0:0:0:0:
126,197,250981,1,0,0:0:0:0:
80,145,251062,1,0,0:0:0:0:
33,92,251143,1,0,0:0:0:0:
167,132,251224,85,0,0:0:0:0:
229,100,251305,1,0,0:0:0:0:
291,68,251386,1,0,0:0:0:0:
354,36,251467,1,0,0:0:0:0:
280,155,251548,5,0,0:0:0:0:
333,200,251629,1,0,0:0:0:0:
387,245,251710,1,0,0:0:0:0:
440,290,251791,1,0,0:0:0:0:
346,340,251873,5,0,0:0:0:0:
346,340,251954,1,0,0:0:0:0:
346,340,252035,1,0,0:0:0:0:
346,340,252116,1,0,0:0:0:0:
226,311,252197,2,0,L|192:229,1,61.2500005841255
99,232,252359,2,0,L|112:161,1,52.5000020027161
108,180,252521,1,0,0:0:0:0:
108,180,252602,1,0,0:0:0:0:
150,107,252683,86,0,L|210:130,1,43.75
227,62,252846,2,0,L|287:59,1,35
261,60,253008,1,0,0:0:0:0:
261,60,253089,1,0,0:0:0:0:
317,87,253170,5,0,0:0:0:0:
372,129,253278,1,0,0:0:0:0:
384,197,253386,1,0,0:0:0:0:
366,264,253494,1,0,0:0:0:0:
316,313,253602,1,0,0:0:0:0:
246,319,253710,1,0,0:0:0:0:
178,298,253819,1,0,0:0:0:0:
122,209,253981,5,0,0:0:0:0:
113,104,254143,1,0,0:0:0:0:
166,13,254305,1,0,0:0:0:0:
372,48,254467,5,0,0:0:0:0:
347,326,254629,1,0,0:0:0:0:
226,253,254792,1,0,0:0:0:0:
226,253,255116,1,0,0:0:0:0:
226,253,255440,1,0,0:0:0:0:
434,276,255602,5,0,0:0:0:0:
265,327,255765,1,0,0:0:0:0:
296,190,255927,1,0,0:0:0:0:
296,190,256089,1,0,0:0:0:0:
296,190,256413,1,0,0:0:0:0:
405,10,256738,101,0,0:0:0:0:
378,217,256900,1,0,0:0:0:0:
299,102,257062,1,0,0:0:0:0:
299,102,257386,1,0,0:0:0:0:
299,102,257710,1,0,0:0:0:0:
149,249,258035,5,0,0:0:0:0:
30,75,258197,2,0,L|166:88,1,105.000004005432
238,178,258521,1,0,0:0:0:0:
133,169,258683,1,0,0:0:0:0:
264,333,258846,2,0,L|126:326,1,105.000004005432
31,160,259170,101,0,0:0:0:0:
31,160,259251,1,0,0:0:0:0:
31,160,259332,1,0,0:0:0:0:
309,187,259656,5,0,0:0:0:0:
186,256,259819,2,0,L|319:262,1,105
290,260,260143,1,0,0:0:0:0:
290,260,260224,1,0,0:0:0:0:
290,260,260305,1,0,0:0:0:0:
430,275,260467,5,0,0:0:0:0:
438,135,260629,1,0,0:0:0:0:
331,42,260792,6,0,L|198:36,1,105
156,28,261116,69,0,0:0:0:0:
84,148,261278,1,0,0:0:0:0:
216,103,261440,5,0,0:0:0:0:
212,312,261602,1,0,0:0:0:0:
449,245,261765,5,0,0:0:0:0:
192,209,261927,1,0,0:0:0:0:
440,95,262089,2,0,L|363:236,1,136.500000520706
143,330,262413,5,0,0:0:0:0:
45,60,262575,1,0,0:0:0:0:
303,152,262738,1,0,0:0:0:0:
45,307,262900,1,0,0:0:0:0:
201,66,263062,1,0,0:0:0:0:
315,359,263224,1,0,0:0:0:0:
76,176,263386,1,0,0:0:0:0:
280,223,263548,70,0,L|366:247,1,52.5000020027161
430,268,263710,1,0,0:0:0:0:
430,268,263792,1,0,0:0:0:0:
430,268,263873,1,0,0:0:0:0:
322,87,264035,6,0,L|226:59,1,52.5000020027161
52,298,264359,102,0,L|121:312,1,52.5000020027161
206,328,264521,21,0,0:0:0:0:
380,211,264683,102,0,L|289:217,1,52.5000020027161
221,219,264846,5,0,0:0:0:0:
46,47,265170,38,0,L|39:218,1,122.500001168251
222,5,265494,5,0,0:0:0:0:
136,234,265656,1,0,0:0:0:0:
313,63,265819,5,0,0:0:0:0:
375,299,265981,1,0,0:0:0:0:
233,98,266143,85,0,0:0:0:0:
216,342,266305,1,0,0:0:0:0:
361,145,266467,5,0,0:0:0:0:
488,354,266629,1,0,0:0:0:0:
484,292,266710,1,0,0:0:0:0:
481,231,266791,5,0,0:0:0:0:
325,40,266954,1,0,0:0:0:0:
257,275,267116,85,0,0:0:0:0:
399,75,267278,1,0,0:0:0:0:
343,313,267440,5,0,0:0:0:0:
203,111,267602,1,0,0:0:0:0:
18,273,267765,5,0,0:0:0:0:
250,196,267927,1,0,0:0:0:0:
308,178,268008,1,0,0:0:0:0:
367,161,268089,85,0,0:0:0:0:
131,97,268251,1,0,0:0:0:0:
289,283,268413,5,0,0:0:0:0:
52,346,268575,1,0,0:0:0:0:
250,196,268738,5,0,0:0:0:0:
8,157,268900,1,0,0:0:0:0:
219,49,269062,86,0,P|285:33|371:63,1,122.500001168251
388,66,269305,1,0,0:0:0:0:
434,106,269386,1,0,0:0:0:0:
462,160,269467,1,0,0:0:0:0:
466,221,269548,1,0,0:0:0:0:
446,279,269629,1,0,0:0:0:0:
406,324,269710,1,0,0:0:0:0:
352,351,269791,1,0,0:0:0:0:
291,355,269872,1,0,0:0:0:0:
233,335,269953,1,0,0:0:0:0:
188,295,270035,2,0,P|156:239|167:161,1,105.000004005432
406,324,270359,6,0,L|275:239,1,140
480,44,270683,5,0,0:0:0:0:
219,150,270846,1,0,0:0:0:0:
485,233,271008,85,0,0:0:0:0:
251,79,271170,1,0,0:0:0:0:
40,263,271332,5,0,0:0:0:0:
310,190,271494,1,0,0:0:0:0:
51,82,271656,5,0,0:0:0:0:
267,261,271819,1,0,0:0:0:0:
319,307,271900,1,0,0:0:0:0:
368,355,271981,85,0,0:0:0:0:
440,84,272143,5,0,0:0:0:0:
169,13,272305,5,0,0:0:0:0:
93,282,272467,86,0,L|270:175,1,140
440,84,272792,5,0,0:0:0:0:
164,131,272954,1,0,0:0:0:0:
378,309,273116,1,0,0:0:0:0:
315,36,273278,1,0,0:0:0:0:
40,89,273440,1,0,0:0:0:0:
34,158,273521,1,0,0:0:0:0:
52,225,273602,1,0,0:0:0:0:
332,252,273765,1,0,0:0:0:0:
265,230,273846,1,0,0:0:0:0:
196,238,273927,5,0,0:0:0:0:
10,372,274170,101,0,0:0:0:0:
465,296,274413,69,0,0:0:0:0:
8,200,274656,5,0,0:0:0:0:
474,116,274900,53,0,0:0:0:0:
1,19,275143,5,0,0:0:0:0:
256,310,276521,102,0,P|206:336|64:298,1,183.750001752377
102,279,277061,2,0,P|65:213|58:129,1,142.916668029626
96,140,277493,2,0,P|100:82|131:32,1,102.083334306876
158,61,277818,6,0,P|208:35|350:73,1,183.750001752377
312,92,278358,2,0,P|349:158|356:242,1,142.916668029626
318,231,278790,2,0,P|314:289|283:339,1,102.083334306876
256,310,279115,102,0,B|218:336|161:349,1,61.2500005841255
164,220,279439,2,0,P|183:257|189:290,1,61.2500005841255
157,156,279764,2,0,B|195:130|252:117,1,61.2500005841255
249,246,280088,2,0,P|230:209|224:176,1,61.2500005841255
249,70,280412,2,0,P|286:125|290:207,1,122.500001168251
355,72,280899,1,0,0:0:0:0:
379,191,281061,1,0,0:0:0:0:
353,310,281223,1,0,0:0:0:0:
239,355,281385,1,0,0:0:0:0:
118,329,281548,1,0,0:0:0:0:
47,228,281710,6,0,P|26:147|55:32,1,183.750001752377
32,89,282250,2,0,P|106:104|167:152,1,142.916668029626
127,116,282683,2,0,P|169:73|225:53,1,102.083334306876
239,31,283007,102,0,P|260:112|231:227,1,183.750001752377
254,170,283547,2,0,P|180:155|119:107,1,142.916668029626
159,143,283980,2,0,P|117:186|61:206,1,102.083334306876
79,202,284304,6,0,L|5:199,1,61.2500005841255
118,271,284629,2,0,L|40:289,1,61.2500005841255
173,327,284953,2,0,L|104:365,1,61.2500005841255
241,357,285277,2,0,L|206:407,1,61.2500005841255
285,290,285602,2,0,L|384:359,1,70
255,220,285926,2,0,L|352:234,1,70
198,168,286250,2,0,L|310:144,1,70
125,160,286575,2,0,L|193:66,1,70
41,226,286899,6,0,L|55:347,1,87.5
205,231,287223,2,0,L|176:348,1,87.5
335,226,287548,2,0,L|336:336,1,87.5
482,218,287872,2,0,L|491:360,1,87.5
459,132,288196,6,0,L|441:22,1,87.5
300,146,288521,2,0,L|320:25,1,87.5
157,136,288845,2,0,L|141:26,1,87.5
12,164,289169,2,0,L|27:69,1,87.5
142,207,289493,6,0,L|28:231,1,87.5
220,160,289818,2,0,L|123:129,1,87.5
262,254,290142,2,0,L|160:269,1,87.5
330,185,290466,2,0,L|267:101,1,87.5
383,255,290791,2,0,L|292:328,1,87.5
469,227,291115,2,0,L|392:135,1,87.5
347,101,291358,1,0,0:0:0:0:
263,76,291439,85,0,0:0:0:0:
113,180,291602,1,0,0:0:0:0:
298,213,291764,1,0,0:0:0:0:
154,79,291926,1,0,0:0:0:0:
209,269,292088,6,0,P|236:299|296:304,1,78.7500030040742
272,308,292575,2,0,P|316:308|351:268,1,78.7500030040742
341,287,293061,2,0,P|355:229|352:214,1,52.5000020027161
355,237,293385,6,0,P|348:167|328:126,1,105
334,136,293872,2,0,P|286:88|243:74,1,105
264,87,294358,2,0,L|164:87,1,70
194,87,294683,86,0,P|145:98|91:147,1,105.000004005432
102,131,295007,2,0,P|183:163|205:191,1,105.000004005432
194,175,295331,6,0,P|98:199|40:250,1,157.500006008148
53,234,295656,2,0,P|91:234|123:241,1,59.0625022530557
126,243,295818,1,0,0:0:0:0:
143,249,295858,1,0,0:0:0:0:
158,258,295899,1,0,0:0:0:0:
172,268,295939,1,0,0:0:0:0:
205,309,295980,21,0,0:0:0:0:
128,113,296142,1,0,0:0:0:0:
321,31,296304,1,0,0:0:0:0:
405,222,296466,1,0,0:0:0:0:
253,74,296629,5,0,0:0:0:0:
461,52,296791,1,0,0:0:0:0:
485,260,296953,1,0,0:0:0:0:
276,285,297115,1,0,0:0:0:0:
61,166,297277,5,0,0:0:0:0:
170,111,297358,1,0,0:0:0:0:
116,221,297439,1,0,0:0:0:0:
93,99,297521,1,0,0:0:0:0:
180,184,297602,1,0,0:0:0:0:
237,76,297683,1,0,0:0:0:0:
262,195,297764,1,0,0:0:0:0:
170,111,297845,1,0,0:0:0:0:
291,128,297926,101,0,0:0:0:0:
318,247,298007,1,0,0:0:0:0:
366,134,298088,1,0,0:0:0:0:
262,195,298169,1,0,0:0:0:0:
384,203,298250,1,0,0:0:0:0:
342,317,298331,1,0,0:0:0:0:
438,241,298412,1,0,0:0:0:0:
318,247,298493,1,0,0:0:0:0:
219,348,298575,5,0,0:0:0:0:
149,346,298656,1,0,0:0:0:0:
89,311,298737,1,0,0:0:0:0:
54,252,298818,1,0,0:0:0:0:
51,183,298899,1,0,0:0:0:0:
82,121,298980,1,0,0:0:0:0:
134,77,299061,85,0,0:0:0:0:
153,143,299142,1,0,0:0:0:0:
195,199,299223,1,0,0:0:0:0:
254,235,299304,1,0,0:0:0:0:
323,248,299385,1,0,0:0:0:0:
391,236,299466,1,0,0:0:0:0:
369,177,299547,5,0,0:0:0:0:
360,108,299628,1,0,0:0:0:0:
390,46,299709,1,0,0:0:0:0:
450,11,299790,1,0,0:0:0:0:
317,31,299872,5,0,0:0:0:0:
286,94,299953,1,0,0:0:0:0:
245,150,300034,1,0,0:0:0:0:
195,199,300115,1,0,0:0:0:0:
137,239,300196,1,0,0:0:0:0:
74,269,300277,1,0,0:0:0:0:
4,269,300358,85,0,0:0:0:0:
74,269,300439,1,0,0:0:0:0:
143,276,300520,1,0,0:0:0:0:
212,290,300601,1,0,0:0:0:0:
278,312,300682,1,0,0:0:0:0:
342,341,300763,1,0,0:0:0:0:
406,366,300845,5,0,0:0:0:0:
342,341,300926,1,0,0:0:0:0:
296,289,301007,1,0,0:0:0:0:
278,221,301088,1,0,0:0:0:0:
281,81,301169,5,0,0:0:0:0:
346,104,301250,1,0,0:0:0:0:
394,154,301331,2,0,P|426:203|436:268,1,70
410,84,301493,85,0,0:0:0:0:
410,84,301575,1,0,0:0:0:0:
410,84,301656,2,0,P|427:45|451:21,1,70
394,154,301818,5,0,0:0:0:0:
371,219,301899,1,0,0:0:0:0:
321,267,301980,2,0,P|272:298|207:308,1,70
391,283,302142,5,0,0:0:0:0:
391,283,302224,1,0,0:0:0:0:
391,283,302305,2,0,P|430:300|454:324,1,70
313,339,302466,37,0,0:0:0:0:
243,343,302547,1,0,0:0:0:0:
173,335,302628,1,0,0:0:0:0:
107,313,302709,1,0,0:0:0:0:
34,192,302791,5,0,0:0:0:0:
79,139,302872,1,0,0:0:0:0:
136,97,302953,1,0,0:0:0:0:
200,70,303034,1,0,0:0:0:0:
330,121,303115,5,0,0:0:0:0:
290,178,303196,1,0,0:0:0:0:
237,223,303277,1,0,0:0:0:0:
174,252,303358,1,0,0:0:0:0:
310,281,303439,5,0,0:0:0:0:
348,223,303520,5,0,0:0:0:0:
402,177,303601,5,0,0:0:0:0:
465,148,303682,85,0,0:0:0:0:
450,289,303764,5,0,0:0:0:0:
391,326,303845,1,0,0:0:0:0:
325,349,303926,1,0,0:0:0:0:
255,354,304007,1,0,0:0:0:0:
186,343,304088,1,0,0:0:0:0:
122,315,304169,1,0,0:0:0:0:
255,354,304250,5,0,0:0:0:0:
213,299,304331,1,0,0:0:0:0:
190,233,304412,1,0,0:0:0:0:
187,163,304493,1,0,0:0:0:0:
204,96,304574,1,0,0:0:0:0:
240,36,304655,1,0,0:0:0:0:
187,163,304737,85,0,0:0:0:0:
245,126,304818,1,0,0:0:0:0:
313,110,304899,1,0,0:0:0:0:
382,118,304980,1,0,0:0:0:0:
451,238,305061,5,0,0:0:0:0:
392,273,305142,1,0,0:0:0:0:
323,275,305223,1,0,0:0:0:0:
257,249,305304,1,0,0:0:0:0:
190,233,305385,1,0,0:0:0:0:
122,248,305466,1,0,0:0:0:0:
22,348,305548,5,0,0:0:0:0:
57,289,305629,1,0,0:0:0:0:
59,220,305710,1,0,0:0:0:0:
33,154,305791,1,0,0:0:0:0:
19,87,305872,1,0,0:0:0:0:
32,23,305953,1,0,0:0:0:0:
100,145,306034,85,0,0:0:0:0:
159,180,306115,1,0,0:0:0:0:
228,182,306196,1,0,0:0:0:0:
294,156,306277,1,0,0:0:0:0:
292,16,306358,5,0,0:0:0:0:
293,85,306439,1,0,0:0:0:0:
294,155,306520,1,0,0:0:0:0:
295,225,306601,1,0,0:0:0:0:
293,85,306683,5,0,0:0:0:0:
352,122,306764,1,0,0:0:0:0:
411,159,306845,1,0,0:0:0:0:
470,196,306926,1,0,0:0:0:0:
352,122,307007,85,0,0:0:0:0:
294,155,307088,1,0,0:0:0:0:
231,189,307169,1,0,0:0:0:0:
172,223,307250,1,0,0:0:0:0:
294,155,307331,5,0,0:0:0:0:
294,224,307412,1,0,0:0:0:0:
295,294,307493,1,0,0:0:0:0:
295,364,307574,1,0,0:0:0:0:
437,363,307656,69,0,0:0:0:0:
367,364,307737,1,0,0:0:0:0:
297,364,307818,1,0,0:0:0:0:
227,362,307899,1,0,0:0:0:0:
159,346,307980,1,0,0:0:0:0:
99,310,308061,1,0,0:0:0:0:
56,256,308142,1,0,0:0:0:0:
37,189,308223,1,0,0:0:0:0:
52,121,308304,1,0,0:0:0:0:
102,73,308385,1,0,0:0:0:0:
167,49,308466,1,0,0:0:0:0:
237,49,308547,1,0,0:0:0:0:
302,73,308628,1,0,0:0:0:0:
351,122,308710,1,0,0:0:0:0:
374,188,308791,1,0,0:0:0:0:
361,253,308872,1,0,0:0:0:0:
226,257,308953,21,0,0:0:0:0:
227,188,309034,1,0,0:0:0:0:
254,124,309115,1,0,0:0:0:0:
302,73,309196,1,0,0:0:0:0:
365,44,309277,1,0,0:0:0:0:
435,39,309358,1,0,0:0:0:0:
351,122,309439,5,0,0:0:0:0:
302,72,309520,1,0,0:0:0:0:
238,44,309601,1,0,0:0:0:0:
168,42,309682,1,0,0:0:0:0:
103,65,309763,1,0,0:0:0:0:
51,111,309844,1,0,0:0:0:0:
168,42,309926,5,0,0:0:0:0:
238,45,310007,1,0,0:0:0:0:
302,73,310088,1,0,0:0:0:0:
351,122,310169,1,0,0:0:0:0:
418,244,310250,85,0,0:0:0:0:
350,225,310331,1,0,0:0:0:0:
281,217,310412,1,0,0:0:0:0:
211,219,310493,1,0,0:0:0:0:
142,232,310574,1,0,0:0:0:0:
76,255,310655,1,0,0:0:0:0:
210,289,310737,5,0,0:0:0:0:
211,219,310818,1,0,0:0:0:0:
190,153,310899,1,0,0:0:0:0:
149,96,310980,1,0,0:0:0:0:
93,55,311061,1,0,0:0:0:0:
26,34,311142,1,0,0:0:0:0:
35,171,311223,5,0,0:0:0:0:
99,144,311304,1,0,0:0:0:0:
149,96,311385,1,0,0:0:0:0:
179,32,311466,1,0,0:0:0:0:
263,143,311547,85,0,0:0:0:0:
330,160,311628,1,0,0:0:0:0:
398,177,311709,1,0,0:0:0:0:
466,194,311790,1,0,0:0:0:0:
446,54,311872,5,0,0:0:0:0:
455,123,311953,1,0,0:0:0:0:
464,192,312034,1,0,0:0:0:0:
474,262,312115,1,0,0:0:0:0:
466,194,312196,5,0,0:0:0:0:
402,222,312277,1,0,0:0:0:0:
338,251,312358,1,0,0:0:0:0:
274,279,312439,1,0,0:0:0:0:
382,368,312520,85,0,0:0:0:0:
327,323,312601,1,0,0:0:0:0:
273,279,312682,1,0,0:0:0:0:
219,235,312763,1,0,0:0:0:0:
344,169,312845,69,0,0:0:0:0:
280,141,312926,1,0,0:0:0:0:
211,129,313007,1,0,0:0:0:0:
141,134,313088,1,0,0:0:0:0:
275,97,313169,5,0,0:0:0:0:
207,110,313250,1,0,0:0:0:0:
141,134,313331,1,0,0:0:0:0:
80,168,313412,1,0,0:0:0:0:
161,58,313493,5,0,0:0:0:0:
109,104,313574,1,0,0:0:0:0:
79,167,313655,1,0,0:0:0:0:
75,236,313736,1,0,0:0:0:0:
47,106,313818,37,0,0:0:0:0:
79,167,313899,85,0,0:0:0:0:
136,205,313980,101,0,0:0:0:0:
205,211,314061,5,0,0:0:0:0:
344,207,314142,5,0,0:0:0:0:
407,183,314223,1,0,0:0:0:0:
431,120,314304,1,0,0:0:0:0:
399,60,314385,1,0,0:0:0:0:
333,45,314466,1,0,0:0:0:0:
279,86,314547,1,0,0:0:0:0:
205,211,314629,101,0,0:0:0:0:
173,271,314710,1,0,0:0:0:0:
197,335,314791,1,0,0:0:0:0:
260,360,314872,1,0,0:0:0:0:
321,331,314953,1,0,0:0:0:0:
341,266,315034,1,0,0:0:0:0:
334,128,315115,21,0,0:0:0:0:
279,86,315196,1,0,0:0:0:0:
213,64,315277,1,0,0:0:0:0:
143,64,315358,1,0,0:0:0:0:
40,160,315439,85,0,0:0:0:0:
38,230,315520,1,0,0:0:0:0:
71,291,315601,1,0,0:0:0:0:
128,329,315682,1,0,0:0:0:0:
197,335,315763,1,0,0:0:0:0:
261,307,315844,1,0,0:0:0:0:
381,210,315926,5,0,0:0:0:0:
435,168,316007,1,0,0:0:0:0:
442,101,316088,1,0,0:0:0:0:
399,48,316169,1,0,0:0:0:0:
331,42,316250,22,0,P|293:69|272:112,1,70
313,222,316412,6,0,P|359:219|400:193,1,70
435,168,316575,1,0,0:0:0:0:
442,101,316656,1,0,0:0:0:0:
331,42,316737,54,0,P|293:69|277:108,3,62.9999980773926
148,10,317061,22,0,P|140:55|169:121,3,77.0000023498536
54,136,317385,86,0,P|81:174|133:189,3,52.5000020027161
47,349,317710,22,0,P|92:356|167:292,3,87.5
180,294,318034,6,0,L|200:263,2,23.3333333333333
270,314,318250,2,0,L|274:273,2,23.3333333333333
363,308,318466,2,0,L|349:274,2,23.3333333333333
430,242,318683,2,0,L|398:222,2,23.3333333333333
455,152,318899,2,0,L|417:152,2,23.3333333333333
455,58,319115,2,0,L|416:73,2,23.3333333333333
342,141,319331,5,0,0:0:0:0:
165,27,319493,1,0,0:0:0:0:
119,233,319656,1,0,0:0:0:0:
279,97,319818,101,0,0:0:0:0:
74,142,319980,1,0,0:0:0:0:
187,320,320143,1,0,0:0:0:0:
394,302,320304,21,0,0:0:0:0:
434,269,320385,1,0,0:0:0:0:
459,223,320466,1,0,0:0:0:0:
463,171,320547,1,0,0:0:0:0:
440,67,320629,101,0,0:0:0:0:
267,186,320791,1,0,0:0:0:0:
101,314,320953,1,0,0:0:0:0:
321,23,321115,101,0,0:0:0:0:
267,186,321277,1,0,0:0:0:0:
220,353,321439,1,0,0:0:0:0:
175,143,321602,21,0,0:0:0:0:
225,155,321683,1,0,0:0:0:0:
267,186,321764,1,0,0:0:0:0:
294,231,321845,1,0,0:0:0:0:
322,336,321926,86,0,P|262:351|176:347,2,105.000004005432
486,205,322412,2,0,P|503:137|483:66,1,105.000004005432
383,280,322737,1,0,0:0:0:0:
498,103,322899,5,0,0:0:0:0:
474,56,322980,1,0,0:0:0:0:
433,24,323061,1,0,0:0:0:0:
382,14,323142,1,0,0:0:0:0:
280,37,323223,22,0,P|254:97|265:177,1,105.000004005432
44,118,323547,102,0,P|68:178|132:227,1,105.000004005432
289,288,323872,5,0,0:0:0:0:
484,211,324034,1,0,0:0:0:0:
327,351,324196,5,0,0:0:0:0:
392,151,324358,1,0,0:0:0:0:
202,60,324520,53,0,0:0:0:0:
37,192,324683,1,0,0:0:0:0:
179,345,324845,1,0,0:0:0:0:
336,206,325007,1,0,0:0:0:0:
126,197,325169,5,0,0:0:0:0:
258,362,325332,1,0,0:0:0:0:
411,220,325493,1,0,0:0:0:0:
374,182,325574,1,0,0:0:0:0:
339,143,325655,1,0,0:0:0:0:
305,103,325736,1,0,0:0:0:0:
272,62,325818,101,0,0:0:0:0:
271,271,325980,1,0,0:0:0:0:
430,134,326142,1,0,0:0:0:0:
438,343,326304,5,0,0:0:0:0:
430,134,326466,1,0,0:0:0:0:
272,62,326629,1,0,0:0:0:0:
70,120,326791,5,0,0:0:0:0:
48,167,326872,1,0,0:0:0:0:
40,219,326953,1,0,0:0:0:0:
48,271,327034,1,0,0:0:0:0:
102,368,327115,5,0,0:0:0:0:
154,150,327277,2,0,L|154:61,1,56
275,40,327439,5,0,0:0:0:0:
323,274,327602,2,0,L|323:343,1,59.5000011348725
198,315,327764,37,0,0:0:0:0:
75,95,327926,2,0,L|75:25,1,62.9999980773926
198,80,328088,101,0,0:0:0:0:
406,244,328250,2,0,L|406:342,1,66.4999982242585
306,211,328412,6,0,L|303:121,1,70
392,32,328574,1,0,0:0:0:0:
461,155,328656,1,0,0:0:0:0:
461,294,328737,6,0,L|414:364,1,70
285,322,328899,2,0,L|200:357,1,70
81,327,329061,2,0,L|-15:329,1,70
12,188,329223,5,0,0:0:0:0:
47,189,329263,1,0,0:0:0:0:
82,189,329304,1,0,0:0:0:0:
117,190,329344,1,0,0:0:0:0:
151,191,329385,6,0,L|247:193,1,70
100,121,329547,2,0,L|191:98,1,70
326,64,329710,37,0,0:0:0:0:
368,130,329791,1,0,0:0:0:0:
378,207,329872,1,0,0:0:0:0:
354,282,329953,1,0,0:0:0:0:
301,339,330034,1,0,0:0:0:0:
228,368,330115,1,0,0:0:0:0:
150,364,330196,1,0,0:0:0:0:
81,327,330277,1,0,0:0:0:0:
35,264,330358,1,0,0:0:0:0:
12,188,330439,1,0,0:0:0:0:
20,110,330520,1,0,0:0:0:0:
55,41,330601,1,0,0:0:0:0:
105,192,330683,6,0,P|121:133|151:86,1,78.7500030040742
143,274,330845,6,0,P|176:223|228:185,1,78.7500030040742
334,121,331007,85,0,0:0:0:0:
408,103,331088,1,0,0:0:0:0:
471,147,331169,1,0,0:0:0:0:
480,222,331250,1,0,0:0:0:0:
431,280,331331,1,0,0:0:0:0:
354,282,331412,1,0,0:0:0:0:
298,226,331493,5,0,0:0:0:0:
349,169,331574,1,0,0:0:0:0:
426,167,331655,1,0,0:0:0:0:
480,222,331736,1,0,0:0:0:0:
477,298,331817,1,0,0:0:0:0:
419,348,331898,1,0,0:0:0:0:
344,349,331980,6,0,P|294:345|247:321,1,78.7500030040742
110,339,332142,2,0,P|157:321|209:323,1,78.7500030040742
31,286,332304,86,0,P|76:243|122:219,1,78.7500030040742
162,213,332466,1,0,0:0:0:0:
240,213,332547,1,0,0:0:0:0:
397,188,332629,6,0,P|360:160|278:153,1,78.7500030040742
214,43,332791,6,0,P|265:41|296:47,1,78.7500030040742
362,73,332953,1,0,0:0:0:0:
422,119,333034,1,0,0:0:0:0:
452,273,333115,102,0,P|418:324|354:357,1,78.7500030040742
250,305,333277,102,0,P|189:317|121:295,1,78.7500030040742
135,162,333439,22,0,P|83:127|51:63,1,78.7500030040742
214,43,333602,102,0,P|265:76|297:141,1,78.7500030040742
275,90,333764,1,0,0:0:0:0:
275,90,333845,1,0,0:0:0:0:
422,119,333926,102,0,P|434:179|412:247,1,78.7500030040742
432,195,334088,1,0,0:0:0:0:
432,195,334169,1,0,0:0:0:0:
380,326,334250,1,0,0:0:0:0:
249,380,334331,1,0,0:0:0:0:
117,326,334412,1,0,0:0:0:0:
63,195,334493,1,0,0:0:0:0:
118,64,334574,1,0,0:0:0:0:
248,10,334656,1,0,0:0:0:0:
380,64,334737,1,0,0:0:0:0:
432,195,334818,1,0,0:0:0:0:
331,338,334899,5,0,0:0:0:0:
277,268,334980,1,0,0:0:0:0:
224,199,335061,1,0,0:0:0:0:
170,130,335142,1,0,0:0:0:0:
118,64,335223,5,0,0:0:0:0:
205,70,335304,1,0,0:0:0:0:
288,95,335385,1,0,0:0:0:0:
365,137,335466,1,0,0:0:0:0:
432,195,335547,85,0,0:0:0:0:
346,211,335628,1,0,0:0:0:0:
258,230,335709,1,0,0:0:0:0:
174,245,335790,1,0,0:0:0:0:
87,259,335872,5,0,0:0:0:0:
123,180,335953,1,0,0:0:0:0:
186,119,336034,1,0,0:0:0:0:
266,85,336115,1,0,0:0:0:0:
353,83,336196,5,0,0:0:0:0:
350,170,336277,1,0,0:0:0:0:
318,251,336358,1,0,0:0:0:0:
259,315,336439,1,0,0:0:0:0:
182,355,336520,85,0,0:0:0:0:
157,273,336601,1,0,0:0:0:0:
190,194,336682,1,0,0:0:0:0:
267,155,336763,1,0,0:0:0:0:
350,173,336844,5,0,0:0:0:0:
350,170,336845,1,0,0:0:0:0:
279,217,336926,1,0,0:0:0:0:
196,197,337007,1,0,0:0:0:0:
155,123,337088,1,0,0:0:0:0:
182,42,337169,5,0,0:0:0:0:
321,363,337331,1,0,0:0:0:0:
48,301,337493,6,0,P|114:197|472:96,1,490
480,268,338142,2,0,P|311:260|225:208,1,245
253,23,338791,2,0,B|265:27|243:33|257:39|254:44|256:52|251:56|255:62|236:65|268:70|252:72|258:73|252:79|256:80|265:88|243:94|255:98|260:102|266:104|246:111|253:111|256:130,1,108.5
251,303,341385,22,0,P|210:328|121:318,1,87.5
31,227,341547,2,0,P|72:202|161:212,1,87.5
110,196,341710,1,0,0:0:0:0:
110,196,341791,1,0,0:0:0:0:
285,194,341872,6,0,P|244:219|155:209,1,87.5
65,118,342034,2,0,P|106:93|195:103,1,87.5
145,88,342197,1,0,0:0:0:0:
145,88,342278,1,0,0:0:0:0:
285,194,342358,6,0,P|310:235|300:324,1,87.5
175,167,342520,2,0,P|150:126|160:37,1,87.5
316,44,342683,86,0,P|341:85|331:174,1,87.5
510,183,342845,2,0,P|498:229|428:285,1,87.5
475,260,343007,1,0,0:0:0:0:
475,260,343088,1,0,0:0:0:0:
433,90,343169,6,0,P|421:136|351:192,1,87.5
472,325,343331,2,0,P|430:350|341:340,1,87.5
392,355,343493,1,0,0:0:0:0:
392,355,343574,1,0,0:0:0:0:
215,352,343656,6,0,P|226:305|296:249,1,87.5
176,117,343818,2,0,P|217:92|306:102,1,87.5
91,140,343980,86,0,L|249:95,1,87.5
344,68,344142,2,0,L|472:34,1,87.5
428,45,344304,1,0,0:0:0:0:
428,45,344385,1,0,0:0:0:0:
512,211,344466,6,0,L|427:188,1,87.5
259,140,344629,2,0,L|174:116,1,87.5
174,116,344791,1,0,0:0:0:0:
174,116,344872,1,0,0:0:0:0:
87,281,344953,6,0,L|171:257,1,87.5
342,211,345116,2,0,L|426:188,1,87.5
284,90,345277,86,0,P|233:66|138:63,1,87.5
31,24,345439,2,0,P|82:48|177:51,1,87.5
256,146,345602,6,0,P|205:122|110:119,1,87.5
6,80,345764,2,0,P|57:104|152:107,1,87.5
225,217,345926,6,0,P|174:193|79:190,1,87.5
341,255,346088,6,0,P|392:279|489:268,1,105.000004005432
230,287,346250,6,0,P|249:340|325:400,1,105.000004005432
106,258,346412,6,0,P|81:308|93:405,1,105.000004005432
61,182,346574,38,0,L|61:72,1,87.5
180,224,346737,2,0,L|180:111,1,87.5
180,136,346899,1,0,0:0:0:0:
180,136,346980,1,0,0:0:0:0:
335,56,347061,6,0,L|335:166,1,87.5
454,14,347224,2,0,L|454:127,1,87.5
454,102,347386,1,0,0:0:0:0:
454,102,347467,1,0,0:0:0:0:
340,231,347547,6,0,L|230:231,1,87.5
382,350,347710,2,0,L|269:350,1,87.5
124,307,347872,86,0,P|195:303|293:320,1,87.5
53,229,348034,2,0,P|124:225|222:242,1,87.5
140,225,348196,1,0,0:0:0:0:
140,225,348277,1,0,0:0:0:0:
296,146,348358,6,0,P|225:142|127:159,1,87.5
367,68,348520,2,0,P|296:64|198:81,1,87.5
280,64,348682,1,0,0:0:0:0:
280,64,348763,1,0,0:0:0:0:
303,239,348845,6,0,P|232:235|134:252,1,87.5
60,156,349007,2,0,P|131:152|229:169,1,87.5
322,152,349169,86,0,P|394:207|411:273,1,87.5
215,235,349331,2,0,P|287:290|304:356,1,87.5
284,285,349493,1,0,0:0:0:0:
284,285,349574,1,0,0:0:0:0:
195,114,349656,6,0,P|140:186|74:203,1,87.5
112,7,349818,2,0,P|57:79|-9:96,1,87.5
63,77,349980,1,0,0:0:0:0:
63,77,350061,1,0,0:0:0:0:
38,262,350142,6,0,P|110:317|127:383,1,87.5
145,184,350304,2,0,P|217:239|234:305,1,87.5
335,383,350466,5,0,0:0:0:0:
407,320,350547,1,0,0:0:0:0:
443,232,350628,1,0,0:0:0:0:
435,137,350709,1,0,0:0:0:0:
386,56,350790,1,0,0:0:0:0:
304,6,350871,1,0,0:0:0:0:
209,0,350952,1,0,0:0:0:0:
121,34,351033,1,0,0:0:0:0:
59,107,351115,5,0,0:0:0:0:
45,169,351169,1,0,0:0:0:0:
61,230,351223,1,0,0:0:0:0:
103,278,351277,1,0,0:0:0:0:
162,301,351331,1,0,0:0:0:0:
225,295,351385,1,0,0:0:0:0:
279,260,351439,6,0,P|319:192|152:177,1,320.833336393038
162,301,351764,101,0,0:0:0:0:
264,313,351845,1,0,0:0:0:0:
347,253,351926,1,0,0:0:0:0:
368,152,352007,1,0,0:0:0:0:
314,64,352088,1,0,0:0:0:0:
216,36,352169,1,0,0:0:0:0:
124,81,352250,1,0,0:0:0:0:
87,177,352331,1,0,0:0:0:0:
286,226,352412,5,0,0:0:0:0:
297,124,352493,1,0,0:0:0:0:
237,41,352574,1,0,0:0:0:0:
137,20,352655,1,0,0:0:0:0:
49,73,352736,1,0,0:0:0:0:
20,172,352817,1,0,0:0:0:0:
66,264,352898,1,0,0:0:0:0:
162,300,352979,1,0,0:0:0:0:
211,102,353061,101,0,0:0:0:0:
109,90,353142,1,0,0:0:0:0:
26,150,353223,1,0,0:0:0:0:
5,250,353304,1,0,0:0:0:0:
58,338,353385,1,0,0:0:0:0:
157,367,353466,1,0,0:0:0:0:
249,321,353547,1,0,0:0:0:0:
285,225,353628,1,0,0:0:0:0:
87,176,353710,5,0,0:0:0:0:
75,277,353791,1,0,0:0:0:0:
135,360,353872,1,0,0:0:0:0:
235,381,353953,1,0,0:0:0:0:
323,328,354034,1,0,0:0:0:0:
352,229,354115,1,0,0:0:0:0:
306,137,354196,1,0,0:0:0:0:
210,101,354277,1,0,0:0:0:0:
371,33,354358,85,0,0:0:0:0:
291,3,354439,1,0,0:0:0:0:
207,22,354520,1,0,0:0:0:0:
150,86,354601,1,0,0:0:0:0:
141,172,354682,1,0,0:0:0:0:
183,247,354763,1,0,0:0:0:0:
260,285,354845,22,0,P|308:300|385:266,1,87.5
486,193,355007,86,0,P|425:179|361:204,1,87.5
323,206,355169,1,0,0:0:0:0:
241,221,355250,1,0,0:0:0:0:
191,154,355331,1,0,0:0:0:0:
230,80,355412,1,0,0:0:0:0:
312,82,355493,1,0,0:0:0:0:
347,157,355574,1,0,0:0:0:0:
306,311,355656,5,0,0:0:0:0:
230,333,355737,1,0,0:0:0:0:
152,342,355818,1,0,0:0:0:0:
74,336,355899,1,0,0:0:0:0:
17,189,355980,5,0,0:0:0:0:
95,190,356061,1,0,0:0:0:0:
172,208,356142,1,0,0:0:0:0:
243,240,356223,1,0,0:0:0:0:
362,138,356304,101,0,0:0:0:0:
284,151,356385,1,0,0:0:0:0:
206,144,356466,1,0,0:0:0:0:
132,118,356547,1,0,0:0:0:0:
5,22,356629,101,0,0:0:0:0:
83,16,356710,1,0,0:0:0:0:
161,23,356791,1,0,0:0:0:0:
237,45,356872,1,0,0:0:0:0:
424,139,356953,5,0,0:0:0:0:
443,240,357034,1,0,0:0:0:0:
396,331,357115,1,0,0:0:0:0:
302,374,357196,1,0,0:0:0:0:
202,349,357277,1,0,0:0:0:0:
187,262,357358,5,0,0:0:0:0:
103,250,357439,85,0,0:0:0:0:
84,175,357520,5,0,0:0:0:0:
27,129,357602,5,0,0:0:0:0:
60,57,357683,85,0,0:0:0:0:
133,69,357764,5,0,0:0:0:0:
192,22,357845,5,0,0:0:0:0:
255,61,357926,101,0,0:0:0:0:
356,80,358007,1,0,0:0:0:0:
422,159,358088,1,0,0:0:0:0:
423,262,358169,1,0,0:0:0:0:
358,348,358250,5,0,0:0:0:0:
262,354,358331,1,0,0:0:0:0:
171,325,358412,1,0,0:0:0:0:
98,264,358493,1,0,0:0:0:0:
76,81,358574,101,0,0:0:0:0:
111,170,358655,1,0,0:0:0:0:
98,264,358736,1,0,0:0:0:0:
41,340,358817,1,0,0:0:0:0:
13,147,358899,5,0,0:0:0:0:
76,75,358980,1,0,0:0:0:0:
164,37,359061,1,0,0:0:0:0:
259,38,359142,1,0,0:0:0:0:
346,79,359223,1,0,0:0:0:0:
345,175,359304,1,0,0:0:0:0:
344,271,359385,1,0,0:0:0:0:
344,367,359466,1,0,0:0:0:0:
484,212,359547,86,0,L|471:78,1,105.000004005432
473,107,359710,1,0,0:0:0:0:
473,107,359791,1,0,0:0:0:0:
282,209,359872,6,0,L|293:83,1,108.500000827789
291,100,360034,1,0,0:0:0:0:
291,100,360115,1,0,0:0:0:0:
67,98,360196,102,0,L|78:276,1,112
74,209,360358,1,0,0:0:0:0:
74,209,360439,1,0,0:0:0:0:
206,19,360520,6,0,L|226:177,1,115.500001101494
220,133,360683,1,0,0:0:0:0:
220,133,360764,1,0,0:0:0:0:
122,349,360845,5,0,0:0:0:0:
240,336,360926,1,0,0:0:0:0:
358,324,361007,1,0,0:0:0:0:
477,312,361088,1,0,0:0:0:0:
364,285,361169,1,0,0:0:0:0:
248,259,361250,1,0,0:0:0:0:
132,232,361331,1,0,0:0:0:0:
19,205,361412,1,0,0:0:0:0:
137,191,361493,1,0,0:0:0:0:
255,177,361574,1,0,0:0:0:0:
373,163,361655,1,0,0:0:0:0:
491,150,361736,1,0,0:0:0:0:
377,119,361817,1,0,0:0:0:0:
262,89,361899,1,0,0:0:0:0:
146,59,361980,1,0,0:0:0:0:
31,29,362061,1,0,0:0:0:0:
255,177,362142,5,0,0:0:0:0:
282,310,362223,5,0,0:0:0:0:
397,383,362304,5,0,0:0:0:0:
512,351,362385,5,0,0:0:0:0:
512,233,362466,5,0,0:0:0:0:
512,102,362547,5,0,0:0:0:0:
440,38,362628,5,0,0:0:0:0:
311,80,362709,5,0,0:0:0:0:
110,281,362791,5,0,0:0:0:0:
224,356,362872,5,0,0:0:0:0:
357,326,362953,5,0,0:0:0:0:
428,210,363034,5,0,0:0:0:0:
393,78,363115,5,0,0:0:0:0:
274,16,363196,5,0,0:0:0:0:
144,51,363277,5,0,0:0:0:0:
82,173,363358,5,0,0:0:0:0:
257,177,363440,5,0,0:0:0:0:
229,310,363521,5,0,0:0:0:0:
114,383,363602,5,0,0:0:0:0:
0,351,363683,5,0,0:0:0:0:
0,233,363764,5,0,0:0:0:0:
0,102,363845,5,0,0:0:0:0:
71,38,363926,5,0,0:0:0:0:
200,80,364007,5,0,0:0:0:0:
402,281,364089,5,0,0:0:0:0:
288,356,364170,5,0,0:0:0:0:
155,326,364251,5,0,0:0:0:0:
84,210,364332,5,0,0:0:0:0:
119,78,364413,5,0,0:0:0:0:
238,16,364494,5,0,0:0:0:0:
368,51,364575,5,0,0:0:0:0:
430,173,364656,5,0,0:0:0:0:
462,344,364737,53,0,0:0:0:0:
322,343,364818,1,0,0:0:0:0:
182,343,364899,1,0,0:0:0:0:
175,204,364980,1,0,0:0:0:0:
429,86,365061,5,0,0:0:0:0:
289,86,365142,1,0,0:0:0:0:
154,95,365223,1,0,0:0:0:0:
80,214,365304,1,0,0:0:0:0:
350,287,365385,85,0,0:0:0:0:
210,285,365466,1,0,0:0:0:0:
72,281,365547,1,0,0:0:0:0:
29,148,365628,1,0,0:0:0:0:
288,31,365710,5,0,0:0:0:0:
148,28,365791,1,0,0:0:0:0:
8,25,365872,1,0,0:0:0:0:
47,152,365953,1,0,0:0:0:0:
72,281,366034,5,0,0:0:0:0:
212,284,366115,1,0,0:0:0:0:
352,286,366196,1,0,0:0:0:0:
443,180,366277,1,0,0:0:0:0:
163,177,366358,5,0,0:0:0:0:
302,177,366439,1,0,0:0:0:0:
442,177,366520,1,0,0:0:0:0:
512,77,366601,1,0,0:0:0:0:
255,72,366683,5,0,0:0:0:0:
394,73,366764,1,0,0:0:0:0:
512,75,366845,1,0,0:0:0:0:
512,212,366926,1,0,0:0:0:0:
512,343,367007,1,0,0:0:0:0:
386,343,367088,1,0,0:0:0:0:
246,343,367169,1,0,0:0:0:0:
141,254,367250,1,0,0:0:0:0:
137,120,367331,5,0,0:0:0:0:
276,122,367412,1,0,0:0:0:0:
416,125,367493,1,0,0:0:0:0:
512,128,367574,1,0,0:0:0:0:
386,343,367656,85,0,0:0:0:0:
246,341,367737,1,0,0:0:0:0:
106,340,367818,1,0,0:0:0:0:
0,338,367899,1,0,0:0:0:0:
20,64,367980,5,0,0:0:0:0:
159,54,368061,1,0,0:0:0:0:
299,44,368142,1,0,0:0:0:0:
438,34,368223,1,0,0:0:0:0:
509,304,368304,5,0,0:0:0:0:
369,294,368385,1,0,0:0:0:0:
229,285,368466,1,0,0:0:0:0:
89,276,368547,1,0,0:0:0:0:
177,7,368629,85,0,0:0:0:0:
235,134,368710,1,0,0:0:0:0:
293,261,368791,1,0,0:0:0:0:
351,388,368872,1,0,0:0:0:0:
72,375,368953,5,0,0:0:0:0:
146,256,369034,1,0,0:0:0:0:
221,137,369115,1,0,0:0:0:0:
295,19,369196,1,0,0:0:0:0:
505,204,369277,5,0,0:0:0:0:
372,160,369358,1,0,0:0:0:0:
239,116,369439,1,0,0:0:0:0:
106,72,369520,1,0,0:0:0:0:
384,21,369602,85,0,0:0:0:0:
317,143,369683,1,0,0:0:0:0:
250,266,369764,1,0,0:0:0:0:
183,389,369845,1,0,0:0:0:0:
451,342,369926,5,0,0:0:0:0:
322,377,370007,1,0,0:0:0:0:
201,320,370088,1,0,0:0:0:0:
147,197,370169,1,0,0:0:0:0:
187,70,370250,1,0,0:0:0:0:
300,0,370331,1,0,0:0:0:0:
205,247,370412,5,0,0:0:0:0:
78,267,370493,1,0,0:0:0:0:
0,181,370574,1,0,0:0:0:0:
0,52,370655,1,0,0:0:0:0:
94,0,370736,1,0,0:0:0:0:
218,12,370817,1,0,0:0:0:0:
454,124,370899,69,0,0:0:0:0:
512,230,370980,1,0,0:0:0:0:
454,338,371061,1,0,0:0:0:0:
330,337,371142,1,0,0:0:0:0:
102,176,371223,5,0,0:0:0:0:
215,93,371304,5,0,0:0:0:0:
334,91,371385,5,0,0:0:0:0:
312,216,371466,5,0,0:0:0:0:
185,272,371547,5,0,0:0:0:0:
65,231,371628,5,0,0:0:0:0:
65,93,371709,5,0,0:0:0:0:
157,24,371790,5,0,0:0:0:0:
296,22,371871,5,0,0:0:0:0:
433,49,371952,5,0,0:0:0:0:
423,164,372033,5,0,0:0:0:0:
389,297,372114,5,0,0:0:0:0:
261,348,372195,5,0,0:0:0:0:
122,352,372277,5,0,0:0:0:0:
2,291,372358,5,0,0:0:0:0:
0,155,372439,5,0,0:0:0:0:
24,18,372520,85,0,0:0:0:0:
261,348,372629,1,0,0:0:0:0:
431,27,372737,1,0,0:0:0:0:
130,231,372845,1,0,0:0:0:0:
423,164,372953,5,0,0:0:0:0:
113,64,373061,1,0,0:0:0:0:
343,294,373169,1,0,0:0:0:0:
294,15,373277,1,0,0:0:0:0:
232,263,373385,5,0,0:0:0:0:
394,64,373493,1,0,0:0:0:0:
149,149,373602,1,0,0:0:0:0:
394,223,373710,1,0,0:0:0:0:
238,96,373818,5,0,0:0:0:0:
343,294,373926,1,0,0:0:0:0:
150,237,374034,1,0,0:0:0:0:
332,154,374142,1,0,0:0:0:0:
293,212,374250,5,0,0:0:0:0:
224,200,374358,1,0,0:0:0:0:
267,145,374466,1,0,0:0:0:0:
259,214,374574,1,0,0:0:0:0:
250,191,374683,5,0,0:0:0:0:
273,193,374791,1,0,0:0:0:0:
275,216,374899,1,0,0:0:0:0:
251,219,375007,1,0,0:0:0:0:
261,203,375115,6,0,L|258:151,1,51.3333333333333
246,59,376412,6,0,L|242:352,1,280
