osu file format v14

[General]
AudioFilename: audio.mp3
AudioLeadIn: 0
PreviewTime: 144829
Countdown: 0
SampleSet: Normal
StackLeniency: 0.7
Mode: 1
LetterboxInBreaks: 0
WidescreenStoryboard: 0

[Editor]
Bookmarks: 49900,60449,70998,76273,81548,86823,92097,97372,102647,113196,134954,140229,319569
DistanceSpacing: 1.5
BeatDivisor: 4
GridSize: 32
TimelineZoom: 2.5

[Metadata]
Title:Yumeshoushitsu ~ Lost Dream
TitleUnicode:夢消失 ~ Lost Dream
Artist:Demetori
ArtistUnicode:Demetori
Creator:Nishizumi
Version:Lost Oni
Source:東方夢時空 ~ Pantasmagria of Dim.Dream
Tags:東方Project Touhou ZUN le Grimoire De reve Phantasmagoria of Dim Dream Kana Anaberal Metal the grimoire of vanishing comiket85 c85 DECD-0009 Yumejikuu
BeatmapID:1159528
BeatmapSetID:547414

[Difficulty]
HPDrainRate:4
CircleSize:4
OverallDifficulty:7
ApproachRate:5
SliderMultiplier:1.4
SliderTickRate:1

[Events]
//Background and Video events
0,0,"Kana_Anaberal_Lost_Dream_BG.jpg",0,120
//Break Periods
//Storyboard Layer 0 (Background)
//Storyboard Layer 1 (Fail)
//Storyboard Layer 2 (Pass)
//Storyboard Layer 3 (Foreground)
//Storyboard Sound Samples

[TimingPoints]
49900,329.67032967033,4,1,0,90,1,0
123746,329.67032967033,4,1,0,90,1,8
124405,329.67032967033,4,1,0,90,1,0
145503,-100,4,1,0,90,0,1
166602,-100,4,1,0,90,0,0
200888,-100,4,1,0,90,0,1
220668,-100,4,1,0,90,0,0
221987,-100,4,1,0,90,0,1
231218,-100,4,1,0,90,0,0
232536,-100,4,1,0,90,0,9
243086,-100,4,1,0,90,0,0
287921,-100,4,1,0,90,0,1
307701,-100,4,1,0,90,0,0
307825,-99.009900990099,4,1,0,90,0,0
307907,-98.0392156862745,4,1,0,90,0,0
307990,-97.0873786407767,4,1,0,90,0,0
308072,-96.1538461538461,4,1,0,90,0,0
308155,-95.2380952380952,4,1,0,90,0,0
308237,-94.3396226415094,4,1,0,90,0,0
308319,-93.4579439252336,4,1,0,90,0,0
308402,-92.5925925925926,4,1,0,90,0,0
308484,-91.743119266055,4,1,0,90,0,0
308567,-90.9090909090909,4,1,0,90,0,0
308649,-90.0900900900901,4,1,0,90,0,0
308731,-89.2857142857143,4,1,0,90,0,0
308814,-88.4955752212389,4,1,0,90,0,0
308896,-87.719298245614,4,1,0,90,0,0
308979,-86.9565217391304,4,1,0,90,0,0
309020,-86.9565217391304,4,1,0,90,0,1
335394,-100,4,1,0,90,0,0

[HitObjects]
256,192,49900,5,4,0:0:0:0:
256,192,50064,1,8,0:0:0:0:
256,192,50147,1,8,0:0:0:0:
256,192,50229,1,0,0:0:0:0:
256,192,50394,1,8,0:0:0:0:
256,192,50559,1,0,0:0:0:0:
256,192,50641,1,0,0:0:0:0:
256,192,50724,1,0,0:0:0:0:
256,192,50889,1,8,0:0:0:0:
256,192,51053,1,8,0:0:0:0:
256,192,51218,1,0,0:0:0:0:
256,192,51383,1,8,0:0:0:0:
256,192,51465,1,8,0:0:0:0:
256,192,51548,1,8,0:0:0:0:
256,192,51713,1,0,0:0:0:0:
256,192,51878,1,8,0:0:0:0:
256,192,51960,1,8,0:0:0:0:
256,192,52042,1,0,0:0:0:0:
256,192,52207,1,8,0:0:0:0:
256,192,52372,1,0,0:0:0:0:
256,192,52537,1,8,0:0:0:0:
256,192,52702,1,0,0:0:0:0:
256,192,52784,1,0,0:0:0:0:
256,192,52867,1,0,0:0:0:0:
256,192,53031,1,8,0:0:0:0:
256,192,53114,1,0,0:0:0:0:
256,192,53196,1,0,0:0:0:0:
256,192,53361,1,0,0:0:0:0:
256,192,53526,1,8,0:0:0:0:
256,192,53608,1,8,0:0:0:0:
256,192,53691,1,0,0:0:0:0:
256,192,53856,1,0,0:0:0:0:
256,192,54020,1,8,0:0:0:0:
256,192,54185,1,8,0:0:0:0:
256,192,54350,1,0,0:0:0:0:
256,192,54432,1,0,0:0:0:0:
256,192,54515,1,8,0:0:0:0:
256,192,54680,1,0,0:0:0:0:
256,192,54762,1,0,0:0:0:0:
256,192,54845,1,8,0:0:0:0:
256,192,54927,1,8,0:0:0:0:
256,192,55009,1,0,0:0:0:0:
256,192,55174,5,4,0:0:0:0:
256,192,55339,1,8,0:0:0:0:
256,192,55422,1,8,0:0:0:0:
256,192,55504,1,0,0:0:0:0:
256,192,55669,1,8,0:0:0:0:
256,192,55834,1,0,0:0:0:0:
256,192,55916,1,0,0:0:0:0:
256,192,55999,1,0,0:0:0:0:
256,192,56164,1,8,0:0:0:0:
256,192,56328,1,8,0:0:0:0:
256,192,56493,1,0,0:0:0:0:
256,192,56658,1,8,0:0:0:0:
256,192,56740,1,8,0:0:0:0:
256,192,56823,1,8,0:0:0:0:
256,192,56987,1,0,0:0:0:0:
256,192,57152,1,8,0:0:0:0:
256,192,57235,1,0,0:0:0:0:
256,192,57317,1,0,0:0:0:0:
256,192,57482,1,8,0:0:0:0:
256,192,57647,1,0,0:0:0:0:
256,192,57812,1,12,0:0:0:0:
256,192,57976,1,0,0:0:0:0:
256,192,58059,1,0,0:0:0:0:
256,192,58141,1,0,0:0:0:0:
256,192,58306,1,8,0:0:0:0:
256,192,58389,1,8,0:0:0:0:
256,192,58471,1,8,0:0:0:0:
256,192,58636,1,0,0:0:0:0:
256,192,58801,1,8,0:0:0:0:
256,192,58883,1,8,0:0:0:0:
256,192,58965,1,0,0:0:0:0:
256,192,59130,1,4,0:0:0:0:
256,192,59295,1,8,0:0:0:0:
256,192,59460,1,8,0:0:0:0:
256,192,59625,1,0,0:0:0:0:
256,192,59707,1,0,0:0:0:0:
256,192,59790,1,8,0:0:0:0:
256,192,59954,1,0,0:0:0:0:
256,192,60037,1,0,0:0:0:0:
256,192,60119,1,8,0:0:0:0:
256,192,60202,1,8,0:0:0:0:
256,192,60284,1,8,0:0:0:0:
256,192,60367,1,8,0:0:0:0:
256,192,60449,5,0,0:0:0:0:
256,192,60614,1,8,0:0:0:0:
256,192,60697,1,8,0:0:0:0:
256,192,60779,1,0,0:0:0:0:
256,192,60944,1,8,0:0:0:0:
256,192,61109,1,0,0:0:0:0:
256,192,61191,1,0,0:0:0:0:
256,192,61274,1,0,0:0:0:0:
256,192,61356,1,0,0:0:0:0:
256,192,61439,1,8,0:0:0:0:
256,192,61603,1,8,0:0:0:0:
256,192,61768,1,0,0:0:0:0:
256,192,61933,1,8,0:0:0:0:
256,192,62015,1,8,0:0:0:0:
256,192,62098,1,8,0:0:0:0:
256,192,62263,1,0,0:0:0:0:
256,192,62428,1,8,0:0:0:0:
256,192,62510,1,8,0:0:0:0:
256,192,62592,1,0,0:0:0:0:
256,192,62674,1,0,0:0:0:0:
256,192,62757,1,8,0:0:0:0:
256,192,62922,1,0,0:0:0:0:
256,192,63087,1,8,0:0:0:0:
256,192,63252,1,0,0:0:0:0:
256,192,63334,1,0,0:0:0:0:
256,192,63417,1,0,0:0:0:0:
256,192,63581,1,8,0:0:0:0:
256,192,63664,1,8,0:0:0:0:
256,192,63746,1,0,0:0:0:0:
256,192,63911,1,0,0:0:0:0:
256,192,64076,1,8,0:0:0:0:
256,192,64158,1,0,0:0:0:0:
256,192,64241,1,0,0:0:0:0:
256,192,64406,1,0,0:0:0:0:
256,192,64570,1,8,0:0:0:0:
256,192,64652,1,8,0:0:0:0:
256,192,64735,1,8,0:0:0:0:
256,192,64900,1,0,0:0:0:0:
256,192,64982,1,0,0:0:0:0:
256,192,65065,1,8,0:0:0:0:
256,192,65147,1,0,0:0:0:0:
256,192,65230,1,0,0:0:0:0:
256,192,65312,1,0,0:0:0:0:
256,192,65395,1,8,0:0:0:0:
256,192,65477,1,8,0:0:0:0:
256,192,65559,1,0,0:0:0:0:
256,192,65724,5,4,0:0:0:0:
256,192,65889,1,8,0:0:0:0:
256,192,65972,1,8,0:0:0:0:
256,192,66054,1,0,0:0:0:0:
256,192,66219,1,8,0:0:0:0:
256,192,66384,1,0,0:0:0:0:
256,192,66466,1,0,0:0:0:0:
256,192,66549,1,0,0:0:0:0:
256,192,66630,1,0,0:0:0:0:
256,192,66714,1,8,0:0:0:0:
256,192,66878,1,8,0:0:0:0:
256,192,67043,1,0,0:0:0:0:
256,192,67208,1,8,0:0:0:0:
256,192,67290,1,8,0:0:0:0:
256,192,67373,1,8,0:0:0:0:
256,192,67537,1,0,0:0:0:0:
256,192,67702,1,8,0:0:0:0:
256,192,67785,1,8,0:0:0:0:
256,192,67867,1,0,0:0:0:0:
256,192,67949,1,0,0:0:0:0:
256,192,68032,1,8,0:0:0:0:
256,192,68197,1,0,0:0:0:0:
256,192,68362,5,12,0:0:0:0:
256,192,68526,1,0,0:0:0:0:
256,192,68608,1,0,0:0:0:0:
256,192,68691,1,0,0:0:0:0:
256,192,68856,1,8,0:0:0:0:
256,192,68938,1,8,0:0:0:0:
256,192,69020,1,8,0:0:0:0:
256,192,69185,1,0,0:0:0:0:
256,192,69350,1,8,0:0:0:0:
256,192,69432,1,8,0:0:0:0:
256,192,69515,1,0,0:0:0:0:
256,192,69680,1,8,0:0:0:0:
256,192,69845,1,0,0:0:0:0:
256,192,69927,1,0,0:0:0:0:
256,192,70009,1,8,0:0:0:0:
256,192,70092,1,0,0:0:0:0:
256,192,70174,1,0,0:0:0:0:
256,192,70257,1,0,0:0:0:0:
256,192,70339,1,8,0:0:0:0:
256,192,70421,1,8,0:0:0:0:
256,192,70504,1,8,0:0:0:0:
256,192,70586,1,8,0:0:0:0:
256,192,70669,1,8,0:0:0:0:
256,192,70751,1,8,0:0:0:0:
256,192,70834,1,8,0:0:0:0:
256,192,70916,1,8,0:0:0:0:
256,192,70998,5,0,0:0:0:0:
256,192,71163,1,8,0:0:0:0:
256,192,71246,1,8,0:0:0:0:
256,192,71328,1,0,0:0:0:0:
256,192,71493,1,8,0:0:0:0:
256,192,71658,1,0,0:0:0:0:
256,192,71823,1,8,0:0:0:0:
256,192,71905,1,0,0:0:0:0:
256,192,72070,1,0,0:0:0:0:
256,192,72152,1,8,0:0:0:0:
256,192,72317,1,0,0:0:0:0:
256,192,72482,1,0,0:0:0:0:
256,192,72564,1,0,0:0:0:0:
256,192,72647,1,8,0:0:0:0:
256,192,72812,1,8,0:0:0:0:
256,192,72976,1,0,0:0:0:0:
256,192,73141,1,8,0:0:0:0:
256,192,73224,1,0,0:0:0:0:
256,192,73389,1,0,0:0:0:0:
256,192,73471,1,8,0:0:0:0:
256,192,73636,1,0,0:0:0:0:
256,192,73801,1,8,0:0:0:0:
256,192,73883,1,8,0:0:0:0:
256,192,73965,1,0,0:0:0:0:
256,192,74130,1,8,0:0:0:0:
256,192,74295,1,8,0:0:0:0:
256,192,74378,1,8,0:0:0:0:
256,192,74460,1,0,0:0:0:0:
256,192,74625,1,8,0:0:0:0:
256,192,74790,1,0,0:0:0:0:
256,192,74954,1,8,0:0:0:0:
256,192,75119,1,8,0:0:0:0:
256,192,75202,1,0,0:0:0:0:
256,192,75367,1,0,0:0:0:0:
256,192,75449,1,8,0:0:0:0:
256,192,75614,1,0,0:0:0:0:
256,192,75669,1,0,0:0:0:0:
256,192,75724,1,0,0:0:0:0:
256,192,75779,1,8,0:0:0:0:
256,192,75943,1,0,0:0:0:0:
256,192,75998,1,0,0:0:0:0:
256,192,76053,1,0,0:0:0:0:
256,192,76108,1,8,0:0:0:0:
256,192,76273,5,4,0:0:0:0:
256,192,76438,1,8,0:0:0:0:
256,192,76521,1,8,0:0:0:0:
256,192,76603,1,0,0:0:0:0:
256,192,76768,1,8,0:0:0:0:
256,192,76933,1,0,0:0:0:0:
256,192,77098,1,8,0:0:0:0:
256,192,77180,1,0,0:0:0:0:
256,192,77345,1,0,0:0:0:0:
256,192,77427,1,8,0:0:0:0:
256,192,77592,1,0,0:0:0:0:
256,192,77757,1,0,0:0:0:0:
256,192,77839,1,0,0:0:0:0:
256,192,77922,1,8,0:0:0:0:
256,192,78087,1,8,0:0:0:0:
256,192,78251,1,0,0:0:0:0:
256,192,78416,1,8,0:0:0:0:
256,192,78499,1,0,0:0:0:0:
256,192,78664,1,0,0:0:0:0:
256,192,78746,1,8,0:0:0:0:
256,192,78910,1,4,0:0:0:0:
256,192,79076,1,8,0:0:0:0:
256,192,79158,1,8,0:0:0:0:
256,192,79240,1,0,0:0:0:0:
256,192,79405,1,8,0:0:0:0:
256,192,79570,1,0,0:0:0:0:
256,192,79653,1,0,0:0:0:0:
256,192,79735,1,0,0:0:0:0:
256,192,79900,1,8,0:0:0:0:
256,192,80065,1,0,0:0:0:0:
256,192,80229,1,12,0:0:0:0:
256,192,80394,1,8,0:0:0:0:
256,192,80477,1,0,0:0:0:0:
256,192,80642,1,0,0:0:0:0:
256,192,80724,1,8,0:0:0:0:
256,192,80889,1,0,0:0:0:0:
256,192,80944,1,0,0:0:0:0:
256,192,80999,1,0,0:0:0:0:
256,192,81054,1,8,0:0:0:0:
256,192,81218,1,0,0:0:0:0:
256,192,81301,1,8,0:0:0:0:
256,192,81383,1,8,0:0:0:0:
256,192,81465,1,8,0:0:0:0:
256,192,81548,5,0,0:0:0:0:
256,192,81713,1,0,0:0:0:0:
256,192,81795,1,0,0:0:0:0:
256,192,81878,1,0,0:0:0:0:
256,192,82042,1,8,0:0:0:0:
256,192,82207,1,0,0:0:0:0:
256,192,82290,1,0,0:0:0:0:
256,192,82372,1,0,0:0:0:0:
256,192,82454,1,0,0:0:0:0:
256,192,82537,1,8,0:0:0:0:
256,192,82702,1,0,0:0:0:0:
256,192,82867,1,8,0:0:0:0:
256,192,83031,1,8,0:0:0:0:
256,192,83114,1,8,0:0:0:0:
256,192,83196,1,0,0:0:0:0:
256,192,83361,1,8,0:0:0:0:
256,192,83526,1,8,0:0:0:0:
256,192,83608,1,8,0:0:0:0:
256,192,83691,1,0,0:0:0:0:
256,192,83773,1,0,0:0:0:0:
256,192,83856,1,8,0:0:0:0:
256,192,84020,1,0,0:0:0:0:
256,192,84185,1,8,0:0:0:0:
256,192,84350,1,0,0:0:0:0:
256,192,84432,1,8,0:0:0:0:
256,192,84515,1,0,0:0:0:0:
256,192,84680,1,8,0:0:0:0:
256,192,84845,1,0,0:0:0:0:
256,192,84927,1,8,0:0:0:0:
256,192,85009,1,0,0:0:0:0:
256,192,85092,1,0,0:0:0:0:
256,192,85174,1,8,0:0:0:0:
256,192,85339,1,0,0:0:0:0:
256,192,85504,1,8,0:0:0:0:
256,192,85669,1,8,0:0:0:0:
256,192,85751,1,0,0:0:0:0:
256,192,85834,1,0,0:0:0:0:
256,192,85998,1,8,0:0:0:0:
256,192,86163,1,0,0:0:0:0:
256,192,86218,1,0,0:0:0:0:
256,192,86273,1,0,0:0:0:0:
256,192,86328,1,8,0:0:0:0:
256,192,86493,1,0,0:0:0:0:
256,192,86548,1,0,0:0:0:0:
256,192,86603,1,0,0:0:0:0:
256,192,86658,1,8,0:0:0:0:
256,192,86823,5,4,0:0:0:0:
256,192,86987,1,0,0:0:0:0:
256,192,87070,1,0,0:0:0:0:
256,192,87152,1,0,0:0:0:0:
256,192,87235,1,0,0:0:0:0:
256,192,87317,1,8,0:0:0:0:
256,192,87482,1,0,0:0:0:0:
256,192,87564,1,0,0:0:0:0:
256,192,87647,1,0,0:0:0:0:
256,192,87729,1,0,0:0:0:0:
256,192,87812,1,8,0:0:0:0:
256,192,87976,1,0,0:0:0:0:
256,192,88141,1,8,0:0:0:0:
256,192,88306,1,8,0:0:0:0:
256,192,88389,1,8,0:0:0:0:
256,192,88471,1,0,0:0:0:0:
256,192,88553,1,0,0:0:0:0:
256,192,88636,1,8,0:0:0:0:
256,192,88801,1,8,0:0:0:0:
256,192,88883,1,8,0:0:0:0:
256,192,88965,1,0,0:0:0:0:
256,192,89048,1,0,0:0:0:0:
256,192,89130,1,8,0:0:0:0:
256,192,89295,1,0,0:0:0:0:
256,192,89460,1,12,0:0:0:0:
256,192,89625,1,8,0:0:0:0:
256,192,89707,1,0,0:0:0:0:
256,192,89790,1,0,0:0:0:0:
256,192,89954,1,0,0:0:0:0:
256,192,90119,1,12,0:0:0:0:
256,192,90284,1,0,0:0:0:0:
256,192,90367,1,0,0:0:0:0:
256,192,90449,1,8,0:0:0:0:
256,192,90614,1,0,0:0:0:0:
256,192,90779,1,12,0:0:0:0:
256,192,90943,1,0,0:0:0:0:
256,192,91108,1,8,0:0:0:0:
256,192,91191,1,8,0:0:0:0:
256,192,91273,1,8,0:0:0:0:
256,192,91356,1,8,0:0:0:0:
256,192,91438,1,0,0:0:0:0:
256,192,91520,1,0,0:0:0:0:
256,192,91603,1,0,0:0:0:0:
256,192,91685,1,0,0:0:0:0:
256,192,91768,1,8,0:0:0:0:
256,192,91850,1,8,0:0:0:0:
256,192,91932,1,0,0:0:0:0:
256,192,92015,1,0,0:0:0:0:
256,192,92097,5,8,0:0:0:0:
256,192,92262,1,0,0:0:0:0:
256,192,92344,1,0,0:0:0:0:
256,192,92427,1,0,0:0:0:0:
256,192,92591,1,8,0:0:0:0:
256,192,92756,1,0,0:0:0:0:
256,192,92839,1,0,0:0:0:0:
256,192,92921,1,0,0:0:0:0:
256,192,93003,1,0,0:0:0:0:
256,192,93086,1,8,0:0:0:0:
256,192,93251,1,8,0:0:0:0:
256,192,93416,1,0,0:0:0:0:
256,192,93580,1,8,0:0:0:0:
256,192,93663,1,8,0:0:0:0:
256,192,93745,1,8,0:0:0:0:
256,192,93910,1,0,0:0:0:0:
256,192,94075,1,8,0:0:0:0:
256,192,94157,1,8,0:0:0:0:
256,192,94240,1,0,0:0:0:0:
256,192,94322,1,0,0:0:0:0:
256,192,94405,1,8,0:0:0:0:
256,192,94569,1,0,0:0:0:0:
256,192,94734,1,8,0:0:0:0:
256,192,94899,1,0,0:0:0:0:
256,192,94981,1,8,0:0:0:0:
256,192,95064,1,0,0:0:0:0:
256,192,95229,1,8,0:0:0:0:
256,192,95394,1,0,0:0:0:0:
256,192,95476,1,8,0:0:0:0:
256,192,95558,1,0,0:0:0:0:
256,192,95641,1,0,0:0:0:0:
256,192,95723,1,8,0:0:0:0:
256,192,95888,1,8,0:0:0:0:
256,192,96053,1,0,0:0:0:0:
256,192,96218,1,8,0:0:0:0:
256,192,96300,1,0,0:0:0:0:
256,192,96383,1,0,0:0:0:0:
256,192,96547,1,8,0:0:0:0:
256,192,96712,1,0,0:0:0:0:
256,192,96767,1,0,0:0:0:0:
256,192,96822,1,0,0:0:0:0:
256,192,96877,1,8,0:0:0:0:
256,192,97042,1,0,0:0:0:0:
256,192,97097,1,0,0:0:0:0:
256,192,97152,1,0,0:0:0:0:
256,192,97207,1,8,0:0:0:0:
256,192,97372,5,4,0:0:0:0:
256,192,97536,1,0,0:0:0:0:
256,192,97619,1,0,0:0:0:0:
256,192,97701,1,0,0:0:0:0:
256,192,97784,1,0,0:0:0:0:
256,192,97866,1,8,0:0:0:0:
256,192,98031,1,0,0:0:0:0:
256,192,98113,1,0,0:0:0:0:
256,192,98196,1,0,0:0:0:0:
256,192,98278,1,0,0:0:0:0:
256,192,98361,1,8,0:0:0:0:
256,192,98525,1,8,0:0:0:0:
256,192,98690,1,0,0:0:0:0:
256,192,98855,1,8,0:0:0:0:
256,192,98938,1,8,0:0:0:0:
256,192,99020,1,0,0:0:0:0:
256,192,99102,1,0,0:0:0:0:
256,192,99185,1,8,0:0:0:0:
256,192,99350,1,0,0:0:0:0:
256,192,99514,1,12,0:0:0:0:
256,192,99679,1,12,0:0:0:0:
256,192,99844,1,0,0:0:0:0:
256,192,100009,1,8,0:0:0:0:
256,192,100092,1,8,0:0:0:0:
256,192,100174,1,0,0:0:0:0:
256,192,100257,1,0,0:0:0:0:
256,192,100339,1,0,0:0:0:0:
256,192,100421,1,0,0:0:0:0:
256,192,100504,5,8,0:0:0:0:
256,192,100834,1,0,0:0:0:0:
256,192,100889,1,0,0:0:0:0:
256,192,100943,1,0,0:0:0:0:
256,192,100998,1,8,0:0:0:0:
256,192,101328,1,0,0:0:0:0:
256,192,101438,1,0,0:0:0:0:
256,192,101548,1,0,0:0:0:0:
256,192,101658,1,8,0:0:0:0:
256,192,101768,1,8,0:0:0:0:
256,192,101878,1,8,0:0:0:0:
256,192,101987,1,0,0:0:0:0:
256,192,102097,1,0,0:0:0:0:
256,192,102207,1,0,0:0:0:0:
256,192,102317,1,8,0:0:0:0:
256,192,102427,1,8,0:0:0:0:
256,192,102537,1,8,0:0:0:0:
256,192,102647,5,4,0:0:0:0:
256,192,102812,1,8,0:0:0:0:
256,192,102894,1,8,0:0:0:0:
256,192,102976,1,0,0:0:0:0:
256,192,103141,1,8,0:0:0:0:
256,192,103306,1,8,0:0:0:0:
256,192,103389,1,8,0:0:0:0:
256,192,103471,1,0,0:0:0:0:
256,192,103636,1,8,0:0:0:0:
256,192,103801,1,0,0:0:0:0:
256,192,103965,1,8,0:0:0:0:
256,192,104130,1,0,0:0:0:0:
256,192,104213,1,0,0:0:0:0:
256,192,104295,1,0,0:0:0:0:
256,192,104460,1,8,0:0:0:0:
256,192,104625,1,0,0:0:0:0:
256,192,104707,1,0,0:0:0:0:
256,192,104790,1,0,0:0:0:0:
256,192,104954,1,8,0:0:0:0:
256,192,105119,1,0,0:0:0:0:
256,192,105284,1,8,0:0:0:0:
256,192,105449,1,8,0:0:0:0:
256,192,105531,1,0,0:0:0:0:
256,192,105614,1,0,0:0:0:0:
256,192,105779,1,8,0:0:0:0:
256,192,105943,1,8,0:0:0:0:
256,192,106026,1,0,0:0:0:0:
256,192,106108,1,0,0:0:0:0:
256,192,106273,1,8,0:0:0:0:
256,192,106438,1,0,0:0:0:0:
256,192,106603,1,8,0:0:0:0:
256,192,106768,1,0,0:0:0:0:
256,192,106850,1,0,0:0:0:0:
256,192,106932,1,0,0:0:0:0:
256,192,107097,1,8,0:0:0:0:
256,192,107262,1,0,0:0:0:0:
256,192,107317,1,0,0:0:0:0:
256,192,107372,1,0,0:0:0:0:
256,192,107427,1,8,0:0:0:0:
256,192,107592,1,0,0:0:0:0:
256,192,107647,1,0,0:0:0:0:
256,192,107702,1,0,0:0:0:0:
256,192,107757,1,8,0:0:0:0:
256,192,107921,5,4,0:0:0:0:
256,192,108086,1,8,0:0:0:0:
256,192,108168,1,8,0:0:0:0:
256,192,108250,1,0,0:0:0:0:
256,192,108415,1,8,0:0:0:0:
256,192,108580,1,0,0:0:0:0:
256,192,108663,1,0,0:0:0:0:
256,192,108745,1,0,0:0:0:0:
256,192,108910,1,8,0:0:0:0:
256,192,109075,1,0,0:0:0:0:
256,192,109239,1,8,0:0:0:0:
256,192,109404,1,0,0:0:0:0:
256,192,109487,1,0,0:0:0:0:
256,192,109569,1,8,0:0:0:0:
256,192,109734,1,8,0:0:0:0:
256,192,109899,1,0,0:0:0:0:
256,192,109981,1,0,0:0:0:0:
256,192,110064,1,0,0:0:0:0:
256,192,110228,1,8,0:0:0:0:
256,192,110393,1,0,0:0:0:0:
256,192,110558,1,12,0:0:0:0:
256,192,110723,1,8,0:0:0:0:
256,192,110805,1,8,0:0:0:0:
256,192,110888,1,0,0:0:0:0:
256,192,111053,1,8,0:0:0:0:
256,192,111217,1,0,0:0:0:0:
256,192,111300,1,0,0:0:0:0:
256,192,111382,1,0,0:0:0:0:
256,192,111465,1,0,0:0:0:0:
256,192,111547,1,8,0:0:0:0:
256,192,111713,1,0,0:0:0:0:
256,192,111878,1,12,0:0:0:0:
256,192,112042,1,0,0:0:0:0:
256,192,112125,1,0,0:0:0:0:
256,192,112207,1,0,0:0:0:0:
256,192,112372,1,8,0:0:0:0:
256,192,112537,1,0,0:0:0:0:
256,192,112619,1,0,0:0:0:0:
256,192,112702,1,0,0:0:0:0:
256,192,112784,1,0,0:0:0:0:
256,192,112867,1,8,0:0:0:0:
256,192,112949,1,8,0:0:0:0:
256,192,113031,1,8,0:0:0:0:
256,192,113114,1,8,0:0:0:0:
256,192,113196,5,0,0:0:0:0:
256,192,113361,1,8,0:0:0:0:
256,192,113443,1,0,0:0:0:0:
256,192,113525,1,0,0:0:0:0:
256,192,113608,1,0,0:0:0:0:
256,192,113690,1,8,0:0:0:0:
256,192,113855,1,8,0:0:0:0:
256,192,113938,1,0,0:0:0:0:
256,192,114020,1,0,0:0:0:0:
256,192,114103,1,0,0:0:0:0:
256,192,114185,1,8,0:0:0:0:
256,192,114350,1,0,0:0:0:0:
256,192,114514,1,8,0:0:0:0:
256,192,114679,1,0,0:0:0:0:
256,192,114762,1,0,0:0:0:0:
256,192,114844,1,0,0:0:0:0:
256,192,114927,1,0,0:0:0:0:
256,192,115009,1,8,0:0:0:0:
256,192,115174,1,0,0:0:0:0:
256,192,115256,1,0,0:0:0:0:
256,192,115339,1,0,0:0:0:0:
256,192,115421,1,0,0:0:0:0:
256,192,115503,1,8,0:0:0:0:
256,192,115668,1,0,0:0:0:0:
256,192,115833,1,8,0:0:0:0:
256,192,115998,1,8,0:0:0:0:
256,192,116080,1,8,0:0:0:0:
256,192,116163,1,0,0:0:0:0:
256,192,116246,1,0,0:0:0:0:
256,192,116328,1,8,0:0:0:0:
256,192,116492,1,8,0:0:0:0:
256,192,116575,1,8,0:0:0:0:
256,192,116657,1,0,0:0:0:0:
256,192,116740,1,0,0:0:0:0:
256,192,116822,1,8,0:0:0:0:
256,192,116987,1,0,0:0:0:0:
256,192,117152,1,8,0:0:0:0:
256,192,117317,1,0,0:0:0:0:
256,192,117399,1,8,0:0:0:0:
256,192,117481,1,0,0:0:0:0:
256,192,117564,1,0,0:0:0:0:
256,192,117646,1,8,0:0:0:0:
256,192,117811,1,0,0:0:0:0:
256,192,117866,1,0,0:0:0:0:
256,192,117921,1,0,0:0:0:0:
256,192,117976,1,8,0:0:0:0:
256,192,118141,1,0,0:0:0:0:
256,192,118196,1,0,0:0:0:0:
256,192,118251,1,0,0:0:0:0:
256,192,118306,1,8,0:0:0:0:
256,192,118470,5,4,0:0:0:0:
256,192,118636,1,8,0:0:0:0:
256,192,118718,1,8,0:0:0:0:
256,192,118800,1,0,0:0:0:0:
256,192,118883,1,0,0:0:0:0:
256,192,118965,1,8,0:0:0:0:
256,192,119130,1,8,0:0:0:0:
256,192,119213,1,8,0:0:0:0:
256,192,119295,1,0,0:0:0:0:
256,192,119378,1,0,0:0:0:0:
256,192,119460,1,8,0:0:0:0:
256,192,119625,1,0,0:0:0:0:
256,192,119789,1,12,0:0:0:0:
256,192,119954,1,0,0:0:0:0:
256,192,120037,1,0,0:0:0:0:
256,192,120119,1,8,0:0:0:0:
256,192,120202,1,0,0:0:0:0:
256,192,120284,1,8,0:0:0:0:
256,192,120449,1,0,0:0:0:0:
256,192,120531,1,0,0:0:0:0:
256,192,120614,1,8,0:0:0:0:
256,192,120696,1,0,0:0:0:0:
256,192,120778,1,8,0:0:0:0:
256,192,120943,1,0,0:0:0:0:
256,192,121108,1,12,0:0:0:0:
256,192,121273,1,0,0:0:0:0:
256,192,121356,1,0,0:0:0:0:
256,192,121438,1,8,0:0:0:0:
256,192,121520,1,8,0:0:0:0:
256,192,121603,1,0,0:0:0:0:
256,192,121768,1,12,0:0:0:0:
256,192,121932,1,8,0:0:0:0:
256,192,122015,1,0,0:0:0:0:
256,192,122097,1,8,0:0:0:0:
256,192,122180,1,8,0:0:0:0:
256,192,122262,1,0,0:0:0:0:
256,192,122427,1,8,0:0:0:0:
256,192,122509,1,8,0:0:0:0:
256,192,122592,1,0,0:0:0:0:
256,192,122674,1,0,0:0:0:0:
256,192,122757,1,8,0:0:0:0:
256,192,122812,1,0,0:0:0:0:
256,192,122867,1,0,0:0:0:0:
256,192,122921,1,8,0:0:0:0:
256,192,123004,1,0,0:0:0:0:
256,192,123086,1,8,0:0:0:0:
256,192,123141,1,8,0:0:0:0:
256,192,123196,1,0,0:0:0:0:
256,192,123306,1,8,0:0:0:0:
256,192,123416,1,8,0:0:0:0:
256,192,123526,1,0,0:0:0:0:
256,192,123636,1,0,0:0:0:0:
256,192,123746,1,8,0:0:0:0:
256,192,123855,1,0,0:0:0:0:
256,192,123965,1,0,0:0:0:0:
256,192,124075,1,8,0:0:0:0:
256,192,124405,5,4,0:0:0:0:
256,192,124569,1,0,0:0:0:0:
256,192,124899,1,0,0:0:0:0:
256,192,125064,1,0,0:0:0:0:
256,192,125146,1,0,0:0:0:0:
256,192,125229,1,0,0:0:0:0:
256,192,125311,1,0,0:0:0:0:
256,192,125394,1,8,0:0:0:0:
256,192,125723,1,0,0:0:0:0:
256,192,125887,1,0,0:0:0:0:
256,192,126217,1,8,0:0:0:0:
256,192,126382,1,0,0:0:0:0:
256,192,126464,1,0,0:0:0:0:
256,192,126547,1,0,0:0:0:0:
256,192,126629,1,0,0:0:0:0:
256,192,126712,1,8,0:0:0:0:
256,192,127042,1,0,0:0:0:0:
256,192,127206,1,0,0:0:0:0:
256,192,127536,1,0,0:0:0:0:
256,192,127701,1,0,0:0:0:0:
256,192,127783,1,0,0:0:0:0:
256,192,127866,1,0,0:0:0:0:
256,192,127948,1,0,0:0:0:0:
256,192,128031,1,8,0:0:0:0:
256,192,128360,1,0,0:0:0:0:
256,192,128524,1,0,0:0:0:0:
256,192,128854,1,8,0:0:0:0:
256,192,129019,1,0,0:0:0:0:
256,192,129101,1,0,0:0:0:0:
256,192,129184,1,0,0:0:0:0:
256,192,129266,1,0,0:0:0:0:
256,192,129349,1,8,0:0:0:0:
256,192,129514,1,8,0:0:0:0:
256,192,129679,1,4,0:0:0:0:
256,192,129843,1,0,0:0:0:0:
256,192,130173,1,0,0:0:0:0:
256,192,130338,1,0,0:0:0:0:
256,192,130420,1,0,0:0:0:0:
256,192,130503,1,0,0:0:0:0:
256,192,130585,1,0,0:0:0:0:
256,192,130668,1,8,0:0:0:0:
256,192,130997,1,0,0:0:0:0:
256,192,131163,1,0,0:0:0:0:
256,192,131491,1,8,0:0:0:0:
256,192,131656,1,0,0:0:0:0:
256,192,131740,1,0,0:0:0:0:
256,192,131821,1,0,0:0:0:0:
256,192,131905,1,0,0:0:0:0:
256,192,131986,1,8,0:0:0:0:
256,192,132317,1,4,0:0:0:0:
256,192,132481,1,0,0:0:0:0:
256,192,132811,1,0,0:0:0:0:
256,192,132976,1,0,0:0:0:0:
256,192,133058,1,0,0:0:0:0:
256,192,133141,1,0,0:0:0:0:
256,192,133223,1,0,0:0:0:0:
256,192,133306,1,8,0:0:0:0:
256,192,133470,1,8,0:0:0:0:
256,192,133635,1,0,0:0:0:0:
256,192,133718,1,0,0:0:0:0:
256,192,133799,1,0,0:0:0:0:
256,192,133883,1,0,0:0:0:0:
256,192,133965,1,8,0:0:0:0:
256,192,134047,1,8,0:0:0:0:
256,192,134129,1,8,0:0:0:0:
256,192,134212,1,8,0:0:0:0:
256,192,134294,1,0,0:0:0:0:
256,192,134376,1,0,0:0:0:0:
256,192,134459,1,0,0:0:0:0:
256,192,134541,1,0,0:0:0:0:
256,192,134624,1,8,0:0:0:0:
256,192,134707,1,8,0:0:0:0:
256,192,134789,1,8,0:0:0:0:
256,192,134872,1,8,0:0:0:0:
256,192,134954,5,0,0:0:0:0:
256,192,135119,1,0,0:0:0:0:
256,192,135201,1,0,0:0:0:0:
256,192,135284,1,0,0:0:0:0:
256,192,135448,1,8,0:0:0:0:
256,192,135613,1,0,0:0:0:0:
256,192,135696,1,0,0:0:0:0:
256,192,135778,1,0,0:0:0:0:
256,192,135943,1,8,0:0:0:0:
256,192,136108,1,0,0:0:0:0:
256,192,136273,1,8,0:0:0:0:
256,192,136437,1,8,0:0:0:0:
256,192,136520,1,8,0:0:0:0:
256,192,136602,1,0,0:0:0:0:
256,192,136767,1,8,0:0:0:0:
256,192,136932,1,8,0:0:0:0:
256,192,137014,1,8,0:0:0:0:
256,192,137097,1,0,0:0:0:0:
256,192,137262,1,8,0:0:0:0:
256,192,137426,1,0,0:0:0:0:
256,192,137591,1,8,0:0:0:0:
256,192,137756,1,0,0:0:0:0:
256,192,137838,1,0,0:0:0:0:
256,192,137921,1,0,0:0:0:0:
256,192,138085,1,8,0:0:0:0:
256,192,138250,1,0,0:0:0:0:
256,192,138333,1,0,0:0:0:0:
256,192,138415,1,0,0:0:0:0:
256,192,138580,1,8,0:0:0:0:
256,192,138745,1,0,0:0:0:0:
256,192,138910,1,8,0:0:0:0:
256,192,139074,1,8,0:0:0:0:
256,192,139157,1,8,0:0:0:0:
256,192,139239,1,0,0:0:0:0:
256,192,139404,1,8,0:0:0:0:
256,192,139569,1,8,0:0:0:0:
256,192,139651,1,8,0:0:0:0:
256,192,139734,1,0,0:0:0:0:
256,192,139899,1,12,0:0:0:0:
256,192,140063,1,0,0:0:0:0:
256,192,140228,5,12,0:0:0:0:
256,192,140394,1,0,0:0:0:0:
256,192,140476,1,0,0:0:0:0:
256,192,140558,1,0,0:0:0:0:
256,192,140641,1,0,0:0:0:0:
256,192,140723,1,8,0:0:0:0:
256,192,140888,1,0,0:0:0:0:
256,192,140970,1,0,0:0:0:0:
256,192,141053,1,0,0:0:0:0:
256,192,141135,1,0,0:0:0:0:
256,192,141218,1,8,0:0:0:0:
256,192,141383,1,0,0:0:0:0:
256,192,141547,1,12,0:0:0:0:
256,192,141712,1,8,0:0:0:0:
256,192,141795,1,8,0:0:0:0:
256,192,141877,1,0,0:0:0:0:
256,192,141959,1,0,0:0:0:0:
256,192,142042,1,8,0:0:0:0:
256,192,142207,1,8,0:0:0:0:
256,192,142289,1,8,0:0:0:0:
256,192,142372,1,8,0:0:0:0:
256,192,142454,1,8,0:0:0:0:
256,192,142536,1,0,0:0:0:0:
256,192,142619,1,0,0:0:0:0:
256,192,142701,1,0,0:0:0:0:
256,192,142784,1,0,0:0:0:0:
256,192,142866,1,8,0:0:0:0:
256,192,143031,1,0,0:0:0:0:
256,192,143113,1,0,0:0:0:0:
256,192,143196,1,8,0:0:0:0:
256,192,143525,1,0,0:0:0:0:
256,192,143608,1,0,0:0:0:0:
256,192,143690,1,0,0:0:0:0:
256,192,143773,1,0,0:0:0:0:
256,192,143855,1,8,0:0:0:0:
256,192,144020,1,0,0:0:0:0:
256,192,144185,1,8,0:0:0:0:
256,192,144432,1,0,0:0:0:0:
256,192,144679,1,0,0:0:0:0:
256,192,144734,1,0,0:0:0:0:
256,192,144789,1,0,0:0:0:0:
256,192,144844,1,8,0:0:0:0:
256,192,145503,5,4,0:0:0:0:
256,192,145668,1,8,0:0:0:0:
256,192,145751,1,8,0:0:0:0:
256,192,145833,1,0,0:0:0:0:
256,192,145998,1,8,0:0:0:0:
256,192,146163,1,0,0:0:0:0:
256,192,146328,1,8,0:0:0:0:
256,192,146410,1,0,0:0:0:0:
256,192,146575,1,0,0:0:0:0:
256,192,146657,1,8,0:0:0:0:
256,192,146822,1,0,0:0:0:0:
256,192,146987,1,0,0:0:0:0:
256,192,147069,1,0,0:0:0:0:
256,192,147152,1,8,0:0:0:0:
256,192,147317,1,8,0:0:0:0:
256,192,147481,1,0,0:0:0:0:
256,192,147646,1,8,0:0:0:0:
256,192,147729,1,0,0:0:0:0:
256,192,147894,1,0,0:0:0:0:
256,192,147976,1,8,0:0:0:0:
256,192,148141,1,0,0:0:0:0:
256,192,148306,1,8,0:0:0:0:
256,192,148388,1,8,0:0:0:0:
256,192,148470,1,0,0:0:0:0:
256,192,148635,1,8,0:0:0:0:
256,192,148800,1,0,0:0:0:0:
256,192,148883,1,0,0:0:0:0:
256,192,148965,1,8,0:0:0:0:
256,192,149047,1,8,0:0:0:0:
256,192,149130,1,0,0:0:0:0:
256,192,149295,1,8,0:0:0:0:
256,192,149459,1,0,0:0:0:0:
256,192,149624,1,8,0:0:0:0:
256,192,149707,1,8,0:0:0:0:
256,192,149789,1,0,0:0:0:0:
256,192,149954,1,8,0:0:0:0:
256,192,150119,1,0,0:0:0:0:
256,192,150284,1,8,0:0:0:0:
256,192,150366,1,0,0:0:0:0:
256,192,150448,1,0,0:0:0:0:
256,192,150531,1,0,0:0:0:0:
256,192,150613,1,8,0:0:0:0:
256,192,150778,5,4,0:0:0:0:
256,192,150943,1,8,0:0:0:0:
256,192,151025,1,8,0:0:0:0:
256,192,151108,1,0,0:0:0:0:
256,192,151273,1,8,0:0:0:0:
256,192,151437,1,0,0:0:0:0:
256,192,151602,1,8,0:0:0:0:
256,192,151685,1,0,0:0:0:0:
256,192,151850,1,0,0:0:0:0:
256,192,151932,1,8,0:0:0:0:
256,192,152097,5,4,0:0:0:0:
256,192,152262,1,0,0:0:0:0:
256,192,152344,1,0,0:0:0:0:
256,192,152426,1,8,0:0:0:0:
256,192,152591,1,8,0:0:0:0:
256,192,152756,1,0,0:0:0:0:
256,192,152839,1,0,0:0:0:0:
256,192,152921,1,8,0:0:0:0:
256,192,153086,1,0,0:0:0:0:
256,192,153141,1,0,0:0:0:0:
256,192,153196,1,0,0:0:0:0:
256,192,153251,1,8,0:0:0:0:
256,192,153415,5,4,0:0:0:0:
256,192,153580,1,8,0:0:0:0:
256,192,153663,1,8,0:0:0:0:
256,192,153745,1,0,0:0:0:0:
256,192,153828,1,0,0:0:0:0:
256,192,153910,1,8,0:0:0:0:
256,192,154075,1,0,0:0:0:0:
256,192,154157,1,0,0:0:0:0:
256,192,154240,1,0,0:0:0:0:
256,192,154405,1,8,0:0:0:0:
256,192,154569,1,0,0:0:0:0:
256,192,154734,1,8,0:0:0:0:
256,192,154899,1,8,0:0:0:0:
256,192,154981,1,8,0:0:0:0:
256,192,155064,1,8,0:0:0:0:
256,192,155229,1,8,0:0:0:0:
256,192,155394,1,0,0:0:0:0:
256,192,155476,1,0,0:0:0:0:
256,192,155558,1,0,0:0:0:0:
256,192,155641,1,0,0:0:0:0:
256,192,155723,1,8,0:0:0:0:
256,192,155806,1,8,0:0:0:0:
256,192,155888,1,8,0:0:0:0:
256,192,155970,1,8,0:0:0:0:
256,192,156053,5,0,0:0:0:0:
256,192,156218,1,8,0:0:0:0:
256,192,156383,1,0,0:0:0:0:
256,192,156465,1,0,0:0:0:0:
256,192,156548,1,8,0:0:0:0:
256,192,156713,1,0,0:0:0:0:
256,192,156878,1,8,0:0:0:0:
256,192,156960,1,0,0:0:0:0:
256,192,157125,1,0,0:0:0:0:
256,192,157207,1,8,0:0:0:0:
256,192,157372,1,0,0:0:0:0:
256,192,157537,1,0,0:0:0:0:
256,192,157619,1,0,0:0:0:0:
256,192,157702,1,8,0:0:0:0:
256,192,157867,1,8,0:0:0:0:
256,192,158031,1,0,0:0:0:0:
256,192,158196,1,8,0:0:0:0:
256,192,158279,1,0,0:0:0:0:
256,192,158444,1,0,0:0:0:0:
256,192,158526,1,8,0:0:0:0:
256,192,158691,1,4,0:0:0:0:
256,192,158856,1,8,0:0:0:0:
256,192,158938,1,8,0:0:0:0:
256,192,159020,1,0,0:0:0:0:
256,192,159185,1,8,0:0:0:0:
256,192,159350,1,0,0:0:0:0:
256,192,159433,1,0,0:0:0:0:
256,192,159515,1,8,0:0:0:0:
256,192,159680,1,0,0:0:0:0:
256,192,159845,1,8,0:0:0:0:
256,192,160009,1,4,0:0:0:0:
256,192,160174,1,8,0:0:0:0:
256,192,160257,1,8,0:0:0:0:
256,192,160339,1,0,0:0:0:0:
256,192,160504,1,8,0:0:0:0:
256,192,160669,1,0,0:0:0:0:
256,192,160751,1,0,0:0:0:0:
256,192,160834,1,8,0:0:0:0:
256,192,160998,1,0,0:0:0:0:
256,192,161080,1,0,0:0:0:0:
256,192,161163,1,8,0:0:0:0:
256,192,161328,5,4,0:0:0:0:
256,192,161493,1,8,0:0:0:0:
256,192,161575,1,8,0:0:0:0:
256,192,161658,1,0,0:0:0:0:
256,192,161740,1,0,0:0:0:0:
256,192,161823,1,8,0:0:0:0:
256,192,161987,1,0,0:0:0:0:
256,192,162152,1,8,0:0:0:0:
256,192,162235,1,0,0:0:0:0:
256,192,162400,1,0,0:0:0:0:
256,192,162482,1,8,0:0:0:0:
256,192,162647,5,4,0:0:0:0:
256,192,162812,1,8,0:0:0:0:
256,192,162894,1,8,0:0:0:0:
256,192,162976,5,0,0:0:0:0:
256,192,163058,1,0,0:0:0:0:
256,192,163141,1,8,0:0:0:0:
256,192,163306,1,0,0:0:0:0:
256,192,163470,1,8,0:0:0:0:
256,192,163553,1,0,0:0:0:0:
256,192,163635,1,8,0:0:0:0:
256,192,163800,1,0,0:0:0:0:
256,192,163965,5,12,0:0:0:0:
256,192,164130,1,0,0:0:0:0:
256,192,164212,1,8,0:0:0:0:
256,192,164295,1,8,0:0:0:0:
256,192,164377,1,0,0:0:0:0:
256,192,164459,1,0,0:0:0:0:
256,192,164542,1,8,0:0:0:0:
256,192,164624,1,8,0:0:0:0:
256,192,164789,1,8,0:0:0:0:
256,192,164954,1,0,0:0:0:0:
256,192,165064,1,0,0:0:0:0:
256,192,165119,1,0,0:0:0:0:
256,192,165174,1,8,0:0:0:0:
256,192,165284,1,0,0:0:0:0:
256,192,165394,1,0,0:0:0:0:
256,192,165503,1,0,0:0:0:0:
256,192,165613,1,8,0:0:0:0:
256,192,165723,1,8,0:0:0:0:
256,192,165833,1,8,0:0:0:0:
256,192,165943,1,0,0:0:0:0:
256,192,166053,1,0,0:0:0:0:
256,192,166163,1,0,0:0:0:0:
256,192,166273,1,8,0:0:0:0:
256,192,166383,1,0,0:0:0:0:
256,192,166492,1,0,0:0:0:0:
256,192,166602,5,12,0:0:0:0:
256,192,166767,1,0,0:0:0:0:
256,192,166850,1,0,0:0:0:0:
256,192,166932,1,0,0:0:0:0:
256,192,167014,1,0,0:0:0:0:
256,192,167097,1,0,0:0:0:0:
256,192,167179,1,0,0:0:0:0:
256,192,167262,1,8,0:0:0:0:
256,192,167921,1,0,0:0:0:0:
256,192,168003,1,0,0:0:0:0:
256,192,168086,1,0,0:0:0:0:
256,192,168168,1,0,0:0:0:0:
256,192,168251,1,0,0:0:0:0:
256,192,168333,1,0,0:0:0:0:
256,192,168415,1,0,0:0:0:0:
256,192,168498,1,0,0:0:0:0:
256,192,168580,1,8,0:0:0:0:
256,192,168745,1,0,0:0:0:0:
256,192,168828,1,0,0:0:0:0:
256,192,168910,1,8,0:0:0:0:
256,192,169239,1,0,0:0:0:0:
256,192,169322,1,0,0:0:0:0:
256,192,169404,1,0,0:0:0:0:
256,192,169486,1,0,0:0:0:0:
256,192,169569,1,0,0:0:0:0:
256,192,169651,1,0,0:0:0:0:
256,192,169734,1,0,0:0:0:0:
256,192,169817,1,0,0:0:0:0:
256,192,169899,1,8,0:0:0:0:
256,192,170558,1,0,0:0:0:0:
256,192,170640,1,0,0:0:0:0:
256,192,170723,1,0,0:0:0:0:
256,192,170805,1,0,0:0:0:0:
256,192,170888,1,0,0:0:0:0:
256,192,170970,1,0,0:0:0:0:
256,192,171052,1,0,0:0:0:0:
256,192,171135,1,0,0:0:0:0:
256,192,171217,1,8,0:0:0:0:
256,192,171382,1,0,0:0:0:0:
256,192,171465,1,0,0:0:0:0:
256,192,171547,1,8,0:0:0:0:
256,192,171877,5,0,0:0:0:0:
256,192,171960,1,0,0:0:0:0:
256,192,172042,1,0,0:0:0:0:
256,192,172124,1,0,0:0:0:0:
256,192,172207,1,0,0:0:0:0:
256,192,172289,1,0,0:0:0:0:
256,192,172372,1,0,0:0:0:0:
256,192,172455,1,0,0:0:0:0:
256,192,172537,1,8,0:0:0:0:
256,192,173196,1,0,0:0:0:0:
256,192,173278,1,0,0:0:0:0:
256,192,173361,1,0,0:0:0:0:
256,192,173443,1,0,0:0:0:0:
256,192,173526,1,0,0:0:0:0:
256,192,173608,1,0,0:0:0:0:
256,192,173690,1,0,0:0:0:0:
256,192,173773,1,0,0:0:0:0:
256,192,173855,1,8,0:0:0:0:
256,192,174020,1,0,0:0:0:0:
256,192,174103,1,0,0:0:0:0:
256,192,174185,1,8,0:0:0:0:
256,192,174514,1,0,0:0:0:0:
256,192,174597,1,0,0:0:0:0:
256,192,174679,1,0,0:0:0:0:
256,192,174761,1,0,0:0:0:0:
256,192,174844,1,0,0:0:0:0:
256,192,174926,1,0,0:0:0:0:
256,192,175009,1,0,0:0:0:0:
256,192,175092,1,0,0:0:0:0:
256,192,175174,1,8,0:0:0:0:
256,192,175833,1,0,0:0:0:0:
256,192,175915,1,0,0:0:0:0:
256,192,175998,1,0,0:0:0:0:
256,192,176080,1,0,0:0:0:0:
256,192,176163,1,0,0:0:0:0:
256,192,176245,1,0,0:0:0:0:
256,192,176327,1,0,0:0:0:0:
256,192,176410,1,0,0:0:0:0:
256,192,176492,1,8,0:0:0:0:
256,192,176657,1,0,0:0:0:0:
256,192,176740,1,0,0:0:0:0:
256,192,176822,1,8,0:0:0:0:
256,192,176987,1,0,0:0:0:0:
256,192,177152,5,12,0:0:0:0:
256,192,177317,1,0,0:0:0:0:
256,192,177399,1,0,0:0:0:0:
256,192,177481,1,0,0:0:0:0:
256,192,177564,1,0,0:0:0:0:
256,192,177646,1,0,0:0:0:0:
256,192,177729,1,0,0:0:0:0:
256,192,177811,1,8,0:0:0:0:
256,192,178141,1,0,0:0:0:0:
256,192,178223,1,0,0:0:0:0:
256,192,178306,1,0,0:0:0:0:
256,192,178388,1,0,0:0:0:0:
256,192,178470,1,0,0:0:0:0:
256,192,178553,1,0,0:0:0:0:
256,192,178635,1,0,0:0:0:0:
256,192,178718,1,0,0:0:0:0:
256,192,178800,1,8,0:0:0:0:
256,192,179130,1,0,0:0:0:0:
256,192,179212,1,0,0:0:0:0:
256,192,179295,1,0,0:0:0:0:
256,192,179377,1,0,0:0:0:0:
256,192,179459,1,8,0:0:0:0:
256,192,179789,1,0,0:0:0:0:
256,192,179872,1,0,0:0:0:0:
256,192,179954,1,0,0:0:0:0:
256,192,180036,1,0,0:0:0:0:
256,192,180119,1,0,0:0:0:0:
256,192,180201,1,0,0:0:0:0:
256,192,180284,1,0,0:0:0:0:
256,192,180366,1,0,0:0:0:0:
256,192,180448,1,8,0:0:0:0:
256,192,180778,1,0,0:0:0:0:
256,192,180861,1,0,0:0:0:0:
256,192,180943,1,0,0:0:0:0:
256,192,181025,1,0,0:0:0:0:
256,192,181108,1,0,0:0:0:0:
256,192,181190,1,0,0:0:0:0:
256,192,181273,1,0,0:0:0:0:
256,192,181355,1,0,0:0:0:0:
256,192,181437,1,8,0:0:0:0:
256,192,181767,1,0,0:0:0:0:
256,192,181850,1,0,0:0:0:0:
256,192,181932,1,0,0:0:0:0:
256,192,182014,1,0,0:0:0:0:
256,192,182097,1,8,0:0:0:0:
256,192,182426,5,0,0:0:0:0:
256,192,182509,1,0,0:0:0:0:
256,192,182591,1,0,0:0:0:0:
256,192,182674,1,0,0:0:0:0:
256,192,182756,1,0,0:0:0:0:
256,192,182839,1,0,0:0:0:0:
256,192,182921,1,0,0:0:0:0:
256,192,183003,1,0,0:0:0:0:
256,192,183086,1,8,0:0:0:0:
256,192,183415,1,0,0:0:0:0:
256,192,183498,1,0,0:0:0:0:
256,192,183580,1,0,0:0:0:0:
256,192,183663,1,0,0:0:0:0:
256,192,183745,1,0,0:0:0:0:
256,192,183828,1,0,0:0:0:0:
256,192,183910,1,0,0:0:0:0:
256,192,183992,1,0,0:0:0:0:
256,192,184075,1,8,0:0:0:0:
256,192,184405,1,0,0:0:0:0:
256,192,184487,1,0,0:0:0:0:
256,192,184569,1,0,0:0:0:0:
256,192,184652,1,0,0:0:0:0:
256,192,184734,1,8,0:0:0:0:
256,192,184899,1,0,0:0:0:0:
256,192,184981,1,0,0:0:0:0:
256,192,185064,1,8,0:0:0:0:
256,192,185229,1,0,0:0:0:0:
256,192,185311,1,0,0:0:0:0:
256,192,185394,1,0,0:0:0:0:
256,192,185476,1,0,0:0:0:0:
256,192,185558,1,8,0:0:0:0:
256,192,185723,1,0,0:0:0:0:
256,192,185806,1,0,0:0:0:0:
256,192,185888,1,0,0:0:0:0:
256,192,185970,1,0,0:0:0:0:
256,192,186053,1,8,0:0:0:0:
256,192,186218,1,0,0:0:0:0:
256,192,186300,1,0,0:0:0:0:
256,192,186383,1,8,0:0:0:0:
256,192,186465,1,8,0:0:0:0:
256,192,186547,1,0,0:0:0:0:
256,192,186630,1,0,0:0:0:0:
256,192,186712,1,8,0:0:0:0:
256,192,186795,1,0,0:0:0:0:
256,192,186877,1,8,0:0:0:0:
256,192,186959,1,8,0:0:0:0:
256,192,187042,1,0,0:0:0:0:
256,192,187124,1,0,0:0:0:0:
256,192,187207,1,8,0:0:0:0:
256,192,187289,1,0,0:0:0:0:
256,192,187372,1,8,0:0:0:0:
256,192,187454,1,8,0:0:0:0:
256,192,187536,1,0,0:0:0:0:
256,192,187701,1,12,0:0:0:0:
256,192,188361,5,4,0:0:0:0:
256,192,189020,1,12,0:0:0:0:
256,192,189350,1,0,0:0:0:0:
256,192,189514,1,8,0:0:0:0:
256,192,189679,1,0,0:0:0:0:
256,192,189844,1,0,0:0:0:0:
256,192,190009,1,8,0:0:0:0:
256,192,190174,1,0,0:0:0:0:
256,192,190339,5,12,0:0:0:0:
256,192,190503,1,0,0:0:0:0:
256,192,190586,1,0,0:0:0:0:
256,192,190668,1,8,0:0:0:0:
256,192,190833,1,0,0:0:0:0:
256,192,190915,1,0,0:0:0:0:
256,192,190998,1,8,0:0:0:0:
256,192,191080,1,0,0:0:0:0:
256,192,191163,1,0,0:0:0:0:
256,192,191245,1,0,0:0:0:0:
256,192,191328,1,8,0:0:0:0:
256,192,191657,1,8,0:0:0:0:
256,192,191740,1,0,0:0:0:0:
256,192,191822,1,0,0:0:0:0:
256,192,191905,1,0,0:0:0:0:
256,192,191987,1,8,0:0:0:0:
256,192,192152,1,0,0:0:0:0:
256,192,192234,1,0,0:0:0:0:
256,192,192317,1,8,0:0:0:0:
256,192,192399,1,0,0:0:0:0:
256,192,192482,1,0,0:0:0:0:
256,192,192564,1,0,0:0:0:0:
256,192,192647,1,8,0:0:0:0:
256,192,192976,1,8,0:0:0:0:
256,192,193058,1,8,0:0:0:0:
256,192,193141,1,8,0:0:0:0:
256,192,193223,1,8,0:0:0:0:
256,192,193306,1,0,0:0:0:0:
256,192,193470,1,8,0:0:0:0:
256,192,193553,1,8,0:0:0:0:
256,192,193635,1,8,0:0:0:0:
256,192,193718,1,8,0:0:0:0:
256,192,193800,1,8,0:0:0:0:
256,192,193883,1,8,0:0:0:0:
256,192,193965,1,0,0:0:0:0:
256,192,194295,1,8,0:0:0:0:
256,192,194377,1,8,0:0:0:0:
256,192,194460,1,8,0:0:0:0:
256,192,194542,1,8,0:0:0:0:
256,192,194625,1,0,0:0:0:0:
256,192,194789,1,8,0:0:0:0:
256,192,194872,1,8,0:0:0:0:
256,192,194954,1,8,0:0:0:0:
256,192,195037,1,8,0:0:0:0:
256,192,195119,1,8,0:0:0:0:
256,192,195202,1,8,0:0:0:0:
256,192,195284,1,0,0:0:0:0:
256,192,195613,5,0,0:0:0:0:
256,192,195696,1,0,0:0:0:0:
256,192,195778,1,8,0:0:0:0:
256,192,195861,1,8,0:0:0:0:
256,192,195943,1,0,0:0:0:0:
256,192,196108,1,0,0:0:0:0:
256,192,196190,1,0,0:0:0:0:
256,192,196273,1,8,0:0:0:0:
256,192,196355,1,8,0:0:0:0:
256,192,196437,1,8,0:0:0:0:
256,192,196520,1,8,0:0:0:0:
256,192,196602,1,0,0:0:0:0:
256,192,196932,5,0,0:0:0:0:
256,192,197015,1,0,0:0:0:0:
256,192,197097,1,8,0:0:0:0:
256,192,197180,1,8,0:0:0:0:
256,192,197262,1,0,0:0:0:0:
256,192,197427,1,0,0:0:0:0:
256,192,197509,1,0,0:0:0:0:
256,192,197592,1,8,0:0:0:0:
256,192,197674,1,8,0:0:0:0:
256,192,197756,1,8,0:0:0:0:
256,192,197839,1,8,0:0:0:0:
256,192,197921,1,0,0:0:0:0:
256,192,198251,1,0,0:0:0:0:
256,192,198333,1,0,0:0:0:0:
256,192,198415,1,0,0:0:0:0:
256,192,198498,1,0,0:0:0:0:
256,192,198580,1,8,0:0:0:0:
256,192,198745,1,0,0:0:0:0:
256,192,198828,1,0,0:0:0:0:
256,192,198910,1,8,0:0:0:0:
256,192,199075,1,0,0:0:0:0:
256,192,199157,1,0,0:0:0:0:
256,192,199240,1,8,0:0:0:0:
256,192,199405,1,0,0:0:0:0:
256,192,199459,1,0,0:0:0:0:
256,192,199514,1,0,0:0:0:0:
256,192,199569,1,8,0:0:0:0:
256,192,199734,1,0,0:0:0:0:
256,192,199817,1,0,0:0:0:0:
256,192,199899,1,8,0:0:0:0:
256,192,199981,1,8,0:0:0:0:
256,192,200064,1,0,0:0:0:0:
256,192,200146,1,0,0:0:0:0:
256,192,200229,1,8,0:0:0:0:
256,192,200311,1,0,0:0:0:0:
256,192,200394,1,8,0:0:0:0:
256,192,200476,1,0,0:0:0:0:
256,192,200558,1,8,0:0:0:0:
256,192,200641,1,8,0:0:0:0:
256,192,200723,1,0,0:0:0:0:
256,192,200806,1,0,0:0:0:0:
256,192,200888,1,8,0:0:0:0:
256,192,201053,1,0,0:0:0:0:
256,192,201135,1,0,0:0:0:0:
256,192,201218,1,0,0:0:0:0:
256,192,201300,1,0,0:0:0:0:
256,192,201383,1,8,0:0:0:0:
256,192,201547,1,0,0:0:0:0:
256,192,201630,1,0,0:0:0:0:
256,192,201712,1,0,0:0:0:0:
256,192,201795,1,0,0:0:0:0:
256,192,201877,1,8,0:0:0:0:
256,192,202042,1,0,0:0:0:0:
256,192,202207,1,8,0:0:0:0:
256,192,202372,1,0,0:0:0:0:
256,192,202454,1,0,0:0:0:0:
256,192,202536,1,8,0:0:0:0:
256,192,202619,1,0,0:0:0:0:
256,192,202701,1,8,0:0:0:0:
256,192,202866,1,0,0:0:0:0:
256,192,202948,1,0,0:0:0:0:
256,192,203031,1,8,0:0:0:0:
256,192,203113,1,0,0:0:0:0:
256,192,203196,1,8,0:0:0:0:
256,192,203361,1,0,0:0:0:0:
256,192,203525,1,8,0:0:0:0:
256,192,203690,1,8,0:0:0:0:
256,192,203773,1,0,0:0:0:0:
256,192,203855,1,0,0:0:0:0:
256,192,203937,1,0,0:0:0:0:
256,192,204020,1,8,0:0:0:0:
256,192,204185,1,8,0:0:0:0:
256,192,204267,1,0,0:0:0:0:
256,192,204350,1,0,0:0:0:0:
256,192,204432,1,0,0:0:0:0:
256,192,204514,1,8,0:0:0:0:
256,192,204679,1,0,0:0:0:0:
256,192,204844,1,8,0:0:0:0:
256,192,205009,1,8,0:0:0:0:
256,192,205091,1,8,0:0:0:0:
256,192,205174,1,0,0:0:0:0:
256,192,205256,1,0,0:0:0:0:
256,192,205339,1,8,0:0:0:0:
256,192,205503,1,8,0:0:0:0:
256,192,205586,1,8,0:0:0:0:
256,192,205668,1,0,0:0:0:0:
256,192,205751,1,0,0:0:0:0:
256,192,205833,1,8,0:0:0:0:
256,192,205998,1,0,0:0:0:0:
256,192,206163,1,12,0:0:0:0:
256,192,206328,1,0,0:0:0:0:
256,192,206410,1,0,0:0:0:0:
256,192,206493,1,0,0:0:0:0:
256,192,206575,1,0,0:0:0:0:
256,192,206658,1,8,0:0:0:0:
256,192,206822,1,0,0:0:0:0:
256,192,206905,1,0,0:0:0:0:
256,192,206987,1,0,0:0:0:0:
256,192,207070,1,0,0:0:0:0:
256,192,207152,1,8,0:0:0:0:
256,192,207317,1,0,0:0:0:0:
256,192,207481,1,12,0:0:0:0:
256,192,207646,1,0,0:0:0:0:
256,192,207729,1,0,0:0:0:0:
256,192,207811,1,0,0:0:0:0:
256,192,207894,1,0,0:0:0:0:
256,192,207976,1,8,0:0:0:0:
256,192,208141,1,0,0:0:0:0:
256,192,208223,1,0,0:0:0:0:
256,192,208306,1,8,0:0:0:0:
256,192,208470,1,0,0:0:0:0:
256,192,208525,1,0,0:0:0:0:
256,192,208580,1,0,0:0:0:0:
256,192,208635,1,8,0:0:0:0:
256,192,208800,1,4,0:0:0:0:
256,192,208965,1,8,0:0:0:0:
256,192,209047,1,0,0:0:0:0:
256,192,209130,1,0,0:0:0:0:
256,192,209212,1,0,0:0:0:0:
256,192,209295,1,8,0:0:0:0:
256,192,209459,1,8,0:0:0:0:
256,192,209542,1,0,0:0:0:0:
256,192,209624,1,0,0:0:0:0:
256,192,209707,1,0,0:0:0:0:
256,192,209789,1,8,0:0:0:0:
256,192,209954,1,0,0:0:0:0:
256,192,210119,1,12,0:0:0:0:
256,192,210284,1,0,0:0:0:0:
256,192,210366,1,0,0:0:0:0:
256,192,210448,1,8,0:0:0:0:
256,192,210531,1,0,0:0:0:0:
256,192,210613,1,8,0:0:0:0:
256,192,210696,1,8,0:0:0:0:
256,192,210778,1,0,0:0:0:0:
256,192,210861,1,0,0:0:0:0:
256,192,210943,1,0,0:0:0:0:
256,192,211025,1,0,0:0:0:0:
256,192,211108,1,8,0:0:0:0:
256,192,211190,1,8,0:0:0:0:
256,192,211273,1,0,0:0:0:0:
256,192,211437,1,8,0:0:0:0:
256,192,211520,1,0,0:0:0:0:
256,192,211602,1,0,0:0:0:0:
256,192,211685,1,0,0:0:0:0:
256,192,211767,1,8,0:0:0:0:
256,192,211850,1,0,0:0:0:0:
256,192,211932,1,8,0:0:0:0:
256,192,212014,1,0,0:0:0:0:
256,192,212097,1,0,0:0:0:0:
256,192,212179,1,0,0:0:0:0:
256,192,212262,1,8,0:0:0:0:
256,192,212344,1,0,0:0:0:0:
256,192,212426,1,8,0:0:0:0:
256,192,212509,1,8,0:0:0:0:
256,192,212591,1,0,0:0:0:0:
256,192,212674,1,0,0:0:0:0:
256,192,212756,1,8,0:0:0:0:
256,192,212839,1,0,0:0:0:0:
256,192,212921,1,0,0:0:0:0:
256,192,213003,1,0,0:0:0:0:
256,192,213086,1,8,0:0:0:0:
256,192,213168,1,0,0:0:0:0:
256,192,213251,1,8,0:0:0:0:
256,192,213333,1,0,0:0:0:0:
256,192,213415,1,0,0:0:0:0:
256,192,213498,1,0,0:0:0:0:
256,192,213580,1,8,0:0:0:0:
256,192,213663,1,0,0:0:0:0:
256,192,213745,1,8,0:0:0:0:
256,192,213828,1,8,0:0:0:0:
256,192,213910,1,0,0:0:0:0:
256,192,214075,1,8,0:0:0:0:
256,192,214157,1,0,0:0:0:0:
256,192,214240,1,0,0:0:0:0:
256,192,214322,1,0,0:0:0:0:
256,192,214405,1,8,0:0:0:0:
256,192,214487,1,0,0:0:0:0:
256,192,214569,1,8,0:0:0:0:
256,192,214652,1,8,0:0:0:0:
256,192,214734,1,0,0:0:0:0:
256,192,214817,1,0,0:0:0:0:
256,192,214899,1,8,0:0:0:0:
256,192,214981,1,0,0:0:0:0:
256,192,215064,1,8,0:0:0:0:
256,192,215146,1,8,0:0:0:0:
256,192,215229,1,8,0:0:0:0:
256,192,215311,1,0,0:0:0:0:
256,192,215394,1,8,0:0:0:0:
256,192,215476,1,0,0:0:0:0:
256,192,215558,1,0,0:0:0:0:
256,192,215641,1,0,0:0:0:0:
256,192,215723,1,8,0:0:0:0:
256,192,215806,1,0,0:0:0:0:
256,192,215888,1,8,0:0:0:0:
256,192,215970,1,8,0:0:0:0:
256,192,216053,1,0,0:0:0:0:
256,192,216135,1,0,0:0:0:0:
256,192,216218,1,8,0:0:0:0:
256,192,216300,1,0,0:0:0:0:
256,192,216383,1,8,0:0:0:0:
256,192,216465,1,8,0:0:0:0:
256,192,216547,1,0,0:0:0:0:
256,192,216712,1,8,0:0:0:0:
256,192,216795,1,8,0:0:0:0:
256,192,216877,1,0,0:0:0:0:
256,192,216959,1,0,0:0:0:0:
256,192,217042,1,8,0:0:0:0:
256,192,217124,1,0,0:0:0:0:
256,192,217207,1,8,0:0:0:0:
256,192,217289,1,8,0:0:0:0:
256,192,217372,1,0,0:0:0:0:
256,192,217454,1,0,0:0:0:0:
256,192,217536,1,8,0:0:0:0:
256,192,217619,1,0,0:0:0:0:
256,192,217701,1,8,0:0:0:0:
256,192,217784,1,8,0:0:0:0:
256,192,217866,1,8,0:0:0:0:
256,192,217948,1,0,0:0:0:0:
256,192,218031,1,8,0:0:0:0:
256,192,218113,1,8,0:0:0:0:
256,192,218196,1,0,0:0:0:0:
256,192,218278,1,0,0:0:0:0:
256,192,218361,1,8,0:0:0:0:
256,192,218443,1,0,0:0:0:0:
256,192,218525,1,8,0:0:0:0:
256,192,218608,1,8,0:0:0:0:
256,192,218690,1,0,0:0:0:0:
256,192,218773,1,0,0:0:0:0:
256,192,218855,1,8,0:0:0:0:
256,192,218937,1,0,0:0:0:0:
256,192,219020,1,8,0:0:0:0:
256,192,219102,1,8,0:0:0:0:
256,192,219185,1,8,0:0:0:0:
256,192,219267,1,8,0:0:0:0:
256,192,219350,1,0,0:0:0:0:
256,192,219432,1,0,0:0:0:0:
256,192,219514,1,0,0:0:0:0:
256,192,219597,1,0,0:0:0:0:
256,192,219679,1,8,0:0:0:0:
256,192,219762,1,8,0:0:0:0:
256,192,219844,1,0,0:0:0:0:
256,192,219926,1,0,0:0:0:0:
256,192,220009,1,8,0:0:0:0:
256,192,220091,1,8,0:0:0:0:
256,192,220174,1,0,0:0:0:0:
256,192,220256,1,0,0:0:0:0:
256,192,220339,1,8,0:0:0:0:
256,192,220421,1,0,0:0:0:0:
256,192,220503,1,8,0:0:0:0:
256,192,220586,1,8,0:0:0:0:
256,192,220668,1,0,0:0:0:0:
256,192,220778,1,0,0:0:0:0:
256,192,220888,1,8,0:0:0:0:
256,192,220998,1,8,0:0:0:0:
256,192,221108,1,8,0:0:0:0:
256,192,221218,1,0,0:0:0:0:
256,192,221328,1,0,0:0:0:0:
256,192,221437,1,8,0:0:0:0:
256,192,221547,1,8,0:0:0:0:
256,192,221657,1,0,0:0:0:0:
256,192,221767,1,0,0:0:0:0:
256,192,221877,1,0,0:0:0:0:
256,192,221987,1,8,0:0:0:0:
256,192,222097,1,0,0:0:0:0:
256,192,222207,1,0,0:0:0:0:
256,192,222317,1,8,0:0:0:0:
256,192,222426,1,0,0:0:0:0:
256,192,222536,1,0,0:0:0:0:
256,192,222646,1,8,0:0:0:0:
256,192,222756,1,0,0:0:0:0:
256,192,222866,1,0,0:0:0:0:
256,192,222976,1,8,0:0:0:0:
256,192,223086,1,0,0:0:0:0:
256,192,223196,1,0,0:0:0:0:
256,192,223306,1,8,0:0:0:0:
256,192,223415,1,0,0:0:0:0:
256,192,223525,1,0,0:0:0:0:
256,192,223635,1,8,0:0:0:0:
256,192,223745,1,0,0:0:0:0:
256,192,223855,1,8,0:0:0:0:
256,192,223965,1,8,0:0:0:0:
256,192,224075,1,0,0:0:0:0:
256,192,224185,1,8,0:0:0:0:
256,192,224295,1,0,0:0:0:0:
256,192,224405,1,8,0:0:0:0:
256,192,224514,1,0,0:0:0:0:
256,192,224624,1,8,0:0:0:0:
256,192,224734,1,8,0:0:0:0:
256,192,224844,1,0,0:0:0:0:
256,192,224954,1,8,0:0:0:0:
256,192,225064,1,0,0:0:0:0:
256,192,225174,1,0,0:0:0:0:
256,192,225284,1,8,0:0:0:0:
256,192,225394,1,8,0:0:0:0:
256,192,225503,1,0,0:0:0:0:
256,192,225613,1,8,0:0:0:0:
256,192,225723,1,0,0:0:0:0:
256,192,225833,1,0,0:0:0:0:
256,192,225943,1,8,0:0:0:0:
256,192,226053,1,0,0:0:0:0:
256,192,226163,1,0,0:0:0:0:
256,192,226273,1,8,0:0:0:0:
256,192,226383,1,8,0:0:0:0:
256,192,226492,1,0,0:0:0:0:
256,192,226602,1,8,0:0:0:0:
256,192,226712,1,8,0:0:0:0:
256,192,226822,1,0,0:0:0:0:
256,192,226932,1,8,0:0:0:0:
256,192,227042,1,8,0:0:0:0:
256,192,227152,1,0,0:0:0:0:
256,192,227262,1,8,0:0:0:0:
256,192,227372,1,0,0:0:0:0:
256,192,227481,1,0,0:0:0:0:
256,192,227591,1,8,0:0:0:0:
256,192,227701,1,0,0:0:0:0:
256,192,227811,1,0,0:0:0:0:
256,192,227921,1,8,0:0:0:0:
256,192,228031,1,8,0:0:0:0:
256,192,228141,1,0,0:0:0:0:
256,192,228251,1,8,0:0:0:0:
256,192,228361,1,0,0:0:0:0:
256,192,228470,1,0,0:0:0:0:
256,192,228580,1,8,0:0:0:0:
256,192,228690,1,0,0:0:0:0:
256,192,228800,1,0,0:0:0:0:
256,192,228910,1,8,0:0:0:0:
256,192,229020,1,8,0:0:0:0:
256,192,229130,1,0,0:0:0:0:
256,192,229240,1,8,0:0:0:0:
256,192,229405,1,0,0:0:0:0:
256,192,229487,1,0,0:0:0:0:
256,192,229569,1,8,0:0:0:0:
256,192,229652,1,8,0:0:0:0:
256,192,229734,1,8,0:0:0:0:
256,192,229817,1,8,0:0:0:0:
256,192,229899,1,0,0:0:0:0:
256,192,229981,1,8,0:0:0:0:
256,192,230064,1,0,0:0:0:0:
256,192,230146,1,0,0:0:0:0:
256,192,230229,1,8,0:0:0:0:
256,192,230311,1,0,0:0:0:0:
256,192,230394,1,8,0:0:0:0:
256,192,230476,1,8,0:0:0:0:
256,192,230558,1,0,0:0:0:0:
256,192,230641,1,8,0:0:0:0:
256,192,230723,1,0,0:0:0:0:
256,192,230806,1,0,0:0:0:0:
256,192,230888,1,8,0:0:0:0:
256,192,230970,1,8,0:0:0:0:
256,192,231053,1,0,0:0:0:0:
256,192,231218,1,8,0:0:0:0:
256,192,231300,1,8,0:0:0:0:
256,192,231383,1,0,0:0:0:0:
256,192,231465,1,0,0:0:0:0:
256,192,231547,1,8,0:0:0:0:
256,192,231630,1,0,0:0:0:0:
256,192,231712,1,0,0:0:0:0:
256,192,231795,1,0,0:0:0:0:
256,192,231877,1,8,0:0:0:0:
256,192,231959,1,8,0:0:0:0:
256,192,232042,1,8,0:0:0:0:
256,192,232124,1,8,0:0:0:0:
256,192,232207,1,0,0:0:0:0:
256,192,232289,1,0,0:0:0:0:
256,192,232372,1,0,0:0:0:0:
256,192,232454,1,0,0:0:0:0:
256,192,232536,1,8,0:0:0:0:
256,192,232619,1,0,0:0:0:0:
256,192,232701,1,8,0:0:0:0:
256,192,232784,1,8,0:0:0:0:
256,192,232866,1,0,0:0:0:0:
256,192,232948,1,0,0:0:0:0:
256,192,233031,1,8,0:0:0:0:
256,192,233113,1,0,0:0:0:0:
256,192,233196,1,8,0:0:0:0:
256,192,233278,1,8,0:0:0:0:
256,192,233361,1,0,0:0:0:0:
256,192,233443,1,0,0:0:0:0:
256,192,233525,1,8,0:0:0:0:
256,192,233608,1,8,0:0:0:0:
256,192,233690,1,0,0:0:0:0:
256,192,233773,1,0,0:0:0:0:
256,192,233855,1,8,0:0:0:0:
256,192,233937,1,0,0:0:0:0:
256,192,234020,1,8,0:0:0:0:
256,192,234102,1,0,0:0:0:0:
256,192,234185,1,8,0:0:0:0:
256,192,234267,1,8,0:0:0:0:
256,192,234350,1,0,0:0:0:0:
256,192,234432,1,0,0:0:0:0:
256,192,234514,1,8,0:0:0:0:
256,192,234597,1,8,0:0:0:0:
256,192,234679,1,0,0:0:0:0:
256,192,234762,1,0,0:0:0:0:
256,192,234844,1,8,0:0:0:0:
256,192,234926,1,8,0:0:0:0:
256,192,235009,1,8,0:0:0:0:
256,192,235091,1,8,0:0:0:0:
256,192,235174,1,0,0:0:0:0:
256,192,235256,1,0,0:0:0:0:
256,192,235339,1,8,0:0:0:0:
256,192,235421,1,0,0:0:0:0:
256,192,235503,1,8,0:0:0:0:
256,192,235586,1,0,0:0:0:0:
256,192,235668,1,8,0:0:0:0:
256,192,235751,1,8,0:0:0:0:
256,192,235833,1,0,0:0:0:0:
256,192,235915,1,0,0:0:0:0:
256,192,235998,1,8,0:0:0:0:
256,192,236080,1,0,0:0:0:0:
256,192,236163,1,8,0:0:0:0:
256,192,236245,1,8,0:0:0:0:
256,192,236328,1,0,0:0:0:0:
256,192,236410,1,0,0:0:0:0:
256,192,236492,1,8,0:0:0:0:
256,192,236575,1,0,0:0:0:0:
256,192,236657,1,0,0:0:0:0:
256,192,236740,1,0,0:0:0:0:
256,192,236822,1,8,0:0:0:0:
256,192,236905,1,8,0:0:0:0:
256,192,236987,1,8,0:0:0:0:
256,192,237069,1,8,0:0:0:0:
256,192,237152,1,0,0:0:0:0:
256,192,237234,1,0,0:0:0:0:
256,192,237317,1,8,0:0:0:0:
256,192,237399,1,0,0:0:0:0:
256,192,237481,1,8,0:0:0:0:
256,192,237564,1,8,0:0:0:0:
256,192,237646,1,8,0:0:0:0:
256,192,237729,1,0,0:0:0:0:
256,192,237811,1,8,0:0:0:0:
256,192,237894,1,0,0:0:0:0:
256,192,237976,1,0,0:0:0:0:
256,192,238058,1,0,0:0:0:0:
256,192,238141,1,8,0:0:0:0:
256,192,238223,1,8,0:0:0:0:
256,192,238306,1,8,0:0:0:0:
256,192,238388,1,8,0:0:0:0:
256,192,238470,1,0,0:0:0:0:
256,192,238553,1,0,0:0:0:0:
256,192,238635,1,8,0:0:0:0:
256,192,238718,1,8,0:0:0:0:
256,192,238800,1,0,0:0:0:0:
256,192,238883,1,0,0:0:0:0:
256,192,238965,1,8,0:0:0:0:
256,192,239047,1,0,0:0:0:0:
256,192,239130,1,8,0:0:0:0:
256,192,239212,1,8,0:0:0:0:
256,192,239295,1,0,0:0:0:0:
256,192,239377,1,0,0:0:0:0:
256,192,239459,1,8,0:0:0:0:
256,192,239542,1,8,0:0:0:0:
256,192,239624,1,8,0:0:0:0:
256,192,239707,1,8,0:0:0:0:
256,192,239789,1,0,0:0:0:0:
256,192,239872,1,0,0:0:0:0:
256,192,239954,1,0,0:0:0:0:
256,192,240036,1,0,0:0:0:0:
256,192,240119,1,8,0:0:0:0:
256,192,240284,1,0,0:0:0:0:
256,192,240366,1,0,0:0:0:0:
256,192,240448,1,8,0:0:0:0:
256,192,240531,1,8,0:0:0:0:
256,192,240613,1,0,0:0:0:0:
256,192,240696,1,0,0:0:0:0:
256,192,240778,1,8,0:0:0:0:
256,192,240861,1,8,0:0:0:0:
256,192,240943,1,8,0:0:0:0:
256,192,241025,1,8,0:0:0:0:
256,192,241108,1,0,0:0:0:0:
256,192,241190,1,0,0:0:0:0:
256,192,241273,1,0,0:0:0:0:
256,192,241355,1,0,0:0:0:0:
256,192,241437,1,8,0:0:0:0:
256,192,241520,1,0,0:0:0:0:
256,192,241602,1,0,0:0:0:0:
256,192,241685,1,0,0:0:0:0:
256,192,241767,1,8,0:0:0:0:
256,192,241822,1,0,0:0:0:0:
256,192,241877,1,0,0:0:0:0:
256,192,241932,1,8,0:0:0:0:
256,192,242014,1,8,0:0:0:0:
256,192,242097,1,0,0:0:0:0:
256,192,242152,1,0,0:0:0:0:
256,192,242207,1,0,0:0:0:0:
256,192,242262,1,8,0:0:0:0:
256,192,242344,1,0,0:0:0:0:
256,192,242426,1,8,0:0:0:0:
256,192,242509,1,8,0:0:0:0:
256,192,242591,1,0,0:0:0:0:
256,192,242674,1,0,0:0:0:0:
256,192,242756,1,8,0:0:0:0:
256,192,242839,1,0,0:0:0:0:
256,192,242921,1,8,0:0:0:0:
256,192,243003,1,8,0:0:0:0:
256,192,243086,1,0,0:0:0:0:
256,192,243251,12,0,245558,0:0:0:0:
256,192,245723,5,4,0:0:0:0:
256,192,245888,1,8,0:0:0:0:
256,192,245970,1,0,0:0:0:0:
256,192,246052,1,0,0:0:0:0:
256,192,246135,1,0,0:0:0:0:
256,192,246217,1,8,0:0:0:0:
256,192,246382,1,8,0:0:0:0:
256,192,246465,1,8,0:0:0:0:
256,192,246547,1,0,0:0:0:0:
256,192,246712,1,8,0:0:0:0:
256,192,246877,1,0,0:0:0:0:
256,192,246959,1,0,0:0:0:0:
256,192,247041,1,8,0:0:0:0:
256,192,247206,1,0,0:0:0:0:
256,192,247289,1,0,0:0:0:0:
256,192,247371,1,0,0:0:0:0:
256,192,247454,1,0,0:0:0:0:
256,192,247536,1,8,0:0:0:0:
256,192,247701,1,0,0:0:0:0:
256,192,247783,1,0,0:0:0:0:
256,192,247866,1,0,0:0:0:0:
256,192,248030,1,8,0:0:0:0:
256,192,248195,1,0,0:0:0:0:
256,192,248278,1,0,0:0:0:0:
256,192,248360,1,8,0:0:0:0:
256,192,248525,1,8,0:0:0:0:
256,192,248607,1,0,0:0:0:0:
256,192,248690,1,0,0:0:0:0:
256,192,248773,1,0,0:0:0:0:
256,192,248855,1,8,0:0:0:0:
256,192,249019,1,8,0:0:0:0:
256,192,249102,1,8,0:0:0:0:
256,192,249184,1,0,0:0:0:0:
256,192,249349,1,8,0:0:0:0:
256,192,249514,1,0,0:0:0:0:
256,192,249597,1,0,0:0:0:0:
256,192,249679,1,8,0:0:0:0:
256,192,249844,1,0,0:0:0:0:
256,192,249926,1,0,0:0:0:0:
256,192,250008,1,0,0:0:0:0:
256,192,250091,1,0,0:0:0:0:
256,192,250173,1,8,0:0:0:0:
256,192,250338,1,0,0:0:0:0:
256,192,250393,1,0,0:0:0:0:
256,192,250448,1,0,0:0:0:0:
256,192,250503,1,8,0:0:0:0:
256,192,250668,1,0,0:0:0:0:
256,192,250723,1,0,0:0:0:0:
256,192,250778,1,0,0:0:0:0:
256,192,250833,1,8,0:0:0:0:
256,192,250997,5,4,0:0:0:0:
256,192,251162,1,8,0:0:0:0:
256,192,251244,1,8,0:0:0:0:
256,192,251328,1,0,0:0:0:0:
256,192,251410,1,0,0:0:0:0:
256,192,251491,1,8,0:0:0:0:
256,192,251656,1,8,0:0:0:0:
256,192,251739,1,8,0:0:0:0:
256,192,251821,1,0,0:0:0:0:
256,192,251986,1,8,0:0:0:0:
256,192,252151,1,0,0:0:0:0:
256,192,252234,1,0,0:0:0:0:
256,192,252317,1,8,0:0:0:0:
256,192,252480,1,0,0:0:0:0:
256,192,252563,1,0,0:0:0:0:
256,192,252645,1,8,0:0:0:0:
256,192,252729,1,0,0:0:0:0:
256,192,252810,1,8,0:0:0:0:
256,192,252975,1,0,0:0:0:0:
256,192,253057,1,0,0:0:0:0:
256,192,253140,1,0,0:0:0:0:
256,192,253306,1,8,0:0:0:0:
256,192,253388,1,8,0:0:0:0:
256,192,253469,1,0,0:0:0:0:
256,192,253634,1,12,0:0:0:0:
256,192,253799,1,8,0:0:0:0:
256,192,253883,1,8,0:0:0:0:
256,192,253964,1,0,0:0:0:0:
256,192,254129,1,8,0:0:0:0:
256,192,254295,1,0,0:0:0:0:
256,192,254376,1,0,0:0:0:0:
256,192,254458,1,8,0:0:0:0:
256,192,254541,1,0,0:0:0:0:
256,192,254623,1,8,0:0:0:0:
256,192,254789,1,0,0:0:0:0:
256,192,254954,1,12,0:0:0:0:
256,192,255118,1,0,0:0:0:0:
256,192,255201,1,0,0:0:0:0:
256,192,255283,1,8,0:0:0:0:
256,192,255366,1,8,0:0:0:0:
256,192,255448,1,0,0:0:0:0:
256,192,255613,1,0,0:0:0:0:
256,192,255695,1,0,0:0:0:0:
256,192,255778,1,0,0:0:0:0:
256,192,255860,1,0,0:0:0:0:
256,192,255943,1,8,0:0:0:0:
256,192,256025,1,8,0:0:0:0:
256,192,256107,1,8,0:0:0:0:
256,192,256190,1,8,0:0:0:0:
256,192,256272,5,0,0:0:0:0:
256,192,256437,1,8,0:0:0:0:
256,192,256519,1,0,0:0:0:0:
256,192,256601,1,0,0:0:0:0:
256,192,256684,1,0,0:0:0:0:
256,192,256766,1,8,0:0:0:0:
256,192,256931,1,8,0:0:0:0:
256,192,257014,1,0,0:0:0:0:
256,192,257096,1,0,0:0:0:0:
256,192,257179,1,0,0:0:0:0:
256,192,257261,1,8,0:0:0:0:
256,192,257344,1,8,0:0:0:0:
256,192,257426,1,0,0:0:0:0:
256,192,257590,1,8,0:0:0:0:
256,192,257755,1,0,0:0:0:0:
256,192,257838,1,0,0:0:0:0:
256,192,257920,1,0,0:0:0:0:
256,192,258003,1,0,0:0:0:0:
256,192,258085,1,8,0:0:0:0:
256,192,258250,1,0,0:0:0:0:
256,192,258332,1,0,0:0:0:0:
256,192,258415,1,0,0:0:0:0:
256,192,258497,1,0,0:0:0:0:
256,192,258579,1,8,0:0:0:0:
256,192,258663,1,8,0:0:0:0:
256,192,258744,1,0,0:0:0:0:
256,192,258909,1,8,0:0:0:0:
256,192,259074,1,0,0:0:0:0:
256,192,259156,1,8,0:0:0:0:
256,192,259239,1,0,0:0:0:0:
256,192,259322,1,0,0:0:0:0:
256,192,259404,1,8,0:0:0:0:
256,192,259568,1,0,0:0:0:0:
256,192,259651,1,8,0:0:0:0:
256,192,259733,1,0,0:0:0:0:
256,192,259816,1,0,0:0:0:0:
256,192,259898,1,8,0:0:0:0:
256,192,259981,1,8,0:0:0:0:
256,192,260063,1,0,0:0:0:0:
256,192,260228,1,8,0:0:0:0:
256,192,260393,1,0,0:0:0:0:
256,192,260475,1,0,0:0:0:0:
256,192,260557,1,0,0:0:0:0:
256,192,260640,1,0,0:0:0:0:
256,192,260722,1,8,0:0:0:0:
256,192,260887,1,0,0:0:0:0:
256,192,260942,1,0,0:0:0:0:
256,192,260997,1,0,0:0:0:0:
256,192,261052,1,8,0:0:0:0:
256,192,261217,1,0,0:0:0:0:
256,192,261273,1,0,0:0:0:0:
256,192,261328,1,0,0:0:0:0:
256,192,261382,1,8,0:0:0:0:
256,192,261546,5,4,0:0:0:0:
256,192,261712,1,8,0:0:0:0:
256,192,261794,1,8,0:0:0:0:
256,192,261876,1,0,0:0:0:0:
256,192,261959,1,0,0:0:0:0:
256,192,262041,1,8,0:0:0:0:
256,192,262206,1,8,0:0:0:0:
256,192,262289,1,8,0:0:0:0:
256,192,262371,1,0,0:0:0:0:
256,192,262454,1,0,0:0:0:0:
256,192,262536,1,8,0:0:0:0:
256,192,262619,1,8,0:0:0:0:
256,192,262701,1,0,0:0:0:0:
256,192,262865,1,12,0:0:0:0:
256,192,263030,1,0,0:0:0:0:
256,192,263113,1,0,0:0:0:0:
256,192,263196,1,8,0:0:0:0:
256,192,263278,1,0,0:0:0:0:
256,192,263360,1,8,0:0:0:0:
256,192,263525,1,0,0:0:0:0:
256,192,263607,1,0,0:0:0:0:
256,192,263690,1,8,0:0:0:0:
256,192,263772,1,0,0:0:0:0:
256,192,263854,1,8,0:0:0:0:
256,192,263937,1,8,0:0:0:0:
256,192,264019,1,0,0:0:0:0:
256,192,264185,1,8,0:0:0:0:
256,192,264267,1,8,0:0:0:0:
256,192,264350,1,0,0:0:0:0:
256,192,264432,1,0,0:0:0:0:
256,192,264514,1,8,0:0:0:0:
256,192,264597,1,0,0:0:0:0:
256,192,264679,1,8,0:0:0:0:
256,192,264762,1,8,0:0:0:0:
256,192,264844,1,0,0:0:0:0:
256,192,264926,1,0,0:0:0:0:
256,192,265009,1,8,0:0:0:0:
256,192,265091,1,0,0:0:0:0:
256,192,265174,1,8,0:0:0:0:
256,192,265256,1,8,0:0:0:0:
256,192,265339,1,0,0:0:0:0:
256,192,265421,1,0,0:0:0:0:
256,192,265503,1,8,0:0:0:0:
256,192,265558,1,0,0:0:0:0:
256,192,265613,1,0,0:0:0:0:
256,192,265668,1,8,0:0:0:0:
256,192,265751,1,0,0:0:0:0:
256,192,265833,1,8,0:0:0:0:
256,192,265888,1,0,0:0:0:0:
256,192,265943,1,0,0:0:0:0:
256,192,265998,1,8,0:0:0:0:
256,192,266080,1,0,0:0:0:0:
256,192,266163,1,8,0:0:0:0:
256,192,266328,1,0,0:0:0:0:
256,192,266657,1,0,0:0:0:0:
256,192,266822,1,12,0:0:0:0:
256,192,266987,1,0,0:0:0:0:
256,192,267069,1,0,0:0:0:0:
256,192,267152,1,8,0:0:0:0:
256,192,267317,1,0,0:0:0:0:
256,192,267481,1,8,0:0:0:0:
256,192,267564,1,8,0:0:0:0:
256,192,267646,1,0,0:0:0:0:
256,192,267729,1,0,0:0:0:0:
256,192,267811,1,8,0:0:0:0:
256,192,267976,1,8,0:0:0:0:
256,192,268058,1,8,0:0:0:0:
256,192,268141,1,0,0:0:0:0:
256,192,268306,1,0,0:0:0:0:
256,192,268388,1,0,0:0:0:0:
256,192,268470,1,8,0:0:0:0:
256,192,268553,1,8,0:0:0:0:
256,192,268635,1,0,0:0:0:0:
256,192,268800,1,8,0:0:0:0:
256,192,268965,1,0,0:0:0:0:
256,192,269047,1,0,0:0:0:0:
256,192,269130,1,8,0:0:0:0:
256,192,269212,1,0,0:0:0:0:
256,192,269295,1,8,0:0:0:0:
256,192,269459,1,4,0:0:0:0:
256,192,269624,1,0,0:0:0:0:
256,192,269707,1,0,0:0:0:0:
256,192,269789,1,8,0:0:0:0:
256,192,269872,1,8,0:0:0:0:
256,192,269954,1,0,0:0:0:0:
256,192,270119,1,8,0:0:0:0:
256,192,270284,1,8,0:0:0:0:
256,192,270366,1,0,0:0:0:0:
256,192,270448,1,8,0:0:0:0:
256,192,270531,1,8,0:0:0:0:
256,192,270613,1,0,0:0:0:0:
256,192,270696,1,0,0:0:0:0:
256,192,270778,1,8,0:0:0:0:
256,192,270943,1,0,0:0:0:0:
256,192,271025,1,0,0:0:0:0:
256,192,271108,1,8,0:0:0:0:
256,192,271190,1,0,0:0:0:0:
256,192,271273,1,0,0:0:0:0:
256,192,271355,1,0,0:0:0:0:
256,192,271437,1,8,0:0:0:0:
256,192,271520,1,0,0:0:0:0:
256,192,271602,1,8,0:0:0:0:
256,192,271685,1,0,0:0:0:0:
256,192,271767,1,8,0:0:0:0:
256,192,271850,1,8,0:0:0:0:
256,192,271932,1,8,0:0:0:0:
256,192,272014,1,8,0:0:0:0:
256,192,272097,1,0,0:0:0:0:
256,192,272262,1,0,0:0:0:0:
256,192,272344,1,0,0:0:0:0:
256,192,272426,1,8,0:0:0:0:
256,192,272591,1,0,0:0:0:0:
256,192,272756,1,8,0:0:0:0:
256,192,272839,1,8,0:0:0:0:
256,192,272921,1,0,0:0:0:0:
256,192,273003,1,0,0:0:0:0:
256,192,273086,1,8,0:0:0:0:
256,192,273251,1,0,0:0:0:0:
256,192,273415,1,12,0:0:0:0:
256,192,273580,1,0,0:0:0:0:
256,192,273663,1,0,0:0:0:0:
256,192,273745,1,8,0:0:0:0:
256,192,273828,1,0,0:0:0:0:
256,192,273910,1,8,0:0:0:0:
256,192,273992,1,0,0:0:0:0:
256,192,274075,1,8,0:0:0:0:
256,192,274157,1,8,0:0:0:0:
256,192,274240,1,0,0:0:0:0:
256,192,274405,1,8,0:0:0:0:
256,192,274487,1,8,0:0:0:0:
256,192,274569,1,0,0:0:0:0:
256,192,274734,1,12,0:0:0:0:
256,192,274899,1,0,0:0:0:0:
256,192,274981,1,0,0:0:0:0:
256,192,275064,1,0,0:0:0:0:
256,192,275229,1,12,0:0:0:0:
256,192,275394,1,0,0:0:0:0:
256,192,275476,1,0,0:0:0:0:
256,192,275558,1,0,0:0:0:0:
256,192,275723,1,12,0:0:0:0:
256,192,275888,1,0,0:0:0:0:
256,192,275970,1,0,0:0:0:0:
256,192,276053,1,8,0:0:0:0:
256,192,276218,1,8,0:0:0:0:
256,192,276300,1,8,0:0:0:0:
256,192,276383,1,8,0:0:0:0:
256,192,276547,1,0,0:0:0:0:
256,192,276630,1,0,0:0:0:0:
256,192,276712,1,8,0:0:0:0:
256,192,276795,1,8,0:0:0:0:
256,192,276877,1,0,0:0:0:0:
256,192,276959,1,0,0:0:0:0:
256,192,277042,1,8,0:0:0:0:
256,192,277124,1,8,0:0:0:0:
256,192,277207,1,8,0:0:0:0:
256,192,277289,1,8,0:0:0:0:
256,192,277372,1,0,0:0:0:0:
256,192,277536,1,0,0:0:0:0:
256,192,277619,1,0,0:0:0:0:
256,192,277701,1,0,0:0:0:0:
256,192,277866,1,8,0:0:0:0:
256,192,278031,1,0,0:0:0:0:
256,192,278113,1,0,0:0:0:0:
256,192,278196,1,0,0:0:0:0:
256,192,278278,1,0,0:0:0:0:
256,192,278361,1,8,0:0:0:0:
256,192,278525,1,0,0:0:0:0:
256,192,278690,1,8,0:0:0:0:
256,192,278855,1,8,0:0:0:0:
256,192,278937,1,8,0:0:0:0:
256,192,279020,1,0,0:0:0:0:
256,192,279185,1,8,0:0:0:0:
256,192,279350,1,8,0:0:0:0:
256,192,279432,1,8,0:0:0:0:
256,192,279514,1,0,0:0:0:0:
256,192,279597,1,0,0:0:0:0:
256,192,279679,1,8,0:0:0:0:
256,192,279844,1,0,0:0:0:0:
256,192,280009,1,12,0:0:0:0:
256,192,280174,1,0,0:0:0:0:
256,192,280256,1,0,0:0:0:0:
256,192,280339,1,0,0:0:0:0:
256,192,280503,1,8,0:0:0:0:
256,192,280668,1,0,0:0:0:0:
256,192,280751,1,0,0:0:0:0:
256,192,280833,1,0,0:0:0:0:
256,192,280915,1,0,0:0:0:0:
256,192,280998,1,8,0:0:0:0:
256,192,281163,1,0,0:0:0:0:
256,192,281245,1,0,0:0:0:0:
256,192,281328,1,8,0:0:0:0:
256,192,281492,1,0,0:0:0:0:
256,192,281575,1,0,0:0:0:0:
256,192,281657,1,0,0:0:0:0:
256,192,281822,1,8,0:0:0:0:
256,192,281987,1,0,0:0:0:0:
256,192,282069,1,0,0:0:0:0:
256,192,282152,1,8,0:0:0:0:
256,192,282234,1,0,0:0:0:0:
256,192,282317,1,8,0:0:0:0:
256,192,282399,1,8,0:0:0:0:
256,192,282481,1,8,0:0:0:0:
256,192,282564,1,8,0:0:0:0:
256,192,282646,1,0,0:0:0:0:
256,192,282811,1,0,0:0:0:0:
256,192,282894,1,0,0:0:0:0:
256,192,282976,1,0,0:0:0:0:
256,192,283058,1,0,0:0:0:0:
256,192,283141,1,8,0:0:0:0:
256,192,283306,1,0,0:0:0:0:
256,192,283388,1,0,0:0:0:0:
256,192,283470,1,0,0:0:0:0:
256,192,283553,1,0,0:0:0:0:
256,192,283635,1,8,0:0:0:0:
256,192,283800,1,0,0:0:0:0:
256,192,283965,1,12,0:0:0:0:
256,192,284130,1,8,0:0:0:0:
256,192,284212,1,8,0:0:0:0:
256,192,284295,1,0,0:0:0:0:
256,192,284459,1,8,0:0:0:0:
256,192,284624,1,8,0:0:0:0:
256,192,284707,1,8,0:0:0:0:
256,192,284789,1,0,0:0:0:0:
256,192,284872,1,0,0:0:0:0:
256,192,284954,1,8,0:0:0:0:
256,192,285036,1,8,0:0:0:0:
256,192,285119,1,8,0:0:0:0:
256,192,285201,1,8,0:0:0:0:
256,192,285284,1,0,0:0:0:0:
256,192,285448,5,0,0:0:0:0:
256,192,285531,1,0,0:0:0:0:
256,192,285613,1,8,0:0:0:0:
256,192,285696,1,0,0:0:0:0:
256,192,285778,1,0,0:0:0:0:
256,192,285861,1,0,0:0:0:0:
256,192,285943,1,8,0:0:0:0:
256,192,286025,1,8,0:0:0:0:
256,192,286108,1,0,0:0:0:0:
256,192,286190,1,0,0:0:0:0:
256,192,286273,1,8,0:0:0:0:
256,192,286355,1,0,0:0:0:0:
256,192,286437,1,0,0:0:0:0:
256,192,286520,1,0,0:0:0:0:
256,192,286602,5,8,0:0:0:0:
256,192,286657,1,0,0:0:0:0:
256,192,286712,1,0,0:0:0:0:
256,192,286767,1,8,0:0:0:0:
256,192,286850,1,0,0:0:0:0:
256,192,286932,1,8,0:0:0:0:
256,192,286987,1,0,0:0:0:0:
256,192,287042,1,0,0:0:0:0:
256,192,287097,1,8,0:0:0:0:
256,192,287179,1,0,0:0:0:0:
256,192,287262,1,8,0:0:0:0:
256,192,287921,5,4,0:0:0:0:
256,192,288086,1,8,0:0:0:0:
256,192,288169,1,8,0:0:0:0:
256,192,288251,1,0,0:0:0:0:
256,192,288333,1,0,0:0:0:0:
256,192,288416,1,8,0:0:0:0:
256,192,288581,1,0,0:0:0:0:
256,192,288746,1,8,0:0:0:0:
256,192,288828,1,0,0:0:0:0:
256,192,288993,1,0,0:0:0:0:
256,192,289075,1,8,0:0:0:0:
256,192,289157,1,0,0:0:0:0:
256,192,289240,1,0,0:0:0:0:
256,192,289405,1,0,0:0:0:0:
256,192,289487,1,0,0:0:0:0:
256,192,289570,1,8,0:0:0:0:
256,192,289652,1,0,0:0:0:0:
256,192,289735,1,8,0:0:0:0:
256,192,289899,1,0,0:0:0:0:
256,192,290064,1,8,0:0:0:0:
256,192,290147,1,0,0:0:0:0:
256,192,290312,1,0,0:0:0:0:
256,192,290394,1,8,0:0:0:0:
256,192,290476,1,8,0:0:0:0:
256,192,290559,1,0,0:0:0:0:
256,192,290724,1,8,0:0:0:0:
256,192,290806,1,8,0:0:0:0:
256,192,290888,1,0,0:0:0:0:
256,192,290970,1,0,0:0:0:0:
256,192,291053,1,8,0:0:0:0:
256,192,291218,1,0,0:0:0:0:
256,192,291301,1,0,0:0:0:0:
256,192,291383,1,8,0:0:0:0:
256,192,291465,1,8,0:0:0:0:
256,192,291548,1,0,0:0:0:0:
256,192,291713,1,8,0:0:0:0:
256,192,291877,1,0,0:0:0:0:
256,192,292042,1,8,0:0:0:0:
256,192,292125,1,8,0:0:0:0:
256,192,292207,1,0,0:0:0:0:
256,192,292289,1,0,0:0:0:0:
256,192,292372,1,8,0:0:0:0:
256,192,292537,1,0,0:0:0:0:
256,192,292702,1,8,0:0:0:0:
256,192,292784,1,0,0:0:0:0:
256,192,292866,1,0,0:0:0:0:
256,192,292949,1,0,0:0:0:0:
256,192,293031,1,8,0:0:0:0:
256,192,293196,5,4,0:0:0:0:
256,192,293361,1,8,0:0:0:0:
256,192,293443,1,8,0:0:0:0:
256,192,293526,1,0,0:0:0:0:
256,192,293608,1,0,0:0:0:0:
256,192,293691,1,8,0:0:0:0:
256,192,293855,1,0,0:0:0:0:
256,192,294020,1,8,0:0:0:0:
256,192,294103,1,0,0:0:0:0:
256,192,294268,1,0,0:0:0:0:
256,192,294350,1,8,0:0:0:0:
256,192,294515,5,4,0:0:0:0:
256,192,294680,1,0,0:0:0:0:
256,192,294762,1,0,0:0:0:0:
256,192,294844,1,8,0:0:0:0:
256,192,295009,1,8,0:0:0:0:
256,192,295174,1,0,0:0:0:0:
256,192,295257,1,0,0:0:0:0:
256,192,295339,1,8,0:0:0:0:
256,192,295504,1,0,0:0:0:0:
256,192,295559,1,0,0:0:0:0:
256,192,295614,1,0,0:0:0:0:
256,192,295669,1,8,0:0:0:0:
256,192,295833,5,4,0:0:0:0:
256,192,295998,1,8,0:0:0:0:
256,192,296081,1,8,0:0:0:0:
256,192,296163,1,0,0:0:0:0:
256,192,296245,1,0,0:0:0:0:
256,192,296328,1,8,0:0:0:0:
256,192,296493,1,0,0:0:0:0:
256,192,296575,1,0,0:0:0:0:
256,192,296658,1,0,0:0:0:0:
256,192,296740,1,0,0:0:0:0:
256,192,296823,1,8,0:0:0:0:
256,192,296987,1,0,0:0:0:0:
256,192,297152,1,8,0:0:0:0:
256,192,297317,1,8,0:0:0:0:
256,192,297399,1,8,0:0:0:0:
256,192,297482,1,8,0:0:0:0:
256,192,297647,1,8,0:0:0:0:
256,192,297812,1,0,0:0:0:0:
256,192,297894,1,0,0:0:0:0:
256,192,297976,1,0,0:0:0:0:
256,192,298059,1,0,0:0:0:0:
256,192,298141,1,8,0:0:0:0:
256,192,298224,1,8,0:0:0:0:
256,192,298306,1,8,0:0:0:0:
256,192,298388,1,8,0:0:0:0:
256,192,298471,5,0,0:0:0:0:
256,192,298636,1,8,0:0:0:0:
256,192,298719,1,8,0:0:0:0:
256,192,298801,1,0,0:0:0:0:
256,192,298883,1,0,0:0:0:0:
256,192,298966,1,8,0:0:0:0:
256,192,299131,1,0,0:0:0:0:
256,192,299296,1,8,0:0:0:0:
256,192,299378,1,0,0:0:0:0:
256,192,299543,1,0,0:0:0:0:
256,192,299625,1,8,0:0:0:0:
256,192,299707,1,0,0:0:0:0:
256,192,299790,1,0,0:0:0:0:
256,192,299955,1,0,0:0:0:0:
256,192,300037,1,0,0:0:0:0:
256,192,300120,1,8,0:0:0:0:
256,192,300202,1,0,0:0:0:0:
256,192,300285,1,8,0:0:0:0:
256,192,300449,1,0,0:0:0:0:
256,192,300614,1,8,0:0:0:0:
256,192,300696,1,0,0:0:0:0:
256,192,300862,1,0,0:0:0:0:
256,192,300944,1,8,0:0:0:0:
256,192,301025,1,8,0:0:0:0:
256,192,301109,1,0,0:0:0:0:
256,192,301274,1,8,0:0:0:0:
256,192,301356,1,8,0:0:0:0:
256,192,301438,1,0,0:0:0:0:
256,192,301520,1,0,0:0:0:0:
256,192,301603,1,8,0:0:0:0:
256,192,301768,1,0,0:0:0:0:
256,192,301851,1,0,0:0:0:0:
256,192,301933,1,8,0:0:0:0:
256,192,302015,1,8,0:0:0:0:
256,192,302098,1,0,0:0:0:0:
256,192,302263,1,8,0:0:0:0:
256,192,302427,1,4,0:0:0:0:
256,192,302592,1,8,0:0:0:0:
256,192,302675,1,8,0:0:0:0:
256,192,302757,1,0,0:0:0:0:
256,192,302922,1,8,0:0:0:0:
256,192,303087,1,0,0:0:0:0:
256,192,303169,1,0,0:0:0:0:
256,192,303252,1,8,0:0:0:0:
256,192,303334,1,0,0:0:0:0:
256,192,303416,1,0,0:0:0:0:
256,192,303499,1,0,0:0:0:0:
256,192,303581,1,8,0:0:0:0:
256,192,303746,5,4,0:0:0:0:
256,192,303911,1,8,0:0:0:0:
256,192,303993,1,8,0:0:0:0:
256,192,304076,1,0,0:0:0:0:
256,192,304158,1,0,0:0:0:0:
256,192,304241,1,8,0:0:0:0:
256,192,304405,1,0,0:0:0:0:
256,192,304570,1,8,0:0:0:0:
256,192,304653,1,0,0:0:0:0:
256,192,304818,1,0,0:0:0:0:
256,192,304900,1,8,0:0:0:0:
256,192,304981,1,0,0:0:0:0:
256,192,305064,1,0,0:0:0:0:
256,192,305230,1,0,0:0:0:0:
256,192,305312,1,0,0:0:0:0:
256,192,305394,1,8,0:0:0:0:
256,192,305476,1,0,0:0:0:0:
256,192,305559,1,8,0:0:0:0:
256,192,305724,1,0,0:0:0:0:
256,192,305806,1,0,0:0:0:0:
256,192,305888,1,8,0:0:0:0:
256,192,305971,1,0,0:0:0:0:
256,192,306053,1,8,0:0:0:0:
256,192,306218,1,0,0:0:0:0:
256,192,306383,5,12,0:0:0:0:
256,192,306548,1,0,0:0:0:0:
256,192,306630,1,8,0:0:0:0:
256,192,306713,1,8,0:0:0:0:
256,192,306877,1,0,0:0:0:0:
256,192,306960,1,8,0:0:0:0:
256,192,307042,1,8,0:0:0:0:
256,192,307125,1,0,0:0:0:0:
256,192,307207,1,8,0:0:0:0:
256,192,307289,1,8,0:0:0:0:
256,192,307372,1,0,0:0:0:0:
256,192,307454,1,0,0:0:0:0:
256,192,307536,1,8,0:0:0:0:
256,192,307619,1,0,0:0:0:0:
256,192,307701,1,8,0:0:0:0:
256,192,307866,5,0,0:0:0:0:
256,192,307948,1,8,0:0:0:0:
256,192,308031,1,8,0:0:0:0:
256,192,308113,1,8,0:0:0:0:
256,192,308196,1,0,0:0:0:0:
256,192,308278,1,0,0:0:0:0:
256,192,308361,1,8,0:0:0:0:
256,192,308443,1,8,0:0:0:0:
256,192,308525,1,0,0:0:0:0:
256,192,308608,1,0,0:0:0:0:
256,192,308690,1,8,0:0:0:0:
256,192,308773,1,8,0:0:0:0:
256,192,308855,1,8,0:0:0:0:
256,192,308937,1,8,0:0:0:0:
256,192,309020,1,0,0:0:0:0:
256,160,309102,1,0,0:0:0:0:
256,160,309185,1,8,0:0:0:0:
256,160,309267,1,0,0:0:0:0:
256,160,309350,1,0,0:0:0:0:
256,160,309432,1,0,0:0:0:0:
256,160,309514,1,8,0:0:0:0:
256,160,309597,1,8,0:0:0:0:
256,160,309679,1,0,0:0:0:0:
256,160,309762,1,0,0:0:0:0:
256,160,309844,1,8,0:0:0:0:
256,160,309926,1,0,0:0:0:0:
256,160,310009,1,8,0:0:0:0:
256,160,310091,1,8,0:0:0:0:
256,160,310174,1,8,0:0:0:0:
256,160,310256,1,8,0:0:0:0:
256,160,310339,1,0,0:0:0:0:
256,160,310421,1,0,0:0:0:0:
256,160,310503,1,8,0:0:0:0:
256,160,310586,1,0,0:0:0:0:
256,160,310668,1,0,0:0:0:0:
256,160,310751,1,0,0:0:0:0:
256,160,310833,1,8,0:0:0:0:
256,160,310915,1,8,0:0:0:0:
256,160,310998,1,0,0:0:0:0:
256,160,311080,1,0,0:0:0:0:
256,160,311163,1,8,0:0:0:0:
256,160,311245,1,0,0:0:0:0:
256,160,311328,1,8,0:0:0:0:
256,160,311410,1,8,0:0:0:0:
256,160,311492,1,0,0:0:0:0:
256,160,311575,1,0,0:0:0:0:
256,160,311657,1,8,0:0:0:0:
256,160,311740,1,0,0:0:0:0:
256,160,311822,1,8,0:0:0:0:
256,160,311905,1,8,0:0:0:0:
256,160,311987,1,0,0:0:0:0:
256,160,312069,1,0,0:0:0:0:
256,160,312152,1,8,0:0:0:0:
256,160,312234,1,8,0:0:0:0:
256,160,312317,1,8,0:0:0:0:
256,160,312399,1,0,0:0:0:0:
256,160,312481,1,8,0:0:0:0:
256,160,312564,1,0,0:0:0:0:
256,160,312646,1,0,0:0:0:0:
256,160,312729,1,0,0:0:0:0:
256,160,312811,1,8,0:0:0:0:
256,160,312894,1,8,0:0:0:0:
256,160,312976,1,0,0:0:0:0:
256,160,313058,1,0,0:0:0:0:
256,160,313141,1,8,0:0:0:0:
256,160,313223,1,0,0:0:0:0:
256,160,313306,1,8,0:0:0:0:
256,160,313388,1,0,0:0:0:0:
256,160,313470,1,8,0:0:0:0:
256,160,313553,1,8,0:0:0:0:
256,160,313635,1,0,0:0:0:0:
256,160,313718,1,8,0:0:0:0:
256,160,313800,1,0,0:0:0:0:
256,160,313883,1,0,0:0:0:0:
256,160,313965,1,8,0:0:0:0:
256,160,314047,1,8,0:0:0:0:
256,160,314130,1,0,0:0:0:0:
256,160,314212,1,0,0:0:0:0:
256,160,314295,1,8,0:0:0:0:
256,160,314377,1,8,0:0:0:0:
256,160,314459,1,8,0:0:0:0:
256,160,314542,1,8,0:0:0:0:
256,160,314624,1,0,0:0:0:0:
256,160,314707,1,0,0:0:0:0:
256,160,314789,1,8,0:0:0:0:
256,160,314872,1,0,0:0:0:0:
256,160,314954,1,8,0:0:0:0:
256,160,315036,1,8,0:0:0:0:
256,160,315119,1,0,0:0:0:0:
256,160,315201,1,0,0:0:0:0:
256,160,315284,1,8,0:0:0:0:
256,160,315366,1,8,0:0:0:0:
256,160,315448,1,8,0:0:0:0:
256,160,315531,1,0,0:0:0:0:
256,160,315613,1,8,0:0:0:0:
256,160,315696,1,0,0:0:0:0:
256,160,315778,1,8,0:0:0:0:
256,160,315861,1,8,0:0:0:0:
256,160,315943,1,0,0:0:0:0:
256,160,316025,1,0,0:0:0:0:
256,160,316108,1,8,0:0:0:0:
256,160,316190,1,8,0:0:0:0:
256,160,316273,1,0,0:0:0:0:
256,160,316355,1,0,0:0:0:0:
256,160,316437,1,8,0:0:0:0:
256,160,316520,1,0,0:0:0:0:
256,160,316602,1,8,0:0:0:0:
256,160,316685,1,0,0:0:0:0:
256,160,316767,1,8,0:0:0:0:
256,160,316850,1,8,0:0:0:0:
256,160,316932,1,0,0:0:0:0:
256,160,317014,1,0,0:0:0:0:
256,160,317097,1,8,0:0:0:0:
256,160,317179,1,0,0:0:0:0:
256,160,317262,1,8,0:0:0:0:
256,160,317344,1,8,0:0:0:0:
256,160,317426,1,8,0:0:0:0:
256,160,317509,1,0,0:0:0:0:
256,160,317591,1,8,0:0:0:0:
256,160,317674,1,0,0:0:0:0:
256,160,317756,1,0,0:0:0:0:
256,160,317839,1,0,0:0:0:0:
256,160,317921,1,8,0:0:0:0:
256,160,318003,1,8,0:0:0:0:
256,160,318086,1,0,0:0:0:0:
256,160,318168,1,0,0:0:0:0:
256,160,318251,1,8,0:0:0:0:
256,160,318333,1,0,0:0:0:0:
256,160,318415,1,0,0:0:0:0:
256,160,318498,1,0,0:0:0:0:
256,160,318580,1,8,0:0:0:0:
256,160,318663,1,8,0:0:0:0:
256,160,318745,1,0,0:0:0:0:
256,160,318828,1,0,0:0:0:0:
256,160,318910,1,8,0:0:0:0:
256,160,318992,1,0,0:0:0:0:
256,160,319075,1,8,0:0:0:0:
256,160,319157,1,8,0:0:0:0:
256,160,319240,1,0,0:0:0:0:
256,160,319322,1,0,0:0:0:0:
256,160,319405,1,8,0:0:0:0:
256,192,319569,1,4,0:0:0:0:
256,192,319734,1,8,0:0:0:0:
256,192,319817,1,8,0:0:0:0:
256,192,319899,1,0,0:0:0:0:
256,192,320064,1,8,0:0:0:0:
256,192,320229,1,0,0:0:0:0:
256,192,320311,1,0,0:0:0:0:
256,192,320394,1,0,0:0:0:0:
256,192,320476,1,0,0:0:0:0:
256,192,320558,1,8,0:0:0:0:
256,192,320723,1,8,0:0:0:0:
256,192,320888,1,0,0:0:0:0:
256,192,321053,1,8,0:0:0:0:
256,192,321135,1,8,0:0:0:0:
256,192,321218,1,0,0:0:0:0:
256,192,321300,1,0,0:0:0:0:
256,192,321383,1,8,0:0:0:0:
256,192,321547,1,8,0:0:0:0:
256,192,321630,1,8,0:0:0:0:
256,192,321712,1,0,0:0:0:0:
256,192,321795,1,0,0:0:0:0:
256,192,321877,1,8,0:0:0:0:
256,192,321959,1,0,0:0:0:0:
256,192,322042,1,8,0:0:0:0:
256,192,322124,1,8,0:0:0:0:
256,192,322207,1,0,0:0:0:0:
256,192,322372,1,8,0:0:0:0:
256,192,322454,1,8,0:0:0:0:
256,192,322536,1,0,0:0:0:0:
256,192,322701,1,8,0:0:0:0:
256,192,322866,1,0,0:0:0:0:
256,192,322948,1,0,0:0:0:0:
256,192,323031,1,0,0:0:0:0:
256,192,323113,1,0,0:0:0:0:
256,192,323196,1,8,0:0:0:0:
256,192,323361,1,0,0:0:0:0:
256,192,323525,1,12,0:0:0:0:
256,192,323690,1,0,0:0:0:0:
256,192,323773,1,0,0:0:0:0:
256,192,323855,1,8,0:0:0:0:
256,192,323937,1,8,0:0:0:0:
256,192,324020,1,0,0:0:0:0:
256,192,324185,1,12,0:0:0:0:
256,192,324350,1,0,0:0:0:0:
256,192,324514,1,12,0:0:0:0:
256,192,324679,1,0,0:0:0:0:
256,192,324844,1,4,0:0:0:0:
256,192,325009,1,8,0:0:0:0:
256,192,325091,1,0,0:0:0:0:
256,192,325174,1,0,0:0:0:0:
256,192,325256,1,0,0:0:0:0:
256,192,325339,1,8,0:0:0:0:
256,192,325503,1,8,0:0:0:0:
256,192,325586,1,0,0:0:0:0:
256,192,325668,1,0,0:0:0:0:
256,192,325751,1,0,0:0:0:0:
256,192,325833,1,8,0:0:0:0:
256,192,325998,1,0,0:0:0:0:
256,192,326163,1,12,0:0:0:0:
256,192,326328,1,0,0:0:0:0:
256,192,326410,1,8,0:0:0:0:
256,192,326492,1,0,0:0:0:0:
256,192,326575,1,0,0:0:0:0:
256,192,326657,1,8,0:0:0:0:
256,192,326822,1,0,0:0:0:0:
256,192,326905,1,8,0:0:0:0:
256,192,326987,1,0,0:0:0:0:
256,192,327069,1,0,0:0:0:0:
256,192,327152,1,8,0:0:0:0:
256,192,327317,1,0,0:0:0:0:
256,192,327481,1,12,0:0:0:0:
256,192,327646,1,8,0:0:0:0:
256,192,327729,1,8,0:0:0:0:
256,192,327811,1,0,0:0:0:0:
256,192,327894,1,0,0:0:0:0:
256,192,327976,1,8,0:0:0:0:
256,192,328141,1,8,0:0:0:0:
256,192,328223,1,8,0:0:0:0:
256,192,328306,1,0,0:0:0:0:
256,192,328388,1,0,0:0:0:0:
256,192,328470,1,8,0:0:0:0:
256,192,328635,1,0,0:0:0:0:
256,192,328800,1,12,0:0:0:0:
256,192,328965,1,0,0:0:0:0:
256,192,329047,1,0,0:0:0:0:
256,192,329130,1,0,0:0:0:0:
256,192,329295,1,8,0:0:0:0:
256,192,329459,1,8,0:0:0:0:
256,192,329542,1,8,0:0:0:0:
256,192,329624,1,8,0:0:0:0:
256,192,329707,1,8,0:0:0:0:
256,192,329789,1,0,0:0:0:0:
256,192,329872,1,0,0:0:0:0:
256,192,329954,1,0,0:0:0:0:
256,192,330036,1,0,0:0:0:0:
256,192,330119,1,8,0:0:0:0:
256,192,330201,1,0,0:0:0:0:
256,192,330284,1,0,0:0:0:0:
256,192,330366,1,0,0:0:0:0:
256,192,330448,1,8,0:0:0:0:
256,192,330531,1,0,0:0:0:0:
256,192,330613,1,8,0:0:0:0:
256,192,330696,1,0,0:0:0:0:
256,192,330778,1,8,0:0:0:0:
256,192,330861,1,8,0:0:0:0:
256,192,330943,1,0,0:0:0:0:
256,192,331025,1,0,0:0:0:0:
256,192,331108,1,8,0:0:0:0:
256,192,331190,1,0,0:0:0:0:
256,192,331273,1,0,0:0:0:0:
256,192,331355,1,0,0:0:0:0:
256,192,331437,1,8,0:0:0:0:
256,192,331520,1,8,0:0:0:0:
256,192,331602,1,0,0:0:0:0:
256,192,331685,1,0,0:0:0:0:
256,192,331767,1,8,0:0:0:0:
256,192,331850,1,0,0:0:0:0:
256,192,331932,1,8,0:0:0:0:
256,192,332014,1,0,0:0:0:0:
256,192,332097,1,8,0:0:0:0:
256,192,332179,1,8,0:0:0:0:
256,192,332262,1,0,0:0:0:0:
256,192,332344,1,0,0:0:0:0:
256,192,332426,1,8,0:0:0:0:
256,192,332591,1,8,0:0:0:0:
256,192,332756,1,4,0:0:0:0:
256,192,332921,1,8,0:0:0:0:
256,192,333003,1,0,0:0:0:0:
256,192,333086,1,8,0:0:0:0:
256,192,333141,1,8,0:0:0:0:
256,192,333196,1,8,0:0:0:0:
256,192,333251,1,0,0:0:0:0:
256,192,333333,1,0,0:0:0:0:
256,192,333415,1,8,0:0:0:0:
256,192,333470,1,8,0:0:0:0:
256,192,333525,1,8,0:0:0:0:
256,192,333580,1,0,0:0:0:0:
256,192,333663,1,0,0:0:0:0:
256,192,333745,1,8,0:0:0:0:
256,192,333800,1,8,0:0:0:0:
256,192,333855,1,0,0:0:0:0:
256,192,333965,1,8,0:0:0:0:
256,192,334075,1,8,0:0:0:0:
256,192,334185,1,0,0:0:0:0:
256,192,334295,1,0,0:0:0:0:
256,192,334405,1,8,0:0:0:0:
256,192,334514,1,0,0:0:0:0:
256,192,334624,1,0,0:0:0:0:
256,192,334734,1,8,0:0:0:0:
256,192,334844,1,0,0:0:0:0:
256,192,334954,1,0,0:0:0:0:
256,192,335064,1,12,0:0:0:0:
256,192,335394,1,0,0:0:0:0:
256,192,335476,1,0,0:0:0:0:
256,192,335558,1,8,0:0:0:0:
256,192,335723,1,0,0:0:0:0:
224,192,335806,1,0,0:0:0:0:
224,192,335888,1,8,0:0:0:0:
224,192,336053,1,0,0:0:0:0:
224,192,336135,1,0,0:0:0:0:
224,192,336218,1,8,0:0:0:0:
224,192,336300,1,0,0:0:0:0:
224,192,336383,1,8,0:0:0:0:
288,192,336547,1,8,0:0:0:0:
288,192,336712,1,0,0:0:0:0:
288,192,336795,1,0,0:0:0:0:
288,192,336877,1,8,0:0:0:0:
288,192,337042,1,0,0:0:0:0:
288,192,337124,1,0,0:0:0:0:
288,192,337207,1,8,0:0:0:0:
288,192,337372,1,0,0:0:0:0:
288,192,337454,1,0,0:0:0:0:
288,192,337536,1,8,0:0:0:0:
288,192,337619,1,0,0:0:0:0:
288,192,337701,1,8,0:0:0:0:
288,192,337784,1,8,0:0:0:0:
288,192,337866,1,0,0:0:0:0:
288,192,337948,1,0,0:0:0:0:
288,192,338031,1,8,0:0:0:0:
288,192,338196,1,0,0:0:0:0:
288,192,338361,1,8,0:0:0:0:
288,192,338443,1,8,0:0:0:0:
288,192,338525,1,0,0:0:0:0:
288,192,338608,1,0,0:0:0:0:
288,192,338690,1,8,0:0:0:0:
288,192,338855,1,0,0:0:0:0:
288,192,338937,1,0,0:0:0:0:
288,192,339020,1,8,0:0:0:0:
288,192,339185,1,8,0:0:0:0:
288,192,339350,1,0,0:0:0:0:
288,192,339432,1,0,0:0:0:0:
288,192,339514,1,8,0:0:0:0:
288,192,339597,1,0,0:0:0:0:
288,192,339679,1,8,0:0:0:0:
288,192,339762,1,8,0:0:0:0:
288,192,339844,1,0,0:0:0:0:
288,192,340009,1,12,0:0:0:0:
288,192,340339,1,12,0:0:0:0:
288,192,340668,1,4,0:0:0:0:
256,192,340833,1,8,0:0:0:0:
256,192,340915,1,8,0:0:0:0:
256,192,340998,1,0,0:0:0:0:
256,192,341080,1,0,0:0:0:0:
256,192,341163,1,8,0:0:0:0:
256,192,341328,1,8,0:0:0:0:
256,192,341410,1,8,0:0:0:0:
256,192,341492,1,0,0:0:0:0:
256,192,341575,1,0,0:0:0:0:
256,192,341657,1,8,0:0:0:0:
256,192,341740,1,0,0:0:0:0:
256,192,341822,1,8,0:0:0:0:
256,192,341987,1,0,0:0:0:0:
256,192,342152,1,8,0:0:0:0:
256,192,342234,1,8,0:0:0:0:
256,192,342317,1,8,0:0:0:0:
256,192,342481,1,0,0:0:0:0:
256,192,342646,1,12,0:0:0:0:
256,192,342811,1,0,0:0:0:0:
256,192,342894,1,0,0:0:0:0:
256,192,342976,1,8,0:0:0:0:
256,192,343141,1,0,0:0:0:0:
256,192,343306,1,8,0:0:0:0:
256,192,343388,1,8,0:0:0:0:
256,192,343470,1,8,0:0:0:0:
256,192,343553,1,8,0:0:0:0:
256,192,343635,1,8,0:0:0:0:
256,192,343800,1,0,0:0:0:0:
256,192,343883,1,0,0:0:0:0:
256,192,343965,1,0,0:0:0:0:
256,192,344047,1,0,0:0:0:0:
256,192,344130,1,0,0:0:0:0:
256,192,344295,1,8,0:0:0:0:
256,192,344377,1,8,0:0:0:0:
256,192,344459,1,0,0:0:0:0:
256,192,344624,1,12,0:0:0:0:
256,192,344844,1,4,0:0:0:0:
256,192,345064,1,4,0:0:0:0:
256,192,345284,1,12,0:0:0:0:
256,192,345503,1,4,0:0:0:0:
256,192,345723,1,4,0:0:0:0:
256,192,345943,1,12,0:0:0:0:
256,192,346108,1,0,0:0:0:0:
256,192,346190,1,0,0:0:0:0:
256,192,346273,1,0,0:0:0:0:
256,192,346355,1,0,0:0:0:0:
256,192,346437,1,8,0:0:0:0:
256,192,346602,1,0,0:0:0:0:
256,192,346685,1,0,0:0:0:0:
256,192,346767,1,0,0:0:0:0:
256,192,346850,1,0,0:0:0:0:
256,192,346932,1,8,0:0:0:0:
256,192,347097,1,8,0:0:0:0:
256,192,347262,1,0,0:0:0:0:
256,192,347426,1,8,0:0:0:0:
256,192,347509,1,8,0:0:0:0:
256,192,347591,1,8,0:0:0:0:
256,192,347756,1,0,0:0:0:0:
256,192,347921,1,8,0:0:0:0:
256,192,348003,1,8,0:0:0:0:
256,192,348086,1,0,0:0:0:0:
256,192,348168,1,0,0:0:0:0:
256,192,348251,1,8,0:0:0:0:
256,192,348333,1,0,0:0:0:0:
256,192,348415,1,0,0:0:0:0:
256,192,348498,1,0,0:0:0:0:
256,192,348580,1,8,0:0:0:0:
256,192,348745,1,0,0:0:0:0:
256,192,348828,1,0,0:0:0:0:
256,192,348910,1,8,0:0:0:0:
256,192,348992,1,0,0:0:0:0:
256,192,349075,1,8,0:0:0:0:
256,192,349240,1,0,0:0:0:0:
256,192,349322,1,0,0:0:0:0:
256,192,349405,1,8,0:0:0:0:
256,192,349487,1,0,0:0:0:0:
256,192,349569,1,8,0:0:0:0:
256,192,349734,1,8,0:0:0:0:
256,192,349899,1,0,0:0:0:0:
256,192,350064,1,8,0:0:0:0:
256,192,350146,1,8,0:0:0:0:
256,192,350229,1,0,0:0:0:0:
256,192,350311,1,0,0:0:0:0:
256,192,350394,1,8,0:0:0:0:
256,192,350558,1,0,0:0:0:0:
256,192,350613,1,0,0:0:0:0:
256,192,350668,1,0,0:0:0:0:
256,192,350723,1,8,0:0:0:0:
256,192,350888,1,0,0:0:0:0:
256,192,350943,1,0,0:0:0:0:
256,192,350998,1,0,0:0:0:0:
256,192,351053,1,8,0:0:0:0:
256,192,351218,1,4,0:0:0:0:
256,192,351383,1,0,0:0:0:0:
256,192,351465,1,0,0:0:0:0:
256,192,351547,1,0,0:0:0:0:
256,192,351630,1,0,0:0:0:0:
256,192,351712,1,8,0:0:0:0:
256,192,351877,1,0,0:0:0:0:
256,192,351959,1,0,0:0:0:0:
256,192,352042,1,0,0:0:0:0:
256,192,352124,1,0,0:0:0:0:
256,192,352207,1,8,0:0:0:0:
256,192,352289,1,8,0:0:0:0:
256,192,352372,1,8,0:0:0:0:
256,192,352454,1,8,0:0:0:0:
256,192,352536,1,0,0:0:0:0:
256,192,352701,5,8,0:0:0:0:
256,192,352784,1,8,0:0:0:0:
256,192,352866,1,8,0:0:0:0:
256,192,352948,1,8,0:0:0:0:
256,192,353031,1,0,0:0:0:0:
256,192,353196,1,8,0:0:0:0:
256,192,353278,1,0,0:0:0:0:
256,192,353361,1,8,0:0:0:0:
256,192,353443,1,0,0:0:0:0:
256,192,353525,1,8,0:0:0:0:
256,192,353855,5,0,0:0:0:0:
256,192,353937,1,0,0:0:0:0:
256,192,354020,1,0,0:0:0:0:
256,192,354102,1,0,0:0:0:0:
256,192,354185,1,0,0:0:0:0:
256,192,354267,1,0,0:0:0:0:
256,192,354350,1,0,0:0:0:0:
256,192,354432,1,0,0:0:0:0:
256,192,354514,1,8,0:0:0:0:
256,192,354844,1,0,0:0:0:0:
256,192,354926,1,0,0:0:0:0:
256,192,355009,1,0,0:0:0:0:
256,192,355091,1,0,0:0:0:0:
256,192,355174,1,0,0:0:0:0:
256,192,355256,1,0,0:0:0:0:
256,192,355339,1,0,0:0:0:0:
256,192,355421,1,0,0:0:0:0:
256,192,355503,1,8,0:0:0:0:
256,192,355833,1,0,0:0:0:0:
256,192,355915,1,0,0:0:0:0:
256,192,355998,1,0,0:0:0:0:
256,192,356080,1,0,0:0:0:0:
256,192,356163,1,8,0:0:0:0:
256,192,356245,1,8,0:0:0:0:
256,192,356328,1,8,0:0:0:0:
256,192,356410,1,8,0:0:0:0:
256,192,356492,1,0,0:0:0:0:
