osu file format v14

[General]
AudioFilename: audio.mp3
AudioLeadIn: 0
PreviewTime: 144181
Countdown: 0
SampleSet: None
StackLeniency: 0.3
Mode: 0
LetterboxInBreaks: 0
WidescreenStoryboard: 0

[Editor]
Bookmarks: 33,49896,70994,81544,92093,100005,102643,113192,123742,124401,134950,144181,145499,163961,166598,177148,187697,190335,200884,211433,219346,221983,232532,240444,243082,245719,256269,264181,266818,274730,277368,284620,287917,307697,309016,330115,332752,335390,340664,343302,344620,345939,353851,356488
DistanceSpacing: 2
BeatDivisor: 8
GridSize: 4
TimelineZoom: 4.799997

[Metadata]
Title:Yumeshoushitsu ~ Lost Dream
TitleUnicode:夢消失 ~ Lost Dream
Artist:Demetori
ArtistUnicode:Demetori
Creator:lazyboy007
Version:Insomniac
Source:東方夢時空 ~ The Phantasmagoria of Dim. Dream
Tags:東方Project Touhou ZUN le Grimoire De reve Phantasmagoria of Dim Dream Kana Anaberal Metal the grimoire of vanishing comiket85 c85 DECD-0009 Yumejikuu
BeatmapID:1078718
BeatmapSetID:507123

[Difficulty]
HPDrainRate:6.5
CircleSize:4.5
OverallDifficulty:9
ApproachRate:9.3
SliderMultiplier:1.6
SliderTickRate:1

[Events]
//Background and Video events
0,0,"Kana_Anaberal_Lost_Dream_BG.jpg",0,0
//Break Periods
//Storyboard Layer 0 (Background)
//Storyboard Layer 1 (Fail)
//Storyboard Layer 2 (Pass)
//Storyboard Layer 3 (Foreground)
//Storyboard Sound Samples

[TimingPoints]
49910,329.67032967033,4,3,1,80,1,0
49910,-100,4,3,1,80,0,0
69855,-100,4,3,2,80,0,0
70349,-100,4,3,3,80,0,0
70679,-100,4,3,4,80,0,0
71008,-100,4,3,1,80,0,0
71585,-100,4,3,1,5,0,0
71668,-100,4,3,1,80,0,0
72904,-100,4,3,1,5,0,0
72986,-100,4,3,1,80,0,0
74223,-100,4,3,1,5,0,0
74305,-100,4,3,1,80,0,0
74882,-100,4,3,1,5,0,0
74964,-100,4,3,1,80,0,0
75541,-100,4,3,1,5,0,0
75624,-100,4,3,1,80,0,0
76860,-100,4,3,1,5,0,0
76942,-100,4,3,1,80,0,0
78179,-100,4,3,1,5,0,0
78261,-100,4,3,1,80,0,0
79497,-100,4,3,1,5,0,0
79580,-100,4,3,1,80,0,0
80157,-100,4,3,1,5,0,0
80239,-100,4,3,1,80,0,0
80816,-100,4,3,1,5,0,0
80899,-100,4,3,1,80,0,0
81558,-100,4,3,1,80,0,0
91118,-100,4,3,2,80,0,0
91778,-100,4,3,3,80,0,0
91942,-100,4,3,4,80,0,0
92107,-100,4,3,1,80,0,0
100184,-100,4,3,2,80,0,0
100349,-100,4,3,3,80,0,0
100431,-100,4,3,4,80,0,0
100514,-133.333333333333,4,3,1,80,0,0
100844,-100,4,3,1,80,0,0
101338,-100,4,3,2,80,0,0
102217,-100,4,3,3,80,0,0
102437,-100,4,3,4,80,0,0
102657,-100,4,3,1,80,0,0
103234,-100,4,3,1,5,0,0
103316,-100,4,3,1,80,0,0
104552,-100,4,3,1,5,0,0
104635,-100,4,3,1,80,0,0
105871,-100,4,3,1,5,0,0
105953,-100,4,3,1,80,0,0
106530,-100,4,3,1,5,0,0
106613,-100,4,3,1,80,0,0
107190,-100,4,3,1,5,0,0
107272,-100,4,3,1,80,0,0
108508,-100,4,3,1,5,0,0
108591,-100,4,3,1,80,0,0
109827,-100,4,3,1,5,0,0
109910,-100,4,3,1,80,0,0
111146,-100,4,3,1,5,0,0
111228,-100,4,3,1,80,0,0
111805,-100,4,3,1,5,0,0
111888,-100,4,3,1,80,0,0
112464,-100,4,3,1,5,0,0
112547,-100,4,3,1,80,0,0
122931,-100,4,3,2,80,0,0
123096,-100,4,3,1,80,0,0
124415,329.67032967033,4,3,1,80,1,0
124415,-133.333333333333,4,3,1,80,0,0
134964,-100,4,3,1,80,0,0
135211,-100,4,3,1,5,0,0
135294,-100,4,3,1,80,0,0
136530,-100,4,3,1,5,0,0
136612,-100,4,3,1,80,0,0
140486,-100,4,3,1,5,0,0
140568,-100,4,3,1,80,0,0
143206,-133.333333333333,4,3,1,80,0,0
143453,-133.333333333333,4,3,1,5,0,0
143535,-100,4,3,1,80,0,0
143865,-133.333333333333,4,3,1,80,0,0
144112,-133.333333333333,4,3,1,5,0,0
144195,-100,4,3,1,80,0,0
144854,-133.333333333333,4,2,1,60,0,0
145101,-133.333333333333,4,2,0,60,0,0
145513,-100,4,3,1,80,0,1
153425,-100,4,2,1,80,0,0
156063,-100,4,3,1,80,0,1
163975,-100,4,3,1,80,0,0
165623,-100,4,3,2,80,0,0
166173,-100,4,3,3,80,0,0
166393,-100,4,3,4,80,0,0
166612,-133.333333333333,4,3,1,80,0,0
167766,-133.333333333333,4,3,1,5,0,0
167931,-133.333333333333,4,3,1,80,0,0
169085,-133.333333333333,4,3,1,5,0,0
169250,-133.333333333333,4,3,1,80,0,0
170404,-133.333333333333,4,3,1,5,0,0
170568,-133.333333333333,4,3,1,80,0,0
171722,-133.333333333333,4,3,1,5,0,0
171887,-133.333333333333,4,3,1,80,0,0
173041,-133.333333333333,4,3,1,5,0,0
173206,-133.333333333333,4,3,1,80,0,0
174360,-133.333333333333,4,3,1,5,0,0
174524,-133.333333333333,4,3,1,80,0,0
175678,-133.333333333333,4,3,1,5,0,0
175843,-133.333333333333,4,3,1,80,0,0
177162,-100,4,3,1,80,0,0
180706,-100,4,3,1,5,0,0
180788,-100,4,3,1,80,0,0
181695,-100,4,3,1,5,0,0
181777,-100,4,3,1,80,0,0
182354,-100,4,3,1,5,0,0
182436,-100,4,3,1,80,0,0
187711,-100,4,2,1,80,0,0
189030,-200,4,3,1,80,0,0
189442,-200,4,3,1,5,0,0
189524,-100,4,3,1,80,0,0
190349,-83.3333333333333,4,3,1,80,0,1
200898,-83.3333333333333,4,3,1,80,0,1
210458,-83.3333333333333,4,3,2,80,0,1
211118,-83.3333333333333,4,3,3,80,0,1
211283,-83.3333333333333,4,3,4,80,0,1
211447,-83.3333333333333,4,3,1,80,0,1
220019,-83.3333333333333,4,3,2,80,0,1
220349,-83.3333333333333,4,3,3,80,0,1
220513,-83.3333333333333,4,3,4,80,0,1
220678,-83.3333333333333,4,3,1,80,0,0
221338,-100,4,3,1,80,0,0
221997,-83.3333333333333,4,3,1,80,0,1
229579,-83.3333333333333,4,3,2,80,0,1
229909,-83.3333333333333,4,3,1,80,0,1
240376,-83.3333333333333,4,3,1,5,0,1
240458,-83.3333333333333,4,3,1,80,0,1
243096,-400,4,3,1,80,0,0
245651,-400,4,3,1,5,0,0
245733,-100,4,3,1,80,0,0
246310,-100,4,3,1,5,0,0
246393,-100,4,3,1,80,0,0
247629,-100,4,3,1,5,0,0
247711,-100,4,3,1,80,0,0
248947,-100,4,3,1,5,0,0
249030,-100,4,3,1,80,0,0
249607,-100,4,3,1,5,0,0
249689,-100,4,3,1,80,0,0
250266,-100,4,3,1,5,0,0
250349,-100,4,3,1,80,0,0
251585,-100,4,3,1,5,0,0
251667,-100,4,3,1,80,0,0
252904,-100,4,3,1,5,0,0
252986,-100,4,3,1,80,0,0
254222,-100,4,3,1,5,0,0
254305,-100,4,3,1,80,0,0
254882,-100,4,3,1,5,0,0
254964,-100,4,3,1,80,0,0
255953,-100,4,3,2,80,0,0
256118,-100,4,3,3,80,0,0
256200,-100,4,3,4,80,0,0
256283,-100,4,3,1,80,0,0
263865,-100,4,3,2,80,0,0
264195,-100,4,3,1,80,0,0
266750,-100,4,3,1,5,0,0
266832,-100,4,3,1,80,0,0
287931,-100,4,3,1,80,0,1
295843,-100,4,2,1,80,0,0
298480,-100,4,3,1,80,0,1
307711,-100,4,3,1,80,0,0
308041,-100,4,3,2,80,0,0
308700,-100,4,3,3,80,0,0
308865,-100,4,3,4,80,0,0
309030,-100,4,3,1,80,0,1
316942,-100,4,2,1,80,0,0
318920,-100,4,3,1,80,0,0
319250,-100,4,3,2,80,0,0
319579,-100,4,3,1,80,0,1
329799,-100,4,3,2,80,0,1
330129,-100,4,3,1,80,0,1
332766,-100,4,3,1,80,0,0
334085,-100,4,3,2,80,0,0
334415,-100,4,3,3,80,0,0
334744,-100,4,3,4,80,0,0
335074,-100,4,3,1,80,0,0
335404,-100,4,2,1,60,0,0
340266,-100,4,2,1,5,0,0
340349,-100,4,2,1,60,0,0
340596,-100,4,2,1,5,0,0
340678,-100,4,2,1,40,0,0
342656,-100,4,3,1,40,0,0
343316,-100,4,3,1,80,0,0
344634,-100,4,3,3,80,0,0
345294,-100,4,3,2,80,0,0
345953,-100,4,3,1,80,0,0
353783,-100,4,3,1,5,0,0
353865,-100,4,3,1,80,0,0
354772,-100,4,3,1,5,0,0
354854,-100,4,3,1,80,0,0
355761,-100,4,3,1,5,0,0
355843,-100,4,3,1,80,0,0
356502,-200,4,3,1,80,0,0
357162,-200,4,3,1,5,0,0

[Colours]
Combo1 : 128,0,0
Combo2 : 255,255,128
Combo3 : 0,128,0
Combo4 : 0,128,192
Combo5 : 255,128,128

[HitObjects]
177,90,49910,5,4,0:0:0:0:
77,261,50074,1,8,0:0:0:0:
80,264,50239,1,0,0:0:0:0:
292,173,50404,1,8,0:0:0:0:
85,136,50569,1,0,0:0:0:0:
79,116,50651,1,0,0:0:0:0:
74,97,50733,1,8,0:0:0:0:
69,78,50816,1,0,0:0:0:0:
64,58,50898,5,0,0:0:0:0:
217,214,51063,1,8,0:0:0:0:
220,216,51228,1,0,0:0:0:0:
20,144,51393,1,8,0:0:0:0:
236,67,51558,1,0,0:0:0:0:
255,73,51640,1,0,0:0:0:0:
274,78,51722,1,8,0:0:0:0:
293,83,51805,1,0,0:0:0:0:
313,88,51888,6,0,L|336:172,1,80,0|8,0:0|0:0,0:0:0:0:
403,202,52135,1,0,0:0:0:0:
409,183,52217,2,0,L|432:98,1,80,0|8,0:0|0:0,0:0:0:0:
243,288,52547,5,0,0:0:0:0:
142,125,52712,1,8,0:0:0:0:
139,122,52877,1,0,0:0:0:0:
90,342,53041,1,8,0:0:0:0:
248,200,53206,1,0,0:0:0:0:
262,186,53288,1,0,0:0:0:0:
276,171,53370,1,8,0:0:0:0:
290,157,53453,1,0,0:0:0:0:
305,143,53535,21,0,0:0:0:0:
156,176,53701,1,8,0:0:0:0:
153,178,53866,1,0,0:0:0:0:
352,96,54030,1,8,0:0:0:0:
194,29,54195,1,0,0:0:0:0:
174,34,54277,1,0,0:0:0:0:
155,39,54359,1,8,0:0:0:0:
136,44,54442,1,0,0:0:0:0:
117,49,54525,6,0,L|95:133,1,80,0|8,0:0|0:0,0:0:0:0:
45,202,54772,1,0,0:0:0:0:
40,183,54855,2,0,L|17:98,1,80,0|8,0:0|0:0,0:0:0:0:
163,256,55184,5,4,0:0:0:0:
332,161,55349,1,8,0:0:0:0:
335,164,55514,1,0,0:0:0:0:
244,337,55679,1,8,0:0:0:0:
256,135,55844,1,0,0:0:0:0:
261,116,55926,1,0,0:0:0:0:
266,97,56008,1,8,0:0:0:0:
271,78,56091,1,0,0:0:0:0:
276,58,56173,5,0,0:0:0:0:
163,256,56338,1,8,0:0:0:0:
166,258,56503,1,0,0:0:0:0:
396,212,56668,1,8,0:0:0:0:
276,58,56833,1,0,0:0:0:0:
261,72,56915,1,0,0:0:0:0:
247,86,56997,1,8,0:0:0:0:
233,100,57080,1,0,0:0:0:0:
219,114,57162,22,0,L|196:203,1,80,0|8,0:0|0:0,0:0:0:0:
112,182,57410,1,0,0:0:0:0:
108,163,57492,2,0,L|84:73,1,80,0|8,0:0|0:0,0:0:0:0:
197,273,57822,5,4,0:0:0:0:
227,267,57904,1,0,0:0:0:0:
252,252,57986,1,8,0:0:0:0:
271,229,58069,1,0,0:0:0:0:
279,200,58151,2,0,P|281:181|288:162,1,40
357,77,58316,5,12,0:0:0:0:
379,98,58398,1,0,0:0:0:0:
394,124,58480,1,0,0:0:0:0:
402,152,58563,1,0,0:0:0:0:
401,183,58646,2,0,P|396:201|388:219,1,40,8|0,0:0|0:0,0:0:0:0:
271,229,58811,5,4,0:0:0:0:
241,224,58893,1,0,0:0:0:0:
214,209,58975,2,0,P|197:198|182:183,1,40,8|0,0:0|0:0,0:0:0:0:
104,108,59140,21,4,0:0:0:0:
127,89,59222,1,0,0:0:0:0:
155,78,59304,1,8,0:0:0:0:
184,74,59387,1,0,0:0:0:0:
214,79,59470,2,0,P|232:85|253:86,1,40
324,48,59635,5,12,0:0:0:0:
343,70,59717,1,0,0:0:0:0:
353,98,59800,1,2,0:0:0:0:
331,131,59882,1,0,0:0:0:0:
324,170,59964,1,2,0:0:0:0:
333,209,60047,1,0,0:0:0:0:
357,240,60129,1,2,0:0:0:0:
384,278,60212,1,2,0:0:0:0:
389,326,60294,2,0,P|380:343|366:359,1,40,2|2,0:0|0:0,0:0:0:0:
132,336,60458,5,4,0:0:0:0:
240,156,60624,1,8,0:0:0:0:
243,154,60789,1,0,0:0:0:0:
220,364,60953,1,8,0:0:0:0:
89,154,61118,1,0,0:0:0:0:
83,134,61200,1,0,0:0:0:0:
78,115,61282,1,8,0:0:0:0:
73,96,61365,1,0,0:0:0:0:
68,76,61447,5,0,0:0:0:0:
216,168,61613,1,8,0:0:0:0:
219,171,61778,1,0,0:0:0:0:
24,271,61942,1,8,0:0:0:0:
225,252,62107,1,0,0:0:0:0:
245,247,62189,1,0,0:0:0:0:
264,242,62271,1,8,0:0:0:0:
283,237,62354,1,0,0:0:0:0:
303,232,62437,22,0,L|323:312,1,80,0|8,0:0|0:0,0:0:0:0:
379,361,62684,1,0,0:0:0:0:
385,343,62767,2,0,L|405:263,1,80,0|8,0:0|0:0,0:0:0:0:
330,141,63096,5,0,0:0:0:0:
124,215,63261,1,8,0:0:0:0:
127,217,63426,1,0,0:0:0:0:
303,232,63591,1,8,0:0:0:0:
148,80,63756,1,0,0:0:0:0:
128,86,63838,1,0,0:0:0:0:
109,91,63920,1,8,0:0:0:0:
90,96,64003,1,0,0:0:0:0:
70,101,64085,5,0,0:0:0:0:
216,226,64250,1,8,0:0:0:0:
213,229,64415,1,0,0:0:0:0:
24,174,64580,1,8,0:0:0:0:
246,108,64745,1,0,0:0:0:0:
266,113,64827,1,0,0:0:0:0:
285,118,64909,1,8,0:0:0:0:
304,123,64992,1,0,0:0:0:0:
324,127,65074,6,0,L|366:139,3,26.6666666666667,0|0|0|12,0:0|0:0|0:0|0:0,0:0:0:0:
424,234,65321,1,0,0:0:0:0:
450,227,65404,2,0,L|475:220,3,26.6666666666667,0|0|0|12,0:0|0:0|0:0|0:0,0:0:0:0:
303,255,65734,21,0,0:0:0:0:
180,83,65899,1,8,0:0:0:0:
177,86,66063,1,0,0:0:0:0:
72,256,66228,1,8,0:0:0:0:
279,164,66393,1,0,0:0:0:0:
298,169,66475,1,0,0:0:0:0:
317,174,66557,1,8,0:0:0:0:
336,179,66640,1,0,0:0:0:0:
356,184,66722,5,0,0:0:0:0:
172,261,66888,1,8,0:0:0:0:
173,257,67052,1,0,0:0:0:0:
356,96,67217,1,8,0:0:0:0:
272,258,67382,1,0,0:0:0:0:
262,276,67464,1,0,0:0:0:0:
252,293,67546,1,8,0:0:0:0:
242,310,67629,1,0,0:0:0:0:
232,328,67712,6,0,L|146:352,1,80,0|8,0:0|0:0,0:0:0:0:
100,284,67959,1,0,0:0:0:0:
82,280,68041,2,0,L|-4:256,1,80,0|8,0:0|0:0,0:0:0:0:
230,199,68371,5,4,0:0:0:0:
231,31,68536,1,0,0:0:0:0:
240,49,68619,1,2,0:0:0:0:
249,67,68702,1,2,0:0:0:0:
399,116,68865,1,0,0:0:0:0:
390,134,68948,1,2,0:0:0:0:
381,152,69031,1,2,0:0:0:0:
356,325,69195,1,2,0:0:0:0:
305,163,69360,1,0,0:0:0:0:
314,181,69443,1,2,0:0:0:0:
323,199,69526,1,2,0:0:0:0:
216,317,69690,21,2,0:0:0:0:
181,297,69772,1,2,0:0:0:0:
158,264,69854,1,6,0:0:0:0:
150,225,69937,1,4,0:0:0:0:
159,187,70019,1,4,0:0:0:0:
167,148,70102,1,4,0:0:0:0:
160,109,70184,1,4,0:0:0:0:
137,77,70267,1,4,0:0:0:0:
102,57,70349,5,4,0:0:0:0:
81,101,70431,1,4,0:0:0:0:
91,149,70513,1,4,0:0:0:0:
128,182,70596,1,4,0:0:0:0:
177,187,70678,1,4,0:0:0:0:
225,191,70761,1,4,0:0:0:0:
262,224,70843,1,4,0:0:0:0:
272,272,70926,1,4,0:0:0:0:
251,316,71008,6,0,P|212:326|174:317,1,80,4|8,0:0|0:0,0:0:0:0:
93,331,71256,2,0,P|95:291|115:258,1,80
187,225,71503,2,0,L|173:174,1,40,8|0,0:0|0:0,0:0:0:0:
154,108,71668,1,0,0:0:0:0:
347,207,71833,1,8,0:0:0:0:
154,108,71997,1,0,0:0:0:0:
358,57,72162,1,8,0:0:0:0:
256,222,72327,6,0,L|235:299,1,80,0|8,0:0|0:0,0:0:0:0:
178,356,72574,2,0,P|228:380|264:375,1,80
311,323,72822,2,0,L|355:311,1,40,8|0,0:0|0:0,0:0:0:0:
428,290,72986,1,0,0:0:0:0:
383,96,73151,1,8,0:0:0:0:
229,234,73316,1,0,0:0:0:0:
418,176,73481,1,8,0:0:0:0:
241,96,73646,22,0,P|202:85|164:94,1,80,0|8,0:0|0:0,0:0:0:0:
91,58,73893,2,0,P|82:112|97:145,1,80
159,177,74140,2,0,L|147:221,1,40,8|0,0:0|0:0,0:0:0:0:
130,294,74305,2,0,P|169:291|204:272,1,80,0|8,0:0|0:0,0:0:0:0:
318,212,74552,2,0,L|241:192,1,80
247,104,74800,2,0,L|209:115,1,40,8|0,0:0|0:0,0:0:0:0:
152,57,74964,6,0,P|130:90|128:130,1,80,0|8,0:0|0:0,0:0:0:0:
89,202,75212,2,0,P|126:212|166:202,1,80
223,259,75459,2,0,L|261:269,1,40,8|0,0:0|0:0,0:0:0:0:
318,212,75624,37,0,0:0:0:0:
327,202,75678,1,0,0:0:0:0:
336,193,75733,1,0,0:0:0:0:
346,183,75789,2,0,L|428:162,1,80,8|0,0:0|0:0,0:0:0:0:
433,153,76007,1,0,0:0:0:0:
442,144,76062,1,0,0:0:0:0:
451,135,76118,1,8,0:0:0:0:
320,82,76283,38,0,P|281:59|240:59,1,80,4|8,0:0|0:0,0:0:0:0:
159,44,76530,2,0,P|160:83|181:118,1,80
260,139,76778,2,0,L|249:177,1,40,8|0,0:0|0:0,0:0:0:0:
228,254,76942,1,0,0:0:0:0:
401,133,77107,1,8,0:0:0:0:
228,254,77272,1,0,0:0:0:0:
443,316,77437,1,8,0:0:0:0:
304,135,77602,6,0,L|226:114,1,80,0|8,0:0|0:0,0:0:0:0:
169,57,77849,2,0,P|146:112|157:156,1,80,0|0,0:0|0:0,0:0:0:0:
201,191,78096,2,0,L|187:240,1,40,8|0,0:0|0:0,0:0:0:0:
168,307,78261,1,0,0:0:0:0:
371,227,78426,1,8,0:0:0:0:
226,114,78591,1,0,0:0:0:0:
240,322,78756,1,8,0:0:0:0:
314,145,78921,22,0,P|335:111|369:91,1,80,4|8,0:0|0:0,0:0:0:0:
391,169,79168,2,0,P|358:213|322:226,1,80
258,201,79415,2,0,L|219:190,1,40,8|0,0:0|0:0,0:0:0:0:
161,246,79580,2,0,P|142:212|140:173,1,80,0|8,0:0|0:0,0:0:0:0:
82,115,79827,2,0,P|116:95|156:93,1,80
213,36,80074,2,0,L|261:48,1,40,8|0,0:0|0:0,0:0:0:0:
308,103,80239,6,0,L|287:180,1,80,4|8,0:0|0:0,0:0:0:0:
344,237,80486,2,0,P|282:260|245:249,1,80,0|0,0:0|0:0,0:0:0:0:
211,202,80734,2,0,L|141:183,1,40,8|0,0:0|0:0,0:0:0:0:
133,134,80899,37,0,0:0:0:0:
123,143,80953,1,0,0:0:0:0:
114,152,81008,1,0,0:0:0:0:
104,162,81063,2,0,L|91:208,1,40,8|0,0:0|0:0,0:0:0:0:
68,277,81229,37,2,0:0:0:0:
107,280,81310,1,2,0:0:0:0:
143,263,81392,1,10,0:0:0:0:
167,232,81475,1,10,0:0:0:0:
172,191,81558,6,0,L|250:211,1,80,4|8,0:0|0:0,0:0:0:0:
348,209,81805,2,0,B|341:248|341:248|316:279,1,80
295,126,82052,1,8,0:0:0:0:
68,277,82217,1,0,0:0:0:0:
116,56,82382,1,8,0:0:0:0:
68,277,82547,1,0,0:0:0:0:
276,141,82712,1,8,0:0:0:0:
30,109,82877,22,0,B|30:149|30:149|51:186,1,80,0|8,0:0|0:0,0:0:0:0:
131,231,83124,2,0,B|105:262|105:262|69:277,1,80
132,134,83371,1,8,0:0:0:0:
323,310,83536,1,0,0:0:0:0:
354,78,83701,1,8,0:0:0:0:
225,283,83866,1,0,0:0:0:0:
434,158,84030,1,8,0:0:0:0:
214,120,84195,6,0,B|176:134|176:134|134:129,1,80,0|8,0:0|0:0,0:0:0:0:
68,61,84442,2,0,B|44:92|44:92|38:132,1,80
167,46,84690,1,8,0:0:0:0:
350,201,84855,2,0,L|371:119,1,80,0|8,0:0|0:0,0:0:0:0:
374,25,85102,2,0,B|334:30|334:30|302:54,1,80
455,78,85349,1,8,0:0:0:0:
216,63,85514,22,0,L|130:86,1,80,0|8,0:0|0:0,0:0:0:0:
69,151,85761,2,0,B|46:118|46:118|42:78,1,80
163,178,86008,1,8,0:0:0:0:
296,38,86173,5,0,0:0:0:0:
305,48,86227,1,0,0:0:0:0:
314,57,86282,1,0,0:0:0:0:
324,66,86338,2,0,L|345:148,1,80,12|0,0:0|0:0,0:0:0:0:
354,153,86557,1,0,0:0:0:0:
363,163,86612,1,0,0:0:0:0:
373,172,86667,1,12,0:0:0:0:
253,306,86833,6,0,L|165:282,1,80,4|8,0:0|0:0,0:0:0:0:
79,280,87080,2,0,B|82:319|82:319|104:352,1,80
132,199,87327,1,8,0:0:0:0:
332,321,87492,1,0,0:0:0:0:
431,101,87657,1,8,0:0:0:0:
332,321,87822,1,0,0:0:0:0:
235,95,87986,1,8,0:0:0:0:
438,302,88151,6,0,B|448:263|448:263|437:225,1,80,0|8,0:0|0:0,0:0:0:0:
369,153,88399,2,0,B|400:130|400:130|440:124,1,80
346,249,88646,1,8,0:0:0:0:
263,23,88811,1,0,0:0:0:0:
218,278,88975,1,8,0:0:0:0:
369,154,89140,1,0,0:0:0:0:
151,104,89305,1,8,0:0:0:0:
315,284,89470,6,0,L|392:304,1,80,4|8,0:0|0:0,0:0:0:0:
245,351,89717,2,0,B|222:318|222:318|218:278,1,80
271,198,89964,1,8,0:0:0:0:
75,44,90129,2,0,L|51:129,1,80,0|8,0:0|0:0,0:0:0:0:
144,224,90377,2,0,L|124:147,1,80
76,273,90624,1,8,0:0:0:0:
271,198,90789,6,0,L|285:144,1,40,6|2,0:0|0:0,0:0:0:0:
355,42,90953,2,0,L|369:95,1,40,2|2,0:0|0:0,0:0:0:0:
402,204,91118,21,2,0:0:0:0:
379,210,91200,1,2,0:0:0:0:
355,216,91282,1,2,0:0:0:0:
333,223,91365,1,2,0:0:0:0:
292,261,91448,5,4,0:0:0:0:
261,269,91530,1,4,0:0:0:0:
231,278,91612,1,4,0:0:0:0:
199,286,91695,1,4,0:0:0:0:
159,325,91778,5,4,0:0:0:0:
109,325,91860,1,4,0:0:0:0:
69,297,91942,1,4,0:0:0:0:
51,252,92025,1,4,0:0:0:0:
62,204,92107,5,4,0:0:0:0:
180,48,92272,1,8,0:0:0:0:
183,51,92437,1,0,0:0:0:0:
186,238,92602,1,8,0:0:0:0:
261,83,92767,1,0,0:0:0:0:
280,88,92849,1,0,0:0:0:0:
299,93,92931,1,8,0:0:0:0:
318,98,93014,1,0,0:0:0:0:
338,103,93096,21,0,0:0:0:0:
183,236,93261,1,8,0:0:0:0:
186,238,93426,1,0,0:0:0:0:
384,190,93591,1,8,0:0:0:0:
159,158,93756,1,0,0:0:0:0:
140,164,93838,1,0,0:0:0:0:
123,175,93920,1,8,0:0:0:0:
110,190,94003,1,0,0:0:0:0:
102,208,94085,6,0,L|125:291,1,80,0|8,0:0|0:0,0:0:0:0:
183,344,94333,1,0,0:0:0:0:
188,324,94415,2,0,L|209:246,1,80,0|8,0:0|0:0,0:0:0:0:
319,64,94745,5,0,0:0:0:0:
153,153,94910,1,8,0:0:0:0:
156,155,95074,1,0,0:0:0:0:
343,183,95239,1,8,0:0:0:0:
160,57,95404,1,0,0:0:0:0:
140,62,95486,1,0,0:0:0:0:
121,67,95568,1,8,0:0:0:0:
102,72,95651,1,0,0:0:0:0:
82,77,95733,5,0,0:0:0:0:
252,171,95899,1,8,0:0:0:0:
250,168,96063,1,0,0:0:0:0:
39,152,96228,1,8,0:0:0:0:
242,247,96393,1,0,0:0:0:0:
261,246,96475,1,0,0:0:0:0:
281,241,96557,1,8,0:0:0:0:
298,231,96640,1,0,0:0:0:0:
312,217,96723,22,0,L|395:194,1,80,4|8,0:0|0:0,0:0:0:0:
465,143,96970,1,0,0:0:0:0:
446,138,97052,2,0,L|363:115,1,80,0|12,0:0|0:0,0:0:0:0:
165,229,97382,5,0,0:0:0:0:
300,72,97547,1,8,0:0:0:0:
303,75,97712,1,0,0:0:0:0:
281,280,97877,1,8,0:0:0:0:
199,97,98041,1,0,0:0:0:0:
179,91,98123,1,0,0:0:0:0:
160,86,98205,1,8,0:0:0:0:
141,81,98288,1,0,0:0:0:0:
121,76,98370,5,0,0:0:0:0:
196,258,98536,1,8,0:0:0:0:
199,255,98701,1,0,0:0:0:0:
352,116,98866,1,8,0:0:0:0:
100,140,99030,1,0,0:0:0:0:
82,149,99112,1,0,0:0:0:0:
65,159,99194,1,8,0:0:0:0:
47,169,99277,1,0,0:0:0:0:
30,179,99359,5,0,0:0:0:0:
4,384,99525,1,12,0:0:0:0:
204,301,99690,1,12,0:0:0:0:
223,295,99772,1,0,0:0:0:0:
242,290,99854,1,0,0:0:0:0:
261,285,99937,1,0,0:0:0:0:
281,280,100019,21,2,0:0:0:0:
303,305,100101,1,2,0:0:0:0:
333,318,100183,1,4,0:0:0:0:
366,318,100266,1,4,0:0:0:0:
396,305,100348,1,4,0:0:0:0:
418,280,100431,1,4,0:0:0:0:
427,248,100514,54,0,B|437:223|424:193|424:193|434:165|423:121,1,120.000004577637,4|0,0:0|0:0,0:0:0:0:
415,122,100898,1,0,0:0:0:0:
406,113,100953,1,0,0:0:0:0:
397,104,101008,1,8,0:0:0:0:
107,245,101338,22,0,L|52:299,2,53.3333333333333,4|4|4,0:0|0:0|0:0,0:0:0:0:
100,163,101668,2,0,L|26:183,2,53.3333333333333,6|6|6,0:0|0:0|0:0,0:0:0:0:
135,89,101997,1,4,0:0:0:0:
198,59,102106,1,4,0:0:0:0:
267,72,102216,1,4,0:0:0:0:
314,123,102328,1,4,0:0:0:0:
362,174,102438,1,4,0:0:0:0:
431,187,102548,1,4,0:0:0:0:
494,157,102657,6,0,L|471:72,1,80,4|8,0:0|0:0,0:0:0:0:
428,10,102904,2,0,P|401:39|392:78,1,80
335,134,103151,2,0,L|347:175,1,40,8|0,0:0|0:0,0:0:0:0:
367,250,103316,1,0,0:0:0:0:
166,199,103481,1,8,0:0:0:0:
367,250,103646,1,0,0:0:0:0:
164,359,103811,1,8,0:0:0:0:
217,123,103975,6,0,P|270:145|311:134,1,80,0|8,0:0|0:0,0:0:0:0:
349,85,104223,2,0,P|373:138|364:179,1,80
318,218,104470,2,0,L|330:264,1,40,8|0,0:0|0:0,0:0:0:0:
372,344,104635,1,0,0:0:0:0:
442,154,104800,1,8,0:0:0:0:
443,350,104964,1,0,0:0:0:0:
372,158,105129,1,8,0:0:0:0:
239,343,105294,22,0,P|199:349|162:335,1,80,0|8,0:0|0:0,0:0:0:0:
83,352,105541,2,0,P|85:312|106:279,1,80
163,221,105789,2,0,L|210:234,1,40,8|0,0:0|0:0,0:0:0:0:
278,212,105953,2,0,P|247:167|202:154,1,80,0|8,0:0|0:0,0:0:0:0:
167,99,106201,2,0,P|169:51|191:18,1,80
244,78,106448,2,0,L|298:63,1,40,8|0,0:0|0:0,0:0:0:0:
167,99,106613,6,0,L|85:120,1,80,0|8,0:0|0:0,0:0:0:0:
17,79,106860,2,0,P|7:126|16:157,1,80
86,198,107107,2,0,L|97:242,1,40,8|0,0:0|0:0,0:0:0:0:
124,312,107272,37,0,0:0:0:0:
133,303,107326,1,0,0:0:0:0:
142,294,107381,1,0,0:0:0:0:
152,284,107437,2,0,L|237:261,1,80,8|0,0:0|0:0,0:0:0:0:
238,254,107658,1,0,0:0:0:0:
247,245,107713,1,0,0:0:0:0:
257,235,107767,1,8,0:0:0:0:
333,95,107931,38,0,P|363:70|402:63,1,80,4|8,0:0|0:0,0:0:0:0:
477,33,108179,2,0,P|482:72|469:109,1,80
397,145,108426,2,0,L|374:203,1,40,8|0,0:0|0:0,0:0:0:0:
356,257,108591,1,0,0:0:0:0:
148,264,108756,1,8,0:0:0:0:
356,257,108920,1,0,0:0:0:0:
205,92,109085,1,8,0:0:0:0:
419,222,109250,6,0,L|398:145,1,80,0|8,0:0|0:0,0:0:0:0:
454,87,109497,2,0,P|420:68|381:66,1,80
322,123,109745,2,0,L|259:106,1,40,8|0,0:0|0:0,0:0:0:0:
205,92,109910,1,0,0:0:0:0:
248,294,110074,1,8,0:0:0:0:
105,170,110239,1,0,0:0:0:0:
298,199,110404,1,8,0:0:0:0:
28,263,110569,22,0,L|106:284,1,80,4|8,0:0|0:0,0:0:0:0:
183,300,110816,2,0,P|182:261|162:227,1,80
105,170,111063,2,0,L|117:121,1,40,8|0,0:0|0:0,0:0:0:0:
137,53,111228,2,0,P|180:82|194:113,1,80,0|8,0:0|0:0,0:0:0:0:
272,106,111475,2,0,L|251:183,1,80
170,182,111723,2,0,L|185:238,1,40,8|0,0:0|0:0,0:0:0:0:
201,298,111888,6,0,P|241:319|281:317,1,80,4|8,0:0|0:0,0:0:0:0:
356,334,112135,2,0,P|355:295|335:261,1,80
257,242,112382,2,0,L|272:183,1,40,8|0,0:0|0:0,0:0:0:0:
288,125,112547,5,2,0:0:0:0:
248,124,112629,1,2,0:0:0:0:
213,143,112711,1,2,0:0:0:0:
191,175,112794,1,2,0:0:0:0:
187,215,112877,1,2,0:0:0:0:
189,263,112959,1,2,0:0:0:0:
161,303,113041,1,2,0:0:0:0:
114,318,113124,1,2,0:0:0:0:
67,303,113206,6,0,L|88:220,1,80,4|8,0:0|0:0,0:0:0:0:
90,127,113453,2,0,B|51:132|51:132|19:157,1,80
172,181,113701,1,8,0:0:0:0:
392,83,113866,1,0,0:0:0:0:
306,308,114030,1,8,0:0:0:0:
392,83,114195,1,0,0:0:0:0:
490,303,114360,1,8,0:0:0:0:
308,148,114525,22,0,B|270:138|270:138|231:148,1,80,0|8,0:0|0:0,0:0:0:0:
132,150,114772,2,0,B|138:110|138:110|163:79,1,80
184,233,115019,1,8,0:0:0:0:
291,24,115184,1,0,0:0:0:0:
310,263,115349,1,8,0:0:0:0:
163,79,115514,1,0,0:0:0:0:
376,196,115679,1,8,0:0:0:0:
162,299,115844,6,0,L|72:274,1,80,4|8,0:0|0:0,0:0:0:0:
3,226,116091,2,0,B|29:195|29:195|66:182,1,80
1,323,116338,1,8,0:0:0:0:
162,161,116503,2,0,B|146:123|146:123|115:99,1,80,0|8,0:0|0:0,0:0:0:0:
205,61,116750,2,0,L|287:82,1,80,0|0,0:0|0:0,0:0:0:0:
379,80,116997,1,8,0:0:0:0:
211,192,117162,6,0,L|134:213,1,80,4|8,0:0|0:0,0:0:0:0:
64,281,117410,2,0,B|95:305|95:305|134:311,1,80
42,187,117657,1,8,0:0:0:0:
120,82,117822,21,0,0:0:0:0:
129,92,117876,1,0,0:0:0:0:
138,101,117931,1,0,0:0:0:0:
148,111,117986,2,0,L|236:134,1,80,12|0,0:0|0:0,0:0:0:0:
234,140,118205,1,0,0:0:0:0:
243,150,118261,1,0,0:0:0:0:
252,159,118316,1,12,0:0:0:0:
139,257,118481,54,0,L|114:165,1,80,4|8,0:0|0:0,0:0:0:0:
120,82,118728,2,0,B|81:87|81:87|49:112,1,80
203,133,118975,1,8,0:0:0:0:
309,331,119140,1,0,0:0:0:0:
317,92,119305,1,8,0:0:0:0:
309,331,119470,1,0,0:0:0:0:
108,220,119635,1,8,0:0:0:0:
340,175,119800,22,0,L|420:196,1,80,4|8,0:0|0:0,0:0:0:0:
512,200,120047,2,0,B|508:159|508:159|486:127,1,80
462,280,120294,1,8,0:0:0:0:
395,55,120459,1,0,0:0:0:0:
279,263,120624,1,8,0:0:0:0:
215,30,120789,1,0,0:0:0:0:
360,218,120953,1,8,0:0:0:0:
162,105,121118,6,0,L|187:198,1,80,4|8,0:0|0:0,0:0:0:0:
184,279,121366,2,0,B|144:273|144:273|112:250,1,80
266,228,121613,1,8,0:0:0:0:
371,29,121778,6,0,L|348:114,1,80,4|8,0:0|0:0,0:0:0:0:
438,209,122025,2,0,L|417:131,1,80
370,259,122272,1,8,0:0:0:0:
233,139,122437,6,0,B|194:128|194:128|155:139|155:139|104:125,2,120,8|2|2,0:0|0:0|0:0,0:0:0:0:
315,223,123096,5,0,0:0:0:0:
306,233,123151,1,0,0:0:0:0:
299,244,123206,2,0,L|234:261,1,53.3333333333333
192,350,123426,2,0,L|257:367,1,53.3333333333333
322,345,123646,5,0,0:0:0:0:
383,295,123755,1,0,0:0:0:0:
403,219,123865,1,0,0:0:0:0:
375,145,123975,1,0,0:0:0:0:
309,101,124085,5,8,0:0:0:0:
309,101,124415,5,0,0:0:0:0:
211,59,124579,1,8,0:0:0:0:
211,59,124909,1,8,0:0:0:0:
216,78,124991,1,0,0:0:0:0:
218,97,125073,1,0,0:0:0:0:
217,117,125156,1,0,0:0:0:0:
212,137,125238,1,8,0:0:0:0:
204,155,125321,1,0,0:0:0:0:
192,171,125404,2,0,L|256:188,1,60.0000022888184,0|8,0:0|0:0,0:0:0:0:
355,214,125733,5,0,0:0:0:0:
260,272,125898,1,8,0:0:0:0:
260,272,126228,1,8,0:0:0:0:
245,258,126310,1,0,0:0:0:0:
228,248,126392,1,0,0:0:0:0:
209,240,126475,1,0,0:0:0:0:
189,237,126557,1,8,0:0:0:0:
169,237,126640,1,0,0:0:0:0:
150,242,126722,2,0,L|171:159,1,60.0000022888184,0|8,0:0|0:0,0:0:0:0:
193,78,127052,21,0,0:0:0:0:
287,124,127217,1,8,0:0:0:0:
287,124,127546,1,8,0:0:0:0:
274,139,127628,1,0,0:0:0:0:
265,157,127710,1,0,0:0:0:0:
259,176,127793,1,0,0:0:0:0:
257,196,127875,1,8,0:0:0:0:
258,216,127958,1,0,0:0:0:0:
263,236,128041,2,0,L|196:218,1,60.0000022888184,0|8,0:0|0:0,0:0:0:0:
100,191,128371,5,0,0:0:0:0:
146,287,128535,1,8,0:0:0:0:
146,287,128865,1,8,0:0:0:0:
152,268,128947,1,0,0:0:0:0:
157,248,129029,1,0,0:0:0:0:
160,229,129112,1,0,0:0:0:0:
161,209,129194,1,12,0:0:0:0:
160,189,129277,1,0,0:0:0:0:
156,169,129359,1,0,0:0:0:0:
190,180,129442,1,0,0:0:0:0:
227,175,129524,1,12,0:0:0:0:
258,155,129607,1,0,0:0:0:0:
277,123,129689,5,0,0:0:0:0:
345,207,129854,1,8,0:0:0:0:
345,207,130183,1,8,0:0:0:0:
334,223,130266,1,0,0:0:0:0:
326,242,130348,1,0,0:0:0:0:
321,261,130431,1,0,0:0:0:0:
320,281,130513,1,8,0:0:0:0:
322,301,130595,1,0,0:0:0:0:
328,321,130678,2,0,L|265:304,1,60.0000022888184,0|8,0:0|0:0,0:0:0:0:
165,277,131008,5,0,0:0:0:0:
250,211,131173,1,8,0:0:0:0:
250,211,131502,1,8,0:0:0:0:
235,197,131584,1,0,0:0:0:0:
218,186,131666,1,0,0:0:0:0:
199,180,131749,1,0,0:0:0:0:
179,179,131831,1,8,0:0:0:0:
160,182,131914,1,0,0:0:0:0:
140,189,131997,2,0,L|160:110,1,60.0000022888184,0|8,0:0|0:0,0:0:0:0:
183,25,132327,21,4,0:0:0:0:
252,107,132491,1,8,0:0:0:0:
252,107,132821,1,8,0:0:0:0:
245,125,132903,1,0,0:0:0:0:
242,145,132985,1,0,0:0:0:0:
243,165,133068,1,0,0:0:0:0:
246,185,133150,1,8,0:0:0:0:
253,203,133233,1,0,0:0:0:0:
263,221,133316,2,0,L|187:241,1,60.0000022888184,0|8,0:0|0:0,0:0:0:0:
84,236,133645,5,8,0:0:0:0:
86,216,133727,1,0,0:0:0:0:
91,196,133809,1,4,0:0:0:0:
100,179,133892,1,0,0:0:0:0:
132,147,133975,5,8,0:0:0:0:
140,118,134057,1,0,0:0:0:0:
139,88,134139,1,0,0:0:0:0:
128,60,134222,1,0,0:0:0:0:
73,60,134305,5,12,0:0:0:0:
59,97,134387,1,0,0:0:0:0:
59,137,134469,1,0,0:0:0:0:
73,174,134552,1,0,0:0:0:0:
127,206,134634,21,8,0:0:0:0:
135,254,134716,1,0,0:0:0:0:
118,301,134798,1,0,0:0:0:0:
81,333,134881,1,0,0:0:0:0:
14,333,134964,6,0,B|11:307|11:307|17:276|17:276|7:246|17:193,1,120,12|0,0:0|0:0,0:0:0:0:
4,119,135294,1,8,0:0:0:0:
43,123,135376,1,0,0:0:0:0:
78,142,135458,1,0,0:0:0:0:
102,174,135541,1,0,0:0:0:0:
111,213,135623,1,8,0:0:0:0:
326,164,135788,1,0,0:0:0:0:
194,275,135953,1,8,0:0:0:0:
231,38,136118,1,0,0:0:0:0:
255,241,136283,6,0,B|277:247|299:238|299:238|311:247|311:247|337:233|389:245,1,120,8|0,0:0|0:0,0:0:0:0:
436,309,136612,1,8,0:0:0:0:
457,276,136694,1,0,0:0:0:0:
463,237,136776,1,0,0:0:0:0:
453,198,136859,1,0,0:0:0:0:
428,168,136941,1,8,0:0:0:0:
495,23,137107,1,0,0:0:0:0:
306,84,137272,1,8,0:0:0:0:
428,168,137436,1,0,0:0:0:0:
379,19,137601,5,8,0:0:0:0:
222,51,137766,1,0,0:0:0:0:
185,66,137848,1,0,0:0:0:0:
158,94,137930,1,8,0:0:0:0:
145,132,138013,1,0,0:0:0:0:
147,172,138095,1,0,0:0:0:0:
290,261,138261,21,8,0:0:0:0:
326,246,138343,1,0,0:0:0:0:
353,216,138425,1,0,0:0:0:0:
367,181,138508,1,0,0:0:0:0:
364,140,138590,1,8,0:0:0:0:
450,275,138755,1,0,0:0:0:0:
290,261,138920,5,8,0:0:0:0:
364,140,139085,1,0,0:0:0:0:
330,117,139167,1,0,0:0:0:0:
290,110,139249,1,8,0:0:0:0:
253,121,139332,1,0,0:0:0:0:
222,146,139414,1,0,0:0:0:0:
290,261,139579,5,12,0:0:0:0:
264,291,139661,1,0,0:0:0:0:
229,308,139744,1,0,0:0:0:0:
189,308,139826,1,0,0:0:0:0:
153,293,139908,5,12,0:0:0:0:
179,250,139991,1,0,0:0:0:0:
191,202,140073,1,0,0:0:0:0:
186,152,140156,1,0,0:0:0:0:
165,108,140239,22,0,B|194:101|194:101|225:109|225:109|256:102|293:113,1,120,12|0,0:0|0:0,0:0:0:0:
349,42,140568,1,8,0:0:0:0:
371,74,140650,1,0,0:0:0:0:
378,113,140732,1,0,0:0:0:0:
369,152,140815,1,0,0:0:0:0:
345,184,140897,1,8,0:0:0:0:
268,23,141063,1,0,0:0:0:0:
105,166,141228,1,8,0:0:0:0:
345,184,141393,1,0,0:0:0:0:
169,86,141557,5,12,0:0:0:0:
252,260,141722,1,0,0:0:0:0:
284,283,141804,1,0,0:0:0:0:
322,294,141886,1,8,0:0:0:0:
362,291,141969,1,0,0:0:0:0:
398,274,142051,1,0,0:0:0:0:
284,160,142217,5,8,0:0:0:0:
244,158,142299,1,0,0:0:0:0:
206,145,142381,1,0,0:0:0:0:
173,122,142464,1,0,0:0:0:0:
148,91,142546,5,8,0:0:0:0:
156,141,142628,1,0,0:0:0:0:
152,190,142710,1,0,0:0:0:0:
135,237,142793,1,0,0:0:0:0:
107,278,142875,21,8,0:0:0:0:
135,268,142958,1,0,0:0:0:0:
164,262,143040,1,0,0:0:0:0:
194,263,143123,1,0,0:0:0:0:
223,269,143206,6,0,L|330:297,1,90.0000034332277,12|0,0:0|0:0,0:0:0:0:
389,217,143535,1,0,0:0:0:0:
381,189,143617,1,0,0:0:0:0:
378,159,143699,1,0,0:0:0:0:
379,129,143782,1,0,0:0:0:0:
385,100,143865,6,0,L|271:130,1,90.0000034332277,12|0,0:0|0:0,0:0:0:0:
238,174,144195,22,0,P|219:118|244:65,2,120,8|0|0,0:0|0:0|0:0,0:0:0:0:
234,187,144743,1,0,0:0:0:0:
231,199,144798,1,0,0:0:0:0:
227,212,144854,2,0,L|254:314,2,90.0000034332277,8|0|0,0:0|0:0|0:0,0:0:0:0:
77,68,145513,54,0,L|102:157,1,80,4|8,0:0|0:0,0:0:0:0:
250,299,145843,1,0,0:0:0:0:
15,211,146008,1,8,0:0:0:0:
279,151,146173,2,0,P|318:143|352:123,1,80,0|8,0:0|0:0,0:0:0:0:
188,36,146502,2,0,P|149:43|115:63,1,80,0|8,0:0|0:0,0:0:0:0:
257,242,146832,21,0,0:0:0:0:
50,133,146997,1,8,0:0:0:0:
281,57,147162,1,0,0:0:0:0:
276,76,147244,1,0,0:0:0:0:
271,95,147326,1,8,0:0:0:0:
83,238,147491,1,0,0:0:0:0:
194,30,147656,1,8,0:0:0:0:
197,279,147821,1,0,0:0:0:0:
216,284,147903,1,0,0:0:0:0:
235,289,147985,1,8,0:0:0:0:
381,68,148151,5,0,0:0:0:0:
450,296,148316,1,8,0:0:0:0:
308,168,148480,1,0,0:0:0:0:
473,180,148645,1,8,0:0:0:0:
337,264,148810,2,0,P|296:267|258:257,1,80,0|8,0:0|0:0,0:0:0:0:
308,168,149140,1,0,0:0:0:0:
335,349,149305,1,8,0:0:0:0:
405,171,149469,5,0,0:0:0:0:
208,216,149634,1,8,0:0:0:0:
324,102,149799,1,0,0:0:0:0:
318,83,149881,1,0,0:0:0:0:
313,64,149963,1,8,0:0:0:0:
146,114,150129,1,0,0:0:0:0:
308,168,150294,1,8,0:0:0:0:
160,214,150458,1,0,0:0:0:0:
141,219,150540,1,0,0:0:0:0:
122,225,150622,1,8,0:0:0:0:
69,94,150788,6,0,L|149:115,1,80,4|8,0:0|0:0,0:0:0:0:
273,258,151118,1,0,0:0:0:0:
232,37,151283,1,8,0:0:0:0:
160,214,151447,2,0,P|157:253|167:292,1,80,0|8,0:0|0:0,0:0:0:0:
303,155,151777,2,0,P|305:115|295:76,1,80,0|8,0:0|0:0,0:0:0:0:
402,237,152107,22,0,L|376:330,1,80,4|8,0:0|0:0,0:0:0:0:
239,216,152436,1,0,0:0:0:0:
417,145,152601,1,8,0:0:0:0:
303,31,152766,2,0,P|264:21|224:23,1,80,0|8,0:0|0:0,0:0:0:0:
110,137,153096,2,0,L|76:127,3,26.6666666666667,0|0|0|8,0:0|0:0|0:0|0:0,0:0:0:0:
219,281,153425,5,4,0:3:0:0:
52,222,153590,1,12,0:0:0:0:
145,384,153755,1,0,0:0:0:0:
123,248,153920,2,0,B|134:208|115:178|115:178|124:164|124:164|105:131|117:92,1,160,12|12,0:0|0:0,0:0:0:0:
274,100,154415,2,0,L|197:121,1,80,0|12,0:0|0:0,0:0:0:0:
310,234,154744,6,0,P|349:244|389:242,1,80,0|12,0:0|0:0,0:0:0:0:
502,128,155074,2,0,P|463:118|423:120,1,80,0|12,0:0|0:0,0:0:0:0:
272,174,155404,1,2,0:3:0:0:
258,179,155486,1,2,0:3:0:0:
243,183,155568,1,2,0:3:0:0:
228,186,155651,1,2,0:3:0:0:
214,187,155733,1,2,0:3:0:0:
199,187,155816,1,2,0:3:0:0:
184,184,155898,1,2,0:3:0:0:
169,181,155980,1,2,0:3:0:0:
155,176,156063,6,0,L|182:275,1,80,4|8,0:0|0:0,0:0:0:0:
322,322,156393,1,0,0:0:0:0:
173,339,156557,1,8,0:0:0:0:
280,219,156722,2,0,P|281:179|271:140,1,80,0|8,0:0|0:0,0:0:0:0:
157,26,157052,2,0,P|155:65|165:104,1,80,0|8,0:0|0:0,0:0:0:0:
280,219,157382,21,0,0:0:0:0:
233,83,157546,1,8,0:0:0:0:
160,217,157711,1,0,0:0:0:0:
154,236,157793,1,0,0:0:0:0:
149,255,157875,1,8,0:0:0:0:
62,120,158041,1,0,0:0:0:0:
214,151,158206,1,8,0:0:0:0:
63,227,158371,1,0,0:0:0:0:
68,246,158453,1,0,0:0:0:0:
73,265,158535,1,8,0:0:0:0:
151,100,158700,5,4,0:0:0:0:
300,205,158865,1,8,0:0:0:0:
226,70,159030,1,0,0:0:0:0:
181,222,159195,1,8,0:0:0:0:
300,205,159360,2,0,P|340:198|374:178,1,80,0|8,0:0|0:0,0:0:0:0:
181,222,159689,2,0,P|141:229|107:249,1,80,0|8,0:0|0:0,0:0:0:0:
224,40,160019,5,4,0:0:0:0:
300,205,160183,1,8,0:0:0:0:
326,176,160265,1,0,0:0:0:0:
336,137,160349,1,0,0:0:0:0:
326,99,160430,1,0,0:0:0:0:
300,68,160512,1,8,0:0:0:0:
143,103,160678,5,0,0:0:0:0:
116,133,160760,1,0,0:0:0:0:
106,171,160842,1,12,0:0:0:0:
115,209,160925,1,0,0:0:0:0:
142,239,161007,1,0,0:0:0:0:
300,205,161173,1,12,0:0:0:0:
208,339,161338,21,4,0:0:0:0:
180,172,161502,1,8,0:0:0:0:
190,133,161584,1,0,0:0:0:0:
200,94,161666,1,0,0:0:0:0:
211,56,161749,1,0,0:0:0:0:
221,17,161831,1,8,0:0:0:0:
290,166,161997,5,0,0:0:0:0:
300,205,162079,1,0,0:0:0:0:
311,243,162162,1,8,0:0:0:0:
321,282,162244,1,0,0:0:0:0:
331,321,162326,1,0,0:0:0:0:
445,232,162491,1,8,0:0:0:0:
348,61,162656,5,4,0:0:0:0:
88,56,162821,1,8,0:0:0:0:
98,94,162903,1,0,0:0:0:0:
95,134,162985,1,0,0:0:0:0:
79,170,163068,1,0,0:0:0:0:
52,199,163150,1,8,0:0:0:0:
166,313,163316,5,0,0:0:0:0:
156,274,163398,1,0,0:0:0:0:
159,235,163480,1,8,0:0:0:0:
175,198,163563,1,0,0:0:0:0:
202,169,163645,1,0,0:0:0:0:
345,97,163810,1,8,0:0:0:0:
296,249,163975,21,4,0:0:0:0:
202,169,164140,1,0,0:0:0:0:
196,149,164222,1,2,0:0:0:0:
191,130,164304,1,2,0:0:0:0:
345,97,164469,1,0,0:0:0:0:
340,78,164551,1,2,0:0:0:0:
334,59,164633,1,2,0:0:0:0:
296,249,164799,1,8,0:0:0:0:
273,132,164964,1,0,0:0:0:0:
268,113,165046,1,2,0:0:0:0:
262,94,165128,1,2,0:0:0:0:
156,252,165294,6,0,L|92:269,2,53.3333333333333,2|2|2,0:0|0:0|0:0,0:0:0:0:
227,305,165623,2,0,L|194:362,2,53.3333333333333,2|2|2,0:0|0:0|0:0,0:0:0:0:
316,292,165953,2,0,L|331:234,1,53.3333333333333,4|4,0:0|0:0,0:0:0:0:
272,183,166173,2,0,L|256:125,1,53.3333333333333,4|4,0:0|0:0,0:0:0:0:
315,74,166393,2,0,L|330:16,1,53.3333333333333,4|4,0:0|0:0,0:0:0:0:
396,90,166612,5,4,0:0:0:0:
408,108,166694,1,0,0:0:0:0:
417,129,166776,1,0,0:0:0:0:
422,151,166859,1,0,0:0:0:0:
424,173,166941,1,0,0:0:0:0:
421,195,167024,1,0,0:0:0:0:
415,217,167106,1,0,0:0:0:0:
406,237,167188,1,0,0:0:0:0:
392,255,167272,2,0,B|361:264|332:257|332:257|290:266|290:266|256:254|197:268,1,180.000006866455,8|0,0:0|0:0,0:0:0:0:
111,338,167931,5,0,0:0:0:0:
97,319,168013,1,0,0:0:0:0:
88,299,168095,1,0,0:0:0:0:
82,277,168178,1,0,0:0:0:0:
81,255,168260,1,0,0:0:0:0:
84,233,168343,1,0,0:0:0:0:
92,211,168425,1,0,0:0:0:0:
103,192,168507,1,0,0:0:0:0:
118,175,168590,2,0,L|131:130,1,30.0000011444092,8|0,0:0|0:0,0:0:0:0:
150,59,168755,1,0,0:0:0:0:
177,70,168837,1,0,0:0:0:0:
198,91,168920,2,0,P|230:121|262:133,1,60.0000022888184,8|0,0:0|0:0,0:0:0:0:
273,242,169250,21,4,0:0:0:0:
288,258,169333,1,0,0:0:0:0:
307,271,169415,1,0,0:0:0:0:
327,280,169497,1,0,0:0:0:0:
349,285,169580,1,0,0:0:0:0:
372,285,169662,1,0,0:0:0:0:
394,280,169745,1,0,0:0:0:0:
415,272,169827,1,0,0:0:0:0:
433,259,169909,2,0,B|436:215|423:175|423:175|432:127|432:127|422:87|421:58,1,180.000006866455,8|0,0:0|0:0,0:0:0:0:
312,51,170569,5,0,0:0:0:0:
295,65,170651,1,0,0:0:0:0:
275,77,170733,1,0,0:0:0:0:
254,85,170816,1,0,0:0:0:0:
232,89,170898,1,0,0:0:0:0:
210,90,170981,1,0,0:0:0:0:
188,86,171063,1,0,0:0:0:0:
166,79,171145,1,0,0:0:0:0:
147,68,171228,2,0,L|91:84,1,30.0000011444092,8|0,0:0|0:0,0:0:0:0:
30,99,171393,1,0,0:0:0:0:
41,126,171475,1,0,0:0:0:0:
61,147,171557,2,0,P|78:172|85:202,1,60.0000022888184,8|0,0:0|0:0,0:0:0:0:
160,308,171887,5,4,0:0:0:0:
180,297,171969,1,0,0:0:0:0:
201,290,172051,1,0,0:0:0:0:
223,286,172134,1,0,0:0:0:0:
245,285,172216,1,0,0:0:0:0:
268,287,172299,1,0,0:0:0:0:
289,292,172381,1,0,0:0:0:0:
310,301,172463,1,0,0:0:0:0:
330,312,172546,2,0,B|323:271|331:236|331:236|325:206|325:206|335:171|329:132,1,180.000006866455,8|0,0:0|0:0,0:0:0:0:
328,8,173206,5,0,0:0:0:0:
306,10,173288,1,0,0:0:0:0:
285,17,173370,1,0,0:0:0:0:
265,28,173453,1,0,0:0:0:0:
248,43,173535,1,0,0:0:0:0:
235,61,173618,1,0,0:0:0:0:
225,81,173700,1,0,0:0:0:0:
221,103,173782,1,0,0:0:0:0:
221,126,173865,2,0,L|210:166,1,30.0000011444092,8|0,0:0|0:0,0:0:0:0:
187,241,174030,1,0,0:0:0:0:
160,230,174112,1,0,0:0:0:0:
140,208,174195,2,0,P|107:177|66:165,1,60.0000022888184,8|0,0:0|0:0,0:0:0:0:
64,56,174525,21,4,0:0:0:0:
84,47,174607,1,0,0:0:0:0:
106,42,174689,1,0,0:0:0:0:
129,39,174772,1,0,0:0:0:0:
151,41,174854,1,0,0:0:0:0:
173,45,174937,1,0,0:0:0:0:
194,53,175019,1,0,0:0:0:0:
214,63,175101,1,0,0:0:0:0:
232,77,175184,2,0,B|221:118|230:152|230:152|224:189|224:189|235:221|228:269,1,180.000006866455,8|0,0:0|0:0,0:0:0:0:
342,309,175843,5,0,0:0:0:0:
355,291,175926,1,0,0:0:0:0:
364,270,176008,1,0,0:0:0:0:
367,248,176091,1,0,0:0:0:0:
328,209,176173,5,0,0:0:0:0:
326,179,176255,1,0,0:0:0:0:
334,150,176337,1,0,0:0:0:0:
350,125,176420,1,0,0:0:0:0:
393,92,176502,5,8,0:0:0:0:
400,131,176584,1,0,0:0:0:0:
389,169,176666,1,0,0:0:0:0:
364,200,176749,1,0,0:0:0:0:
310,209,176832,21,8,0:0:0:0:
282,249,176914,1,0,0:0:0:0:
274,298,176996,1,0,0:0:0:0:
289,345,177079,1,0,0:0:0:0:
329,371,177162,6,0,L|380:384,2,53.3333333333333,4|0|0,0:0|0:0|0:0,0:0:0:0:
408,310,177491,2,0,L|465:277,2,53.3333333333333,8|0|0,0:0|0:0|0:0,0:0:0:0:
386,204,177821,1,0,0:0:0:0:
350,144,177930,1,0,0:0:0:0:
288,112,178040,1,0,0:0:0:0:
218,118,178152,1,8,0:0:0:0:
148,125,178262,1,0,0:0:0:0:
85,92,178371,1,0,0:0:0:0:
53,32,178480,5,0,0:0:0:0:
85,92,178589,1,0,0:0:0:0:
81,161,178699,1,0,0:0:0:0:
40,219,178811,1,8,0:0:0:0:
0,276,178921,1,0,0:0:0:0:
0,347,179030,1,0,0:0:0:0:
61,312,179140,2,0,L|117:297,2,53.3333333333333,0|0|0,0:0|0:0|0:0,0:0:0:0:
74,207,179469,2,0,L|114:167,2,53.3333333333333,12|0|0,0:0|0:0|0:0,0:0:0:0:
124,94,179799,5,0,0:0:0:0:
151,105,179881,1,0,0:0:0:0:
181,109,179963,1,0,0:0:0:0:
211,108,180046,1,0,0:0:0:0:
239,99,180128,1,0,0:0:0:0:
267,90,180211,1,0,0:0:0:0:
297,88,180293,1,0,0:0:0:0:
327,93,180376,1,0,0:0:0:0:
354,104,180458,2,0,B|365:143|365:143|354:182|354:182|368:231,1,120,12|0,0:0|0:0,0:0:0:0:
364,316,180788,21,0,0:0:0:0:
335,312,180870,1,0,0:0:0:0:
308,299,180952,1,0,0:0:0:0:
287,277,181035,1,0,0:0:0:0:
274,251,181117,1,0,0:0:0:0:
260,224,181200,1,0,0:0:0:0:
239,203,181282,1,0,0:0:0:0:
212,189,181365,1,0,0:0:0:0:
183,185,181447,2,0,B|193:147|193:147|182:108|182:108|193:69,1,120,12|0,0:0|0:0,0:0:0:0:
264,3,181777,5,0,0:0:0:0:
281,27,181859,1,0,0:0:0:0:
290,55,181941,1,0,0:0:0:0:
289,85,182024,1,0,0:0:0:0:
279,113,182107,2,0,B|289:151|289:151|278:190|278:190|289:228,1,120,12|0,0:0|0:0,0:0:0:0:
357,296,182437,6,0,L|395:285,1,40
512,202,182601,1,0,0:0:0:0:
505,195,182683,1,0,0:0:0:0:
498,188,182766,2,0,L|444:174,1,40,8|0,0:0|0:0,0:0:0:0:
321,133,182931,6,0,L|359:122,1,40
476,39,183096,1,0,0:0:0:0:
469,32,183179,1,0,0:0:0:0:
462,25,183261,2,0,L|408:11,1,40
289,66,183425,22,0,L|235:80,1,40,8|0,0:0|0:0,0:0:0:0:
112,121,183590,1,0,0:0:0:0:
119,128,183673,1,0,0:0:0:0:
126,135,183755,6,0,L|180:149,1,40
267,247,183920,1,0,0:0:0:0:
260,254,184003,1,0,0:0:0:0:
253,261,184085,6,0,L|199:275,1,40,8|0,0:0|0:0,0:0:0:0:
111,168,184250,1,0,0:0:0:0:
118,175,184333,1,0,0:0:0:0:
125,182,184415,6,0,L|179:196,1,40
266,294,184580,1,0,0:0:0:0:
259,301,184663,1,0,0:0:0:0:
252,308,184745,22,0,L|198:322,1,40,8|0,0:0|0:0,0:0:0:0:
111,216,184909,1,0,0:0:0:0:
118,223,184992,1,0,0:0:0:0:
125,230,185074,5,12,0:0:0:0:
248,147,185239,1,0,0:0:0:0:
284,131,185321,1,0,0:0:0:0:
324,129,185404,1,8,0:0:0:0:
362,141,185486,1,0,0:0:0:0:
393,165,185568,1,0,0:0:0:0:
263,241,185734,5,8,0:0:0:0:
227,256,185816,1,0,0:0:0:0:
187,259,185899,1,0,0:0:0:0:
149,247,185981,1,0,0:0:0:0:
118,223,186063,1,8,0:0:0:0:
223,81,186228,1,0,0:0:0:0:
223,81,186310,1,0,0:0:0:0:
223,81,186392,5,8,0:0:0:0:
261,71,186475,1,0,0:0:0:0:
301,76,186557,1,0,0:0:0:0:
335,95,186640,1,0,0:0:0:0:
360,126,186722,2,0,L|372:168,1,40,0|0,0:0|0:0,0:0:0:0:
372,287,186887,21,0,0:0:0:0:
334,297,186970,1,0,0:0:0:0:
294,292,187052,1,0,0:0:0:0:
259,273,187135,1,0,0:0:0:0:
234,242,187217,2,0,L|222:199,1,40,0|0,0:0|0:0,0:0:0:0:
223,81,187382,5,0,0:0:0:0:
237,67,187464,1,0,0:0:0:0:
251,53,187546,1,0,0:0:0:0:
265,39,187629,1,0,0:0:0:0:
279,25,187711,5,12,0:0:0:0:
455,329,188371,5,12,0:0:0:0:
135,334,189030,22,0,L|126:237,1,80,12|0,0:2|0:0,0:0:0:0:
121,174,189524,1,0,0:0:0:0:
231,267,189689,1,0,0:0:0:0:
213,124,189854,1,0,0:0:0:0:
41,189,190019,5,0,0:0:0:0:
38,179,190101,1,0,0:0:0:0:
36,170,190183,1,0,0:0:0:0:
33,160,190266,1,0,0:0:0:0:
31,151,190349,5,12,0:0:0:0:
47,134,190431,1,0,0:0:0:0:
64,117,190513,2,0,L|115:103,1,47.9999985351563,0|0,0:0|0:0,0:0:0:0:
111,220,190678,5,8,0:0:0:0:
131,240,190760,1,0,0:0:0:0:
152,261,190843,2,0,L|212:277,1,47.9999985351563,0|0,0:0|0:0,0:0:0:0:
198,157,191008,21,8,0:0:0:0:
222,133,191090,1,0,0:0:0:0:
245,110,191173,2,0,L|314:91,1,47.9999985351563,0|0,0:0|0:0,0:0:0:0:
291,212,191338,5,8,0:0:0:0:
318,240,191420,1,0,0:0:0:0:
345,267,191502,2,0,L|410:284,1,47.9999985351563,0|0,0:0|0:0,0:0:0:0:
469,123,191667,5,8,0:0:0:0:
442,96,191749,1,0,0:0:0:0:
415,69,191832,2,0,L|429:16,1,47.9999985351563,0|0,0:0|0:0,0:0:0:0:
232,148,191997,5,8,0:0:0:0:
256,124,192079,1,0,0:0:0:0:
279,101,192162,2,0,L|261:35,1,47.9999985351563,0|0,0:0|0:0,0:0:0:0:
462,179,192327,21,8,0:0:0:0:
441,158,192409,1,0,0:0:0:0:
421,138,192491,2,0,L|439:70,1,47.9999985351563,0|0,0:0|0:0,0:0:0:0:
238,216,192656,5,12,0:0:0:0:
254,199,192738,1,0,0:0:0:0:
271,182,192821,2,0,L|253:114,1,47.9999985351563,0|0,0:0|0:0,0:0:0:0:
229,23,192986,5,12,0:0:0:0:
188,48,193068,1,0,0:0:0:0:
142,60,193150,1,0,0:0:0:0:
94,57,193233,1,0,0:0:0:0:
53,98,193316,5,8,0:0:0:0:
73,122,193398,1,0,0:0:0:0:
98,142,193480,1,0,0:0:0:0:
126,156,193563,1,0,0:0:0:0:
146,209,193645,21,8,0:0:0:0:
128,225,193727,1,0,0:0:0:0:
108,237,193809,1,0,0:0:0:0:
85,244,193892,1,0,0:0:0:0:
44,285,193975,5,8,0:0:0:0:
53,298,194057,1,0,0:0:0:0:
64,309,194139,1,0,0:0:0:0:
77,318,194222,1,0,0:0:0:0:
135,318,194305,5,8,0:0:0:0:
145,312,194387,1,0,0:0:0:0:
156,307,194469,1,0,0:0:0:0:
167,303,194552,1,0,0:0:0:0:
208,307,194634,5,8,0:0:0:0:
220,308,194717,1,0,0:0:0:0:
232,307,194799,1,0,0:0:0:0:
244,306,194881,1,0,0:0:0:0:
284,300,194964,22,0,L|336:313,3,47.9999985351563,12|0|0|0,0:0|0:0|0:0|0:0,0:0:0:0:
355,236,195294,2,0,L|406:222,3,47.9999985351563,12|0|0|0,0:0|0:0|0:0|0:0,0:0:0:0:
320,142,195623,6,0,B|287:133|242:143|242:143|201:136|201:136|161:146|107:138,1,191.999994140625,12|8,0:0|0:0,0:0:0:0:
6,263,196118,1,0,0:0:0:0:
14,271,196200,1,0,0:0:0:0:
22,279,196283,6,0,B|70:284|70:284|116:271|116:271|184:277,2,143.999995605469,8|0|0,0:0|0:0|0:0,0:0:0:0:
176,360,196942,6,0,B|128:355|128:355|81:368|81:368|14:362,1,143.999995605469,8|0,0:0|0:0,0:0:0:0:
237,170,197436,2,0,B|263:198|303:206|303:206|329:233|329:233|367:241|422:282,1,191.999994140625
407,274,197849,1,0,0:0:0:0:
416,283,197931,21,12,0:0:0:0:
416,283,198261,6,0,L|433:349,2,63.9999980468751,12|0|0,0:0|0:0|0:0,0:0:0:0:
317,254,198590,2,0,L|299:320,2,63.9999980468751,8|0|0,0:0|0:0|0:0,0:0:0:0:
437,209,198920,6,0,L|424:162,1,47.9999985351563,8|0,0:0|0:0,0:0:0:0:
398,48,199084,1,0,0:0:0:0:
354,32,199167,1,0,0:0:0:0:
309,46,199249,5,8,0:0:0:0:
287,57,199332,1,0,0:0:0:0:
264,60,199414,1,0,0:0:0:0:
240,55,199497,1,0,0:0:0:0:
220,43,199579,21,8,0:0:0:0:
246,82,199661,1,0,0:0:0:0:
252,130,199743,1,0,0:0:0:0:
236,175,199826,1,0,0:0:0:0:
202,208,199908,5,8,0:0:0:0:
183,222,199992,1,0,0:0:0:0:
168,241,200074,1,0,0:0:0:0:
157,262,200157,1,0,0:0:0:0:
152,286,200239,5,8,0:0:0:0:
192,260,200321,1,0,0:0:0:0:
239,251,200403,1,0,0:0:0:0:
286,259,200486,1,0,0:0:0:0:
327,284,200568,6,0,L|382:298,1,47.9999985351563,14|2,0:0|0:0,0:0:0:0:
474,229,200733,2,0,L|428:241,1,47.9999985351563,2|2,0:0|0:0,0:0:0:0:
244,171,200898,22,0,B|249:151|249:151|240:127|240:127|243:98|239:58,1,95.9999970703126,4|8,0:0|0:0,0:0:0:0:
240,0,201145,1,0,0:0:0:0:
195,14,201227,1,0,0:0:0:0:
167,52,201309,1,0,0:0:0:0:
165,99,201392,1,8,0:0:0:0:
197,249,201557,1,0,0:0:0:0:
200,260,201639,1,0,0:0:0:0:
203,272,201721,1,8,0:0:0:0:
393,307,201887,1,0,0:0:0:0:
289,130,202052,1,8,0:0:0:0:
254,332,202217,5,0,0:0:0:0:
203,131,202382,1,8,0:0:0:0:
204,83,202464,1,0,0:0:0:0:
177,45,202546,1,0,0:0:0:0:
132,31,202629,1,0,0:0:0:0:
88,47,202711,2,0,B|84:88|94:122|94:122|86:154|86:154|98:191|91:247,1,191.999994140625,8|8,0:0|0:0,0:0:0:0:
239,241,203206,1,0,0:0:0:0:
94,121,203371,1,8,0:0:0:0:
214,320,203535,5,0,0:0:0:0:
314,113,203700,1,8,0:0:0:0:
344,77,203782,1,0,0:0:0:0:
391,69,203864,1,0,0:0:0:0:
431,94,203947,1,0,0:0:0:0:
445,139,204029,1,8,0:0:0:0:
428,182,204112,1,0,0:0:0:0:
386,204,204194,5,0,0:0:0:0:
337,209,204277,1,0,0:0:0:0:
299,237,204359,1,8,0:0:0:0:
278,280,204442,1,0,0:0:0:0:
279,327,204524,1,0,0:0:0:0:
272,292,204606,1,0,0:0:0:0:
255,261,204688,1,8,0:0:0:0:
229,236,204771,1,0,0:0:0:0:
196,222,204853,21,0,0:0:0:0:
163,207,204936,1,0,0:0:0:0:
136,183,205018,1,8,0:0:0:0:
119,151,205101,1,0,0:0:0:0:
113,116,205183,1,0,0:0:0:0:
111,138,205266,1,0,0:0:0:0:
106,162,205348,1,8,0:0:0:0:
95,183,205431,1,0,0:0:0:0:
79,201,205514,5,0,0:0:0:0:
63,219,205596,1,0,0:0:0:0:
52,240,205678,1,8,0:0:0:0:
46,263,205761,1,0,0:0:0:0:
46,287,205843,1,0,0:0:0:0:
66,274,205925,1,0,0:0:0:0:
89,266,206007,1,8,0:0:0:0:
112,265,206090,1,0,0:0:0:0:
136,271,206173,6,0,L|183:283,1,47.9999985351563,4|0,0:0|0:0,0:0:0:0:
241,359,206338,1,8,0:0:0:0:
269,321,206420,1,0,0:0:0:0:
277,274,206502,1,0,0:0:0:0:
261,229,206585,1,0,0:0:0:0:
226,197,206667,1,8,0:0:0:0:
114,110,206832,5,0,0:0:0:0:
161,111,206914,1,0,0:0:0:0:
205,92,206996,1,8,0:0:0:0:
237,57,207079,1,0,0:0:0:0:
252,12,207161,1,0,0:0:0:0:
345,213,207327,1,8,0:0:0:0:
386,27,207491,21,4,0:0:0:0:
269,178,207656,1,8,0:0:0:0:
261,224,207738,1,0,0:0:0:0:
281,267,207820,1,0,0:0:0:0:
321,293,207903,1,0,0:0:0:0:
368,292,207985,1,8,0:0:0:0:
269,178,208151,5,0,0:0:0:0:
277,131,208233,1,0,0:0:0:0:
257,88,208315,1,8,0:0:0:0:
217,62,208398,1,0,0:0:0:0:
170,63,208480,2,0,L|133:72,3,31.9999990234375,0|0|0|8,0:0|0:0|0:0|0:0,0:0:0:0:
123,282,208810,6,0,B|151:289|176:288|176:288|201:286|224:294,1,95.9999970703126,4|8,0:0|0:0,0:0:0:0:
294,294,209057,1,0,0:0:0:0:
280,248,209139,1,0,0:0:0:0:
242,220,209221,1,0,0:0:0:0:
195,220,209304,1,8,0:0:0:0:
344,59,209469,1,0,0:0:0:0:
126,113,209634,2,0,L|191:130,1,47.9999985351563,8|0,0:0|0:0,0:0:0:0:
348,211,209799,2,0,L|282:228,1,47.9999985351563
126,308,209964,1,8,0:0:0:0:
101,73,210129,5,6,0:0:0:0:
132,90,210211,1,2,0:0:0:0:
167,95,210293,1,2,0:0:0:0:
203,89,210376,1,2,0:0:0:0:
234,72,210459,1,2,0:0:0:0:
265,54,210541,1,2,0:0:0:0:
300,48,210624,1,2,0:0:0:0:
335,54,210706,1,2,0:0:0:0:
367,71,210788,22,0,P|381:94|385:136,3,47.9999985351563,4|4|4|4,0:0|0:0|0:0|0:0,0:0:0:0:
309,123,211118,2,0,P|295:146|290:188,3,47.9999985351563,4|4|4|4,0:0|0:0|0:0|0:0,0:0:0:0:
297,278,211447,5,4,0:0:0:0:
278,308,211529,1,0,0:0:0:0:
247,326,211611,1,8,0:0:0:0:
211,329,211694,1,0,0:0:0:0:
178,314,211777,2,0,P|150:296|120:287,1,47.9999985351563
109,174,211942,5,8,0:0:0:0:
118,139,212024,1,0,0:0:0:0:
141,112,212106,1,0,0:0:0:0:
174,98,212189,1,0,0:0:0:0:
209,99,212272,2,0,P|240:109|271:110,1,47.9999985351563,8|0,0:0|0:0,0:0:0:0:
336,29,212436,5,0,0:0:0:0:
371,23,212518,1,0,0:0:0:0:
405,36,212600,1,8,0:0:0:0:
428,62,212683,1,0,0:0:0:0:
435,97,212766,2,0,P|432:120|435:144,1,47.9999985351563
435,260,212931,21,8,0:0:0:0:
434,295,213013,1,0,0:0:0:0:
415,325,213095,1,0,0:0:0:0:
383,339,213178,1,0,0:0:0:0:
348,334,213261,2,0,P|317:324|286:323,1,47.9999985351563,8|0,0:0|0:0,0:0:0:0:
191,351,213425,5,0,0:0:0:0:
155,350,213507,1,0,0:0:0:0:
125,331,213589,1,8,0:0:0:0:
108,300,213672,1,0,0:0:0:0:
109,264,213755,2,0,P|110:231|103:201,1,47.9999985351563
55,112,213920,1,8,0:0:0:0:
36,128,214002,1,0,0:0:0:0:
23,148,214085,5,4,0:0:0:0:
70,142,214167,1,0,0:0:0:0:
106,111,214250,1,8,0:0:0:0:
141,79,214332,1,0,0:0:0:0:
188,73,214415,2,0,P|211:70|235:73,1,47.9999985351563
372,117,214579,5,8,0:0:0:0:
347,157,214661,1,0,0:0:0:0:
341,205,214743,1,0,0:0:0:0:
354,251,214826,1,0,0:0:0:0:
384,288,214909,2,0,P|392:310|395:334,1,47.9999985351563,8|0,0:0|0:0,0:0:0:0:
256,294,215074,21,0,0:0:0:0:
262,247,215156,1,0,0:0:0:0:
240,205,215238,1,8,0:0:0:0:
218,162,215321,1,0,0:0:0:0:
224,116,215404,2,0,P|235:94|251:77,1,47.9999985351563
385,32,215568,5,8,0:0:0:0:
398,77,215650,1,0,0:0:0:0:
393,124,215732,1,0,0:0:0:0:
368,165,215815,1,0,0:0:0:0:
329,193,215897,1,8,0:0:0:0:
290,220,215980,1,0,0:0:0:0:
265,261,216062,1,0,0:0:0:0:
260,309,216145,1,0,0:0:0:0:
272,353,216228,5,8,0:0:0:0:
254,321,216310,1,0,0:0:0:0:
226,299,216392,1,4,0:2:0:0:
191,290,216475,1,0,0:0:0:0:
156,294,216557,2,0,P|133:302|109:305,1,47.9999985351563,8|0,0:0|0:0,0:0:0:0:
31,150,216722,5,4,0:0:0:0:
80,117,216804,1,0,0:0:0:0:
139,116,216886,1,8,0:0:0:0:
189,147,216969,1,0,0:0:0:0:
213,201,217052,2,0,P|235:209|259:212,1,47.9999985351563
382,335,217216,21,8,0:0:0:0:
410,282,217298,1,0,0:0:0:0:
421,223,217382,1,0,0:0:0:0:
416,164,217464,1,0,0:0:0:0:
393,108,217546,2,0,P|384:85|379:62,1,47.9999985351563,8|0,0:0|0:0,0:0:0:0:
256,185,217711,5,0,0:0:0:0:
252,242,217793,1,0,0:0:0:0:
202,270,217875,1,8,0:0:0:0:
152,242,217958,1,0,0:0:0:0:
148,185,218041,2,0,P|150:161|148:137,1,47.9999985351563
297,47,218206,5,8,0:0:0:0:
315,103,218288,1,0,0:0:0:0:
307,162,218370,1,0,0:0:0:0:
273,211,218453,1,0,0:0:0:0:
221,239,218535,2,0,P|198:248|179:262,1,47.9999985351563,8|0,0:0|0:0,0:0:0:0:
27,346,218700,5,0,0:0:0:0:
58,295,218782,1,0,0:0:0:0:
74,237,218864,1,12,0:0:0:0:
71,177,218947,1,0,0:0:0:0:
52,121,219030,2,0,P|43:98|38:75,1,47.9999985351563,2|2,0:0|0:0,0:0:0:0:
189,161,219195,2,0,P|197:183|202:206,1,47.9999985351563,2|2,0:0|0:0,0:0:0:0:
266,45,219360,22,0,P|257:22|252:-1,1,47.9999985351563
375,122,219524,2,0,P|383:144|388:167,1,47.9999985351563,2|2,0:0|0:0,0:0:0:0:
403,298,219689,5,0,0:0:0:0:
355,294,219771,1,0,0:0:0:0:
308,302,219853,1,0,0:0:0:0:
266,325,219936,1,0,0:0:0:0:
224,348,220018,5,0,0:0:0:0:
214,315,220101,1,4,0:0:0:0:
190,288,220183,1,4,0:0:0:0:
158,269,220266,1,4,0:0:0:0:
122,260,220349,1,4,0:0:0:0:
157,262,220431,1,4,0:0:0:0:
190,248,220513,1,4,0:0:0:0:
214,222,220596,1,4,0:0:0:0:
225,187,220678,6,0,L|207:123,2,63.9999980468751,4|0|0,0:0|0:0|0:0,0:0:0:0:
279,133,221008,2,0,L|295:71,2,63.9999980468751
353,112,221338,21,0,0:0:0:0:
357,181,221447,1,0,0:0:0:0:
403,236,221557,1,0,0:0:0:0:
470,253,221667,1,0,0:0:0:0:
403,236,221778,1,0,0:3:0:0:
338,260,221888,1,0,0:3:0:0:
299,319,221998,6,0,P|316:382|311:411,2,63.9999980468751,4|0|0,0:0|0:0|0:0,0:0:0:0:
248,252,222327,1,8,0:0:0:0:
206,179,222436,1,0,0:0:0:0:
216,96,222546,1,0,0:0:0:0:
247,18,222657,6,0,P|312:10|339:19,2,63.9999980468751
169,48,222986,1,8,0:0:0:0:
108,104,223095,1,0,0:0:0:0:
73,179,223205,1,0,0:0:0:0:
63,264,223316,6,0,P|0:280|-28:277,2,63.9999980468751
128,212,223645,1,8,0:0:0:0:
206,184,223754,1,0,0:0:0:0:
289,178,223865,22,0,P|348:207|376:208,1,63.9999980468751
234,98,224085,2,0,P|175:69|146:67,1,63.9999980468751,0|4,0:0|0:0,0:0:0:0:
72,183,224305,2,0,P|131:212|159:213,1,63.9999980468751,8|4,0:0|0:0,0:0:0:0:
206,184,224524,1,0,0:0:0:0:
289,178,224634,6,0,B|322:212|381:206|381:206|415:241|481:245,1,191.999994140625,0|8,0:0|0:0,0:0:0:0:
500,88,225184,1,0,0:0:0:0:
430,38,225294,2,0,B|382:40|352:34|352:34|315:41|315:41|279:29|237:32,1,191.999994140625,0|8,0:0|0:0,0:0:0:0:
140,90,225733,1,0,0:0:0:0:
118,121,225842,1,0,0:0:0:0:
110,158,225953,5,0,0:0:0:0:
160,150,226062,1,0,0:0:0:0:
208,165,226173,1,0,0:0:0:0:
263,220,226283,5,8,0:0:0:0:
321,242,226392,1,0,0:0:0:0:
382,224,226502,1,0,0:0:0:0:
426,146,226612,21,0,0:0:0:0:
364,102,226721,1,0,0:0:0:0:
286,97,226831,1,0,0:0:0:0:
208,165,226942,5,8,0:0:0:0:
132,209,227051,1,0,0:0:0:0:
46,194,227161,1,0,0:0:0:0:
102,124,227272,6,0,B|144:113|187:126|208:165|208:165|233:136|272:123,1,191.999994140625,4|8,0:0|0:0,0:0:0:0:
342,99,227711,1,0,0:0:0:0:
423,115,227821,1,0,0:0:0:0:
485,170,227931,6,0,B|455:212|464:253|464:253|444:271|444:271|467:308|445:363,1,191.999994140625,0|8,0:0|0:0,0:0:0:0:
372,315,228371,1,0,0:0:0:0:
332,242,228480,1,0,0:0:0:0:
334,158,228590,22,0,B|296:155|256:185|250:227|250:227|208:226|184:180,1,191.999994140625,0|8,0:0|0:0,0:0:0:0:
188,106,229030,1,0,0:0:0:0:
239,38,229140,1,0,0:0:0:0:
323,24,229250,2,0,P|342:37|364:48,3,47.9999985351563,2|2|2|2,0:0|0:0|0:0|0:0,0:0:0:0:
427,102,229579,2,0,P|408:115|386:125,3,47.9999985351563,2|2|2|2,0:0|0:0|0:0|0:0,0:0:0:0:
299,114,229909,5,12,0:0:0:0:
255,96,229991,1,0,0:0:0:0:
208,101,230073,1,0,0:0:0:0:
168,127,230156,1,0,0:0:0:0:
140,177,230239,5,12,0:0:0:0:
171,168,230321,1,0,0:0:0:0:
202,171,230403,1,0,0:0:0:0:
230,187,230486,1,0,0:0:0:0:
265,231,230568,5,12,0:0:0:0:
242,226,230650,1,0,0:0:0:0:
218,226,230732,1,0,0:0:0:0:
195,232,230815,1,0,0:0:0:0:
153,273,230898,21,12,0:0:0:0:
169,270,230980,1,0,0:0:0:0:
185,270,231062,1,0,0:0:0:0:
201,271,231145,1,0,0:0:0:0:
242,312,231228,5,12,0:0:0:0:
252,317,231310,1,0,0:0:0:0:
263,322,231392,1,0,0:0:0:0:
274,325,231475,1,0,0:0:0:0:
286,361,231557,5,8,0:0:0:0:
298,362,231640,1,0,0:0:0:0:
310,360,231722,1,0,0:0:0:0:
322,357,231804,1,0,0:0:0:0:
333,319,231887,6,0,P|362:307|388:305,3,47.9999985351563
428,233,232217,2,0,P|399:220|373:218,3,47.9999985351563,4|0|0|0,0:2|0:0|0:0|0:0,0:0:0:0:
383,131,232546,21,0,0:0:0:0:
380,95,232628,1,0,0:0:0:0:
363,64,232710,1,8,0:0:0:0:
333,44,232793,1,0,0:0:0:0:
298,39,232876,2,0,P|273:34|251:25,1,47.9999985351563
136,25,233041,5,8,0:0:0:0:
102,36,233123,1,0,0:0:0:0:
77,62,233205,1,4,0:2:0:0:
68,96,233288,1,0,0:0:0:0:
75,131,233371,2,0,P|76:155|74:179,1,47.9999985351563,8|0,0:0|0:0,0:0:0:0:
74,293,233535,5,0,0:0:0:0:
107,281,233617,1,0,0:0:0:0:
143,281,233699,1,8,0:0:0:0:
177,292,233782,1,0,0:0:0:0:
206,313,233865,2,0,P|228:321|251:326,1,47.9999985351563
367,326,234030,5,8,0:0:0:0:
349,294,234112,1,0,0:0:0:0:
340,259,234194,1,4,0:2:0:0:
339,223,234277,1,0,0:0:0:0:
347,188,234359,1,8,0:0:0:0:
354,152,234442,1,0,0:0:0:0:
354,117,234524,1,0,0:0:0:0:
344,82,234607,1,0,0:0:0:0:
327,50,234689,21,8,0:0:0:0:
333,97,234771,1,0,0:0:0:0:
312,140,234854,1,4,0:2:0:0:
271,163,234936,1,0,0:0:0:0:
224,161,235018,1,8,0:0:0:0:
186,132,235101,1,0,0:0:0:0:
169,87,235184,5,4,0:0:0:0:
172,134,235266,1,0,0:0:0:0:
157,179,235348,1,8,0:0:0:0:
126,216,235431,1,0,0:0:0:0:
84,239,235513,2,0,P|65:253|49:271,1,47.9999985351563
198,327,235678,5,8,0:0:0:0:
228,290,235760,1,0,0:0:0:0:
240,244,235842,1,0,0:0:0:0:
232,197,235925,1,0,0:0:0:0:
205,158,236008,2,0,P|197:135|193:111,1,47.9999985351563,8|0,0:0|0:0,0:0:0:0:
317,36,236173,5,0,0:0:0:0:
303,82,236255,1,0,0:0:0:0:
298,130,236337,1,8,0:0:0:0:
303,178,236420,1,0,0:0:0:0:
317,223,236502,21,0,0:0:0:0:
301,190,236584,1,0,0:0:0:0:
274,167,236666,1,12,0:2:0:0:
240,156,236749,1,0,0:0:0:0:
205,158,236831,1,0,0:0:0:0:
169,160,236915,1,0,0:0:0:0:
135,149,236997,1,8,0:0:0:0:
108,126,237080,1,0,0:0:0:0:
93,93,237162,5,0,0:0:0:0:
104,140,237244,1,0,0:0:0:0:
103,188,237326,1,12,0:0:0:0:
90,234,237409,1,0,0:0:0:0:
65,274,237491,1,0,0:0:0:0:
114,241,237573,1,0,0:0:0:0:
173,233,237655,1,12,0:0:0:0:
229,254,237738,1,0,0:0:0:0:
268,298,237821,6,0,P|289:306|313:311,3,47.9999985351563,0|0|8|0,0:0|0:0|0:0|0:0,0:0:0:0:
416,209,238151,1,0,0:0:0:0:
439,154,238233,1,0,0:0:0:0:
423,98,238315,1,8,0:0:0:0:
375,63,238398,1,0,0:0:0:0:
317,66,238480,5,0,0:0:0:0:
294,73,238562,1,0,0:0:0:0:
270,76,238644,1,8,0:0:0:0:
246,76,238727,1,0,0:0:0:0:
222,48,238809,1,0,0:0:0:0:
198,44,238893,1,0,0:0:0:0:
174,43,238975,1,8,0:0:0:0:
150,46,239058,1,0,0:0:0:0:
127,76,239140,22,0,P|103:79|79:78,3,47.9999985351563,4|0|8|0,0:0|0:0|0:0|0:0,0:0:0:0:
50,265,239470,1,0,0:0:0:0:
84,312,239552,1,0,0:0:0:0:
142,324,239635,1,12,0:0:0:0:
193,296,239717,1,0,0:0:0:0:
212,240,239798,1,0,0:0:0:0:
231,184,239882,1,0,0:0:0:0:
282,156,239964,1,12,0:0:0:0:
340,168,240047,1,0,0:0:0:0:
374,215,240129,6,0,B|368:249|368:249|377:274|377:274|368:311|372:356,1,143.999995605469,4|0,0:0|0:0,0:0:0:0:
284,285,240458,5,0,0:0:0:0:
271,292,240540,1,0,0:0:0:0:
259,296,240622,1,0,0:0:0:0:
245,299,240705,1,0,0:0:0:0:
232,300,240787,1,0,0:0:0:0:
203,281,240870,1,2,0:0:0:0:
172,274,240952,1,2,0:0:0:0:
140,278,241035,1,2,0:0:0:0:
111,228,241118,5,0,0:0:0:0:
123,211,241200,1,0,0:0:0:0:
139,198,241282,1,0,0:0:0:0:
157,188,241365,1,0,0:0:0:0:
177,182,241447,1,0,0:0:0:0:
186,158,241529,1,0,0:0:0:0:
202,136,241611,1,0,0:0:0:0:
222,119,241695,1,0,0:0:0:0:
278,148,241777,22,0,L|311:137,5,31.9999990234375
336,167,242107,2,0,L|370:176,5,31.9999990234375
418,151,242436,5,0,0:0:0:0:
396,124,242518,1,0,0:0:0:0:
365,109,242600,1,0,0:0:0:0:
332,109,242683,1,0,0:0:0:0:
300,123,242765,1,0,0:0:0:0:
278,148,242848,1,0,0:0:0:0:
269,181,242930,1,0,0:0:0:0:
274,214,243012,1,0,0:0:0:0:
288,271,243096,6,0,B|326:288|298:326|257:327|210:280|240:242|337:231|333:139|286:79,1,310,4|0,0:0|0:0,0:0:0:0:
210,18,245733,6,0,L|115:43,1,80,0|8,0:0|0:0,0:0:0:0:
53,35,245980,2,0,P|69:87|107:115,1,80
168,110,246228,2,0,L|180:157,1,40,8|0,0:0|0:0,0:0:0:0:
201,225,246393,1,0,0:0:0:0:
388,137,246557,1,8,0:0:0:0:
201,225,246722,1,0,0:0:0:0:
395,302,246887,1,8,0:0:0:0:
259,94,247052,22,0,P|269:131|258:169,1,80,0|8,0:0|0:0,0:0:0:0:
201,225,247299,2,0,P|233:248|272:250,1,80
335,199,247546,2,0,L|394:215,1,40,8|0,0:0|0:0,0:0:0:0:
451,230,247711,1,0,0:0:0:0:
272,249,247876,1,8,0:0:0:0:
417,76,248041,1,0,0:0:0:0:
382,301,248206,1,8,0:0:0:0:
195,226,248370,6,0,P|160:206|120:206,1,80,0|8,0:0|0:0,0:0:0:0:
63,262,248618,2,0,P|44:228|43:188,1,80
99,130,248865,2,0,L|112:77,1,40,8|0,0:0|0:0,0:0:0:0:
130,14,249030,2,0,P|174:42|190:83,1,80,0|8,0:0|0:0,0:0:0:0:
170,144,249277,2,0,P|191:177|226:195,1,80
246,117,249524,2,0,L|308:100,1,40,8|0,0:0|0:0,0:0:0:0:
379,55,249689,6,0,P|375:107|349:140,1,80,0|8,0:0|0:0,0:0:0:0:
323,263,249936,2,0,L|303:186,1,80
284,106,250184,2,0,L|296:60,1,40,8|0,0:0|0:0,0:0:0:0:
379,55,250349,21,0,0:0:0:0:
388,64,250403,1,0,0:0:0:0:
397,73,250458,1,0,0:0:0:0:
407,83,250513,2,0,L|428:164,1,80,8|0,0:0|0:0,0:0:0:0:
437,170,250732,1,0,0:0:0:0:
446,179,250787,1,0,0:0:0:0:
455,189,250842,1,8,0:0:0:0:
337,280,251008,54,0,L|245:280,1,80,4|8,0:0|0:0,0:0:0:0:
201,337,251255,2,0,P|179:301|178:262,1,80
231,204,251502,2,0,L|247:143,1,40,8|0,0:0|0:0,0:0:0:0:
262,88,251667,1,0,0:0:0:0:
399,241,251832,1,8,0:0:0:0:
262,88,251997,1,0,0:0:0:0:
469,66,252162,1,8,0:0:0:0:
318,186,252327,22,0,L|229:162,1,80,0|8,0:0|0:0,0:0:0:0:
183,108,252574,2,0,P|163:142|161:182,1,80
215,233,252821,2,0,L|276:249,1,40,8|0,3:0|3:0,3:0:0:0:
331,264,252986,1,0,3:0:0:0:
435,98,253151,1,8,0:0:0:0:
331,264,253316,1,0,3:0:0:0:
257,64,253480,1,8,0:0:0:0:
399,216,253645,6,0,L|464:281,1,80,4|8,0:0|0:0,0:0:0:0:
511,331,253893,2,0,P|476:350|436:351,1,80
377,309,254140,2,0,L|305:290,1,40,8|0,0:0|0:0,0:0:0:0:
261,278,254305,2,0,L|239:198,1,80,0|8,0:0|0:0,0:0:0:0:
183,143,254552,2,0,P|217:124|257:122,1,80
318,160,254799,2,0,L|365:173,1,40,8|0,0:0|0:0,0:0:0:0:
433,191,254964,6,0,P|415:226|381:246,1,80,4|8,0:0|0:0,0:0:0:0:
300,246,255211,2,0,P|266:266|247:301,1,80
325,323,255458,2,0,L|390:323,1,40,8|0,0:0|0:0,0:0:0:0:
444,322,255623,5,2,0:0:0:0:
434,284,255705,1,2,0:0:0:0:
407,255,255787,1,2,0:0:0:0:
369,243,255870,1,2,0:0:0:0:
330,251,255952,1,4,0:0:0:0:
291,258,256035,1,4,0:0:0:0:
253,246,256117,1,4,0:0:0:0:
226,217,256200,1,4,0:0:0:0:
214,178,256283,22,0,B|224:139|224:139|212:93,1,80,4|8,0:3|0:3,0:3:0:0:
215,3,256530,2,0,B|175:9|175:9|137:38,1,80,0|0,0:3|0:3,0:3:0:0:
299,54,256777,1,8,0:0:0:0:
273,259,256942,1,0,0:0:0:0:
405,109,257107,1,8,0:0:0:0:
273,259,257272,1,0,0:0:0:0:
180,107,257436,1,8,0:0:0:0:
195,121,257519,1,0,0:0:0:0:
210,135,257601,6,0,L|184:230,1,80,0|8,0:0|0:0,0:0:0:0:
120,281,257849,2,0,B|152:304|152:304|199:310,1,80,0|0,0:3|0:3,0:3:0:0:
97,187,258096,1,8,0:0:0:0:
286,51,258261,1,0,0:0:0:0:
59,66,258425,1,8,0:0:0:0:
238,228,258590,1,0,0:0:0:0:
133,5,258755,1,8,0:0:0:0:
238,228,258920,6,0,B|255:263|255:263|288:286,1,80,4|8,0:3|0:3,0:3:0:0:
379,259,259167,2,0,B|361:222|361:222|328:200,1,80,0|0,0:3|0:3,0:3:0:0:
357,351,259415,1,8,0:0:0:0:
262,135,259579,2,0,L|282:57,1,80,0|8,0:0|0:0,0:0:0:0:
178,180,259827,2,0,B|202:212|202:212|245:231,1,80,0|0,0:3|0:3,0:3:0:0:
330,200,260074,1,8,0:0:0:0:
128,330,260239,6,0,L|105:246,1,80,0|8,0:0|0:0,0:0:0:0:
58,151,260486,2,0,L|37:228,1,80
127,101,260733,1,8,0:0:0:0:
237,166,260898,5,0,0:0:0:0:
247,175,260952,1,0,0:0:0:0:
256,184,261007,1,0,0:0:0:0:
266,194,261063,2,0,L|358:218,1,80,12|0,0:0|0:0,0:0:0:0:
353,223,261282,1,0,0:0:0:0:
362,233,261337,1,0,0:0:0:0:
371,242,261392,1,12,0:0:0:0:
234,324,261557,6,0,L|153:302,1,80,4|8,0:0|0:0,0:0:0:0:
67,264,261805,2,0,B|56:302|56:302|67:349,1,80,0|0,0:3|0:3,0:3:0:0:
146,208,262052,1,8,0:0:0:0:
329,357,262217,1,0,0:0:0:0:
286,129,262382,1,8,0:0:0:0:
329,357,262546,1,0,0:0:0:0:
447,161,262711,1,8,0:0:0:0:
327,226,262876,6,0,L|406:247,1,80,4|8,0:0|0:0,0:0:0:0:
501,243,263123,2,0,B|494:282|494:282|465:320,1,80,0|0,0:3|0:3,0:3:0:0:
447,161,263371,1,8,0:0:0:0:
292,322,263535,5,2,0:0:0:0:
297,302,263617,1,2,0:0:0:0:
302,283,263699,1,2,0:0:0:0:
307,264,263782,1,2,0:0:0:0:
312,244,263865,1,2,0:0:0:0:
267,264,263947,1,2,0:0:0:0:
217,262,264029,1,2,0:0:0:0:
173,239,264112,1,2,0:0:0:0:
143,200,264195,6,0,P|174:144|176:77,2,120,4|8|0,0:0|0:0|0:0,0:0:0:0:
279,336,264854,2,0,L|300:256,1,80,0|8,0:0|0:0,0:0:0:0:
231,190,265101,2,0,P|275:164|353:177,1,120
205,306,265513,22,0,L|171:296,5,26.6666666666667
132,232,265843,2,0,L|106:238,5,26.6666666666667
56,303,266173,2,0,B|62:252|50:209|50:209|59:166|59:166|47:104|58:19,1,280,12|0,0:0|0:0,0:0:0:0:
209,47,266832,6,0,B|253:44|290:52|290:52|327:44|327:44|372:49,1,160,12|8,0:0|0:0,0:0:0:0:
257,166,267327,1,0,0:0:0:0:
407,216,267491,2,0,P|417:253|416:293,1,80,8|0,0:0|0:0,0:0:0:0:
272,368,267821,2,0,P|262:331|263:291,1,80,8|0,0:0|0:0,0:0:0:0:
290,100,268151,6,0,B|249:92|249:92|205:99|205:99|166:88|119:99,1,160,8|8,0:0|0:0,0:0:0:0:
240,213,268645,1,0,0:0:0:0:
85,172,268810,2,0,L|62:257,1,80,8|0,0:3|0:0,0:0:0:0:
178,363,269140,2,0,L|155:277,1,80,8|0,0:3|0:0,0:0:0:0:
261,120,269469,6,0,B|298:131|298:131|337:121|337:121|384:133,1,120,8|0,0:3|0:3,0:3:0:0:
455,147,269799,1,8,0:0:0:0:
251,246,269964,1,0,0:0:0:0:
412,245,270129,2,0,P|422:282|421:322,1,80,8|0,0:0|0:0,0:0:0:0:
329,191,270458,2,0,P|319:154|320:114,1,80,8|0,0:0|0:0,0:0:0:0:
134,33,270788,22,0,L|216:54,1,80,12|0,0:0|0:0,0:0:0:0:
97,167,271118,2,0,L|14:188,1,80,8|0,0:0|0:0,0:0:0:0:
132,300,271447,2,0,L|214:321,1,80,12|0,0:0|0:0,0:0:0:0:
323,206,271777,1,8,0:0:0:0:
305,195,271859,1,0,0:0:0:0:
290,183,271941,1,0,0:0:0:0:
276,168,272024,1,0,0:0:0:0:
265,150,272107,6,0,B|230:143|230:143|199:152|199:152|150:140|96:152,1,160,12|8,0:0|0:0,0:0:0:0:
239,228,272601,1,0,0:0:0:0:
273,71,272766,2,0,P|275:110|265:149,1,80,8|0,0:0|0:0,0:0:0:0:
231,306,273096,2,0,P|230:266|240:227,1,80,8|0,0:0|0:0,0:0:0:0:
357,86,273425,6,0,B|360:127|354:153|354:153|363:185|363:185|357:212|361:250,1,160,12|8,0:0|0:0,0:0:0:0:
262,113,273920,1,0,0:0:0:0:
207,263,274085,2,0,L|115:238,1,80,8|0,0:0|0:0,0:0:0:0:
15,128,274415,2,0,L|106:103,1,80,8|0,0:0|0:0,0:0:0:0:
247,68,274744,6,0,L|260:120,1,40,12|0,0:0|0:0,0:0:0:0:
289,223,274909,1,0,0:0:0:0:
254,203,274991,1,0,0:0:0:0:
215,196,275073,1,0,0:0:0:0:
175,203,275156,1,0,0:0:0:0:
139,222,275239,22,0,L|80:255,1,40,8|0,0:0|0:0,0:0:0:0:
18,156,275404,1,0,0:0:0:0:
25,117,275486,1,0,0:0:0:0:
51,87,275568,1,0,0:0:0:0:
89,74,275651,1,0,0:0:0:0:
127,82,275734,6,0,L|185:115,1,40,8|0,0:0|0:0,0:0:0:0:
264,161,275898,1,0,0:0:0:0:
381,33,276063,6,0,P|389:107|418:146,2,120,12|0|0,0:0|0:0|0:0,0:0:0:0:
333,211,276722,1,0,0:0:0:0:
319,225,276804,1,0,0:0:0:0:
305,240,276886,1,0,0:0:0:0:
276,248,276969,1,0,0:0:0:0:
247,246,277052,1,0,0:0:0:0:
217,244,277134,1,0,0:0:0:0:
188,251,277216,1,0,0:0:0:0:
163,268,277299,1,0,0:0:0:0:
143,290,277382,6,0,L|116:192,1,80,4|8,0:0|0:0,0:0:0:0:
81,57,277711,1,0,0:0:0:0:
117,73,277793,1,0,0:0:0:0:
157,75,277875,1,8,0:0:0:0:
195,63,277958,1,0,0:0:0:0:
226,38,278041,2,0,P|263:48|303:47,1,80,0|8,0:0|0:0,0:0:0:0:
465,46,278371,2,0,P|428:36|388:37,1,80,0|8,0:0|0:0,0:0:0:0:
360,229,278700,22,0,L|277:207,1,80,0|8,0:0|0:0,0:0:0:0:
174,89,279030,1,0,0:0:0:0:
154,123,279112,1,0,0:0:0:0:
147,163,279194,1,8,0:0:0:0:
153,202,279277,1,0,0:0:0:0:
170,238,279360,2,0,P|206:246|240:268,1,80,0|8,0:0|0:0,0:0:0:0:
370,352,279689,2,0,P|332:341|298:320,1,80,0|8,0:0|0:0,0:0:0:0:
441,279,280019,6,0,L|430:239,1,40,4|0,0:0|0:0,0:0:0:0:
345,204,280184,1,8,0:0:0:0:
351,186,280266,2,0,L|362:146,1,40
444,105,280431,1,0,0:0:0:0:
440,87,280513,2,0,L|429:47,1,40,8|0,0:0|0:0,0:0:0:0:
348,48,280678,5,0,0:0:0:0:
313,68,280760,1,0,0:0:0:0:
275,77,280842,1,8,0:0:0:0:
235,74,280925,1,0,0:0:0:0:
198,60,281007,1,0,0:0:0:0:
213,97,281090,1,0,0:0:0:0:
218,136,281172,1,8,0:0:0:0:
212,175,281255,1,0,0:0:0:0:
195,212,281338,6,0,P|228:233|267:243,1,80,4|8,0:0|0:0,0:0:0:0:
347,109,281667,2,0,P|313:87|274:77,1,80,0|8,0:0|0:0,0:0:0:0:
399,180,281997,2,0,P|432:201|471:211,1,80,0|8,0:0|0:0,0:0:0:0:
374,339,282327,1,0,0:0:0:0:
346,328,282409,1,0,0:0:0:0:
316,323,282491,1,8,0:0:0:0:
286,326,282574,1,0,0:0:0:0:
258,335,282656,22,0,L|235:250,1,80,4|8,0:0|0:0,0:0:0:0:
200,100,282986,1,0,0:0:0:0:
237,113,283068,1,0,0:0:0:0:
277,113,283150,1,8,0:0:0:0:
314,99,283233,1,0,0:0:0:0:
345,74,283316,2,0,P|378:52|417:42,1,80,0|8,0:0|0:0,0:0:0:0:
368,194,283645,2,0,P|334:215|295:225,1,80,0|8,0:0|0:0,0:0:0:0:
181,111,283975,6,0,L|128:124,1,40,4|0,0:0|0:0,0:0:0:0:
122,210,284139,1,8,0:0:0:0:
142,216,284222,2,0,L|194:229,1,40
264,184,284387,1,0,0:0:0:0:
269,166,284469,2,0,L|278:127,1,40,8|0,0:0|0:0,0:0:0:0:
351,87,284634,5,0,0:0:0:0:
349,116,284716,1,0,0:0:0:0:
354,146,284798,1,0,0:0:0:0:
365,174,284881,1,0,0:0:0:0:
380,199,284963,5,2,0:0:0:0:
408,229,285046,1,2,0:0:0:0:
424,265,285128,1,2,0:0:0:0:
429,304,285211,1,2,0:0:0:0:
421,343,285293,21,0,0:0:0:0:
397,324,285376,1,0,0:0:0:0:
370,310,285458,1,0,0:0:0:0:
342,302,285541,1,0,0:0:0:0:
312,300,285623,1,0,0:0:0:0:
282,298,285706,1,0,0:0:0:0:
253,290,285788,1,0,0:0:0:0:
226,276,285871,1,0,0:0:0:0:
203,257,285953,5,0,0:0:0:0:
223,257,286035,1,0,0:0:0:0:
242,253,286117,1,0,0:0:0:0:
261,245,286200,1,0,0:0:0:0:
277,234,286282,1,0,0:0:0:0:
290,219,286365,1,0,0:0:0:0:
300,201,286447,1,0,0:0:0:0:
306,182,286529,1,0,0:0:0:0:
308,164,286612,6,0,L|346:175,5,26.6666666666667
372,133,286942,2,0,L|410:122,5,26.6666666666667
436,164,287272,5,12,0:0:0:0:
436,164,287931,22,0,L|358:143,1,80,4|8,0:0|0:0,0:0:0:0:
164,98,288261,1,0,0:0:0:0:
389,43,288425,1,8,0:0:0:0:
229,234,288590,2,0,P|194:254|155:262,1,80,0|8,0:0|0:0,0:0:0:0:
8,137,288920,2,0,P|42:116|81:108,1,80,0|8,0:0|0:0,0:0:0:0:
307,172,289250,5,0,0:0:0:0:
79,205,289415,1,8,0:0:0:0:
266,54,289579,1,0,0:0:0:0:
285,59,289661,1,0,0:0:0:0:
304,64,289743,1,8,0:0:0:0:
168,266,289909,1,0,0:0:0:0:
124,41,290074,1,8,0:0:0:0:
296,200,290239,1,0,0:0:0:0:
315,195,290321,1,0,0:0:0:0:
335,190,290403,1,8,0:0:0:0:
128,318,290568,5,0,0:0:0:0:
249,125,290733,1,8,0:0:0:0:
249,317,290898,1,0,0:0:0:0:
149,192,291063,1,8,0:0:0:0:
296,200,291228,2,0,P|336:201|373:188,1,80,0|8,0:0|0:0,0:0:0:0:
340,332,291557,1,0,0:0:0:0:
325,131,291722,1,8,0:0:0:0:
193,278,291887,5,0,0:0:0:0:
373,188,292052,1,8,0:0:0:0:
174,121,292217,1,0,0:0:0:0:
154,126,292299,1,0,0:0:0:0:
135,131,292381,1,8,0:0:0:0:
247,252,292546,1,0,0:0:0:0:
174,121,292711,1,8,0:0:0:0:
26,268,292876,1,0,0:0:0:0:
45,273,292958,1,0,0:0:0:0:
64,278,293040,1,8,0:0:0:0:
247,252,293206,22,0,L|226:174,1,80,4|8,0:0|0:0,0:0:0:0:
443,19,293535,1,0,0:0:0:0:
406,248,293700,1,8,0:0:0:0:
227,175,293865,2,0,P|189:162|149:162,1,80,0|8,0:0|0:0,0:0:0:0:
12,299,294195,2,0,P|49:311|89:311,1,80,0|8,0:0|0:0,0:0:0:0:
69,45,294524,6,0,L|50:123,1,80,4|8,0:0|0:0,0:0:0:0:
241,136,294854,1,0,0:0:0:0:
33,219,295019,1,8,0:0:0:0:
213,283,295184,2,0,P|252:283|290:270,1,80,0|8,0:0|0:0,0:0:0:0:
426,134,295513,2,0,L|460:124,3,26.6666666666667,0|0|0|8,0:0|0:0|0:0|0:0,0:0:0:0:
337,12,295843,5,4,0:3:0:0:
289,164,296008,1,12,0:0:0:0:
173,53,296173,1,0,0:0:0:0:
329,87,296338,2,0,B|368:83|368:83|411:91|411:91|452:68|496:91,1,160,12|12,0:0|0:0,0:0:0:0:
444,242,296832,2,0,P|454:203|452:163,1,80,0|12,0:0|0:0,0:0:0:0:
339,277,297162,6,0,P|328:315|330:355,1,80,0|12,0:0|0:0,0:0:0:0:
330,194,297491,2,0,P|340:155|338:115,1,80,0|12,0:0|0:0,0:0:0:0:
179,141,297821,1,2,0:3:0:0:
192,134,297903,1,2,0:3:0:0:
207,131,297985,1,2,0:3:0:0:
222,129,298068,1,2,0:3:0:0:
237,129,298150,1,2,0:3:0:0:
251,131,298233,1,2,0:3:0:0:
266,136,298315,1,2,0:3:0:0:
279,142,298397,1,2,0:3:0:0:
291,151,298480,22,0,L|318:251,1,80,4|8,0:0|0:0,0:0:0:0:
426,342,298810,1,0,0:0:0:0:
268,313,298975,1,8,0:0:0:0:
390,164,299140,2,0,P|429:154|469:156,1,80,0|8,0:0|0:0,0:0:0:0:
346,304,299469,2,0,P|308:315|268:313,1,80,0|8,0:0|0:0,0:0:0:0:
166,176,299799,5,0,0:0:0:0:
297,67,299964,1,8,0:0:0:0:
136,69,300129,1,0,0:0:0:0:
116,74,300211,1,0,0:0:0:0:
97,79,300293,1,8,0:0:0:0:
241,149,300458,1,0,0:0:0:0:
89,201,300623,1,8,0:0:0:0:
229,277,300788,1,0,0:0:0:0:
248,283,300870,1,0,0:0:0:0:
268,288,300952,1,8,0:0:0:0:
375,152,301118,5,4,0:0:0:0:
221,107,301283,1,8,0:0:0:0:
319,234,301447,1,0,0:0:0:0:
314,75,301612,1,8,0:0:0:0:
267,178,301777,2,0,P|238:206|202:222,1,80,0|8,0:0|0:0,0:0:0:0:
42,245,302107,2,0,P|71:217|107:201,1,80,0|8,0:0|0:0,0:0:0:0:
242,34,302436,5,4,0:0:0:0:
202,222,302601,1,8,0:0:0:0:
236,240,302683,1,0,0:0:0:0:
276,245,302765,1,0,0:0:0:0:
315,236,302848,1,0,0:0:0:0:
347,213,302930,1,8,0:0:0:0:
484,76,303096,21,0,0:0:0:0:
449,57,303178,1,0,0:0:0:0:
409,52,303261,1,12,0:0:0:0:
371,62,303343,1,0,0:0:0:0:
338,85,303425,1,0,0:0:0:0:
458,234,303590,1,12,0:0:0:0:
278,154,303755,5,4,0:0:0:0:
239,309,303920,1,8,0:0:0:0:
228,270,304002,1,0,0:0:0:0:
218,231,304084,1,0,0:0:0:0:
207,193,304167,1,0,0:0:0:0:
197,154,304249,1,8,0:0:0:0:
83,40,304415,5,0,0:0:0:0:
72,78,304497,1,0,0:0:0:0:
62,117,304579,1,8,0:0:0:0:
51,155,304662,1,0,0:0:0:0:
41,194,304744,1,0,0:0:0:0:
197,154,304909,1,8,0:0:0:0:
83,40,305074,5,4,0:0:0:0:
177,229,305239,1,8,0:0:0:0:
216,229,305321,1,0,0:0:0:0:
251,209,305403,1,0,0:0:0:0:
271,176,305486,1,0,0:0:0:0:
272,136,305568,1,8,0:0:0:0:
177,229,305733,21,0,0:0:0:0:
137,229,305815,1,0,0:0:0:0:
103,248,305897,1,8,0:0:0:0:
82,282,305980,1,0,0:0:0:0:
81,322,306062,1,0,0:0:0:0:
197,154,306228,1,8,0:0:0:0:
156,305,306393,5,4,0:0:0:0:
314,292,306557,1,8,0:0:0:0:
324,253,306639,1,0,0:0:0:0:
335,215,306722,1,0,0:0:0:0:
345,176,306804,1,0,0:0:0:0:
356,138,306886,1,8,0:0:0:0:
242,251,307052,5,0,0:0:0:0:
232,213,307134,1,0,0:0:0:0:
222,174,307216,1,8,0:0:0:0:
211,135,307299,1,0,0:0:0:0:
201,98,307381,1,0,0:0:0:0:
356,138,307546,1,8,0:0:0:0:
86,251,307711,5,2,0:0:0:0:
116,289,307793,1,2,0:0:0:0:
163,304,307875,1,2,0:0:0:0:
210,290,307958,1,2,0:0:0:0:
242,251,308041,1,2,0:0:0:0:
265,218,308124,1,2,0:0:0:0:
300,200,308206,1,2,0:0:0:0:
340,201,308289,1,2,0:0:0:0:
375,219,308371,21,4,0:0:0:0:
383,190,308453,1,4,0:0:0:0:
391,161,308535,1,4,0:0:0:0:
399,132,308618,1,4,0:0:0:0:
370,104,308700,5,4,0:0:0:0:
367,94,308782,1,4,0:0:0:0:
364,84,308864,1,4,0:0:0:0:
362,75,308947,1,4,0:0:0:0:
359,65,309030,6,0,P|318:64|281:50,1,80,4|8,0:3|0:3,0:3:0:0:
263,238,309360,1,0,0:0:0:0:
117,53,309524,1,8,0:0:0:0:
359,65,309690,2,0,P|400:66|437:80,1,80,0|8,0:3|0:3,0:3:0:0:
340,252,310019,2,0,P|299:251|262:237,1,80,0|8,0:3|0:3,0:3:0:0:
74,308,310349,5,0,0:0:0:0:
186,118,310513,1,8,0:0:0:0:
219,288,310678,1,0,0:0:0:0:
224,307,310760,1,0,0:0:0:0:
229,326,310842,1,8,0:0:0:0:
69,156,311008,1,0,0:0:0:0:
320,209,311173,1,8,0:0:0:0:
193,62,311338,1,0,0:0:0:0:
173,56,311420,1,0,0:0:0:0:
154,51,311502,1,8,0:0:0:0:
164,282,311667,21,4,0:0:0:0:
275,145,311832,1,8,0:0:0:0:
105,210,311997,1,0,0:0:0:0:
288,253,312162,1,8,0:0:0:0:
200,141,312327,2,0,P|190:101|194:62,1,80,0|8,0:3|0:3,0:3:0:0:
242,196,312656,1,0,0:0:0:0:
294,84,312821,1,8,0:0:0:0:
79,55,312986,5,4,0:0:0:0:
91,92,313068,1,0,0:0:0:0:
94,132,313150,1,8,0:0:0:0:
88,172,313233,1,0,0:0:0:0:
72,208,313315,1,0,0:0:0:0:
298,286,313480,1,8,0:0:0:0:
143,356,313645,5,0,0:0:0:0:
131,318,313727,1,0,0:0:0:0:
127,279,313809,1,8,0:0:0:0:
134,239,313892,1,0,0:0:0:0:
149,202,313974,1,0,0:0:0:0:
294,79,314140,1,8,0:0:0:0:
236,289,314305,6,0,P|277:288|314:274,1,80,4|8,0:3|0:3,0:3:0:0:
217,94,314634,1,0,0:0:0:0:
420,210,314799,1,8,0:0:0:0:
294,79,314964,2,0,P|253:80|216:94,1,80,0|8,0:3|0:3,0:3:0:0:
90,221,315294,2,0,P|131:220|168:206,1,80,0|8,0:3|0:3,0:3:0:0:
399,287,315623,22,0,L|424:193,1,80,4|8,0:0|0:0,0:0:0:0:
216,93,315953,1,0,0:0:0:0:
423,73,316118,1,8,0:0:0:0:
243,19,316283,2,0,P|223:55|216:94,1,80,0|8,0:3|0:3,0:3:0:0:
261,265,316613,2,0,P|280:228|287:189,1,80,0|8,0:3|0:3,0:3:0:0:
139,54,316942,5,4,0:3:0:0:
319,135,317107,1,12,0:0:0:0:
163,173,317272,1,0,0:0:0:0:
281,58,317436,2,0,B|321:41|357:58|357:58|392:52|392:52|442:59,1,160,12|12,0:0|0:0,0:0:0:0:
297,212,317931,2,0,L|319:135,1,80,0|12,0:0|0:0,0:0:0:0:
96,34,318261,6,0,P|76:70|69:109,1,80,4|12,0:3|0:0,0:0:0:0:
117,308,318590,2,0,P|136:271|143:232,1,80,0|12,0:0|0:0,0:0:0:0:
245,90,318920,1,6,0:0:0:0:
252,98,319002,1,2,0:0:0:0:
259,105,319084,1,2,0:0:0:0:
265,130,319167,1,2,0:0:0:0:
272,156,319250,1,2,0:0:0:0:
262,195,319332,1,2,0:0:0:0:
252,233,319415,1,2,0:0:0:0:
264,280,319497,1,2,0:0:0:0:
276,326,319579,6,0,P|315:336|355:332,1,80,4|8,0:3|0:3,0:3:0:0:
427,123,319909,1,0,0:0:0:0:
437,332,320074,1,8,0:0:0:0:
316,126,320239,2,0,P|322:86|342:51,1,80,0|8,0:0|0:0,0:0:0:0:
219,182,320568,2,0,P|212:221|192:256,1,80,0|8,0:0|0:0,0:0:0:0:
64,72,320898,21,0,0:0:0:0:
283,90,321063,1,8,0:0:0:0:
104,182,321228,1,0,0:0:0:0:
99,201,321310,1,0,0:0:0:0:
94,220,321392,1,8,0:0:0:0:
315,264,321557,1,0,0:0:0:0:
170,99,321722,1,8,0:0:0:0:
190,268,321887,1,0,0:0:0:0:
195,287,321969,1,0,0:0:0:0:
200,306,322051,1,8,0:0:0:0:
313,117,322217,5,4,0:0:0:0:
161,200,322382,1,8,0:0:0:0:
369,211,322546,1,0,0:0:0:0:
189,84,322711,1,8,0:0:0:0:
190,268,322876,2,0,P|164:299|129:319,1,80,0|8,0:0|0:0,0:0:0:0:
309,261,323206,2,0,P|335:230|370:210,1,80,0|8,0:0|0:0,0:0:0:0:
116,152,323535,6,0,L|95:74,2,80,4|8|0,0:0|0:0|0:0,0:0:0:0:
205,218,324030,2,0,L|225:140,2,80,8|4|8,0:0|0:0|0:0,0:0:0:0:
62,314,324524,1,0,0:0:0:0:
174,77,324689,1,8,0:0:0:0:
338,287,324854,5,4,0:0:0:0:
189,153,325019,2,0,P|174:115|174:75,1,80,8|0,0:0|0:0,0:0:0:0:
441,40,325349,1,8,0:0:0:0:
397,237,325514,2,0,P|371:268|336:288,1,80,0|8,0:0|0:0,0:0:0:0:
85,290,325843,2,0,P|110:258|145:238,1,80,0|8,0:0|0:0,0:0:0:0:
329,14,326173,21,4,0:0:0:0:
317,210,326338,2,0,L|339:295,1,80,8|0,0:0|0:0,0:0:0:0:
455,160,326667,1,8,0:3:0:0:
268,88,326832,2,0,L|182:110,1,80,0|8,0:3|0:3,0:3:0:0:
35,231,327162,2,0,L|120:253,1,80,0|8,0:3|0:3,0:3:0:0:
334,306,327491,5,4,0:0:0:0:
285,163,327656,1,8,0:0:0:0:
277,124,327738,1,0,0:0:0:0:
289,86,327820,1,0,0:0:0:0:
318,59,327903,1,0,0:0:0:0:
356,50,327985,1,8,0:0:0:0:
458,152,328151,5,0,0:0:0:0:
466,191,328233,1,0,0:0:0:0:
454,228,328315,1,8,0:0:0:0:
425,255,328398,1,0,0:0:0:0:
387,265,328480,1,0,0:0:0:0:
351,126,328645,1,8,0:0:0:0:
135,37,328810,5,4,0:0:0:0:
124,75,328892,1,0,0:0:0:0:
114,114,328975,1,8,0:0:0:0:
124,152,329057,1,0,0:0:0:0:
134,191,329139,1,0,0:0:0:0:
243,336,329305,1,8,0:0:0:0:
410,129,329469,21,2,0:0:0:0:
402,136,329551,1,2,0:0:0:0:
395,143,329634,1,2,0:0:0:0:
370,150,329716,1,2,0:0:0:0:
343,156,329799,1,2,0:0:0:0:
304,145,329881,1,2,0:0:0:0:
265,135,329964,1,2,0:0:0:0:
219,147,330046,1,2,0:0:0:0:
174,165,330129,5,12,0:0:0:0:
166,193,330211,1,0,0:0:0:0:
158,222,330293,1,0,0:0:0:0:
150,251,330376,1,0,0:0:0:0:
142,280,330458,2,0,L|155:327,1,40,8|0,0:0|0:0,0:0:0:0:
281,223,330623,5,0,0:0:0:0:
286,204,330706,1,0,0:0:0:0:
291,184,330788,1,8,0:0:0:0:
296,165,330871,1,0,0:0:0:0:
301,146,330953,2,0,L|286:91,1,40
178,50,331118,5,8,0:0:0:0:
139,39,331200,1,0,0:0:0:0:
101,49,331283,2,0,P|70:57|43:57,1,40
0,194,331447,21,12,0:0:0:0:
36,204,331529,1,0,0:0:0:0:
74,215,331612,1,0,0:0:0:0:
113,225,331694,1,0,0:0:0:0:
152,236,331777,2,0,L|202:223,1,40,8|0,0:0|0:0,0:0:0:0:
415,205,331942,5,0,0:0:0:0:
395,199,332024,1,0,0:0:0:0:
376,194,332107,2,0,L|325:207,1,40,8|0,0:0|0:0,0:0:0:0:
280,146,332272,2,0,L|229:133,1,40,8|0,0:0|0:0,0:0:0:0:
190,226,332436,6,0,B|151:236|151:236|112:225|112:225|66:238,1,120,8|0,0:3|0:3,0:3:0:0:
28,199,332766,6,0,L|24:155,5,26.6666666666667,4|0|0|0|0|0,0:0|0:0|0:0|0:0|0:0|0:0,0:0:0:0:
42,151,333096,2,0,L|49:107,5,26.6666666666667,0|0|0|0|0|0,0:3|0:3|0:3|0:3|0:3|0:3,0:3:0:0:
69,109,333425,22,0,L|81:81,2,26.6666666666667,0|0|0,0:3|0:3|0:3,0:3:0:0:
99,98,333590,2,0,L|142:54,1,40
175,68,333755,2,0,L|220:40,2,53.3333333333333,0|0|0,0:3|0:3|0:3,0:3:0:0:
202,132,334085,5,4,0:0:0:0:
205,202,334194,1,4,0:0:0:0:
178,267,334304,1,4,0:0:0:0:
116,298,334414,1,4,0:0:0:0:
178,267,334524,1,4,0:0:0:0:
249,268,334634,1,4,0:0:0:0:
312,299,334744,1,4,0:0:0:0:
376,330,334855,1,4,0:0:0:0:
445,332,334965,1,4,0:0:0:0:
508,301,335075,5,12,0:0:0:0:
152,48,335404,6,0,B|150:68|150:68|158:97|158:97|154:131,1,80
247,256,335733,2,0,B|249:236|249:236|241:207|241:207|245:173,1,80
341,48,336063,1,0,0:0:0:0:
472,340,336393,22,0,B|442:337|442:337|427:341|427:341|372:336,1,80
247,256,336723,2,0,B|277:253|277:253|292:257|292:257|347:252,1,80
450,153,337052,1,0,0:0:0:0:
139,221,337382,1,4,0:2:0:0:
336,22,337711,1,4,0:2:0:0:
24,95,338041,6,0,B|21:124|21:124|34:173,1,80
142,292,338371,2,0,B|145:263|145:263|132:214,1,80
245,101,338700,1,0,0:0:0:0:
491,305,339030,6,0,B|504:257|504:257|502:227,1,80
385,115,339360,2,0,B|372:163|372:163|374:193,1,80
217,202,339689,1,0,0:0:0:0:
268,23,340019,6,0,P|254:80|273:158,1,120,4|0,0:0|0:0,0:0:0:0:
214,319,340349,2,0,P|228:262|209:184,1,120,4|0,0:0|0:0,0:0:0:0:
97,44,340678,21,0,0:0:0:0:
102,63,340760,1,0,0:0:0:0:
104,83,340842,1,0,0:0:0:0:
104,103,340925,1,0,0:0:0:0:
100,122,341007,1,4,0:0:0:0:
96,141,341090,1,0,0:0:0:0:
95,161,341172,1,0,0:0:0:0:
98,181,341255,1,0,0:0:0:0:
103,200,341337,5,0,0:0:0:0:
120,189,341420,1,0,0:0:0:0:
138,181,341502,1,0,0:0:0:0:
158,178,341585,1,0,0:0:0:0:
178,179,341667,1,4,0:0:0:0:
197,179,341750,1,0,0:0:0:0:
217,176,341832,1,0,0:0:0:0:
236,168,341915,1,0,0:0:0:0:
252,157,341997,6,0,L|264:110,3,40
339,93,342327,2,0,L|326:46,3,40,4|0|0|0,0:0|0:0|0:0|0:0,0:0:0:0:
375,220,342656,1,12,0:0:0:0:
258,256,342821,1,0,0:0:0:0:
255,247,342903,1,0,0:0:0:0:
252,237,342985,1,0,0:0:0:0:
179,302,343151,1,0,0:0:0:0:
102,243,343316,5,8,0:0:0:0:
116,206,343398,1,2,0:0:0:0:
118,166,343480,1,0,0:0:0:0:
106,128,343563,1,0,0:0:0:0:
82,96,343645,2,0,P|64:77|51:50,1,40
224,38,343810,21,8,0:0:0:0:
263,33,343892,1,2,0:0:0:0:
302,42,343974,1,0,0:0:0:0:
335,64,344057,1,0,0:0:0:0:
360,95,344139,2,0,P|374:117|397:137,1,40
346,222,344305,5,8,0:0:0:0:
352,261,344387,1,2,0:0:0:0:
344,300,344469,1,0,0:0:0:0:
323,333,344552,1,0,0:0:0:0:
291,357,344634,5,4,0:0:0:0:
120,96,344854,1,4,0:0:0:0:
415,143,345074,1,4,0:0:0:0:
137,286,345294,1,4,0:0:0:0:
312,27,345513,1,4,0:0:0:0:
339,334,345733,1,4,0:0:0:0:
144,108,345953,5,4,0:0:0:0:
305,218,346118,1,8,0:0:0:0:
302,220,346283,1,0,0:0:0:0:
79,224,346447,1,8,0:0:0:0:
292,143,346612,1,0,0:0:0:0:
311,148,346694,1,0,0:0:0:0:
330,153,346776,1,8,0:0:0:0:
349,158,346859,1,0,0:0:0:0:
369,163,346941,21,0,0:0:0:0:
180,287,347107,1,8,0:0:0:0:
183,284,347272,1,0,0:0:0:0:
272,75,347436,1,8,0:0:0:0:
347,289,347601,1,0,0:0:0:0:
329,279,347683,1,0,0:0:0:0:
312,269,347766,1,8,0:0:0:0:
295,259,347848,1,0,0:0:0:0:
278,249,347931,6,0,L|255:165,1,80,0|8,0:0|0:0,0:0:0:0:
181,100,348178,1,0,0:0:0:0:
177,120,348261,2,0,L|154:203,1,80,0|8,0:0|0:0,0:0:0:0:
406,306,348590,5,0,0:0:0:0:
345,123,348755,1,8,0:0:0:0:
342,125,348920,1,0,0:0:0:0:
210,301,349085,1,8,0:0:0:0:
379,210,349250,1,0,0:0:0:0:
398,215,349332,1,0,0:0:0:0:
417,220,349414,1,8,0:0:0:0:
436,225,349497,1,0,0:0:0:0:
456,230,349579,5,0,0:0:0:0:
273,290,349744,1,8,0:0:0:0:
276,288,349909,1,0,0:0:0:0:
415,112,350074,1,8,0:0:0:0:
462,301,350239,1,0,0:0:0:0:
442,306,350322,1,0,0:0:0:0:
423,311,350404,1,8,0:0:0:0:
404,316,350486,1,0,0:0:0:0:
384,321,350568,22,0,L|341:309,3,26.6666666666667,0|0|0|12,0:0|0:0|0:0|0:0,0:0:0:0:
270,197,350815,1,0,0:0:0:0:
289,202,350898,2,0,L|322:211,3,26.6666666666667,0|0|0|12,0:0|0:0|0:0|0:0,0:0:0:0:
434,50,351228,5,4,0:0:0:0:
242,35,351393,1,8,0:0:0:0:
245,38,351557,1,0,0:0:0:0:
362,230,351722,1,8,0:0:0:0:
189,145,351887,1,0,0:0:0:0:
169,139,351969,1,0,0:0:0:0:
150,134,352051,1,8,0:0:0:0:
131,129,352134,1,0,0:0:0:0:
111,124,352216,5,0,0:0:0:0:
224,281,352382,1,8,0:0:0:0:
227,278,352546,1,0,0:0:0:0:
216,61,352711,1,8,0:0:0:0:
157,244,352876,1,0,0:0:0:0:
150,262,352958,1,0,0:0:0:0:
147,282,353040,1,8,0:0:0:0:
151,302,353123,1,0,0:0:0:0:
159,320,353205,5,0,0:0:0:0:
374,208,353371,1,12,0:0:0:0:
129,149,353535,2,0,B|135:125|128:100|128:100|136:87|136:87|130:57|145:27,1,120,12|0,0:0|0:0,0:0:0:0:
231,70,353865,21,0,0:0:0:0:
259,61,353947,1,0,0:0:0:0:
289,59,354029,1,0,0:0:0:0:
319,63,354112,1,0,0:0:0:0:
347,74,354194,1,0,0:0:0:0:
375,84,354277,1,0,0:0:0:0:
404,88,354359,1,0,0:0:0:0:
434,86,354442,1,0,0:0:0:0:
463,78,354524,6,0,B|467:106|457:135|457:135|465:163|465:163|458:204,1,120,12|0,0:0|0:0,0:0:0:0:
458,292,354854,5,0,0:0:0:0:
429,288,354936,1,0,0:0:0:0:
402,275,355018,1,0,0:0:0:0:
381,254,355101,1,0,0:0:0:0:
367,228,355183,1,0,0:0:0:0:
353,201,355267,1,0,0:0:0:0:
332,180,355349,1,0,0:0:0:0:
305,167,355431,1,0,0:0:0:0:
275,164,355513,6,0,B|240:173|240:173|210:167|210:167|183:178|142:171,1,120,12|0,0:0|0:0,0:0:0:0:
88,239,355843,21,0,0:0:0:0:
74,265,355925,1,0,0:0:0:0:
68,294,356007,1,0,0:0:0:0:
71,324,356090,1,0,0:0:0:0:
105,358,356173,5,2,0:0:0:0:
118,320,356255,1,2,0:0:0:0:
124,280,356337,1,2,0:0:0:0:
122,240,356420,1,2,0:0:0:0:
88,206,356503,6,0,B|90:178|90:178|81:157|81:157|96:106|76:45,1,160,4|0,0:0|2:2,0:0:0:0:
