osu file format v14

[General]
AudioFilename: audio.mp3
AudioLeadIn: 0
PreviewTime: 145504
Countdown: 0
SampleSet: Normal
StackLeniency: 0.7
Mode: 1
LetterboxInBreaks: 0
WidescreenStoryboard: 0

[Editor]
Bookmarks: 55170,57808,60445,65720,68357,70994,73632,76269,81549,92098,100005,102648,113197,118472,134955,177153,182427,200889,211438,220669,221988,245724,264186,266823,277373,295175,309021,345944,353856
DistanceSpacing: 0.2
BeatDivisor: 6
GridSize: 4
TimelineZoom: 3.3

[Metadata]
Title:Yumeshoushitsu ~ Lost Dream
TitleUnicode:夢消失 ~ Lost Dream
Artist:Demetori
ArtistUnicode:Demetori
Creator:Raiden
Version:Ura Oni
Source:東方夢時空 ~ The Phantasmagoria of Dim. Dream
Tags:Touhou ZUN le Grimoire De reve Phantasmagoria of Dim Dream Kana Anaberal Metal the grimoire of vanishing comiket85 c85 DECD-0009
BeatmapID:1409320
BeatmapSetID:665911

[Difficulty]
HPDrainRate:4
CircleSize:2
OverallDifficulty:6.5
ApproachRate:10
SliderMultiplier:1.4
SliderTickRate:1

[Events]
//Background and Video events
0,0,"rsz_kanaberal.jpg",0,100
//Break Periods
//Storyboard Layer 0 (Background)
//Storyboard Layer 1 (Fail)
//Storyboard Layer 2 (Pass)
//Storyboard Layer 3 (Foreground)
//Storyboard Sound Samples

[TimingPoints]
49906,329.67032967033,4,1,0,80,1,0
101334,-98.0392156862745,4,1,0,80,0,0
101444,-96.1538461538461,4,1,0,80,0,0
101554,-94.3396226415094,4,1,0,80,0,0
101664,-92.5925925925926,4,1,0,80,0,0
101774,-90.9090909090909,4,1,0,80,0,0
101884,-89.2857142857143,4,1,0,80,0,0
101993,-90.9090909090909,4,1,0,80,0,0
102103,-92.5925925925926,4,1,0,80,0,0
102213,-94.3396226415094,4,1,0,80,0,0
102323,-96.1538461538461,4,1,0,80,0,0
102433,-98.0392156862745,4,1,0,80,0,0
102543,-100,4,1,0,80,0,0
102653,-100,4,1,0,80,0,0
123752,329.67032967033,4,1,0,80,1,8
124411,329.67032967033,4,1,0,80,1,0
134960,-95.2380952380952,4,1,0,80,0,0
145509,-90.9090909090909,4,1,0,80,0,1
165619,-91.743119266055,4,1,0,80,0,1
165729,-92.5925925925926,4,1,0,80,0,1
165839,-93.4579439252336,4,1,0,80,0,1
165949,-94.3396226415094,4,1,0,80,0,1
166059,-95.2380952380952,4,1,0,80,0,1
166169,-96.1538461538461,4,1,0,80,0,1
166279,-97.0873786407767,4,1,0,80,0,1
166389,-98.0392156862745,4,1,0,80,0,1
166498,-99.009900990099,4,1,0,80,0,1
166608,-100,4,1,0,80,0,0
232542,-95.2380952380952,4,1,0,80,0,1
245729,-100,4,1,0,80,0,0
287927,-90.9090909090909,4,1,0,80,0,1
329301,-91.743119266055,4,1,0,80,0,1
329465,-92.5925925925926,4,1,0,80,0,1
329548,-93.4579439252336,4,1,0,80,0,1
329630,-94.3396226415094,4,1,0,80,0,1
329713,-95.2380952380952,4,1,0,80,0,1
329795,-96.1538461538461,4,1,0,80,0,1
329878,-97.0873786407767,4,1,0,80,0,1
329960,-98.0392156862745,4,1,0,80,0,1
330042,-99.009900990099,4,1,0,80,0,1
330125,-100,4,1,0,80,0,0

[HitObjects]
132,256,49906,5,4,0:0:0:0:
328,252,50070,1,8,0:0:0:0:
104,96,50235,1,0,0:0:0:0:
104,96,50318,1,0,0:0:0:0:
328,252,50400,1,8,0:0:0:0:
104,96,50565,1,0,0:0:0:0:
144,124,50730,1,0,0:0:0:0:
144,124,50812,1,0,0:0:0:0:
356,276,50895,1,8,0:0:0:0:
144,124,50977,1,0,0:0:0:0:
356,276,51059,1,8,0:0:0:0:
144,124,51224,1,0,0:0:0:0:
364,296,51389,1,8,0:0:0:0:
144,124,51471,1,0,0:0:0:0:
144,124,51554,1,0,0:0:0:0:
144,124,51719,1,0,0:0:0:0:
144,124,51801,1,0,0:0:0:0:
376,264,51884,1,8,0:0:0:0:
384,296,51966,1,8,0:0:0:0:
168,112,52048,1,0,0:0:0:0:
376,264,52213,1,8,0:0:0:0:
128,120,52378,1,0,0:0:0:0:
128,120,52460,1,0,0:0:0:0:
340,280,52543,1,8,0:0:0:0:
128,120,52625,1,0,0:0:0:0:
340,280,52708,1,8,0:0:0:0:
128,120,52873,1,0,0:0:0:0:
128,120,52955,1,0,0:0:0:0:
356,264,53037,1,8,0:0:0:0:
128,120,53120,1,0,0:0:0:0:
128,120,53202,1,0,0:0:0:0:
356,264,53367,1,8,0:0:0:0:
356,264,53532,1,8,0:0:0:0:
128,120,53614,1,0,0:0:0:0:
356,264,53697,1,8,0:0:0:0:
388,276,53779,1,8,0:0:0:0:
72,112,53862,1,0,0:0:0:0:
328,252,54026,1,8,0:0:0:0:
96,144,54191,1,0,0:0:0:0:
120,140,54274,1,0,0:0:0:0:
356,288,54356,1,8,0:0:0:0:
160,152,54438,1,0,0:0:0:0:
320,268,54521,1,8,0:0:0:0:
140,136,54686,1,0,0:0:0:0:
140,136,54768,1,0,0:0:0:0:
320,268,54851,1,8,0:0:0:0:
136,136,54933,1,0,0:0:0:0:
296,284,55015,1,8,0:0:0:0:
292,284,55098,1,8,0:0:0:0:
144,136,55180,5,0,0:0:0:0:
360,268,55345,1,8,0:0:0:0:
116,156,55510,1,0,0:0:0:0:
116,156,55592,1,0,0:0:0:0:
360,268,55675,1,8,0:0:0:0:
112,156,55840,1,0,0:0:0:0:
360,256,56004,1,8,0:0:0:0:
124,104,56087,1,0,0:0:0:0:
360,256,56169,1,8,0:0:0:0:
364,272,56252,1,8,0:0:0:0:
116,156,56334,1,0,0:0:0:0:
344,256,56499,1,8,0:0:0:0:
344,256,56664,1,8,0:0:0:0:
120,144,56829,1,0,0:0:0:0:
120,144,56911,1,0,0:0:0:0:
344,256,56993,1,8,0:0:0:0:
120,144,57076,1,0,0:0:0:0:
344,256,57158,1,8,0:0:0:0:
144,160,57323,1,0,0:0:0:0:
104,120,57488,1,0,0:0:0:0:
352,272,57570,1,8,0:0:0:0:
136,144,57653,1,0,0:0:0:0:
360,280,57818,5,12,0:0:0:0:
132,96,57982,1,0,0:0:0:0:
132,96,58065,1,0,0:0:0:0:
132,96,58147,1,0,0:0:0:0:
352,272,58312,1,12,0:0:0:0:
128,96,58477,1,0,0:0:0:0:
368,244,58559,1,8,0:0:0:0:
84,104,58642,1,0,0:0:0:0:
84,104,58724,1,0,0:0:0:0:
376,264,58807,1,8,0:0:0:0:
400,312,58971,1,8,0:0:0:0:
132,116,59136,5,4,0:0:0:0:
408,264,59301,1,8,0:0:0:0:
420,284,59384,1,8,0:0:0:0:
360,252,59466,1,8,0:0:0:0:
124,108,59631,1,4,0:0:0:0:
340,288,59796,1,8,0:0:0:0:
140,132,59878,1,0,0:0:0:0:
352,276,59960,1,8,0:0:0:0:
380,276,60125,1,8,0:0:0:0:
380,276,60208,1,8,0:0:0:0:
380,276,60290,1,8,0:0:0:0:
380,276,60373,1,8,0:0:0:0:
132,128,60455,5,0,0:0:0:0:
360,284,60620,1,8,0:0:0:0:
316,256,60702,1,8,0:0:0:0:
128,112,60785,1,0,0:0:0:0:
368,300,60949,1,8,0:0:0:0:
88,108,61114,1,0,0:0:0:0:
92,128,61279,1,0,0:0:0:0:
92,128,61362,1,0,0:0:0:0:
360,292,61444,1,8,0:0:0:0:
128,112,61526,1,0,0:0:0:0:
360,292,61609,1,8,0:0:0:0:
136,76,61774,1,0,0:0:0:0:
360,292,61938,1,8,0:0:0:0:
376,292,62021,1,8,0:0:0:0:
56,84,62103,1,0,0:0:0:0:
136,120,62268,1,0,0:0:0:0:
136,120,62351,1,0,0:0:0:0:
380,300,62433,1,8,0:0:0:0:
368,296,62515,1,8,0:0:0:0:
124,116,62598,1,0,0:0:0:0:
380,300,62763,1,8,0:0:0:0:
124,116,62845,1,0,0:0:0:0:
136,128,62927,1,0,0:0:0:0:
388,280,63092,5,8,0:0:0:0:
160,132,63175,1,0,0:0:0:0:
388,280,63257,1,8,0:0:0:0:
168,152,63422,1,0,0:0:0:0:
384,272,63587,1,8,0:0:0:0:
336,296,63669,1,8,0:0:0:0:
124,116,63752,1,0,0:0:0:0:
168,120,63916,1,0,0:0:0:0:
168,120,63999,1,0,0:0:0:0:
328,264,64081,1,8,0:0:0:0:
116,96,64164,1,0,0:0:0:0:
348,280,64246,1,8,0:0:0:0:
176,136,64411,1,0,0:0:0:0:
344,260,64576,1,8,0:0:0:0:
308,272,64658,1,8,0:0:0:0:
128,84,64741,1,0,0:0:0:0:
264,252,64906,1,8,0:0:0:0:
120,80,64988,1,0,0:0:0:0:
324,244,65070,1,8,0:0:0:0:
328,264,65235,1,12,0:0:0:0:
136,108,65400,1,0,0:0:0:0:
328,264,65565,1,12,0:0:0:0:
128,260,65730,5,4,0:0:0:0:
368,280,65895,1,8,0:0:0:0:
368,280,65977,1,8,0:0:0:0:
128,120,66059,1,0,0:0:0:0:
400,280,66224,1,8,0:0:0:0:
156,128,66389,1,0,0:0:0:0:
184,136,66554,1,0,0:0:0:0:
376,288,66719,1,8,0:0:0:0:
184,152,66801,1,0,0:0:0:0:
380,296,66884,1,8,0:0:0:0:
360,340,66966,1,8,0:0:0:0:
204,120,67048,1,0,0:0:0:0:
388,288,67213,1,8,0:0:0:0:
180,132,67378,1,0,0:0:0:0:
184,136,67460,1,0,0:0:0:0:
356,264,67543,1,8,0:0:0:0:
348,260,67708,1,8,0:0:0:0:
176,116,67873,1,0,0:0:0:0:
348,260,68037,1,8,0:0:0:0:
364,264,68120,1,8,0:0:0:0:
144,144,68202,1,0,0:0:0:0:
144,144,68285,1,0,0:0:0:0:
144,144,68367,5,0,0:0:0:0:
152,92,68532,1,0,0:0:0:0:
360,276,68614,1,8,0:0:0:0:
360,276,68697,1,8,0:0:0:0:
176,152,68862,1,0,0:0:0:0:
356,300,68944,1,8,0:0:0:0:
356,296,69026,1,8,0:0:0:0:
352,296,69191,1,8,0:0:0:0:
160,136,69356,1,0,0:0:0:0:
340,264,69438,1,8,0:0:0:0:
340,264,69521,1,8,0:0:0:0:
156,156,69603,1,0,0:0:0:0:
340,264,69686,1,8,0:0:0:0:
172,128,69851,1,0,0:0:0:0:
304,248,69933,1,8,0:0:0:0:
164,148,70015,1,0,0:0:0:0:
160,148,70098,1,0,0:0:0:0:
340,264,70180,1,8,0:0:0:0:
424,296,70263,1,8,0:0:0:0:
132,144,70345,1,0,0:0:0:0:
420,300,70510,1,8,0:0:0:0:
128,128,70592,1,0,0:0:0:0:
384,284,70675,1,8,0:0:0:0:
120,128,70757,1,0,0:0:0:0:
388,300,70840,1,8,0:0:0:0:
388,300,70922,1,8,0:0:0:0:
168,156,71004,5,0,0:0:0:0:
384,300,71169,1,8,0:0:0:0:
108,128,71252,1,0,0:0:0:0:
128,108,71416,1,0,0:0:0:0:
388,312,71499,1,8,0:0:0:0:
160,116,71664,1,0,0:0:0:0:
408,328,71829,1,8,0:0:0:0:
408,328,71911,1,8,0:0:0:0:
132,124,71993,1,0,0:0:0:0:
136,128,72076,1,0,0:0:0:0:
368,284,72158,1,8,0:0:0:0:
140,116,72323,1,0,0:0:0:0:
388,312,72488,1,8,0:0:0:0:
388,312,72570,1,8,0:0:0:0:
132,124,72735,1,0,0:0:0:0:
392,304,72818,1,8,0:0:0:0:
428,328,72900,1,8,0:0:0:0:
120,136,72982,1,0,0:0:0:0:
360,300,73147,1,8,0:0:0:0:
136,136,73312,1,0,0:0:0:0:
396,328,73395,1,8,0:0:0:0:
132,124,73477,1,0,0:0:0:0:
124,112,73559,1,0,0:0:0:0:
436,328,73642,5,8,0:0:0:0:
424,332,73807,1,8,0:0:0:0:
124,160,73889,1,0,0:0:0:0:
112,156,74054,1,0,0:0:0:0:
360,300,74136,1,8,0:0:0:0:
152,152,74301,1,0,0:0:0:0:
420,300,74466,1,8,0:0:0:0:
420,300,74548,1,8,0:0:0:0:
144,152,74713,1,0,0:0:0:0:
448,292,74796,1,8,0:0:0:0:
144,136,74960,1,0,0:0:0:0:
336,256,75043,1,8,0:0:0:0:
148,124,75125,1,0,0:0:0:0:
144,120,75208,1,0,0:0:0:0:
352,260,75290,1,8,0:0:0:0:
352,260,75455,1,8,0:0:0:0:
56,128,75620,5,0,0:0:0:0:
56,128,75675,1,0,0:0:0:0:
56,128,75730,1,0,0:0:0:0:
400,288,75785,1,8,0:0:0:0:
136,120,75949,1,0,0:0:0:0:
136,120,76004,1,0,0:0:0:0:
136,120,76059,1,0,0:0:0:0:
340,276,76114,1,8,0:0:0:0:
108,280,76279,5,4,0:0:0:0:
384,304,76444,1,8,0:0:0:0:
128,124,76526,1,0,0:0:0:0:
124,120,76691,1,0,0:0:0:0:
376,252,76774,1,8,0:0:0:0:
112,116,76938,1,0,0:0:0:0:
136,96,77103,1,0,0:0:0:0:
376,252,77186,1,8,0:0:0:0:
152,112,77268,1,0,0:0:0:0:
152,112,77351,1,0,0:0:0:0:
324,260,77433,1,8,0:0:0:0:
140,112,77598,1,0,0:0:0:0:
364,260,77763,1,8,0:0:0:0:
360,260,77845,1,8,0:0:0:0:
164,132,78010,1,0,0:0:0:0:
360,288,78092,1,8,0:0:0:0:
128,112,78257,1,0,0:0:0:0:
344,268,78422,1,8,0:0:0:0:
344,268,78504,1,8,0:0:0:0:
344,268,78587,1,8,0:0:0:0:
132,128,78669,1,0,0:0:0:0:
336,284,78752,1,8,0:0:0:0:
124,272,78916,1,4,0:0:0:0:
352,284,79081,1,8,0:0:0:0:
140,104,79164,1,0,0:0:0:0:
140,104,79329,1,0,0:0:0:0:
348,264,79411,1,8,0:0:0:0:
120,104,79576,1,0,0:0:0:0:
308,256,79741,1,8,0:0:0:0:
308,256,79823,1,8,0:0:0:0:
184,112,79988,1,0,0:0:0:0:
344,284,80070,1,8,0:0:0:0:
152,272,80235,5,4,0:0:0:0:
360,276,80400,1,8,0:0:0:0:
356,268,80482,1,8,0:0:0:0:
356,268,80647,1,8,0:0:0:0:
356,268,80730,1,8,0:0:0:0:
156,144,80895,1,0,0:0:0:0:
156,144,80949,1,0,0:0:0:0:
156,144,81004,1,0,0:0:0:0:
340,296,81059,1,8,0:0:0:0:
152,120,81224,1,0,0:0:0:0:
340,260,81307,1,8,0:0:0:0:
340,260,81389,1,8,0:0:0:0:
340,260,81471,1,8,0:0:0:0:
128,152,81554,5,0,0:0:0:0:
388,272,81719,1,8,0:0:0:0:
124,112,81801,1,0,0:0:0:0:
124,112,81966,1,0,0:0:0:0:
360,304,82048,1,8,0:0:0:0:
168,160,82213,1,0,0:0:0:0:
168,144,82378,1,0,0:0:0:0:
336,264,82460,1,8,0:0:0:0:
320,264,82543,1,8,0:0:0:0:
168,136,82625,1,0,0:0:0:0:
328,272,82708,1,8,0:0:0:0:
360,280,82873,5,8,0:0:0:0:
100,108,83037,1,0,0:0:0:0:
352,256,83120,1,8,0:0:0:0:
352,256,83285,1,8,0:0:0:0:
152,108,83367,1,0,0:0:0:0:
340,272,83532,1,8,0:0:0:0:
340,284,83697,1,8,0:0:0:0:
152,120,83779,1,0,0:0:0:0:
328,236,83862,1,8,0:0:0:0:
332,240,83944,1,8,0:0:0:0:
120,96,84026,1,0,0:0:0:0:
340,252,84191,5,8,0:0:0:0:
356,256,84356,1,8,0:0:0:0:
132,124,84438,1,0,0:0:0:0:
132,128,84603,1,0,0:0:0:0:
356,256,84686,1,8,0:0:0:0:
104,104,84851,1,0,0:0:0:0:
132,124,85015,1,0,0:0:0:0:
352,248,85098,1,8,0:0:0:0:
332,284,85263,1,8,0:0:0:0:
152,88,85345,1,0,0:0:0:0:
352,236,85510,1,8,0:0:0:0:
324,256,85675,1,8,0:0:0:0:
136,112,85757,1,0,0:0:0:0:
136,112,85922,1,0,0:0:0:0:
368,268,86004,1,8,0:0:0:0:
364,284,86087,1,8,0:0:0:0:
208,112,86169,1,0,0:0:0:0:
144,92,86224,1,0,0:0:0:0:
152,88,86279,1,0,0:0:0:0:
348,280,86334,1,8,0:0:0:0:
180,156,86499,1,0,0:0:0:0:
152,124,86554,1,0,0:0:0:0:
152,124,86609,1,0,0:0:0:0:
328,260,86664,1,8,0:0:0:0:
336,244,86746,1,8,0:0:0:0:
128,152,86829,5,0,0:0:0:0:
388,272,86993,1,8,0:0:0:0:
124,112,87076,1,0,0:0:0:0:
124,112,87241,1,0,0:0:0:0:
360,304,87323,1,8,0:0:0:0:
168,160,87488,1,0,0:0:0:0:
168,144,87653,1,0,0:0:0:0:
124,128,87735,1,0,0:0:0:0:
320,264,87818,1,8,0:0:0:0:
168,136,87900,1,0,0:0:0:0:
328,272,87982,1,8,0:0:0:0:
360,280,88147,5,8,0:0:0:0:
100,108,88312,1,0,0:0:0:0:
352,256,88395,1,8,0:0:0:0:
352,256,88559,1,8,0:0:0:0:
152,108,88642,1,0,0:0:0:0:
340,272,88807,1,8,0:0:0:0:
340,284,88971,1,8,0:0:0:0:
152,120,89054,1,0,0:0:0:0:
328,236,89136,1,8,0:0:0:0:
332,240,89219,1,8,0:0:0:0:
120,96,89301,1,0,0:0:0:0:
112,288,89466,5,4,0:0:0:0:
340,272,89631,1,8,0:0:0:0:
132,136,89713,1,0,0:0:0:0:
132,136,89878,1,0,0:0:0:0:
360,264,89960,1,8,0:0:0:0:
112,224,90125,1,4,0:0:0:0:
364,304,90290,1,8,0:0:0:0:
364,304,90373,1,8,0:0:0:0:
144,120,90537,1,0,0:0:0:0:
328,288,90620,1,8,0:0:0:0:
112,224,90785,1,4,0:0:0:0:
164,140,90949,1,0,0:0:0:0:
160,128,91032,1,0,0:0:0:0:
312,252,91114,1,8,0:0:0:0:
312,256,91197,1,8,0:0:0:0:
312,256,91279,1,8,0:0:0:0:
348,292,91362,1,8,0:0:0:0:
112,128,91444,1,0,0:0:0:0:
108,120,91526,1,0,0:0:0:0:
312,268,91609,1,8,0:0:0:0:
288,244,91691,1,8,0:0:0:0:
152,124,91774,1,0,0:0:0:0:
144,124,91856,1,0,0:0:0:0:
340,260,91938,1,8,0:0:0:0:
132,256,92103,5,4,0:0:0:0:
328,252,92268,1,8,0:0:0:0:
104,96,92433,1,0,0:0:0:0:
104,96,92515,1,0,0:0:0:0:
328,252,92598,1,8,0:0:0:0:
104,96,92763,1,0,0:0:0:0:
144,124,92927,1,0,0:0:0:0:
144,124,93010,1,0,0:0:0:0:
356,276,93092,1,8,0:0:0:0:
144,124,93175,1,0,0:0:0:0:
356,276,93257,1,8,0:0:0:0:
144,124,93422,1,0,0:0:0:0:
364,296,93587,1,8,0:0:0:0:
144,124,93669,1,0,0:0:0:0:
144,124,93752,1,0,0:0:0:0:
144,124,93916,1,0,0:0:0:0:
144,124,93999,1,0,0:0:0:0:
376,264,94081,1,8,0:0:0:0:
384,296,94164,1,8,0:0:0:0:
168,112,94246,1,0,0:0:0:0:
376,264,94411,1,8,0:0:0:0:
128,120,94576,1,0,0:0:0:0:
128,120,94658,1,0,0:0:0:0:
340,280,94741,1,8,0:0:0:0:
128,120,94823,1,0,0:0:0:0:
340,280,94906,1,8,0:0:0:0:
128,120,95070,1,0,0:0:0:0:
128,120,95153,1,0,0:0:0:0:
356,264,95235,1,8,0:0:0:0:
128,120,95318,1,0,0:0:0:0:
128,120,95400,1,0,0:0:0:0:
356,264,95565,1,8,0:0:0:0:
356,264,95730,1,8,0:0:0:0:
128,120,95812,1,0,0:0:0:0:
356,264,95895,1,8,0:0:0:0:
388,276,95977,1,8,0:0:0:0:
72,112,96059,1,0,0:0:0:0:
328,252,96224,1,8,0:0:0:0:
96,144,96389,1,0,0:0:0:0:
120,140,96471,1,0,0:0:0:0:
356,288,96554,1,8,0:0:0:0:
328,252,96636,1,8,0:0:0:0:
128,124,96719,1,0,0:0:0:0:
152,96,96774,1,0,0:0:0:0:
148,96,96829,1,0,0:0:0:0:
316,288,96884,1,8,0:0:0:0:
108,124,97048,1,0,0:0:0:0:
136,136,97103,1,0,0:0:0:0:
172,112,97158,1,0,0:0:0:0:
296,284,97213,1,8,0:0:0:0:
144,136,97378,5,4,0:0:0:0:
364,296,97543,1,8,0:0:0:0:
364,288,97625,1,8,0:0:0:0:
148,100,97708,1,0,0:0:0:0:
364,296,97873,1,8,0:0:0:0:
132,96,98037,1,0,0:0:0:0:
140,168,98202,1,0,0:0:0:0:
132,96,98285,1,0,0:0:0:0:
336,284,98367,1,8,0:0:0:0:
140,120,98449,1,0,0:0:0:0:
336,284,98532,1,8,0:0:0:0:
140,120,98697,1,0,0:0:0:0:
144,136,98779,1,0,0:0:0:0:
316,280,98862,1,8,0:0:0:0:
120,116,99026,1,0,0:0:0:0:
120,116,99109,1,0,0:0:0:0:
308,280,99191,1,8,0:0:0:0:
308,280,99274,1,8,0:0:0:0:
120,116,99356,1,0,0:0:0:0:
424,276,99521,1,12,0:0:0:0:
424,276,99686,1,12,0:0:0:0:
128,120,99851,1,0,0:0:0:0:
364,272,100015,5,8,0:0:0:0:
364,272,100098,1,8,0:0:0:0:
152,104,100180,1,0,0:0:0:0:
152,104,100263,1,0,0:0:0:0:
152,104,100345,1,0,0:0:0:0:
160,248,100510,5,4,0:0:0:0:
72,140,100840,5,0,0:0:0:0:
164,92,100895,1,0,0:0:0:0:
164,92,100949,1,0,0:0:0:0:
304,244,101004,1,8,0:0:0:0:
140,104,101334,1,0,0:0:0:0:
176,76,101444,1,0,0:0:0:0:
160,96,101554,1,0,0:0:0:0:
384,300,101664,1,8,0:0:0:0:
400,300,101774,1,8,0:0:0:0:
164,132,101884,1,0,0:0:0:0:
328,272,101993,1,8,0:0:0:0:
384,288,102103,1,8,0:0:0:0:
208,144,102213,1,0,0:0:0:0:
320,256,102323,1,8,0:0:0:0:
324,260,102433,1,8,0:0:0:0:
384,288,102543,1,8,0:0:0:0:
168,156,102653,5,4,0:0:0:0:
316,272,102818,1,8,0:0:0:0:
108,128,102900,1,0,0:0:0:0:
152,140,103065,1,0,0:0:0:0:
320,284,103147,1,8,0:0:0:0:
160,116,103312,1,0,0:0:0:0:
328,268,103477,1,8,0:0:0:0:
328,268,103559,1,8,0:0:0:0:
132,124,103642,1,0,0:0:0:0:
136,128,103724,1,0,0:0:0:0:
288,224,103807,1,8,0:0:0:0:
140,116,103971,1,0,0:0:0:0:
308,252,104136,1,8,0:0:0:0:
308,252,104219,1,8,0:0:0:0:
132,124,104384,1,0,0:0:0:0:
296,240,104466,1,8,0:0:0:0:
332,264,104548,1,8,0:0:0:0:
120,136,104631,1,0,0:0:0:0:
264,236,104796,1,8,0:0:0:0:
136,136,104960,1,0,0:0:0:0:
300,264,105043,1,8,0:0:0:0:
132,124,105125,1,0,0:0:0:0:
124,112,105208,1,0,0:0:0:0:
340,284,105290,5,8,0:0:0:0:
328,288,105455,1,8,0:0:0:0:
124,160,105537,1,0,0:0:0:0:
112,156,105702,1,0,0:0:0:0:
264,256,105785,1,8,0:0:0:0:
152,152,105949,1,0,0:0:0:0:
324,256,106114,1,8,0:0:0:0:
324,256,106197,1,8,0:0:0:0:
144,152,106362,1,0,0:0:0:0:
352,248,106444,1,8,0:0:0:0:
144,136,106609,1,0,0:0:0:0:
148,124,106691,1,0,0:0:0:0:
336,256,106774,1,8,0:0:0:0:
144,120,106856,1,0,0:0:0:0:
352,260,106938,1,8,0:0:0:0:
352,260,107103,1,8,0:0:0:0:
56,128,107268,5,0,0:0:0:0:
56,128,107323,1,0,0:0:0:0:
56,128,107378,1,0,0:0:0:0:
400,288,107433,1,8,0:0:0:0:
136,120,107598,1,0,0:0:0:0:
136,120,107653,1,0,0:0:0:0:
136,120,107708,1,0,0:0:0:0:
340,276,107763,1,8,0:0:0:0:
108,280,107927,5,4,0:0:0:0:
384,304,108092,1,8,0:0:0:0:
128,124,108175,1,0,0:0:0:0:
124,120,108340,1,0,0:0:0:0:
376,252,108422,1,8,0:0:0:0:
112,116,108587,1,0,0:0:0:0:
228,168,108752,1,0,0:0:0:0:
376,252,108834,1,8,0:0:0:0:
152,112,108916,1,0,0:0:0:0:
152,112,108999,1,0,0:0:0:0:
324,260,109081,1,8,0:0:0:0:
140,112,109246,1,0,0:0:0:0:
364,260,109411,1,8,0:0:0:0:
360,260,109493,1,8,0:0:0:0:
164,132,109658,1,0,0:0:0:0:
360,288,109741,1,8,0:0:0:0:
128,112,109906,1,0,0:0:0:0:
344,268,110070,1,8,0:0:0:0:
344,268,110153,1,8,0:0:0:0:
92,76,110235,1,0,0:0:0:0:
132,128,110318,1,0,0:0:0:0:
336,284,110400,1,8,0:0:0:0:
124,272,110565,5,4,0:0:0:0:
352,284,110730,1,8,0:0:0:0:
140,104,110812,1,0,0:0:0:0:
140,104,110977,1,0,0:0:0:0:
380,280,111059,1,8,0:0:0:0:
120,104,111224,1,0,0:0:0:0:
340,272,111389,1,8,0:0:0:0:
400,324,111471,1,8,0:0:0:0:
184,112,111636,1,0,0:0:0:0:
376,300,111719,1,8,0:0:0:0:
152,272,111884,5,4,0:0:0:0:
392,292,112048,1,8,0:0:0:0:
420,308,112131,1,8,0:0:0:0:
420,308,112296,1,8,0:0:0:0:
420,308,112378,1,8,0:0:0:0:
156,144,112543,1,0,0:0:0:0:
364,300,112625,1,8,0:0:0:0:
368,288,112708,1,8,0:0:0:0:
368,280,112790,1,8,0:0:0:0:
152,120,112873,1,0,0:0:0:0:
372,284,112955,1,8,0:0:0:0:
372,284,113037,1,8,0:0:0:0:
372,284,113120,1,8,0:0:0:0:
128,152,113202,5,0,0:0:0:0:
388,272,113367,1,8,0:0:0:0:
124,112,113449,1,0,0:0:0:0:
124,112,113614,1,0,0:0:0:0:
360,304,113697,1,8,0:0:0:0:
168,160,113862,1,0,0:0:0:0:
168,144,114026,1,0,0:0:0:0:
336,264,114109,1,8,0:0:0:0:
320,264,114191,1,8,0:0:0:0:
168,136,114274,1,0,0:0:0:0:
328,272,114356,1,8,0:0:0:0:
360,280,114521,5,8,0:0:0:0:
100,108,114686,1,0,0:0:0:0:
352,256,114768,1,8,0:0:0:0:
352,256,114933,1,8,0:0:0:0:
152,108,115015,1,0,0:0:0:0:
340,272,115180,1,8,0:0:0:0:
340,284,115345,1,8,0:0:0:0:
336,288,115427,1,8,0:0:0:0:
328,236,115510,1,8,0:0:0:0:
332,240,115592,1,8,0:0:0:0:
120,96,115675,1,0,0:0:0:0:
340,252,115840,5,8,0:0:0:0:
356,256,116004,1,8,0:0:0:0:
132,124,116087,1,0,0:0:0:0:
132,128,116252,1,0,0:0:0:0:
356,256,116334,1,8,0:0:0:0:
104,104,116499,1,0,0:0:0:0:
132,124,116664,1,0,0:0:0:0:
352,248,116746,1,8,0:0:0:0:
332,284,116911,1,8,0:0:0:0:
152,88,116993,1,0,0:0:0:0:
352,236,117158,1,12,0:0:0:0:
368,256,117323,1,8,0:0:0:0:
160,84,117406,1,0,0:0:0:0:
168,80,117570,1,0,0:0:0:0:
340,240,117653,1,8,0:0:0:0:
412,276,117735,1,8,0:0:0:0:
160,120,117818,5,0,0:0:0:0:
160,120,117873,1,0,0:0:0:0:
160,120,117927,1,0,0:0:0:0:
404,284,117982,1,8,0:0:0:0:
132,96,118147,1,0,0:0:0:0:
132,96,118202,1,0,0:0:0:0:
132,96,118257,1,0,0:0:0:0:
344,256,118312,1,8,0:0:0:0:
128,152,118477,5,4,0:0:0:0:
388,272,118642,1,8,0:0:0:0:
124,112,118724,1,0,0:0:0:0:
124,112,118889,1,0,0:0:0:0:
360,304,118971,1,8,0:0:0:0:
168,160,119136,1,0,0:0:0:0:
168,144,119301,1,0,0:0:0:0:
336,264,119384,1,8,0:0:0:0:
320,264,119466,1,8,0:0:0:0:
328,272,119548,1,8,0:0:0:0:
168,136,119631,1,0,0:0:0:0:
360,280,119796,5,12,0:0:0:0:
100,108,119960,1,0,0:0:0:0:
352,256,120043,1,8,0:0:0:0:
152,108,120208,1,0,0:0:0:0:
352,256,120290,1,8,0:0:0:0:
340,272,120455,1,8,0:0:0:0:
340,284,120620,1,8,0:0:0:0:
120,120,120702,1,0,0:0:0:0:
328,236,120785,1,8,0:0:0:0:
332,240,120867,1,8,0:0:0:0:
120,96,120949,1,0,0:0:0:0:
104,92,121114,5,4,0:0:0:0:
328,272,121279,1,8,0:0:0:0:
160,116,121362,1,0,0:0:0:0:
152,116,121526,1,0,0:0:0:0:
340,284,121609,1,8,0:0:0:0:
96,104,121774,1,4,0:0:0:0:
336,264,121938,1,8,0:0:0:0:
152,64,122021,1,0,0:0:0:0:
128,92,122186,1,0,0:0:0:0:
332,288,122268,1,8,0:0:0:0:
128,76,122351,1,0,0:0:0:0:
380,220,122433,5,8,0:0:0:0:
380,220,122488,1,8,0:0:0:0:
380,220,122543,1,8,0:0:0:0:
168,132,122598,1,0,0:0:0:0:
384,276,122763,1,8,0:0:0:0:
384,276,122818,1,8,0:0:0:0:
384,276,122873,1,8,0:0:0:0:
192,152,122927,1,0,0:0:0:0:
332,292,123092,5,8,0:0:0:0:
124,116,123202,1,0,0:0:0:0:
124,116,123312,1,0,0:0:0:0:
340,272,123422,1,8,0:0:0:0:
340,272,123532,1,8,0:0:0:0:
140,132,123642,1,0,0:0:0:0:
360,272,123752,1,8,0:0:0:0:
360,272,123861,1,0,0:0:0:0:
140,116,123971,1,0,0:0:0:0:
364,292,124081,1,12,0:0:0:0:
136,256,124411,5,0,0:0:0:0:
348,296,124575,1,8,0:0:0:0:
368,276,124905,1,8,0:0:0:0:
368,280,124987,1,8,0:0:0:0:
144,152,125070,1,0,0:0:0:0:
144,152,125152,1,0,0:0:0:0:
356,296,125235,1,8,0:0:0:0:
184,136,125317,1,0,0:0:0:0:
344,292,125400,1,8,0:0:0:0:
168,120,125729,1,0,0:0:0:0:
168,120,125812,1,0,0:0:0:0:
368,276,125894,1,8,0:0:0:0:
384,284,126224,1,8,0:0:0:0:
180,128,126306,1,0,0:0:0:0:
392,300,126389,1,8,0:0:0:0:
392,300,126471,1,8,0:0:0:0:
176,144,126553,1,0,0:0:0:0:
176,144,126636,1,0,0:0:0:0:
352,288,126718,1,8,0:0:0:0:
172,132,127048,5,0,0:0:0:0:
188,136,127130,1,0,0:0:0:0:
352,304,127213,1,8,0:0:0:0:
104,132,127542,1,0,0:0:0:0:
360,256,127625,1,8,0:0:0:0:
144,104,127707,1,0,0:0:0:0:
144,104,127790,1,0,0:0:0:0:
344,272,127872,1,8,0:0:0:0:
136,104,127954,1,0,0:0:0:0:
336,296,128037,1,8,0:0:0:0:
116,112,128367,1,0,0:0:0:0:
168,100,128449,1,0,0:0:0:0:
116,112,128531,1,0,0:0:0:0:
356,268,128861,1,8,0:0:0:0:
380,280,128943,1,8,0:0:0:0:
164,112,129026,1,0,0:0:0:0:
336,116,129191,5,12,0:0:0:0:
148,120,129356,1,4,0:0:0:0:
332,128,129520,1,12,0:0:0:0:
136,104,129685,5,0,0:0:0:0:
160,88,129768,1,0,0:0:0:0:
364,288,129850,1,8,0:0:0:0:
368,276,130180,1,8,0:0:0:0:
368,280,130262,1,8,0:0:0:0:
144,152,130345,1,0,0:0:0:0:
144,152,130427,1,0,0:0:0:0:
356,296,130509,1,8,0:0:0:0:
184,136,130592,1,0,0:0:0:0:
344,292,130674,1,8,0:0:0:0:
152,136,131004,1,0,0:0:0:0:
108,120,131086,1,0,0:0:0:0:
328,264,131169,1,8,0:0:0:0:
368,276,131498,1,8,0:0:0:0:
144,152,131581,1,0,0:0:0:0:
368,280,131663,1,8,0:0:0:0:
356,296,131746,1,8,0:0:0:0:
144,152,131828,1,0,0:0:0:0:
184,136,131911,1,0,0:0:0:0:
344,292,131993,1,8,0:0:0:0:
120,280,132323,1,4,0:0:0:0:
120,140,132487,1,0,0:0:0:0:
104,132,132817,1,0,0:0:0:0:
360,256,132900,1,8,0:0:0:0:
308,276,132982,1,8,0:0:0:0:
144,104,133064,1,0,0:0:0:0:
196,152,133147,1,0,0:0:0:0:
124,124,133229,1,0,0:0:0:0:
336,296,133312,5,8,0:0:0:0:
172,144,133641,1,0,0:0:0:0:
172,144,133724,1,0,0:0:0:0:
324,312,133806,1,8,0:0:0:0:
164,136,133889,1,0,0:0:0:0:
420,324,133971,1,8,0:0:0:0:
164,140,134053,1,0,0:0:0:0:
372,312,134136,1,8,0:0:0:0:
372,312,134218,1,8,0:0:0:0:
388,312,134301,1,8,0:0:0:0:
144,104,134383,1,0,0:0:0:0:
392,312,134465,1,8,0:0:0:0:
392,312,134548,1,8,0:0:0:0:
156,164,134630,1,0,0:0:0:0:
376,312,134795,1,8,0:0:0:0:
356,304,134960,5,8,0:0:0:0:
356,292,135042,1,8,0:0:0:0:
136,116,135125,1,0,0:0:0:0:
132,128,135207,1,0,0:0:0:0:
372,288,135290,1,8,0:0:0:0:
120,128,135372,1,0,0:0:0:0:
120,128,135454,1,0,0:0:0:0:
120,128,135537,1,0,0:0:0:0:
364,284,135619,1,8,0:0:0:0:
364,284,135702,1,8,0:0:0:0:
136,116,135784,1,0,0:0:0:0:
136,116,135867,1,0,0:0:0:0:
340,264,135949,1,8,0:0:0:0:
340,264,136031,1,8,0:0:0:0:
340,264,136114,1,8,0:0:0:0:
144,132,136196,1,0,0:0:0:0:
308,280,136279,1,8,0:0:0:0:
352,272,136361,1,8,0:0:0:0:
148,152,136443,1,0,0:0:0:0:
140,148,136526,1,0,0:0:0:0:
264,256,136608,1,8,0:0:0:0:
136,116,136691,1,0,0:0:0:0:
136,116,136773,1,0,0:0:0:0:
136,116,136856,1,0,0:0:0:0:
348,272,136938,1,8,0:0:0:0:
112,124,137020,1,0,0:0:0:0:
296,236,137103,1,8,0:0:0:0:
288,232,137185,1,8,0:0:0:0:
152,88,137268,1,0,0:0:0:0:
292,224,137350,1,8,0:0:0:0:
120,96,137432,1,0,0:0:0:0:
120,96,137515,1,0,0:0:0:0:
372,292,137597,1,8,0:0:0:0:
120,168,137680,1,0,0:0:0:0:
120,168,137762,1,0,0:0:0:0:
372,292,137845,1,8,0:0:0:0:
112,120,137927,1,0,0:0:0:0:
148,140,138009,1,0,0:0:0:0:
372,292,138092,1,8,0:0:0:0:
160,152,138174,1,0,0:0:0:0:
372,292,138257,1,8,0:0:0:0:
140,116,138339,1,0,0:0:0:0:
140,124,138421,1,0,0:0:0:0:
140,124,138504,1,0,0:0:0:0:
360,288,138586,1,8,0:0:0:0:
336,280,138669,1,8,0:0:0:0:
120,136,138751,1,0,0:0:0:0:
168,160,138834,1,0,0:0:0:0:
372,292,138916,1,8,0:0:0:0:
168,160,138998,1,0,0:0:0:0:
364,284,139081,1,8,0:0:0:0:
168,160,139163,1,0,0:0:0:0:
336,260,139246,1,8,0:0:0:0:
356,276,139328,1,8,0:0:0:0:
212,148,139411,1,0,0:0:0:0:
212,148,139493,1,0,0:0:0:0:
376,300,139575,1,8,0:0:0:0:
184,124,139658,1,0,0:0:0:0:
304,256,139740,1,8,0:0:0:0:
308,260,139823,1,8,0:0:0:0:
172,148,139905,1,0,0:0:0:0:
352,272,139987,1,8,0:0:0:0:
160,108,140070,1,0,0:0:0:0:
160,112,140152,1,0,0:0:0:0:
368,300,140235,5,8,0:0:0:0:
156,132,140317,1,0,0:0:0:0:
156,132,140400,1,0,0:0:0:0:
156,132,140482,1,0,0:0:0:0:
368,248,140564,1,8,0:0:0:0:
368,248,140647,1,8,0:0:0:0:
148,100,140729,1,0,0:0:0:0:
148,100,140812,1,0,0:0:0:0:
392,280,140894,1,8,0:0:0:0:
148,100,140976,1,0,0:0:0:0:
328,228,141059,1,8,0:0:0:0:
136,104,141141,1,0,0:0:0:0:
392,280,141224,1,8,0:0:0:0:
344,240,141306,1,8,0:0:0:0:
136,104,141389,1,0,0:0:0:0:
136,104,141471,1,0,0:0:0:0:
392,280,141553,1,8,0:0:0:0:
140,112,141636,1,0,0:0:0:0:
140,112,141718,1,0,0:0:0:0:
360,280,141801,1,8,0:0:0:0:
140,108,141883,1,0,0:0:0:0:
384,276,141965,1,8,0:0:0:0:
384,276,142048,1,8,0:0:0:0:
160,128,142130,1,0,0:0:0:0:
320,252,142213,1,8,0:0:0:0:
116,84,142295,1,0,0:0:0:0:
116,84,142378,1,0,0:0:0:0:
348,268,142460,1,8,0:0:0:0:
312,252,142542,1,8,0:0:0:0:
172,140,142625,1,0,0:0:0:0:
320,260,142707,1,8,0:0:0:0:
320,260,142790,1,8,0:0:0:0:
176,152,142872,1,0,0:0:0:0:
336,276,142954,1,8,0:0:0:0:
128,104,143037,1,0,0:0:0:0:
120,108,143119,1,0,0:0:0:0:
316,244,143202,1,8,0:0:0:0:
144,128,143531,1,0,0:0:0:0:
352,264,143614,1,8,0:0:0:0:
160,76,143696,1,0,0:0:0:0:
152,132,143779,1,0,0:0:0:0:
372,296,143861,1,8,0:0:0:0:
172,132,144026,1,0,0:0:0:0:
152,112,144108,1,0,0:0:0:0:
280,240,144191,1,8,0:0:0:0:
108,124,144438,1,0,0:0:0:0:
176,128,144685,5,0,0:0:0:0:
176,128,144740,1,0,0:0:0:0:
176,128,144795,1,0,0:0:0:0:
296,296,144850,1,8,0:0:0:0:
460,332,145097,1,8,0:0:0:0:
432,312,145345,1,8,0:0:0:0:
184,260,145509,5,4,0:0:0:0:
368,288,145674,1,8,0:0:0:0:
108,88,145839,1,0,0:0:0:0:
104,64,145921,1,0,0:0:0:0:
396,316,146004,1,8,0:0:0:0:
112,104,146169,1,0,0:0:0:0:
368,300,146251,1,8,0:0:0:0:
136,96,146334,1,0,0:0:0:0:
136,96,146416,1,0,0:0:0:0:
408,284,146498,1,8,0:0:0:0:
124,108,146663,1,0,0:0:0:0:
408,284,146828,5,8,0:0:0:0:
332,264,146911,1,8,0:0:0:0:
112,104,146993,1,0,0:0:0:0:
136,128,147158,1,0,0:0:0:0:
356,272,147323,1,8,0:0:0:0:
124,132,147487,1,0,0:0:0:0:
332,264,147570,1,8,0:0:0:0:
332,264,147652,1,8,0:0:0:0:
128,120,147817,1,0,0:0:0:0:
164,128,147900,1,0,0:0:0:0:
144,108,147982,1,0,0:0:0:0:
144,108,148064,1,0,0:0:0:0:
348,280,148147,5,8,0:0:0:0:
348,288,148312,1,8,0:0:0:0:
120,108,148476,1,0,0:0:0:0:
132,112,148559,1,0,0:0:0:0:
360,292,148641,1,8,0:0:0:0:
380,284,148724,1,8,0:0:0:0:
352,264,148806,1,8,0:0:0:0:
136,104,148971,1,0,0:0:0:0:
364,288,149136,1,8,0:0:0:0:
144,116,149218,1,0,0:0:0:0:
288,248,149301,1,8,0:0:0:0:
288,248,149383,1,8,0:0:0:0:
120,120,149465,5,0,0:0:0:0:
352,268,149630,1,8,0:0:0:0:
148,124,149795,1,0,0:0:0:0:
148,124,149878,1,0,0:0:0:0:
304,276,149960,1,8,0:0:0:0:
144,116,150125,1,0,0:0:0:0:
352,268,150290,1,8,0:0:0:0:
132,120,150454,1,0,0:0:0:0:
332,280,150537,1,8,0:0:0:0:
368,280,150619,1,8,0:0:0:0:
368,280,150702,1,8,0:0:0:0:
132,120,150784,5,0,0:0:0:0:
392,304,150949,1,8,0:0:0:0:
392,304,151031,1,8,0:0:0:0:
180,136,151114,1,0,0:0:0:0:
368,264,151279,1,8,0:0:0:0:
148,112,151361,1,0,0:0:0:0:
176,156,151443,1,0,0:0:0:0:
172,128,151608,1,0,0:0:0:0:
400,288,151773,1,8,0:0:0:0:
192,160,151856,1,0,0:0:0:0:
404,288,151938,1,8,0:0:0:0:
160,108,152020,1,0,0:0:0:0:
168,108,152103,5,0,0:0:0:0:
400,288,152268,1,8,0:0:0:0:
368,264,152350,1,8,0:0:0:0:
88,84,152432,1,0,0:0:0:0:
396,300,152597,1,8,0:0:0:0:
136,164,152762,1,0,0:0:0:0:
328,304,152927,1,8,0:0:0:0:
124,104,153009,1,0,0:0:0:0:
344,272,153092,1,8,0:0:0:0:
328,284,153147,1,8,0:0:0:0:
344,272,153202,1,8,0:0:0:0:
140,120,153257,1,0,0:0:0:0:
140,120,153339,1,0,0:0:0:0:
372,260,153421,1,8,0:0:0:0:
172,144,153586,1,0,0:0:0:0:
348,264,153751,1,8,0:0:0:0:
136,120,153834,1,0,0:0:0:0:
356,272,153916,1,8,0:0:0:0:
172,144,154081,1,0,0:0:0:0:
344,272,154163,1,8,0:0:0:0:
164,112,154246,1,0,0:0:0:0:
160,112,154328,1,0,0:0:0:0:
384,288,154411,1,8,0:0:0:0:
340,276,154575,1,8,0:0:0:0:
344,228,154658,1,8,0:0:0:0:
124,108,154740,5,0,0:0:0:0:
328,256,154905,1,8,0:0:0:0:
136,128,154987,1,0,0:0:0:0:
136,128,155070,1,0,0:0:0:0:
356,280,155235,1,8,0:0:0:0:
128,96,155317,1,0,0:0:0:0:
384,264,155400,1,8,0:0:0:0:
120,112,155482,1,0,0:0:0:0:
404,300,155564,1,8,0:0:0:0:
404,300,155647,1,8,0:0:0:0:
160,136,155729,1,0,0:0:0:0:
396,332,155812,1,8,0:0:0:0:
160,136,155894,1,0,0:0:0:0:
144,136,155976,1,0,0:0:0:0:
340,280,156059,5,8,0:0:0:0:
384,300,156224,1,8,0:0:0:0:
408,280,156306,1,8,0:0:0:0:
180,120,156389,1,0,0:0:0:0:
364,256,156553,1,8,0:0:0:0:
144,92,156718,1,0,0:0:0:0:
172,96,156801,1,0,0:0:0:0:
372,272,156883,1,8,0:0:0:0:
172,140,156965,1,0,0:0:0:0:
172,140,157048,1,0,0:0:0:0:
404,304,157213,1,8,0:0:0:0:
160,116,157378,1,0,0:0:0:0:
416,272,157542,1,8,0:0:0:0:
160,116,157625,1,0,0:0:0:0:
184,116,157790,1,0,0:0:0:0:
360,236,157872,1,8,0:0:0:0:
192,104,158037,1,0,0:0:0:0:
168,116,158119,1,0,0:0:0:0:
400,240,158202,1,8,0:0:0:0:
204,108,158367,1,0,0:0:0:0:
372,256,158449,1,8,0:0:0:0:
144,96,158531,1,0,0:0:0:0:
144,92,158614,1,0,0:0:0:0:
388,272,158696,5,8,0:0:0:0:
372,252,158861,1,8,0:0:0:0:
324,264,158943,1,8,0:0:0:0:
180,112,159026,1,0,0:0:0:0:
400,256,159191,1,8,0:0:0:0:
184,112,159273,1,0,0:0:0:0:
400,256,159356,1,8,0:0:0:0:
160,104,159520,1,0,0:0:0:0:
404,304,159685,1,8,0:0:0:0:
400,280,159768,1,8,0:0:0:0:
220,152,159850,1,0,0:0:0:0:
172,104,159932,1,0,0:0:0:0:
388,260,160015,5,8,0:0:0:0:
368,300,160180,1,8,0:0:0:0:
160,88,160345,1,0,0:0:0:0:
160,88,160427,1,0,0:0:0:0:
376,280,160509,1,8,0:0:0:0:
64,112,160592,1,0,0:0:0:0:
376,280,160674,1,8,0:0:0:0:
196,120,160839,1,0,0:0:0:0:
400,264,160921,1,8,0:0:0:0:
180,136,161004,1,0,0:0:0:0:
180,136,161086,1,0,0:0:0:0:
324,260,161169,1,8,0:0:0:0:
392,252,161334,5,8,0:0:0:0:
172,116,161498,1,0,0:0:0:0:
172,116,161581,1,0,0:0:0:0:
172,116,161663,1,0,0:0:0:0:
380,280,161828,1,8,0:0:0:0:
176,116,161993,1,0,0:0:0:0:
176,116,162075,1,0,0:0:0:0:
172,116,162158,1,0,0:0:0:0:
172,116,162240,1,0,0:0:0:0:
440,312,162323,1,8,0:0:0:0:
172,116,162487,1,0,0:0:0:0:
172,116,162570,1,0,0:0:0:0:
440,312,162652,1,8,0:0:0:0:
156,100,162817,1,0,0:0:0:0:
200,136,162900,1,0,0:0:0:0:
168,92,162982,1,0,0:0:0:0:
168,92,163064,1,0,0:0:0:0:
320,292,163147,1,8,0:0:0:0:
352,280,163312,1,8,0:0:0:0:
348,284,163394,1,8,0:0:0:0:
148,96,163476,1,0,0:0:0:0:
148,96,163559,1,0,0:0:0:0:
400,264,163641,1,8,0:0:0:0:
160,92,163806,1,0,0:0:0:0:
160,92,163889,1,0,0:0:0:0:
400,264,163971,1,8,0:0:0:0:
172,120,164136,1,0,0:0:0:0:
392,268,164218,1,8,0:0:0:0:
392,268,164301,1,8,0:0:0:0:
168,112,164465,1,0,0:0:0:0:
368,248,164548,1,8,0:0:0:0:
368,248,164630,1,8,0:0:0:0:
204,128,164713,1,0,0:0:0:0:
372,232,164795,1,8,0:0:0:0:
192,128,164960,5,0,0:0:0:0:
376,292,165070,1,8,0:0:0:0:
376,292,165125,1,8,0:0:0:0:
376,292,165180,1,8,0:0:0:0:
212,104,165290,1,0,0:0:0:0:
188,100,165400,1,0,0:0:0:0:
352,268,165509,1,8,0:0:0:0:
352,268,165619,1,8,0:0:0:0:
352,240,165729,1,8,0:0:0:0:
180,116,165839,1,0,0:0:0:0:
384,248,165949,1,8,0:0:0:0:
384,248,166059,1,8,0:0:0:0:
192,136,166169,1,0,0:0:0:0:
368,252,166279,1,8,0:0:0:0:
380,252,166389,1,8,0:0:0:0:
380,252,166498,1,8,0:0:0:0:
124,92,166608,5,0,0:0:0:0:
136,100,166691,1,0,0:0:0:0:
136,100,166773,1,0,0:0:0:0:
136,100,166856,1,0,0:0:0:0:
136,100,166938,1,0,0:0:0:0:
136,100,167020,1,0,0:0:0:0:
136,100,167103,1,0,0:0:0:0:
136,100,167185,1,0,0:0:0:0:
340,288,167268,1,8,0:0:0:0:
144,128,167927,1,0,0:0:0:0:
144,128,168009,1,0,0:0:0:0:
144,108,168092,1,0,0:0:0:0:
144,128,168174,1,0,0:0:0:0:
144,108,168257,1,0,0:0:0:0:
144,108,168339,1,0,0:0:0:0:
144,108,168421,1,0,0:0:0:0:
144,108,168504,1,0,0:0:0:0:
348,288,168586,1,8,0:0:0:0:
136,120,168751,1,0,0:0:0:0:
136,120,168834,1,0,0:0:0:0:
332,256,168916,1,8,0:0:0:0:
144,116,169246,5,0,0:0:0:0:
144,128,169328,1,0,0:0:0:0:
144,108,169411,1,0,0:0:0:0:
144,128,169493,1,0,0:0:0:0:
312,248,169575,1,8,0:0:0:0:
144,108,169685,1,0,0:0:0:0:
312,248,169795,1,8,0:0:0:0:
165,146,169905,1,0,0:0:0:0:
128,92,170564,5,0,0:0:0:0:
144,128,170647,1,0,0:0:0:0:
144,108,170729,1,0,0:0:0:0:
144,128,170812,1,0,0:0:0:0:
312,248,170894,1,8,0:0:0:0:
144,108,171004,1,0,0:0:0:0:
312,248,171114,1,8,0:0:0:0:
348,288,171224,1,8,0:0:0:0:
188,120,171389,1,0,0:0:0:0:
188,120,171471,1,0,0:0:0:0:
376,272,171553,1,8,0:0:0:0:
144,116,171883,5,0,0:0:0:0:
144,128,171965,1,0,0:0:0:0:
144,108,172048,1,0,0:0:0:0:
144,128,172130,1,0,0:0:0:0:
312,248,172213,1,8,0:0:0:0:
312,248,172295,1,8,0:0:0:0:
144,108,172378,1,0,0:0:0:0:
144,108,172460,1,0,0:0:0:0:
348,288,172542,1,8,0:0:0:0:
144,116,173202,5,0,0:0:0:0:
144,128,173284,1,0,0:0:0:0:
144,108,173367,1,0,0:0:0:0:
144,128,173449,1,0,0:0:0:0:
312,248,173531,1,8,0:0:0:0:
312,248,173614,1,8,0:0:0:0:
144,108,173696,1,0,0:0:0:0:
144,108,173779,1,0,0:0:0:0:
348,288,173861,1,8,0:0:0:0:
144,116,174026,1,0,0:0:0:0:
144,116,174108,1,0,0:0:0:0:
348,264,174191,1,8,0:0:0:0:
128,92,174520,5,0,0:0:0:0:
144,128,174603,1,0,0:0:0:0:
144,108,174685,1,0,0:0:0:0:
144,128,174768,1,0,0:0:0:0:
312,248,174850,1,8,0:0:0:0:
78,100,174960,1,0,0:0:0:0:
144,108,175070,1,0,0:0:0:0:
348,288,175180,1,8,0:0:0:0:
128,92,175839,5,0,0:0:0:0:
144,128,175921,1,0,0:0:0:0:
144,108,176004,1,0,0:0:0:0:
144,128,176086,1,0,0:0:0:0:
312,248,176169,1,8,0:0:0:0:
144,108,176279,1,0,0:0:0:0:
340,252,176389,1,8,0:0:0:0:
348,288,176498,1,8,0:0:0:0:
157,113,176663,1,0,0:0:0:0:
157,113,176746,1,0,0:0:0:0:
322,258,176828,1,8,0:0:0:0:
144,108,177158,5,0,0:0:0:0:
144,108,177240,1,0,0:0:0:0:
140,104,177323,1,0,0:0:0:0:
140,104,177405,1,0,0:0:0:0:
316,264,177487,1,8,0:0:0:0:
320,276,177570,1,8,0:0:0:0:
104,148,177652,1,0,0:0:0:0:
104,148,177735,1,0,0:0:0:0:
296,288,177817,1,8,0:0:0:0:
324,304,178147,5,8,0:0:0:0:
92,144,178229,1,0,0:0:0:0:
88,144,178312,1,0,0:0:0:0:
88,144,178394,1,0,0:0:0:0:
88,144,178476,1,0,0:0:0:0:
88,144,178559,1,0,0:0:0:0:
88,144,178641,1,0,0:0:0:0:
88,144,178724,1,0,0:0:0:0:
292,268,178806,1,8,0:0:0:0:
128,144,179136,5,0,0:0:0:0:
128,144,179218,1,0,0:0:0:0:
128,144,179301,1,0,0:0:0:0:
128,144,179383,1,0,0:0:0:0:
328,284,179465,1,8,0:0:0:0:
76,92,179795,5,0,0:0:0:0:
76,92,179878,1,0,0:0:0:0:
104,104,179960,1,0,0:0:0:0:
76,92,180042,5,0,0:0:0:0:
76,92,180125,1,0,0:0:0:0:
104,104,180207,1,0,0:0:0:0:
104,104,180290,1,0,0:0:0:0:
104,104,180372,1,0,0:0:0:0:
296,272,180454,5,8,0:0:0:0:
76,92,180784,5,0,0:0:0:0:
76,92,180867,1,0,0:0:0:0:
104,104,180949,1,0,0:0:0:0:
76,92,181031,5,0,0:0:0:0:
76,92,181114,1,0,0:0:0:0:
104,104,181196,1,0,0:0:0:0:
104,104,181279,1,0,0:0:0:0:
104,104,181361,1,0,0:0:0:0:
296,272,181443,1,8,0:0:0:0:
76,92,181773,5,0,0:0:0:0:
76,92,181856,1,0,0:0:0:0:
104,104,181938,1,0,0:0:0:0:
104,104,182020,1,0,0:0:0:0:
348,272,182103,1,8,0:0:0:0:
336,284,182432,5,8,0:0:0:0:
336,284,182515,1,8,0:0:0:0:
128,124,182597,1,0,0:0:0:0:
136,136,182680,1,0,0:0:0:0:
344,292,182762,1,8,0:0:0:0:
164,128,182845,1,0,0:0:0:0:
304,260,182927,1,8,0:0:0:0:
320,264,183009,1,8,0:0:0:0:
152,132,183092,1,0,0:0:0:0:
344,272,183174,1,8,0:0:0:0:
364,300,183257,1,8,0:0:0:0:
144,120,183339,1,0,0:0:0:0:
264,216,183421,1,8,0:0:0:0:
304,260,183504,1,8,0:0:0:0:
144,132,183586,1,0,0:0:0:0:
136,108,183669,1,0,0:0:0:0:
248,220,183751,5,8,0:0:0:0:
140,112,183834,1,0,0:0:0:0:
140,112,183916,1,0,0:0:0:0:
140,112,183998,1,0,0:0:0:0:
396,348,184081,1,8,0:0:0:0:
92,100,184163,1,0,0:0:0:0:
320,284,184246,1,8,0:0:0:0:
320,284,184328,1,8,0:0:0:0:
136,124,184411,1,0,0:0:0:0:
136,132,184493,1,0,0:0:0:0:
324,260,184575,1,8,0:0:0:0:
124,136,184658,1,0,0:0:0:0:
348,272,184740,1,8,0:0:0:0:
340,240,184823,1,8,0:0:0:0:
164,132,184905,1,0,0:0:0:0:
152,116,184987,1,0,0:0:0:0:
332,264,185070,5,8,0:0:0:0:
84,120,185235,1,0,0:0:0:0:
84,120,185317,1,0,0:0:0:0:
112,112,185400,1,0,0:0:0:0:
340,272,185564,1,8,0:0:0:0:
124,124,185729,1,0,0:0:0:0:
124,124,185812,1,0,0:0:0:0:
124,124,185894,1,0,0:0:0:0:
124,124,185976,1,0,0:0:0:0:
320,256,186059,1,8,0:0:0:0:
120,120,186224,5,0,0:0:0:0:
132,104,186306,5,0,0:0:0:0:
328,248,186389,5,8,0:0:0:0:
164,140,186471,1,0,0:0:0:0:
304,240,186553,1,8,0:0:0:0:
304,240,186636,1,8,0:0:0:0:
176,140,186718,1,0,0:0:0:0:
348,296,186883,1,8,0:0:0:0:
164,140,186965,1,0,0:0:0:0:
332,288,187048,1,8,0:0:0:0:
332,288,187130,1,8,0:0:0:0:
140,144,187213,1,0,0:0:0:0:
152,112,187378,5,0,0:0:0:0:
100,88,187460,1,0,0:0:0:0:
104,120,187542,1,0,0:0:0:0:
128,132,187625,1,0,0:0:0:0:
288,292,187707,5,12,0:0:0:0:
104,120,188367,5,4,0:0:0:0:
316,272,189026,5,12,0:0:0:0:
136,100,189356,5,0,0:0:0:0:
136,100,189520,1,0,0:0:0:0:
136,100,189685,1,0,0:0:0:0:
136,100,189850,1,0,0:0:0:0:
376,296,190015,5,8,0:0:0:0:
348,264,190097,1,8,0:0:0:0:
136,100,190180,1,0,0:0:0:0:
152,72,190262,1,0,0:0:0:0:
332,272,190345,1,8,0:0:0:0:
144,140,190427,1,0,0:0:0:0:
296,240,190509,1,8,0:0:0:0:
296,240,190592,1,8,0:0:0:0:
140,88,190674,1,0,0:0:0:0:
352,272,190757,1,8,0:0:0:0:
188,176,190839,1,0,0:0:0:0:
188,176,190921,1,0,0:0:0:0:
352,256,191004,1,8,0:0:0:0:
352,256,191086,1,8,0:0:0:0:
352,256,191169,1,8,0:0:0:0:
172,128,191251,1,0,0:0:0:0:
288,212,191334,1,8,0:0:0:0:
196,160,191416,1,0,0:0:0:0:
304,248,191498,1,8,0:0:0:0:
148,120,191581,1,0,0:0:0:0:
284,224,191663,5,8,0:0:0:0:
288,224,191746,1,8,0:0:0:0:
144,136,191828,1,0,0:0:0:0:
144,136,191911,1,0,0:0:0:0:
312,228,191993,1,8,0:0:0:0:
144,136,192075,1,0,0:0:0:0:
156,152,192158,1,0,0:0:0:0:
156,112,192240,1,0,0:0:0:0:
344,284,192323,1,8,0:0:0:0:
172,140,192405,1,0,0:0:0:0:
304,260,192487,1,8,0:0:0:0:
304,260,192570,1,8,0:0:0:0:
304,256,192652,1,8,0:0:0:0:
176,132,192735,1,0,0:0:0:0:
292,256,192817,1,8,0:0:0:0:
292,256,192900,1,8,0:0:0:0:
180,128,192982,5,0,0:0:0:0:
360,264,193064,1,8,0:0:0:0:
172,152,193147,1,0,0:0:0:0:
168,152,193229,1,0,0:0:0:0:
336,280,193312,1,8,0:0:0:0:
176,176,193476,1,0,0:0:0:0:
296,288,193559,1,8,0:0:0:0:
360,280,193641,1,8,0:0:0:0:
360,280,193724,1,8,0:0:0:0:
180,128,193806,1,0,0:0:0:0:
180,128,193889,1,0,0:0:0:0:
360,288,193971,1,8,0:0:0:0:
160,164,194301,1,0,0:0:0:0:
168,144,194383,1,0,0:0:0:0:
348,272,194465,1,8,0:0:0:0:
148,160,194548,1,0,0:0:0:0:
352,292,194630,1,8,0:0:0:0:
356,316,194713,1,8,0:0:0:0:
132,112,194795,1,0,0:0:0:0:
132,112,194878,1,0,0:0:0:0:
328,276,194960,1,8,0:0:0:0:
360,304,195042,1,8,0:0:0:0:
360,304,195125,1,8,0:0:0:0:
132,112,195207,1,0,0:0:0:0:
328,284,195290,1,8,0:0:0:0:
132,112,195619,5,0,0:0:0:0:
156,112,195702,1,0,0:0:0:0:
156,112,195784,1,0,0:0:0:0:
156,112,195867,1,0,0:0:0:0:
324,220,195949,1,8,0:0:0:0:
160,132,196114,1,0,0:0:0:0:
312,256,196196,1,8,0:0:0:0:
144,124,196279,1,0,0:0:0:0:
144,124,196361,1,0,0:0:0:0:
340,244,196443,1,8,0:0:0:0:
124,132,196526,1,0,0:0:0:0:
332,256,196608,1,8,0:0:0:0:
144,84,196938,5,0,0:0:0:0:
144,84,197020,1,0,0:0:0:0:
144,84,197103,1,0,0:0:0:0:
144,84,197185,1,0,0:0:0:0:
344,296,197268,1,8,0:0:0:0:
376,264,197432,1,8,0:0:0:0:
152,144,197515,1,0,0:0:0:0:
344,256,197597,1,8,0:0:0:0:
344,256,197680,1,8,0:0:0:0:
140,96,197762,1,0,0:0:0:0:
128,96,197845,1,0,0:0:0:0:
356,256,197927,1,8,0:0:0:0:
132,104,198257,5,0,0:0:0:0:
140,132,198339,1,0,0:0:0:0:
140,132,198421,1,0,0:0:0:0:
140,132,198504,1,0,0:0:0:0:
304,268,198586,1,8,0:0:0:0:
296,260,198669,1,8,0:0:0:0:
116,140,198751,1,0,0:0:0:0:
116,140,198834,1,0,0:0:0:0:
340,272,198916,1,8,0:0:0:0:
136,124,198998,1,0,0:0:0:0:
136,124,199081,1,0,0:0:0:0:
136,124,199163,1,0,0:0:0:0:
376,296,199246,1,8,0:0:0:0:
108,108,199328,1,0,0:0:0:0:
384,284,199411,1,8,0:0:0:0:
384,284,199465,1,8,0:0:0:0:
384,284,199520,1,8,0:0:0:0:
176,140,199575,5,0,0:0:0:0:
184,124,199658,1,0,0:0:0:0:
420,292,199740,1,8,0:0:0:0:
188,152,199823,1,0,0:0:0:0:
416,276,199905,1,8,0:0:0:0:
416,276,199987,1,8,0:0:0:0:
168,144,200070,1,0,0:0:0:0:
420,284,200152,1,8,0:0:0:0:
184,148,200235,1,0,0:0:0:0:
184,148,200317,1,0,0:0:0:0:
384,288,200400,1,8,0:0:0:0:
168,144,200482,1,0,0:0:0:0:
360,284,200564,1,8,0:0:0:0:
124,136,200647,1,0,0:0:0:0:
312,256,200729,1,8,0:0:0:0:
384,260,200812,1,8,0:0:0:0:
132,136,200894,5,0,0:0:0:0:
104,136,201059,1,0,0:0:0:0:
104,136,201141,1,0,0:0:0:0:
152,128,201224,1,0,0:0:0:0:
388,292,201389,1,8,0:0:0:0:
120,128,201553,1,0,0:0:0:0:
132,124,201636,1,0,0:0:0:0:
132,124,201718,1,0,0:0:0:0:
112,120,201801,1,0,0:0:0:0:
368,276,201883,1,8,0:0:0:0:
124,140,202048,5,0,0:0:0:0:
140,120,202130,1,0,0:0:0:0:
384,296,202213,5,8,0:0:0:0:
148,116,202378,1,0,0:0:0:0:
148,116,202460,1,0,0:0:0:0:
164,160,202542,1,0,0:0:0:0:
324,272,202707,1,8,0:0:0:0:
176,116,202872,1,0,0:0:0:0:
176,116,202954,1,0,0:0:0:0:
372,272,203037,1,8,0:0:0:0:
372,272,203202,1,8,0:0:0:0:
344,252,203367,1,8,0:0:0:0:
344,252,203449,1,8,0:0:0:0:
152,132,203531,5,0,0:0:0:0:
352,276,203614,1,8,0:0:0:0:
352,276,203696,1,8,0:0:0:0:
160,132,203779,1,0,0:0:0:0:
348,304,203861,1,8,0:0:0:0:
188,152,203943,1,0,0:0:0:0:
328,256,204026,1,8,0:0:0:0:
332,260,204108,1,8,0:0:0:0:
160,120,204191,1,0,0:0:0:0:
336,268,204273,1,8,0:0:0:0:
312,252,204356,1,8,0:0:0:0:
120,112,204438,1,0,0:0:0:0:
308,240,204520,1,8,0:0:0:0:
128,136,204603,1,0,0:0:0:0:
336,252,204685,1,8,0:0:0:0:
336,256,204768,1,8,0:0:0:0:
168,140,204850,5,0,0:0:0:0:
320,272,205015,1,8,0:0:0:0:
320,272,205097,1,8,0:0:0:0:
144,128,205180,1,0,0:0:0:0:
320,272,205262,1,8,0:0:0:0:
148,96,205345,1,0,0:0:0:0:
184,68,205427,1,0,0:0:0:0:
316,276,205509,1,8,0:0:0:0:
120,120,205592,1,0,0:0:0:0:
264,224,205674,1,8,0:0:0:0:
344,280,205757,1,8,0:0:0:0:
120,124,205839,1,0,0:0:0:0:
364,284,205921,1,8,0:0:0:0:
156,128,206004,1,0,0:0:0:0:
368,284,206086,1,8,0:0:0:0:
128,112,206169,5,0,0:0:0:0:
160,140,206334,1,0,0:0:0:0:
160,140,206416,1,0,0:0:0:0:
160,140,206498,1,0,0:0:0:0:
352,260,206663,1,8,0:0:0:0:
144,136,206828,1,0,0:0:0:0:
352,280,206911,1,8,0:0:0:0:
160,140,206993,1,0,0:0:0:0:
160,140,207075,1,0,0:0:0:0:
356,304,207158,1,8,0:0:0:0:
148,148,207323,1,0,0:0:0:0:
316,292,207405,5,8,0:0:0:0:
116,116,207487,1,0,0:0:0:0:
372,296,207652,1,8,0:0:0:0:
144,136,207735,1,0,0:0:0:0:
120,100,207900,1,0,0:0:0:0:
320,280,207982,1,8,0:0:0:0:
372,296,208147,1,8,0:0:0:0:
116,88,208312,1,0,0:0:0:0:
364,280,208394,1,8,0:0:0:0:
152,108,208476,1,0,0:0:0:0:
128,128,208531,1,0,0:0:0:0:
152,108,208586,1,0,0:0:0:0:
336,288,208641,1,8,0:0:0:0:
144,132,208806,5,4,0:0:0:0:
376,276,208971,1,8,0:0:0:0:
376,276,209053,1,8,0:0:0:0:
164,116,209136,1,0,0:0:0:0:
376,276,209301,1,8,0:0:0:0:
136,112,209465,1,0,0:0:0:0:
380,284,209548,1,8,0:0:0:0:
140,112,209630,1,0,0:0:0:0:
140,112,209713,1,0,0:0:0:0:
312,252,209795,1,8,0:0:0:0:
176,132,209960,1,0,0:0:0:0:
352,280,210125,5,8,0:0:0:0:
364,276,210207,1,8,0:0:0:0:
364,276,210290,1,8,0:0:0:0:
364,276,210372,1,8,0:0:0:0:
188,156,210454,1,0,0:0:0:0:
80,136,210537,1,0,0:0:0:0:
372,280,210619,1,8,0:0:0:0:
372,280,210702,1,8,0:0:0:0:
180,148,210784,1,0,0:0:0:0:
336,280,210867,1,8,0:0:0:0:
144,144,210949,1,0,0:0:0:0:
144,144,211031,1,0,0:0:0:0:
296,240,211114,1,8,0:0:0:0:
144,144,211196,1,0,0:0:0:0:
372,288,211279,1,8,0:0:0:0:
136,136,211443,5,0,0:0:0:0:
128,136,211526,1,0,0:0:0:0:
328,256,211608,1,8,0:0:0:0:
328,256,211691,1,8,0:0:0:0:
176,156,211773,1,0,0:0:0:0:
344,264,211856,1,8,0:0:0:0:
344,264,211938,1,8,0:0:0:0:
176,156,212020,1,0,0:0:0:0:
312,272,212103,1,8,0:0:0:0:
192,176,212185,1,0,0:0:0:0:
320,276,212268,1,8,0:0:0:0:
328,284,212350,1,8,0:0:0:0:
172,168,212432,1,0,0:0:0:0:
172,168,212515,1,0,0:0:0:0:
364,264,212597,1,8,0:0:0:0:
212,172,212680,1,0,0:0:0:0:
340,280,212762,5,8,0:0:0:0:
164,144,212845,1,0,0:0:0:0:
372,264,212927,1,8,0:0:0:0:
376,292,213009,1,8,0:0:0:0:
120,140,213092,1,0,0:0:0:0:
368,268,213174,1,8,0:0:0:0:
128,140,213257,1,0,0:0:0:0:
128,140,213339,1,0,0:0:0:0:
360,288,213421,1,8,0:0:0:0:
152,172,213504,1,0,0:0:0:0:
320,264,213586,1,8,0:0:0:0:
320,264,213669,1,8,0:0:0:0:
88,120,213751,1,0,0:0:0:0:
364,272,213834,1,8,0:0:0:0:
364,272,213916,1,8,0:0:0:0:
112,156,213998,1,0,0:0:0:0:
372,276,214081,1,8,0:0:0:0:
372,276,214163,1,8,0:0:0:0:
96,96,214246,1,0,0:0:0:0:
316,248,214328,1,8,0:0:0:0:
316,248,214411,1,8,0:0:0:0:
316,248,214493,1,8,0:0:0:0:
148,156,214575,1,0,0:0:0:0:
384,296,214658,1,8,0:0:0:0:
152,152,214740,1,0,0:0:0:0:
360,260,214823,1,8,0:0:0:0:
360,260,214905,1,8,0:0:0:0:
160,152,214987,1,0,0:0:0:0:
312,264,215070,1,8,0:0:0:0:
172,160,215152,1,0,0:0:0:0:
312,280,215235,1,8,0:0:0:0:
320,288,215317,1,8,0:0:0:0:
148,164,215400,5,0,0:0:0:0:
360,260,215482,1,8,0:0:0:0:
188,152,215564,1,0,0:0:0:0:
188,152,215647,1,0,0:0:0:0:
340,260,215729,1,8,0:0:0:0:
340,260,215812,1,8,0:0:0:0:
132,168,215894,1,0,0:0:0:0:
376,256,215976,1,8,0:0:0:0:
376,256,216059,1,8,0:0:0:0:
136,88,216141,1,0,0:0:0:0:
420,372,216224,1,8,0:0:0:0:
376,272,216306,1,8,0:0:0:0:
188,152,216389,1,0,0:0:0:0:
388,308,216471,1,8,0:0:0:0:
152,144,216553,1,0,0:0:0:0:
388,308,216636,1,8,0:0:0:0:
196,132,216718,5,0,0:0:0:0:
376,292,216801,1,8,0:0:0:0:
376,292,216883,1,8,0:0:0:0:
176,148,216965,1,0,0:0:0:0:
312,240,217048,1,8,0:0:0:0:
216,192,217130,1,0,0:0:0:0:
360,284,217213,1,8,0:0:0:0:
360,284,217295,1,8,0:0:0:0:
152,120,217378,1,0,0:0:0:0:
372,280,217460,1,8,0:0:0:0:
144,128,217542,1,0,0:0:0:0:
144,128,217625,1,0,0:0:0:0:
352,280,217707,1,8,0:0:0:0:
176,164,217790,1,0,0:0:0:0:
352,292,217872,1,8,0:0:0:0:
352,292,217954,1,8,0:0:0:0:
164,168,218037,5,0,0:0:0:0:
72,128,218119,1,0,0:0:0:0:
324,288,218202,1,8,0:0:0:0:
160,176,218284,1,0,0:0:0:0:
400,300,218367,1,8,0:0:0:0:
400,300,218449,1,8,0:0:0:0:
144,180,218531,1,0,0:0:0:0:
160,100,218614,1,0,0:0:0:0:
372,296,218696,1,8,0:0:0:0:
156,116,218779,1,0,0:0:0:0:
368,260,218861,5,8,0:0:0:0:
368,260,219026,1,8,0:0:0:0:
368,260,219108,1,8,0:0:0:0:
368,260,219191,1,8,0:0:0:0:
368,260,219273,1,8,0:0:0:0:
140,120,219356,5,0,0:0:0:0:
360,288,219438,1,8,0:0:0:0:
196,196,219520,1,0,0:0:0:0:
164,180,219603,1,0,0:0:0:0:
352,284,219685,1,8,0:0:0:0:
376,280,219768,1,8,0:0:0:0:
164,148,219850,1,0,0:0:0:0:
416,308,219932,1,8,0:0:0:0:
216,196,220015,1,0,0:0:0:0:
216,196,220097,1,0,0:0:0:0:
416,308,220180,1,8,0:0:0:0:
196,168,220262,1,0,0:0:0:0:
360,288,220345,1,8,0:0:0:0:
360,288,220427,1,8,0:0:0:0:
384,296,220509,1,8,0:0:0:0:
384,296,220592,1,8,0:0:0:0:
188,132,220674,5,0,0:0:0:0:
400,264,220784,1,8,0:0:0:0:
384,268,220894,1,8,0:0:0:0:
400,264,221004,1,8,0:0:0:0:
360,288,221114,1,8,0:0:0:0:
336,276,221224,1,0,0:0:0:0:
392,252,221334,1,8,0:0:0:0:
392,252,221443,1,8,0:0:0:0:
368,248,221553,1,8,0:0:0:0:
136,128,221663,1,0,0:0:0:0:
320,256,221773,1,8,0:0:0:0:
344,260,221883,1,8,0:0:0:0:
160,168,221993,5,0,0:0:0:0:
172,144,222103,1,0,0:0:0:0:
340,280,222213,1,8,0:0:0:0:
340,280,222323,1,8,0:0:0:0:
184,168,222432,1,0,0:0:0:0:
304,248,222542,1,8,0:0:0:0:
304,248,222652,1,8,0:0:0:0:
160,148,222762,1,0,0:0:0:0:
328,248,222872,1,8,0:0:0:0:
328,248,222982,1,8,0:0:0:0:
128,124,223092,1,0,0:0:0:0:
320,264,223202,1,8,0:0:0:0:
160,148,223312,1,0,0:0:0:0:
116,116,223421,1,0,0:0:0:0:
320,248,223531,1,8,0:0:0:0:
316,220,223641,1,8,0:0:0:0:
144,144,223751,1,0,0:0:0:0:
308,248,223861,1,8,0:0:0:0:
140,144,223971,1,0,0:0:0:0:
288,232,224081,1,8,0:0:0:0:
288,232,224191,1,8,0:0:0:0:
112,144,224301,1,0,0:0:0:0:
312,264,224411,1,8,0:0:0:0:
308,260,224520,1,8,0:0:0:0:
100,132,224630,5,0,0:0:0:0:
152,144,224740,1,0,0:0:0:0:
140,148,224850,1,0,0:0:0:0:
320,256,224960,1,8,0:0:0:0:
152,144,225070,1,0,0:0:0:0:
152,144,225180,1,0,0:0:0:0:
332,256,225290,1,8,0:0:0:0:
336,268,225400,1,8,0:0:0:0:
152,144,225509,1,0,0:0:0:0:
324,280,225619,1,8,0:0:0:0:
168,144,225729,1,0,0:0:0:0:
304,248,225839,1,8,0:0:0:0:
160,144,225949,5,0,0:0:0:0:
160,144,226059,1,0,0:0:0:0:
160,144,226169,1,0,0:0:0:0:
340,292,226279,1,8,0:0:0:0:
152,148,226389,1,0,0:0:0:0:
152,148,226498,1,0,0:0:0:0:
324,280,226608,1,8,0:0:0:0:
144,156,226718,1,0,0:0:0:0:
148,156,226828,1,0,0:0:0:0:
340,292,226938,1,8,0:0:0:0:
340,292,227048,1,8,0:0:0:0:
160,152,227158,1,0,0:0:0:0:
308,280,227268,1,8,0:0:0:0:
312,276,227378,1,8,0:0:0:0:
160,168,227487,1,0,0:0:0:0:
328,292,227597,1,8,0:0:0:0:
148,172,227707,1,0,0:0:0:0:
148,172,227817,1,0,0:0:0:0:
144,176,227927,1,0,0:0:0:0:
344,324,228037,1,8,0:0:0:0:
180,192,228147,1,0,0:0:0:0:
324,312,228257,1,8,0:0:0:0:
328,308,228367,1,8,0:0:0:0:
160,156,228476,1,0,0:0:0:0:
324,300,228586,5,8,0:0:0:0:
364,300,228696,1,8,0:0:0:0:
184,168,228806,1,0,0:0:0:0:
360,288,228916,1,8,0:0:0:0:
360,288,229026,1,8,0:0:0:0:
136,144,229136,1,0,0:0:0:0:
360,288,229246,1,8,0:0:0:0:
328,264,229411,1,8,0:0:0:0:
184,168,229493,1,0,0:0:0:0:
316,264,229575,1,8,0:0:0:0:
328,264,229658,1,8,0:0:0:0:
328,264,229740,1,8,0:0:0:0:
328,264,229823,1,8,0:0:0:0:
136,124,229905,5,0,0:0:0:0:
344,264,229987,1,8,0:0:0:0:
120,120,230070,1,0,0:0:0:0:
120,120,230152,1,0,0:0:0:0:
300,252,230235,1,8,0:0:0:0:
328,264,230400,1,8,0:0:0:0:
328,264,230482,1,8,0:0:0:0:
136,152,230564,1,0,0:0:0:0:
332,272,230647,1,8,0:0:0:0:
136,112,230729,1,0,0:0:0:0:
132,104,230812,1,0,0:0:0:0:
340,232,230894,1,8,0:0:0:0:
148,152,230976,1,0,0:0:0:0:
304,268,231059,1,8,0:0:0:0:
376,296,231224,5,8,0:0:0:0:
300,268,231306,1,8,0:0:0:0:
300,268,231389,1,8,0:0:0:0:
304,268,231471,1,8,0:0:0:0:
104,152,231553,1,0,0:0:0:0:
320,284,231718,1,8,0:0:0:0:
120,148,231801,1,0,0:0:0:0:
312,288,231883,1,8,0:0:0:0:
312,288,231965,1,8,0:0:0:0:
128,144,232048,1,0,0:0:0:0:
128,144,232130,1,0,0:0:0:0:
304,296,232213,1,8,0:0:0:0:
144,160,232295,1,0,0:0:0:0:
296,308,232378,1,8,0:0:0:0:
96,144,232542,5,0,0:0:0:0:
132,160,232625,1,0,0:0:0:0:
296,284,232707,1,8,0:0:0:0:
140,172,232790,1,0,0:0:0:0:
300,284,232872,1,8,0:0:0:0:
128,160,232954,1,0,0:0:0:0:
256,264,233037,1,8,0:0:0:0:
256,264,233119,1,8,0:0:0:0:
140,184,233202,1,0,0:0:0:0:
304,280,233284,1,8,0:0:0:0:
120,164,233367,1,0,0:0:0:0:
120,164,233449,1,0,0:0:0:0:
272,268,233531,1,8,0:0:0:0:
156,176,233614,1,0,0:0:0:0:
272,268,233696,1,8,0:0:0:0:
304,280,233779,1,8,0:0:0:0:
304,280,233861,1,0,0:0:0:0:
248,252,233943,1,8,0:0:0:0:
140,172,234026,1,0,0:0:0:0:
136,176,234108,1,0,0:0:0:0:
248,252,234191,1,8,0:0:0:0:
304,272,234273,1,8,0:0:0:0:
308,292,234356,1,8,0:0:0:0:
120,160,234438,1,0,0:0:0:0:
284,272,234520,1,8,0:0:0:0:
136,128,234603,1,0,0:0:0:0:
320,268,234685,1,8,0:0:0:0:
152,144,234768,1,0,0:0:0:0:
320,268,234850,1,8,0:0:0:0:
312,284,234932,1,8,0:0:0:0:
340,288,235015,1,8,0:0:0:0:
88,104,235097,1,0,0:0:0:0:
308,272,235180,1,8,0:0:0:0:
328,292,235262,1,8,0:0:0:0:
124,144,235345,1,0,0:0:0:0:
312,264,235427,1,8,0:0:0:0:
120,132,235509,1,0,0:0:0:0:
340,296,235592,1,8,0:0:0:0:
124,180,235674,1,0,0:0:0:0:
124,176,235757,1,0,0:0:0:0:
340,284,235839,1,8,0:0:0:0:
148,120,235921,1,0,0:0:0:0:
316,272,236004,1,8,0:0:0:0:
316,272,236086,1,8,0:0:0:0:
144,144,236169,1,0,0:0:0:0:
116,124,236251,1,0,0:0:0:0:
320,264,236334,1,8,0:0:0:0:
320,264,236416,1,8,0:0:0:0:
152,160,236498,1,0,0:0:0:0:
284,236,236581,1,8,0:0:0:0:
112,120,236663,1,0,0:0:0:0:
116,124,236746,1,0,0:0:0:0:
272,248,236828,1,8,0:0:0:0:
324,256,236911,1,8,0:0:0:0:
124,144,236993,1,0,0:0:0:0:
124,144,237075,1,0,0:0:0:0:
352,268,237158,1,8,0:0:0:0:
160,144,237240,1,0,0:0:0:0:
292,240,237323,1,8,0:0:0:0:
300,248,237405,1,8,0:0:0:0:
336,272,237487,1,8,0:0:0:0:
148,148,237570,1,0,0:0:0:0:
296,256,237652,1,8,0:0:0:0:
296,256,237735,1,8,0:0:0:0:
136,160,237817,5,0,0:0:0:0:
340,296,237982,1,8,0:0:0:0:
304,272,238064,1,8,0:0:0:0:
140,128,238147,1,0,0:0:0:0:
320,264,238229,1,8,0:0:0:0:
336,272,238312,1,8,0:0:0:0:
192,172,238394,1,0,0:0:0:0:
328,272,238476,1,8,0:0:0:0:
164,140,238559,1,0,0:0:0:0:
288,256,238641,1,8,0:0:0:0:
292,260,238724,1,8,0:0:0:0:
136,168,238806,1,0,0:0:0:0:
344,276,238889,1,8,0:0:0:0:
176,180,238971,1,0,0:0:0:0:
176,180,239053,1,0,0:0:0:0:
316,268,239136,1,8,0:0:0:0:
160,148,239218,1,0,0:0:0:0:
284,240,239301,1,8,0:0:0:0:
288,244,239383,1,8,0:0:0:0:
112,140,239465,1,0,0:0:0:0:
320,264,239548,1,8,0:0:0:0:
320,264,239630,1,8,0:0:0:0:
184,176,239713,1,0,0:0:0:0:
316,276,239795,1,8,0:0:0:0:
304,264,239878,1,8,0:0:0:0:
144,164,239960,1,0,0:0:0:0:
112,120,240042,1,0,0:0:0:0:
312,276,240125,1,8,0:0:0:0:
136,120,240290,1,0,0:0:0:0:
156,104,240372,1,0,0:0:0:0:
352,304,240454,5,8,0:0:0:0:
108,108,240537,1,0,0:0:0:0:
244,216,240619,1,8,0:0:0:0:
340,272,240702,1,8,0:0:0:0:
340,272,240784,1,8,0:0:0:0:
184,152,240867,1,0,0:0:0:0:
292,228,240949,1,8,0:0:0:0:
328,280,241031,1,8,0:0:0:0:
192,192,241114,1,0,0:0:0:0:
308,280,241196,1,8,0:0:0:0:
136,176,241279,1,0,0:0:0:0:
152,192,241361,1,0,0:0:0:0:
304,296,241443,1,8,0:0:0:0:
320,284,241526,1,8,0:0:0:0:
320,284,241608,1,8,0:0:0:0:
320,284,241691,1,8,0:0:0:0:
140,144,241773,5,0,0:0:0:0:
140,144,241828,1,0,0:0:0:0:
140,144,241883,1,0,0:0:0:0:
296,276,241938,1,8,0:0:0:0:
344,272,242020,1,8,0:0:0:0:
136,116,242103,1,0,0:0:0:0:
136,116,242158,1,0,0:0:0:0:
136,116,242213,1,0,0:0:0:0:
292,272,242268,1,8,0:0:0:0:
352,276,242350,1,8,0:0:0:0:
148,128,242432,1,0,0:0:0:0:
120,112,242515,1,0,0:0:0:0:
332,264,242597,1,8,0:0:0:0:
76,100,242680,1,0,0:0:0:0:
344,264,242762,1,8,0:0:0:0:
340,260,242845,1,8,0:0:0:0:
120,140,242927,1,0,0:0:0:0:
352,256,243009,1,8,0:0:0:0:
256,192,243092,12,0,245564,0:0:0:0:
168,156,245729,5,4,0:0:0:0:
384,300,245894,1,8,0:0:0:0:
108,128,245976,1,0,0:0:0:0:
128,108,246141,1,0,0:0:0:0:
388,312,246224,1,8,0:0:0:0:
160,116,246389,1,0,0:0:0:0:
408,328,246553,1,8,0:0:0:0:
408,328,246636,1,8,0:0:0:0:
132,124,246718,1,0,0:0:0:0:
136,128,246801,1,0,0:0:0:0:
368,284,246883,1,8,0:0:0:0:
140,116,247048,1,0,0:0:0:0:
388,312,247213,1,8,0:0:0:0:
388,312,247295,1,8,0:0:0:0:
132,124,247460,1,0,0:0:0:0:
392,304,247542,1,8,0:0:0:0:
428,328,247625,1,8,0:0:0:0:
120,136,247707,1,0,0:0:0:0:
360,300,247872,1,8,0:0:0:0:
136,136,248037,1,0,0:0:0:0:
396,328,248119,1,8,0:0:0:0:
132,124,248202,1,0,0:0:0:0:
124,112,248284,1,0,0:0:0:0:
436,328,248367,5,8,0:0:0:0:
424,332,248531,1,8,0:0:0:0:
124,160,248614,1,0,0:0:0:0:
112,156,248779,1,0,0:0:0:0:
360,300,248861,1,8,0:0:0:0:
152,152,249026,1,0,0:0:0:0:
420,300,249191,1,8,0:0:0:0:
420,300,249273,1,8,0:0:0:0:
144,152,249438,1,0,0:0:0:0:
448,292,249520,1,8,0:0:0:0:
144,136,249685,1,0,0:0:0:0:
336,256,249768,1,8,0:0:0:0:
148,124,249850,1,0,0:0:0:0:
144,120,249932,1,0,0:0:0:0:
352,260,250015,1,8,0:0:0:0:
352,260,250180,1,8,0:0:0:0:
56,128,250345,5,0,0:0:0:0:
56,128,250400,1,0,0:0:0:0:
56,128,250454,1,0,0:0:0:0:
400,288,250509,1,8,0:0:0:0:
136,120,250674,1,0,0:0:0:0:
136,120,250729,1,0,0:0:0:0:
136,120,250784,1,0,0:0:0:0:
340,276,250839,1,8,0:0:0:0:
108,280,251004,5,4,0:0:0:0:
384,304,251169,1,8,0:0:0:0:
128,124,251251,1,0,0:0:0:0:
124,120,251416,1,0,0:0:0:0:
376,252,251498,1,8,0:0:0:0:
112,116,251663,1,0,0:0:0:0:
136,96,251828,1,0,0:0:0:0:
376,252,251911,1,8,0:0:0:0:
152,112,251993,1,0,0:0:0:0:
152,112,252075,1,0,0:0:0:0:
324,260,252158,1,8,0:0:0:0:
140,112,252323,1,0,0:0:0:0:
364,260,252487,1,8,0:0:0:0:
360,260,252570,1,8,0:0:0:0:
164,132,252735,1,0,0:0:0:0:
360,288,252817,1,8,0:0:0:0:
128,112,252982,1,0,0:0:0:0:
344,268,253147,1,8,0:0:0:0:
344,268,253229,1,8,0:0:0:0:
344,268,253312,1,8,0:0:0:0:
132,128,253394,1,0,0:0:0:0:
336,284,253476,1,8,0:0:0:0:
124,272,253641,5,4,0:0:0:0:
352,284,253806,1,8,0:0:0:0:
140,104,253889,1,0,0:0:0:0:
140,104,254053,1,0,0:0:0:0:
348,264,254136,1,8,0:0:0:0:
120,104,254301,1,0,0:0:0:0:
308,256,254465,1,8,0:0:0:0:
308,256,254548,1,8,0:0:0:0:
184,112,254713,1,0,0:0:0:0:
344,284,254795,1,8,0:0:0:0:
152,272,254960,5,4,0:0:0:0:
360,276,255125,1,8,0:0:0:0:
356,268,255207,1,8,0:0:0:0:
356,268,255372,1,8,0:0:0:0:
356,268,255454,1,8,0:0:0:0:
156,144,255619,1,0,0:0:0:0:
356,284,255702,1,8,0:0:0:0:
340,296,255784,1,8,0:0:0:0:
348,284,255867,1,8,0:0:0:0:
152,120,255949,1,0,0:0:0:0:
340,260,256031,1,8,0:0:0:0:
340,260,256114,1,8,0:0:0:0:
340,260,256196,1,8,0:0:0:0:
128,152,256279,5,0,0:0:0:0:
388,272,256443,1,8,0:0:0:0:
124,112,256526,1,0,0:0:0:0:
124,112,256691,1,0,0:0:0:0:
360,304,256773,1,8,0:0:0:0:
168,160,256938,1,0,0:0:0:0:
168,144,257103,1,0,0:0:0:0:
124,112,257185,1,0,0:0:0:0:
320,264,257268,1,8,0:0:0:0:
328,272,257432,1,8,0:0:0:0:
136,136,257515,1,0,0:0:0:0:
360,280,257597,5,8,0:0:0:0:
100,108,257762,1,0,0:0:0:0:
352,256,257845,1,8,0:0:0:0:
352,256,258009,1,8,0:0:0:0:
152,108,258092,1,0,0:0:0:0:
340,272,258257,1,8,0:0:0:0:
340,284,258421,1,8,0:0:0:0:
152,120,258504,1,0,0:0:0:0:
328,236,258586,1,8,0:0:0:0:
332,240,258669,1,8,0:0:0:0:
120,96,258751,1,0,0:0:0:0:
340,252,258916,5,8,0:0:0:0:
356,256,259081,1,8,0:0:0:0:
132,124,259163,1,0,0:0:0:0:
132,128,259328,1,0,0:0:0:0:
356,256,259411,1,8,0:0:0:0:
104,104,259575,1,0,0:0:0:0:
132,124,259740,1,0,0:0:0:0:
352,248,259823,1,8,0:0:0:0:
332,284,259987,1,8,0:0:0:0:
152,88,260070,1,0,0:0:0:0:
352,236,260235,1,8,0:0:0:0:
324,256,260400,1,8,0:0:0:0:
136,112,260482,1,0,0:0:0:0:
136,112,260647,1,0,0:0:0:0:
368,268,260729,1,8,0:0:0:0:
136,112,260812,1,0,0:0:0:0:
144,120,260894,1,0,0:0:0:0:
152,88,260949,1,0,0:0:0:0:
144,92,261004,1,0,0:0:0:0:
348,280,261059,1,8,0:0:0:0:
180,156,261224,1,0,0:0:0:0:
152,124,261279,1,0,0:0:0:0:
152,124,261334,1,0,0:0:0:0:
328,260,261389,1,8,0:0:0:0:
336,244,261471,1,8,0:0:0:0:
128,152,261553,5,0,0:0:0:0:
388,272,261718,1,8,0:0:0:0:
124,112,261801,1,0,0:0:0:0:
124,112,261965,1,0,0:0:0:0:
360,304,262048,1,8,0:0:0:0:
168,160,262213,1,0,0:0:0:0:
168,144,262378,1,0,0:0:0:0:
124,128,262460,1,0,0:0:0:0:
320,264,262542,1,8,0:0:0:0:
168,136,262625,1,0,0:0:0:0:
328,272,262707,1,8,0:0:0:0:
360,280,262872,5,12,0:0:0:0:
100,108,263037,1,0,0:0:0:0:
352,256,263119,1,8,0:0:0:0:
352,256,263284,1,8,0:0:0:0:
152,108,263367,1,0,0:0:0:0:
188,136,263531,1,0,0:0:0:0:
112,96,263614,1,0,0:0:0:0:
340,284,263696,1,8,0:0:0:0:
152,120,263779,1,0,0:0:0:0:
328,236,263861,1,8,0:0:0:0:
332,240,263943,1,8,0:0:0:0:
120,96,264026,1,0,0:0:0:0:
312,256,264191,5,8,0:0:0:0:
128,116,264273,1,0,0:0:0:0:
128,116,264356,1,0,0:0:0:0:
356,276,264438,1,8,0:0:0:0:
128,116,264520,1,0,0:0:0:0:
128,116,264603,1,0,0:0:0:0:
356,276,264685,1,8,0:0:0:0:
160,128,264768,1,0,0:0:0:0:
348,280,264850,1,8,0:0:0:0:
320,244,264932,1,8,0:0:0:0:
176,136,265015,1,0,0:0:0:0:
376,296,265097,1,8,0:0:0:0:
176,136,265180,1,0,0:0:0:0:
176,136,265262,1,0,0:0:0:0:
368,280,265345,1,8,0:0:0:0:
168,136,265427,1,0,0:0:0:0:
352,244,265509,5,8,0:0:0:0:
356,288,265564,1,8,0:0:0:0:
320,284,265619,1,8,0:0:0:0:
176,136,265674,1,0,0:0:0:0:
320,292,265757,1,8,0:0:0:0:
144,120,265839,1,0,0:0:0:0:
152,108,265894,1,0,0:0:0:0:
96,124,265949,1,0,0:0:0:0:
340,256,266004,1,8,0:0:0:0:
132,132,266059,1,0,0:0:0:0:
136,124,266114,1,0,0:0:0:0:
328,264,266169,1,8,0:0:0:0:
120,124,266663,5,0,0:0:0:0:
272,236,266828,5,8,0:0:0:0:
128,120,266911,1,0,0:0:0:0:
128,120,266993,1,0,0:0:0:0:
128,120,267075,1,0,0:0:0:0:
356,288,267158,1,8,0:0:0:0:
352,288,267240,1,8,0:0:0:0:
352,288,267323,1,8,0:0:0:0:
120,144,267405,1,0,0:0:0:0:
300,244,267487,1,8,0:0:0:0:
136,88,267570,1,0,0:0:0:0:
136,88,267652,1,0,0:0:0:0:
136,88,267735,1,0,0:0:0:0:
300,244,267817,1,8,0:0:0:0:
380,276,267900,1,8,0:0:0:0:
92,140,267982,1,0,0:0:0:0:
92,140,268064,1,0,0:0:0:0:
300,264,268147,1,8,0:0:0:0:
360,268,268229,1,8,0:0:0:0:
360,268,268312,1,8,0:0:0:0:
100,108,268394,1,0,0:0:0:0:
360,244,268476,1,8,0:0:0:0:
100,108,268559,1,0,0:0:0:0:
100,108,268641,1,0,0:0:0:0:
100,108,268724,1,0,0:0:0:0:
288,248,268806,1,8,0:0:0:0:
296,252,268889,1,8,0:0:0:0:
124,132,268971,1,0,0:0:0:0:
120,128,269053,1,0,0:0:0:0:
288,248,269136,1,8,0:0:0:0:
152,132,269218,1,0,0:0:0:0:
152,132,269301,1,0,0:0:0:0:
148,132,269383,1,0,0:0:0:0:
288,248,269465,1,8,0:0:0:0:
132,100,269548,1,0,0:0:0:0:
132,100,269630,1,0,0:0:0:0:
352,272,269713,1,8,0:0:0:0:
132,100,269795,1,0,0:0:0:0:
132,100,269878,1,0,0:0:0:0:
352,272,269960,1,8,0:0:0:0:
132,100,270042,1,0,0:0:0:0:
300,244,270125,1,8,0:0:0:0:
136,88,270207,1,0,0:0:0:0:
136,88,270290,1,0,0:0:0:0:
136,88,270372,1,0,0:0:0:0:
300,244,270454,1,8,0:0:0:0:
380,276,270537,1,8,0:0:0:0:
92,140,270619,1,0,0:0:0:0:
92,140,270702,1,0,0:0:0:0:
300,264,270784,1,8,0:0:0:0:
304,260,270867,1,8,0:0:0:0:
304,260,270949,1,8,0:0:0:0:
132,132,271031,1,0,0:0:0:0:
312,268,271114,1,8,0:0:0:0:
312,268,271196,1,8,0:0:0:0:
160,116,271279,1,0,0:0:0:0:
160,116,271361,1,0,0:0:0:0:
356,296,271443,1,8,0:0:0:0:
160,132,271526,1,0,0:0:0:0:
160,132,271608,1,0,0:0:0:0:
336,256,271773,5,8,0:0:0:0:
328,256,271856,1,8,0:0:0:0:
112,104,271938,1,0,0:0:0:0:
112,104,272020,1,0,0:0:0:0:
272,236,272103,1,8,0:0:0:0:
128,120,272185,1,0,0:0:0:0:
128,120,272268,1,0,0:0:0:0:
128,120,272350,1,0,0:0:0:0:
356,288,272432,1,8,0:0:0:0:
352,288,272515,1,8,0:0:0:0:
352,288,272597,1,8,0:0:0:0:
120,144,272680,1,0,0:0:0:0:
300,244,272762,1,8,0:0:0:0:
136,88,272845,1,0,0:0:0:0:
136,88,272927,1,0,0:0:0:0:
136,88,273009,1,0,0:0:0:0:
300,244,273092,1,8,0:0:0:0:
380,276,273174,1,8,0:0:0:0:
92,140,273257,1,0,0:0:0:0:
92,140,273339,1,0,0:0:0:0:
300,264,273421,1,8,0:0:0:0:
360,268,273504,1,8,0:0:0:0:
360,268,273586,1,8,0:0:0:0:
100,108,273669,1,0,0:0:0:0:
360,244,273751,1,8,0:0:0:0:
100,108,273834,1,0,0:0:0:0:
100,108,273916,1,0,0:0:0:0:
100,108,273998,1,0,0:0:0:0:
288,248,274081,1,8,0:0:0:0:
296,252,274163,1,8,0:0:0:0:
124,132,274246,1,0,0:0:0:0:
120,128,274328,1,0,0:0:0:0:
288,248,274411,1,8,0:0:0:0:
152,132,274493,1,0,0:0:0:0:
152,132,274575,1,0,0:0:0:0:
148,132,274658,1,0,0:0:0:0:
288,248,274740,1,8,0:0:0:0:
136,132,274823,1,0,0:0:0:0:
304,256,274905,1,8,0:0:0:0:
348,292,274987,1,8,0:0:0:0:
124,132,275070,1,0,0:0:0:0:
112,132,275152,1,0,0:0:0:0:
304,256,275235,1,8,0:0:0:0:
160,132,275317,1,0,0:0:0:0:
304,256,275400,1,8,0:0:0:0:
160,144,275482,1,0,0:0:0:0:
160,144,275564,1,0,0:0:0:0:
336,304,275647,1,8,0:0:0:0:
160,144,275729,1,0,0:0:0:0:
160,144,275812,1,0,0:0:0:0:
336,304,275894,1,8,0:0:0:0:
160,144,275976,1,0,0:0:0:0:
336,304,276059,1,8,0:0:0:0:
136,140,276141,1,0,0:0:0:0:
136,140,276224,1,0,0:0:0:0:
336,304,276306,1,8,0:0:0:0:
136,140,276389,1,0,0:0:0:0:
136,140,276471,1,0,0:0:0:0:
336,304,276553,1,8,0:0:0:0:
136,140,276636,1,0,0:0:0:0:
336,304,276718,1,8,0:0:0:0:
348,300,276801,1,8,0:0:0:0:
116,120,276883,1,0,0:0:0:0:
116,120,276965,1,0,0:0:0:0:
116,120,277048,1,0,0:0:0:0:
116,120,277130,1,0,0:0:0:0:
312,268,277213,1,8,0:0:0:0:
272,236,277378,5,8,0:0:0:0:
128,120,277460,1,0,0:0:0:0:
128,120,277542,1,0,0:0:0:0:
128,120,277625,1,0,0:0:0:0:
356,288,277707,1,8,0:0:0:0:
352,288,277790,1,8,0:0:0:0:
352,288,277872,1,8,0:0:0:0:
120,144,277954,1,0,0:0:0:0:
300,244,278037,1,8,0:0:0:0:
136,88,278119,1,0,0:0:0:0:
136,88,278202,1,0,0:0:0:0:
136,88,278284,1,0,0:0:0:0:
300,244,278367,1,8,0:0:0:0:
380,276,278449,1,8,0:0:0:0:
92,140,278531,1,0,0:0:0:0:
92,140,278614,1,0,0:0:0:0:
300,264,278696,1,8,0:0:0:0:
360,268,278779,1,8,0:0:0:0:
360,268,278861,1,8,0:0:0:0:
100,108,278943,1,0,0:0:0:0:
360,244,279026,1,8,0:0:0:0:
100,108,279108,1,0,0:0:0:0:
100,108,279191,1,0,0:0:0:0:
100,108,279273,1,0,0:0:0:0:
288,248,279356,1,8,0:0:0:0:
296,252,279438,1,8,0:0:0:0:
124,132,279520,1,0,0:0:0:0:
120,128,279603,1,0,0:0:0:0:
288,248,279685,1,8,0:0:0:0:
152,132,279768,1,0,0:0:0:0:
152,132,279850,1,0,0:0:0:0:
148,132,279932,1,0,0:0:0:0:
288,248,280015,1,8,0:0:0:0:
132,100,280097,1,0,0:0:0:0:
132,100,280180,1,0,0:0:0:0:
352,272,280262,1,8,0:0:0:0:
132,100,280345,1,0,0:0:0:0:
132,100,280427,1,0,0:0:0:0:
352,272,280509,1,8,0:0:0:0:
132,100,280592,1,0,0:0:0:0:
300,244,280674,1,8,0:0:0:0:
136,88,280757,1,0,0:0:0:0:
136,88,280839,1,0,0:0:0:0:
136,88,280921,1,0,0:0:0:0:
300,244,281004,1,8,0:0:0:0:
380,276,281086,1,8,0:0:0:0:
92,140,281169,1,0,0:0:0:0:
92,140,281251,1,0,0:0:0:0:
300,264,281334,1,8,0:0:0:0:
304,260,281416,1,8,0:0:0:0:
304,260,281498,1,8,0:0:0:0:
132,132,281581,1,0,0:0:0:0:
312,268,281663,1,8,0:0:0:0:
312,268,281746,1,8,0:0:0:0:
160,116,281828,1,0,0:0:0:0:
160,116,281911,1,0,0:0:0:0:
356,296,281993,1,8,0:0:0:0:
160,132,282075,1,8,0:0:0:0:
160,132,282158,1,0,0:0:0:0:
336,256,282323,5,8,0:0:0:0:
328,256,282405,1,8,0:0:0:0:
112,104,282487,1,0,0:0:0:0:
112,104,282570,1,0,0:0:0:0:
272,236,282652,1,8,0:0:0:0:
128,120,282735,1,0,0:0:0:0:
128,120,282817,1,0,0:0:0:0:
128,120,282900,1,0,0:0:0:0:
356,288,282982,1,8,0:0:0:0:
352,288,283064,1,8,0:0:0:0:
352,288,283147,1,8,0:0:0:0:
120,144,283229,1,0,0:0:0:0:
300,244,283312,1,8,0:0:0:0:
136,88,283394,1,0,0:0:0:0:
136,88,283476,1,0,0:0:0:0:
136,88,283559,1,0,0:0:0:0:
300,244,283641,1,8,0:0:0:0:
380,276,283724,1,8,0:0:0:0:
92,140,283806,1,0,0:0:0:0:
92,140,283889,1,0,0:0:0:0:
300,264,283971,1,8,0:0:0:0:
128,108,284053,1,0,0:0:0:0:
100,108,284136,1,0,0:0:0:0:
360,268,284218,1,8,0:0:0:0:
112,92,284301,1,0,0:0:0:0:
100,108,284383,1,0,0:0:0:0:
348,284,284465,1,8,0:0:0:0:
100,108,284548,1,0,0:0:0:0:
288,248,284630,1,8,0:0:0:0:
296,252,284713,1,8,0:0:0:0:
124,132,284795,1,0,0:0:0:0:
120,128,284878,1,0,0:0:0:0:
288,248,284960,1,8,0:0:0:0:
152,132,285042,1,0,0:0:0:0:
152,132,285125,1,0,0:0:0:0:
148,132,285207,1,0,0:0:0:0:
288,248,285290,1,8,0:0:0:0:
120,132,285372,1,0,0:0:0:0:
124,132,285454,1,0,0:0:0:0:
344,264,285537,1,8,0:0:0:0:
124,132,285619,1,0,0:0:0:0:
120,128,285702,1,0,0:0:0:0:
344,264,285784,1,8,0:0:0:0:
120,132,285867,1,0,0:0:0:0:
336,264,285949,1,8,0:0:0:0:
344,264,286031,1,8,0:0:0:0:
160,148,286114,1,0,0:0:0:0:
160,148,286196,1,0,0:0:0:0:
368,272,286279,1,8,0:0:0:0:
368,272,286361,1,8,0:0:0:0:
368,272,286443,1,8,0:0:0:0:
372,288,286526,1,8,0:0:0:0:
132,120,286608,5,0,0:0:0:0:
132,120,286663,1,0,0:0:0:0:
132,120,286718,1,0,0:0:0:0:
328,284,286773,1,8,0:0:0:0:
368,280,286856,1,8,0:0:0:0:
168,132,286938,1,0,0:0:0:0:
160,124,286993,1,0,0:0:0:0:
160,124,287048,1,0,0:0:0:0:
320,300,287103,1,8,0:0:0:0:
140,104,287185,1,0,0:0:0:0:
348,260,287268,1,8,0:0:0:0:
348,280,287515,1,8,0:0:0:0:
348,280,287762,1,8,0:0:0:0:
184,260,287927,5,4,0:0:0:0:
368,288,288092,1,8,0:0:0:0:
108,88,288257,1,0,0:0:0:0:
104,64,288339,1,0,0:0:0:0:
396,316,288421,1,8,0:0:0:0:
112,104,288586,1,0,0:0:0:0:
368,300,288669,1,8,0:0:0:0:
136,96,288751,1,0,0:0:0:0:
136,96,288834,1,0,0:0:0:0:
408,284,288916,1,8,0:0:0:0:
124,108,289081,1,0,0:0:0:0:
408,284,289246,5,8,0:0:0:0:
332,264,289328,1,8,0:0:0:0:
112,104,289411,1,0,0:0:0:0:
136,128,289575,1,0,0:0:0:0:
356,272,289740,1,8,0:0:0:0:
124,132,289905,1,0,0:0:0:0:
332,264,289987,1,8,0:0:0:0:
332,264,290070,1,8,0:0:0:0:
128,120,290235,1,0,0:0:0:0:
164,128,290317,1,0,0:0:0:0:
144,108,290400,1,0,0:0:0:0:
144,108,290482,1,0,0:0:0:0:
348,280,290564,5,8,0:0:0:0:
348,288,290729,1,8,0:0:0:0:
120,108,290894,1,0,0:0:0:0:
132,112,290976,1,0,0:0:0:0:
360,292,291059,1,8,0:0:0:0:
380,284,291141,1,8,0:0:0:0:
352,264,291224,1,8,0:0:0:0:
136,104,291389,1,0,0:0:0:0:
364,288,291553,1,8,0:0:0:0:
144,116,291636,1,0,0:0:0:0:
288,248,291718,1,8,0:0:0:0:
288,248,291801,1,8,0:0:0:0:
120,120,291883,5,0,0:0:0:0:
352,268,292048,1,8,0:0:0:0:
148,124,292213,1,0,0:0:0:0:
148,124,292295,1,0,0:0:0:0:
304,276,292378,1,8,0:0:0:0:
144,116,292542,1,0,0:0:0:0:
352,268,292707,1,8,0:0:0:0:
132,120,292872,1,0,0:0:0:0:
332,280,292954,1,8,0:0:0:0:
368,280,293037,1,8,0:0:0:0:
368,280,293119,1,8,0:0:0:0:
132,120,293202,5,0,0:0:0:0:
392,304,293367,1,8,0:0:0:0:
392,304,293449,1,8,0:0:0:0:
180,136,293531,1,0,0:0:0:0:
368,264,293696,1,8,0:0:0:0:
148,112,293779,1,0,0:0:0:0:
176,156,293861,1,0,0:0:0:0:
172,128,294026,1,0,0:0:0:0:
400,288,294191,1,8,0:0:0:0:
192,160,294273,1,0,0:0:0:0:
404,288,294356,1,8,0:0:0:0:
160,108,294438,1,0,0:0:0:0:
168,108,294520,5,0,0:0:0:0:
400,288,294685,1,8,0:0:0:0:
368,264,294768,1,8,0:0:0:0:
88,84,294850,1,0,0:0:0:0:
396,300,295015,1,8,0:0:0:0:
88,120,295180,5,0,0:0:0:0:
328,304,295345,1,8,0:0:0:0:
124,104,295427,1,0,0:0:0:0:
344,272,295509,1,8,0:0:0:0:
344,272,295564,1,8,0:0:0:0:
328,284,295619,1,8,0:0:0:0:
140,120,295674,1,0,0:0:0:0:
140,120,295757,1,0,0:0:0:0:
372,260,295839,1,8,0:0:0:0:
172,144,296004,1,0,0:0:0:0:
348,264,296169,1,8,0:0:0:0:
136,120,296251,1,0,0:0:0:0:
356,272,296334,1,8,0:0:0:0:
172,144,296498,1,0,0:0:0:0:
344,272,296581,1,8,0:0:0:0:
164,112,296663,1,0,0:0:0:0:
160,112,296746,1,0,0:0:0:0:
384,288,296828,1,8,0:0:0:0:
340,276,296993,1,8,0:0:0:0:
344,228,297075,1,8,0:0:0:0:
124,108,297158,5,0,0:0:0:0:
328,256,297323,1,8,0:0:0:0:
136,128,297405,1,0,0:0:0:0:
136,128,297487,1,0,0:0:0:0:
356,280,297652,1,8,0:0:0:0:
128,96,297735,1,0,0:0:0:0:
384,264,297817,1,8,0:0:0:0:
120,112,297900,1,0,0:0:0:0:
404,300,297982,1,8,0:0:0:0:
404,300,298064,1,8,0:0:0:0:
160,136,298147,1,0,0:0:0:0:
396,332,298229,1,8,0:0:0:0:
160,136,298312,1,0,0:0:0:0:
144,136,298394,1,0,0:0:0:0:
340,280,298476,5,8,0:0:0:0:
384,300,298641,1,8,0:0:0:0:
408,280,298724,1,8,0:0:0:0:
180,120,298806,1,0,0:0:0:0:
364,256,298971,1,8,0:0:0:0:
144,92,299136,1,0,0:0:0:0:
172,96,299218,1,0,0:0:0:0:
372,272,299301,1,8,0:0:0:0:
172,140,299383,1,0,0:0:0:0:
172,140,299465,1,0,0:0:0:0:
404,304,299630,1,8,0:0:0:0:
160,116,299795,1,0,0:0:0:0:
416,272,299960,1,8,0:0:0:0:
160,116,300042,1,0,0:0:0:0:
184,116,300207,1,0,0:0:0:0:
360,236,300290,1,8,0:0:0:0:
192,104,300454,1,0,0:0:0:0:
168,116,300537,1,0,0:0:0:0:
400,240,300619,1,8,0:0:0:0:
204,108,300784,1,0,0:0:0:0:
372,256,300867,1,8,0:0:0:0:
144,96,300949,1,0,0:0:0:0:
144,92,301031,1,0,0:0:0:0:
388,272,301114,5,8,0:0:0:0:
372,252,301279,1,8,0:0:0:0:
324,264,301361,1,8,0:0:0:0:
180,112,301443,1,0,0:0:0:0:
400,256,301608,1,8,0:0:0:0:
184,112,301691,1,0,0:0:0:0:
400,256,301773,1,8,0:0:0:0:
160,104,301938,1,0,0:0:0:0:
404,304,302103,1,8,0:0:0:0:
400,280,302185,1,8,0:0:0:0:
220,152,302268,1,0,0:0:0:0:
172,104,302350,1,0,0:0:0:0:
388,260,302432,5,8,0:0:0:0:
368,300,302597,1,8,0:0:0:0:
160,88,302762,1,0,0:0:0:0:
160,88,302845,1,0,0:0:0:0:
376,280,302927,1,8,0:0:0:0:
64,112,303009,1,0,0:0:0:0:
376,280,303092,1,8,0:0:0:0:
196,120,303257,1,0,0:0:0:0:
400,264,303339,1,8,0:0:0:0:
180,136,303421,1,0,0:0:0:0:
180,136,303504,1,0,0:0:0:0:
324,260,303586,1,8,0:0:0:0:
392,252,303751,5,8,0:0:0:0:
172,116,303916,1,0,0:0:0:0:
172,116,303998,1,0,0:0:0:0:
172,116,304081,1,0,0:0:0:0:
380,280,304246,1,8,0:0:0:0:
176,116,304411,1,0,0:0:0:0:
176,116,304493,1,0,0:0:0:0:
172,116,304575,1,0,0:0:0:0:
172,116,304658,1,0,0:0:0:0:
440,312,304740,1,8,0:0:0:0:
172,116,304905,1,0,0:0:0:0:
172,116,304987,1,0,0:0:0:0:
440,312,305070,5,8,0:0:0:0:
156,100,305235,1,0,0:0:0:0:
200,136,305317,1,0,0:0:0:0:
168,92,305400,1,0,0:0:0:0:
168,92,305482,1,0,0:0:0:0:
320,292,305564,1,8,0:0:0:0:
352,280,305729,1,8,0:0:0:0:
348,284,305812,1,8,0:0:0:0:
148,96,305894,1,0,0:0:0:0:
148,96,305976,1,0,0:0:0:0:
400,264,306059,1,8,0:0:0:0:
160,92,306224,1,0,0:0:0:0:
160,92,306306,1,0,0:0:0:0:
400,264,306389,5,8,0:0:0:0:
144,124,306553,1,0,0:0:0:0:
144,124,306636,1,0,0:0:0:0:
144,124,306718,1,0,0:0:0:0:
144,124,306801,1,0,0:0:0:0:
324,288,306883,1,8,0:0:0:0:
152,120,307048,1,0,0:0:0:0:
152,120,307130,1,0,0:0:0:0:
152,120,307213,1,0,0:0:0:0:
312,252,307378,1,8,0:0:0:0:
312,268,307460,1,8,0:0:0:0:
136,108,307542,1,0,0:0:0:0:
312,252,307707,1,8,0:0:0:0:
160,144,307790,1,0,0:0:0:0:
352,284,307872,1,8,0:0:0:0:
352,284,307954,1,8,0:0:0:0:
344,264,308037,1,8,0:0:0:0:
152,128,308119,1,0,0:0:0:0:
160,144,308202,1,0,0:0:0:0:
160,144,308284,1,0,0:0:0:0:
324,252,308367,1,8,0:0:0:0:
280,236,308449,1,8,0:0:0:0:
164,128,308531,1,0,0:0:0:0:
328,268,308614,1,8,0:0:0:0:
160,124,308696,1,0,0:0:0:0:
160,124,308779,1,0,0:0:0:0:
312,260,308861,1,8,0:0:0:0:
304,252,308943,1,8,0:0:0:0:
184,260,309026,5,0,0:0:0:0:
368,288,309191,1,8,0:0:0:0:
328,268,309273,1,8,0:0:0:0:
108,88,309356,1,0,0:0:0:0:
104,64,309438,1,0,0:0:0:0:
396,316,309520,1,8,0:0:0:0:
112,104,309685,1,0,0:0:0:0:
368,300,309768,1,8,0:0:0:0:
136,96,309850,1,0,0:0:0:0:
136,96,309932,1,0,0:0:0:0:
408,284,310015,1,8,0:0:0:0:
368,304,310097,1,8,0:0:0:0:
124,108,310180,1,0,0:0:0:0:
408,284,310345,5,8,0:0:0:0:
332,264,310427,1,8,0:0:0:0:
112,104,310509,1,0,0:0:0:0:
136,96,310592,1,0,0:0:0:0:
136,128,310674,1,0,0:0:0:0:
356,272,310839,1,8,0:0:0:0:
332,252,310921,1,8,0:0:0:0:
124,132,311004,1,0,0:0:0:0:
332,264,311086,1,8,0:0:0:0:
332,264,311169,1,8,0:0:0:0:
128,120,311334,1,0,0:0:0:0:
164,128,311416,1,0,0:0:0:0:
144,108,311498,1,0,0:0:0:0:
144,108,311581,1,0,0:0:0:0:
348,280,311663,5,8,0:0:0:0:
348,288,311828,1,8,0:0:0:0:
120,108,311993,1,0,0:0:0:0:
132,112,312075,1,0,0:0:0:0:
360,292,312158,1,8,0:0:0:0:
380,284,312240,1,8,0:0:0:0:
352,264,312323,1,8,0:0:0:0:
332,252,312405,1,8,0:0:0:0:
136,104,312487,1,0,0:0:0:0:
364,288,312652,1,8,0:0:0:0:
144,116,312735,1,0,0:0:0:0:
288,248,312817,1,8,0:0:0:0:
288,248,312900,1,8,0:0:0:0:
120,120,312982,5,0,0:0:0:0:
352,268,313147,1,8,0:0:0:0:
148,124,313312,1,0,0:0:0:0:
148,124,313394,1,0,0:0:0:0:
304,276,313476,1,8,0:0:0:0:
332,252,313559,1,8,0:0:0:0:
144,116,313641,1,0,0:0:0:0:
352,268,313806,1,8,0:0:0:0:
332,252,313889,1,8,0:0:0:0:
132,120,313971,1,0,0:0:0:0:
332,280,314053,1,8,0:0:0:0:
368,280,314136,1,8,0:0:0:0:
368,280,314218,1,8,0:0:0:0:
132,120,314301,5,0,0:0:0:0:
392,304,314465,1,8,0:0:0:0:
392,304,314548,1,8,0:0:0:0:
180,136,314630,1,0,0:0:0:0:
332,252,314713,1,8,0:0:0:0:
368,264,314795,1,8,0:0:0:0:
148,112,314878,1,0,0:0:0:0:
176,156,314960,1,0,0:0:0:0:
172,128,315125,1,0,0:0:0:0:
208,164,315207,1,0,0:0:0:0:
400,288,315290,1,8,0:0:0:0:
192,160,315372,1,0,0:0:0:0:
404,288,315454,1,8,0:0:0:0:
160,108,315537,1,0,0:0:0:0:
168,108,315619,5,0,0:0:0:0:
400,288,315784,1,8,0:0:0:0:
368,264,315867,1,8,0:0:0:0:
88,84,315949,1,0,0:0:0:0:
360,272,316031,1,8,0:0:0:0:
396,300,316114,1,8,0:0:0:0:
360,268,316196,1,8,0:0:0:0:
136,164,316279,1,0,0:0:0:0:
328,304,316443,1,8,0:0:0:0:
124,104,316526,1,0,0:0:0:0:
344,272,316608,1,8,0:0:0:0:
344,272,316691,1,8,0:0:0:0:
140,120,316773,1,0,0:0:0:0:
140,120,316856,1,0,0:0:0:0:
372,260,316938,1,8,0:0:0:0:
172,144,317103,1,0,0:0:0:0:
348,264,317268,1,8,0:0:0:0:
136,120,317350,1,0,0:0:0:0:
368,268,317432,1,8,0:0:0:0:
368,268,317515,1,8,0:0:0:0:
172,144,317597,1,0,0:0:0:0:
164,112,317680,1,0,0:0:0:0:
344,272,317762,1,8,0:0:0:0:
160,112,317845,1,0,0:0:0:0:
384,288,317927,1,8,0:0:0:0:
340,276,318092,1,8,0:0:0:0:
344,228,318174,1,8,0:0:0:0:
124,108,318257,5,0,0:0:0:0:
328,256,318421,1,8,0:0:0:0:
136,128,318504,1,0,0:0:0:0:
136,128,318586,1,0,0:0:0:0:
172,112,318669,1,0,0:0:0:0:
356,280,318751,1,8,0:0:0:0:
128,96,318834,1,0,0:0:0:0:
384,264,318916,1,8,0:0:0:0:
120,112,318998,1,0,0:0:0:0:
404,300,319081,1,8,0:0:0:0:
404,300,319163,1,8,0:0:0:0:
160,136,319246,1,0,0:0:0:0:
396,332,319328,1,8,0:0:0:0:
160,136,319411,1,0,0:0:0:0:
144,136,319493,1,0,0:0:0:0:
340,280,319575,5,8,0:0:0:0:
384,300,319740,1,8,0:0:0:0:
408,280,319823,1,8,0:0:0:0:
180,120,319905,1,0,0:0:0:0:
144,92,319987,1,0,0:0:0:0:
364,256,320070,1,8,0:0:0:0:
144,92,320235,1,0,0:0:0:0:
172,96,320317,1,0,0:0:0:0:
372,272,320400,1,8,0:0:0:0:
172,140,320482,1,0,0:0:0:0:
172,140,320564,1,0,0:0:0:0:
144,92,320647,1,0,0:0:0:0:
404,304,320729,1,8,0:0:0:0:
160,116,320894,1,0,0:0:0:0:
416,272,321059,1,8,0:0:0:0:
160,116,321141,1,0,0:0:0:0:
184,116,321306,1,0,0:0:0:0:
360,236,321389,1,8,0:0:0:0:
372,252,321471,1,8,0:0:0:0:
192,104,321553,1,0,0:0:0:0:
168,116,321636,1,0,0:0:0:0:
400,240,321718,1,8,0:0:0:0:
204,108,321883,1,0,0:0:0:0:
372,256,321965,1,8,0:0:0:0:
144,96,322048,1,0,0:0:0:0:
144,92,322130,1,0,0:0:0:0:
388,272,322213,5,8,0:0:0:0:
372,252,322378,1,8,0:0:0:0:
324,264,322460,1,8,0:0:0:0:
180,112,322542,1,0,0:0:0:0:
372,256,322625,1,8,0:0:0:0:
400,256,322707,1,8,0:0:0:0:
184,112,322790,1,0,0:0:0:0:
400,256,322872,1,8,0:0:0:0:
160,104,323037,1,0,0:0:0:0:
404,304,323202,1,8,0:0:0:0:
400,280,323284,1,8,0:0:0:0:
220,152,323367,1,0,0:0:0:0:
172,104,323449,1,0,0:0:0:0:
388,260,323531,5,8,0:0:0:0:
368,300,323696,1,8,0:0:0:0:
404,276,323779,1,8,0:0:0:0:
160,88,323861,1,0,0:0:0:0:
160,88,323943,1,0,0:0:0:0:
376,280,324026,1,8,0:0:0:0:
64,112,324108,1,0,0:0:0:0:
376,280,324191,1,8,0:0:0:0:
196,120,324356,1,0,0:0:0:0:
400,264,324438,1,8,0:0:0:0:
180,136,324520,1,0,0:0:0:0:
180,136,324603,1,0,0:0:0:0:
324,260,324685,1,8,0:0:0:0:
184,128,324768,1,0,0:0:0:0:
392,252,324850,5,8,0:0:0:0:
172,116,325015,1,0,0:0:0:0:
172,116,325097,1,0,0:0:0:0:
172,116,325180,1,0,0:0:0:0:
188,132,325262,1,0,0:0:0:0:
380,280,325345,1,8,0:0:0:0:
176,116,325509,1,0,0:0:0:0:
176,116,325592,1,0,0:0:0:0:
172,116,325674,1,0,0:0:0:0:
172,116,325757,1,0,0:0:0:0:
440,312,325839,1,8,0:0:0:0:
172,116,326004,1,0,0:0:0:0:
172,116,326086,1,0,0:0:0:0:
440,312,326169,5,8,0:0:0:0:
156,100,326334,1,0,0:0:0:0:
200,136,326416,1,0,0:0:0:0:
168,92,326498,1,0,0:0:0:0:
168,92,326581,1,0,0:0:0:0:
320,292,326663,1,8,0:0:0:0:
352,280,326828,1,8,0:0:0:0:
348,284,326911,1,8,0:0:0:0:
148,96,326993,1,0,0:0:0:0:
148,96,327075,1,0,0:0:0:0:
400,264,327158,1,8,0:0:0:0:
368,232,327240,1,8,0:0:0:0:
160,92,327323,1,0,0:0:0:0:
160,92,327405,1,0,0:0:0:0:
400,264,327487,5,8,0:0:0:0:
116,80,327652,1,0,0:0:0:0:
116,80,327735,1,0,0:0:0:0:
116,80,327817,1,0,0:0:0:0:
116,80,327900,1,0,0:0:0:0:
380,296,327982,1,8,0:0:0:0:
108,112,328147,1,0,0:0:0:0:
108,112,328229,1,0,0:0:0:0:
108,112,328312,1,0,0:0:0:0:
108,112,328394,1,0,0:0:0:0:
384,268,328476,1,8,0:0:0:0:
108,96,328641,1,0,0:0:0:0:
108,96,328724,1,0,0:0:0:0:
344,256,328806,5,8,0:0:0:0:
140,100,328971,1,0,0:0:0:0:
140,100,329053,1,0,0:0:0:0:
140,100,329136,1,0,0:0:0:0:
140,100,329218,1,0,0:0:0:0:
356,260,329301,1,8,0:0:0:0:
352,300,329465,1,8,0:0:0:0:
220,160,329548,1,0,0:0:0:0:
360,296,329630,1,8,0:0:0:0:
360,296,329713,1,8,0:0:0:0:
200,164,329795,1,0,0:0:0:0:
368,280,329878,1,8,0:0:0:0:
176,136,329960,1,0,0:0:0:0:
176,136,330042,1,0,0:0:0:0:
336,292,330125,5,8,0:0:0:0:
192,72,330290,1,0,0:0:0:0:
192,72,330372,1,0,0:0:0:0:
192,72,330454,1,0,0:0:0:0:
340,260,330619,1,8,0:0:0:0:
100,100,330784,1,0,0:0:0:0:
100,100,330867,1,0,0:0:0:0:
100,100,330949,1,0,0:0:0:0:
100,100,331031,1,0,0:0:0:0:
324,260,331114,1,8,0:0:0:0:
100,100,331279,1,0,0:0:0:0:
100,100,331361,1,0,0:0:0:0:
320,248,331443,1,8,0:0:0:0:
100,100,331608,1,0,0:0:0:0:
100,100,331691,1,0,0:0:0:0:
100,100,331773,1,0,0:0:0:0:
100,100,331856,1,0,0:0:0:0:
320,248,331938,1,8,0:0:0:0:
312,252,332103,1,8,0:0:0:0:
116,108,332268,1,0,0:0:0:0:
116,108,332350,1,0,0:0:0:0:
320,248,332432,1,8,0:0:0:0:
116,108,332597,1,0,0:0:0:0:
116,108,332680,1,0,0:0:0:0:
320,248,332762,1,8,0:0:0:0:
360,288,332845,1,8,0:0:0:0:
136,68,332927,1,0,0:0:0:0:
136,68,332982,1,0,0:0:0:0:
136,68,333037,1,0,0:0:0:0:
348,248,333092,1,8,0:0:0:0:
364,244,333174,1,8,0:0:0:0:
152,140,333257,1,0,0:0:0:0:
152,140,333312,1,0,0:0:0:0:
152,140,333367,1,0,0:0:0:0:
336,252,333421,1,8,0:0:0:0:
352,256,333504,1,8,0:0:0:0:
136,112,333586,1,0,0:0:0:0:
364,256,333751,1,8,0:0:0:0:
364,256,333806,1,8,0:0:0:0:
364,256,333861,1,8,0:0:0:0:
184,124,333971,1,0,0:0:0:0:
176,120,334081,5,0,0:0:0:0:
340,200,334191,1,8,0:0:0:0:
420,264,334301,1,8,0:0:0:0:
168,128,334411,1,0,0:0:0:0:
352,248,334520,1,8,0:0:0:0:
120,112,334630,1,0,0:0:0:0:
120,112,334740,1,0,0:0:0:0:
356,260,334850,1,8,0:0:0:0:
184,168,334960,1,0,0:0:0:0:
336,260,335070,1,8,0:0:0:0:
300,280,335400,5,12,0:0:0:0:
140,128,335564,1,0,0:0:0:0:
300,280,335729,5,12,0:0:0:0:
140,128,335894,1,0,0:0:0:0:
300,280,336059,5,12,0:0:0:0:
140,128,336224,1,0,0:0:0:0:
300,280,336389,5,12,0:0:0:0:
140,128,336553,1,0,0:0:0:0:
300,280,336718,5,12,0:0:0:0:
140,128,336883,1,0,0:0:0:0:
300,280,337048,5,12,0:0:0:0:
140,128,337213,1,0,0:0:0:0:
300,280,337378,5,12,0:0:0:0:
140,128,337542,1,4,0:0:0:0:
300,280,337707,5,12,0:0:0:0:
140,128,337872,1,0,0:0:0:0:
300,280,338037,5,12,0:0:0:0:
140,128,338202,1,0,0:0:0:0:
300,280,338367,5,12,0:0:0:0:
140,128,338531,1,0,0:0:0:0:
300,280,338696,5,12,0:0:0:0:
140,128,338861,1,0,0:0:0:0:
300,280,339026,5,12,0:0:0:0:
140,128,339191,1,0,0:0:0:0:
300,280,339356,5,12,0:0:0:0:
140,128,339520,1,0,0:0:0:0:
300,280,339685,5,12,0:0:0:0:
140,128,339850,1,0,0:0:0:0:
300,280,340015,5,12,0:0:0:0:
140,128,340345,5,4,0:0:0:0:
140,128,340674,5,0,0:0:0:0:
120,132,340757,1,0,0:0:0:0:
352,276,340839,1,8,0:0:0:0:
136,148,340921,1,0,0:0:0:0:
136,144,341004,1,0,0:0:0:0:
136,144,341086,1,0,0:0:0:0:
352,276,341169,1,8,0:0:0:0:
360,252,341251,1,8,0:0:0:0:
124,112,341334,1,0,0:0:0:0:
372,296,341416,1,8,0:0:0:0:
124,120,341498,1,0,0:0:0:0:
152,112,341581,1,0,0:0:0:0:
364,272,341663,1,8,0:0:0:0:
168,132,341746,1,0,0:0:0:0:
360,264,341828,1,8,0:0:0:0:
384,260,341911,1,8,0:0:0:0:
164,136,341993,1,0,0:0:0:0:
120,96,342075,1,0,0:0:0:0:
368,264,342158,1,8,0:0:0:0:
168,112,342240,1,0,0:0:0:0:
376,260,342323,1,8,0:0:0:0:
376,260,342405,1,8,0:0:0:0:
172,160,342487,1,0,0:0:0:0:
136,96,342570,1,0,0:0:0:0:
364,272,342652,1,8,0:0:0:0:
164,116,342735,1,0,0:0:0:0:
368,252,342817,1,8,0:0:0:0:
368,252,342900,1,8,0:0:0:0:
368,252,342982,1,8,0:0:0:0:
140,116,343064,1,0,0:0:0:0:
376,280,343147,1,8,0:0:0:0:
340,256,343312,5,8,0:0:0:0:
312,244,343394,1,8,0:0:0:0:
92,84,343476,1,0,0:0:0:0:
92,84,343559,1,0,0:0:0:0:
92,84,343641,1,0,0:0:0:0:
92,84,343724,1,0,0:0:0:0:
340,256,343806,1,8,0:0:0:0:
348,296,343889,1,8,0:0:0:0:
84,112,343971,1,0,0:0:0:0:
84,112,344053,1,0,0:0:0:0:
84,112,344136,1,0,0:0:0:0:
84,112,344218,1,0,0:0:0:0:
340,256,344301,1,8,0:0:0:0:
352,268,344383,1,8,0:0:0:0:
92,120,344465,1,0,0:0:0:0:
340,256,344630,5,12,0:0:0:0:
112,80,344850,1,0,0:0:0:0:
112,80,345084,1,0,0:0:0:0:
340,256,345290,1,12,0:0:0:0:
136,92,345509,1,0,0:0:0:0:
124,92,345729,1,0,0:0:0:0:
132,256,345949,5,4,0:0:0:0:
328,252,346114,1,8,0:0:0:0:
104,96,346279,1,0,0:0:0:0:
104,96,346361,1,0,0:0:0:0:
328,252,346443,1,8,0:0:0:0:
104,96,346608,1,0,0:0:0:0:
144,124,346773,1,0,0:0:0:0:
144,124,346856,1,0,0:0:0:0:
356,276,346938,1,8,0:0:0:0:
144,124,347020,1,0,0:0:0:0:
356,276,347103,1,8,0:0:0:0:
144,124,347268,1,0,0:0:0:0:
364,296,347432,1,8,0:0:0:0:
144,124,347515,1,0,0:0:0:0:
144,124,347597,1,0,0:0:0:0:
144,124,347762,1,0,0:0:0:0:
144,124,347845,1,0,0:0:0:0:
376,264,347927,1,8,0:0:0:0:
384,296,348009,1,8,0:0:0:0:
168,112,348092,1,0,0:0:0:0:
376,264,348257,1,8,0:0:0:0:
128,120,348421,1,0,0:0:0:0:
128,120,348504,1,0,0:0:0:0:
340,280,348586,1,8,0:0:0:0:
128,120,348669,1,0,0:0:0:0:
340,280,348751,1,8,0:0:0:0:
128,120,348916,1,0,0:0:0:0:
128,120,348998,1,0,0:0:0:0:
356,264,349081,1,8,0:0:0:0:
128,120,349163,1,0,0:0:0:0:
128,120,349246,1,0,0:0:0:0:
356,264,349411,1,8,0:0:0:0:
356,264,349575,1,8,0:0:0:0:
128,120,349658,1,0,0:0:0:0:
356,264,349740,1,8,0:0:0:0:
388,276,349823,1,8,0:0:0:0:
72,112,349905,1,0,0:0:0:0:
328,252,350070,1,8,0:0:0:0:
96,144,350235,1,0,0:0:0:0:
120,140,350317,1,0,0:0:0:0:
356,288,350400,1,8,0:0:0:0:
160,152,350482,1,0,0:0:0:0:
320,268,350564,1,8,0:0:0:0:
332,316,350729,1,12,0:0:0:0:
160,128,350894,1,0,0:0:0:0:
296,284,351059,1,12,0:0:0:0:
144,136,351224,5,4,0:0:0:0:
360,268,351389,1,8,0:0:0:0:
116,156,351553,1,0,0:0:0:0:
116,156,351636,1,0,0:0:0:0:
360,268,351718,1,8,0:0:0:0:
112,156,351883,1,0,0:0:0:0:
360,256,352048,1,8,0:0:0:0:
124,104,352130,1,0,0:0:0:0:
360,256,352213,1,8,0:0:0:0:
364,272,352295,1,8,0:0:0:0:
116,156,352378,1,0,0:0:0:0:
344,256,352542,1,8,0:0:0:0:
344,256,352707,1,8,0:0:0:0:
120,144,352872,1,0,0:0:0:0:
120,144,352954,1,0,0:0:0:0:
344,256,353037,1,8,0:0:0:0:
120,144,353119,1,0,0:0:0:0:
344,256,353202,1,8,0:0:0:0:
160,272,353367,1,4,0:0:0:0:
352,92,353531,1,12,0:0:0:0:
88,144,353861,5,0,0:0:0:0:
88,144,353943,1,0,0:0:0:0:
88,144,354026,1,0,0:0:0:0:
88,144,354108,1,0,0:0:0:0:
88,144,354191,1,0,0:0:0:0:
88,144,354273,1,0,0:0:0:0:
88,144,354356,1,0,0:0:0:0:
88,144,354438,1,0,0:0:0:0:
328,264,354520,1,8,0:0:0:0:
88,144,354850,5,0,0:0:0:0:
88,144,354932,1,0,0:0:0:0:
88,144,355015,1,0,0:0:0:0:
88,144,355097,1,0,0:0:0:0:
88,144,355180,1,0,0:0:0:0:
88,144,355262,1,0,0:0:0:0:
100,116,355345,1,0,0:0:0:0:
100,116,355427,1,0,0:0:0:0:
304,268,355509,1,8,0:0:0:0:
144,140,355674,1,0,0:0:0:0:
348,272,355839,1,8,0:0:0:0:
152,148,355921,1,0,0:0:0:0:
356,288,356004,1,8,0:0:0:0:
356,288,356086,1,8,0:0:0:0:
356,288,356169,1,8,0:0:0:0:
144,128,356251,1,0,0:0:0:0:
328,260,356334,1,8,0:0:0:0:
328,268,356416,1,8,0:0:0:0:
144,140,356498,5,0,0:0:0:0:
