osu file format v14

[General]
AudioFilename: audio.mp3
AudioLeadIn: 0
PreviewTime: 221881
Countdown: 0
SampleSet: Drum
StackLeniency: 0.4
Mode: 0
LetterboxInBreaks: 0
WidescreenStoryboard: 0

[Editor]
Bookmarks: 16814,37733,58489,79246,100003,118165,142979,158547,175884,192855,211908,222286,232665,253421,276935,292502,307745
DistanceSpacing: 1.9
BeatDivisor: 6
GridSize: 32
TimelineZoom: 3.099999

[Metadata]
Title:Youyoumu ~ The Woman Who Sold the Moon
TitleUnicode:妖々夢 ~ The Woman Who Sold the Moon
Artist:Demetori
ArtistUnicode:Demetori
Creator:Realazy
Version:Great Hakurei Border
Source:東方妖々夢 ~ Perfect Cherry Blossom.
Tags:Daiyousei Daiyouseii- Unknown Anon felys collab 東方Project Touhou 06 TH06 PCB 西行寺幽々子 Yuyuko Saigyouji 八雲紫 Yukari Yakumo Ghostly Dream Snow or Cherry Petal Title Screen Theme ZUN Team Shanghai Alice Determinism&DestrucKtion DECD-0012 C92 Comiket 92 Heavy Metal Rock Instrumental
BeatmapID:2285780
BeatmapSetID:1093663

[Difficulty]
HPDrainRate:6
CircleSize:4.5
OverallDifficulty:9
ApproachRate:9.2
SliderMultiplier:1.8
SliderTickRate:1

[Events]
//Background and Video events
0,0,"youyoumu.jpg",0,0
//Break Periods
//Storyboard Layer 0 (Background)
//Storyboard Layer 1 (Fail)
//Storyboard Layer 2 (Pass)
//Storyboard Layer 3 (Foreground)
//Storyboard Layer 4 (Overlay)
//Storyboard Sound Samples

[TimingPoints]
5301,324.324324324324,4,3,0,10,1,0
10328,-100,4,3,0,20,0,0
12922,-100,4,3,0,30,0,0
14219,-100,4,3,0,40,0,0
15517,-100,4,3,0,50,0,0
16165,-100,4,3,1,50,0,0
16814,-100,4,3,1,60,0,0
17300,-100,4,3,2,60,0,0
19408,-100,4,3,8,60,0,0
19895,-100,4,3,2,60,0,0
20949,-100,4,2,2,60,0,0
21030,-83.3333333333333,4,3,2,60,0,0
21516,-83.3333333333333,4,3,6,60,0,0
22003,-100,4,3,1,60,0,0
22489,-100,4,3,2,60,0,0
24597,-100,4,3,8,60,0,0
25084,-100,4,3,2,60,0,0
26381,-100,4,3,8,60,0,0
27192,-100,4,3,1,60,0,0
27678,-100,4,3,2,60,0,0
28732,-100,4,2,2,60,0,0
28814,-90.9090909090909,4,3,2,60,0,0
29787,-100,4,3,8,60,0,0
30273,-100,4,3,2,60,0,0
31084,-83.3333333333333,4,3,2,60,0,0
31570,-83.3333333333333,4,3,3,60,0,0
31895,-83.3333333333333,4,3,6,60,0,0
32381,-100,4,3,1,60,0,0
32868,-100,4,3,2,60,0,0
34246,-100,4,2,2,60,0,0
34327,-100,4,3,2,60,0,0
34976,-100,4,3,8,60,0,0
35462,-100,4,3,3,60,0,0
35949,-100,4,3,11,60,0,0
36273,-117.647058823529,4,3,1,60,0,0
36760,-117.647058823529,4,3,6,60,0,0
36922,-117.647058823529,4,3,11,60,0,0
37030,-117.647058823529,4,3,12,60,0,0
37084,-117.647058823529,4,3,1,60,0,0
37733,-125,4,3,1,60,0,0
38057,-125,4,3,4,60,0,0
38949,-125,4,2,4,5,0,0
39030,-125,4,3,4,60,0,0
40165,-125,4,3,5,35,0,0
40246,-125,4,2,5,60,0,0
40327,-125,4,3,4,60,0,0
41543,-125,4,2,4,5,0,0
41624,-125,4,3,4,60,0,0
42922,-125,4,3,1,60,0,0
43246,-125,4,3,4,60,0,0
44138,-125,4,2,4,5,0,0
44219,-125,4,3,4,60,0,0
47138,-125,4,3,5,60,0,0
47300,-125,4,3,11,60,0,0
47408,-125,4,3,12,60,0,0
47462,-125,4,3,5,60,0,0
47787,-125,4,3,3,60,0,0
47949,-125,4,2,3,60,0,0
48111,-100,4,3,1,60,0,0
48435,-100,4,3,5,60,0,0
50624,-100,4,2,5,60,0,0
50706,-100,4,3,1,60,0,0
51030,-100,4,3,5,60,0,0
51922,-100,4,2,5,60,0,0
52003,-76.9230769230769,4,3,6,60,0,0
52327,-125,4,3,3,60,0,0
52570,-125,4,2,3,60,0,0
52651,-76.9230769230769,4,3,6,60,0,0
52976,-125,4,3,3,60,0,0
53219,-125,4,2,3,60,0,0
53300,-100,4,3,1,60,0,0
53624,-100,4,3,5,60,0,0
54597,-100,4,3,1,60,0,0
54922,-100,4,3,5,60,0,0
55327,-100,4,2,5,60,0,0
55408,-100,4,3,5,60,0,0
55895,-100,4,3,1,60,0,0
56868,-100,4,3,3,60,0,0
58490,-90.9090909090909,4,3,1,60,0,1
58813,-90.9090909090909,4,3,2,60,0,1
59057,-90.9090909090909,4,2,2,60,0,1
59138,-90.9090909090909,4,3,2,60,0,1
59219,-90.9090909090909,4,2,2,60,0,1
59300,-90.9090909090909,4,3,2,60,0,1
61003,-90.9090909090909,4,2,2,60,0,1
61084,-90.9090909090909,4,3,2,60,0,1
61814,-90.9090909090909,4,2,2,60,0,1
61895,-90.9090909090909,4,3,2,60,0,1
64246,-90.9090909090909,4,2,2,60,0,1
64327,-90.9090909090909,4,3,2,60,0,1
64408,-90.9090909090909,4,2,2,60,0,1
64489,-90.9090909090909,4,3,2,60,0,1
64895,-90.9090909090909,4,2,2,60,0,1
64976,-90.9090909090909,4,3,2,60,0,1
65138,-90.9090909090909,4,2,2,60,0,1
65300,-90.9090909090909,4,3,2,60,0,1
66273,-80,4,3,2,60,0,1
67894,-80,4,3,8,60,0,1
68381,-80,4,3,11,60,0,1
68543,-80,4,3,1,60,0,1
68706,-80,4,3,11,60,0,1
68868,-90.9090909090909,4,3,1,60,0,1
69192,-90.9090909090909,4,3,6,60,0,1
69435,-90.9090909090909,4,2,6,60,0,1
69516,-90.9090909090909,4,3,6,60,0,1
69597,-90.9090909090909,4,2,6,60,0,1
69678,-90.9090909090909,4,3,6,60,0,1
71381,-90.9090909090909,4,2,6,60,0,1
71462,-90.9090909090909,4,3,6,60,0,1
72192,-90.9090909090909,4,2,6,60,0,1
72273,-90.9090909090909,4,3,6,60,0,1
74057,-90.9090909090909,4,3,1,60,0,1
74381,-90.9090909090909,4,3,5,60,0,1
74787,-90.9090909090909,4,2,5,60,0,1
74868,-90.9090909090909,4,3,5,60,0,1
75354,-90.9090909090909,4,3,1,60,0,1
76327,-90.9090909090909,4,3,3,60,0,1
76651,-250,4,3,1,60,0,1
77786,-250,4,2,1,60,0,1
77949,-250,4,3,1,60,0,1
78003,-250,4,2,1,60,0,1
78597,-133.333333333333,4,3,1,60,0,1
78760,-133.333333333333,4,3,3,60,0,1
79165,-133.333333333333,4,3,99,60,0,1
79246,-133.333333333333,4,3,1,60,0,0
79570,-133.333333333333,4,3,4,60,0,0
81678,-133.333333333333,4,3,6,60,0,0
81841,-133.333333333333,4,3,4,60,0,0
83624,-133.333333333333,4,3,6,60,0,0
83787,-133.333333333333,4,3,4,60,0,0
83949,-133.333333333333,4,3,6,60,0,0
84111,-133.333333333333,4,3,4,60,0,0
84273,-133.333333333333,4,3,11,60,0,0
84435,-133.333333333333,4,3,1,60,0,0
84922,-100,4,3,4,60,0,0
85651,-100,4,2,4,60,0,0
85733,-133.333333333333,4,3,1,60,0,0
86219,-100,4,3,4,60,0,0
86949,-100,4,2,4,60,0,0
87030,-100,4,3,1,60,0,0
87354,-100,4,2,1,60,0,0
87516,-133.333333333333,4,3,4,60,0,0
87759,-133.333333333333,4,2,4,60,0,0
87841,-133.333333333333,4,3,4,60,0,0
89624,-100,4,3,1,60,0,0
89948,-100,4,3,5,60,0,0
92219,-100,4,3,1,60,0,0
92462,-100,4,2,1,60,0,0
92543,-100,4,3,5,60,0,0
93516,-100,4,3,6,60,0,0
93841,-100,4,3,3,60,0,0
94165,-100,4,3,6,60,0,0
94489,-100,4,3,3,60,0,0
94814,-100,4,3,1,60,0,0
95787,-100,4,3,3,60,0,0
96111,-100,4,3,1,60,0,0
97084,-100,4,3,3,60,0,0
97489,-100,4,3,11,60,0,0
97570,-100,4,3,1,60,0,0
97733,-100,4,3,11,60,0,0
97895,-100,4,3,1,60,0,0
98138,-100,4,3,11,60,0,0
98381,-100,4,3,1,60,0,0
98462,-100,4,3,11,60,0,0
98543,-100,4,3,1,60,0,0
98787,-100,4,3,11,60,0,0
98868,-100,4,3,1,60,0,0
99030,-100,4,3,12,60,0,0
99354,-100,4,3,1,60,0,0
99678,-166.666666666667,4,3,3,60,0,0
99922,-166.666666666667,4,3,3,60,0,0
100003,-83.3333333333333,4,3,1,60,0,1
100327,-83.3333333333333,4,3,2,60,0,1
100570,-83.3333333333333,4,2,2,60,0,1
100651,-83.3333333333333,4,3,2,60,0,1
101219,-83.3333333333333,4,2,2,60,0,1
101300,-83.3333333333333,4,3,2,60,0,1
102516,-83.3333333333333,4,2,2,60,0,1
102597,-83.3333333333333,4,3,2,60,0,1
105760,-83.3333333333333,4,2,2,60,0,1
105841,-83.3333333333333,4,3,2,60,0,1
106408,-83.3333333333333,4,2,2,60,0,1
106489,-83.3333333333333,4,3,2,60,0,1
106651,-83.3333333333333,4,2,2,60,0,1
106814,-83.3333333333333,4,3,2,60,0,1
107787,-74.0740740740741,4,3,2,60,0,1
109408,-74.0740740740741,4,3,3,60,0,1
109733,-74.0740740740741,4,3,11,60,0,1
110219,-74.0740740740741,4,3,12,60,0,1
110381,-83.3333333333333,4,3,1,60,0,1
110705,-83.3333333333333,4,3,6,60,0,1
110949,-83.3333333333333,4,2,6,60,0,1
111030,-83.3333333333333,4,3,6,60,0,1
111111,-83.3333333333333,4,2,6,60,0,1
111192,-83.3333333333333,4,3,6,60,0,1
112895,-83.3333333333333,4,2,6,60,0,1
112976,-83.3333333333333,4,3,1,60,0,1
113300,-83.3333333333333,4,3,6,60,0,1
115246,-83.3333333333333,4,3,8,60,0,1
115570,-83.3333333333333,4,3,1,60,0,1
115894,-83.3333333333333,4,3,5,60,0,1
116300,-83.3333333333333,4,2,5,60,0,1
116381,-83.3333333333333,4,3,5,60,0,1
116543,-83.3333333333333,4,3,3,60,0,1
116786,-83.3333333333333,4,2,3,60,0,1
116868,-83.3333333333333,4,3,1,60,0,1
117192,-83.3333333333333,4,3,8,60,0,1
118165,-200,4,3,1,60,0,0
118327,-200,4,2,1,40,0,0
120111,324.324324324324,4,3,1,40,1,0
120111,-200,4,3,1,40,0,0
120272,-200,4,2,1,40,0,0
120921,-200,4,3,3,60,0,0
121002,-200,4,2,3,40,0,0
122382,324.324324324324,4,3,1,60,1,0
122382,-200,4,3,1,60,0,0
122544,-200,4,2,0,40,0,0
122705,-200,4,2,1,40,0,0
124329,324.324324324324,4,3,1,60,1,0
124490,-100,4,3,3,60,0,0
125949,-100,4,3,3,35,0,0
126003,-100,4,3,3,60,0,0
126057,-100,4,2,3,60,0,0
126111,-100,4,3,11,60,0,0
126273,-100,4,3,1,60,0,0
126600,324.324324324324,4,3,0,60,1,0
126761,-100,4,3,1,60,0,0
127085,-100,4,3,8,60,0,0
128545,324.324324324324,4,3,8,60,1,0
128869,-100,4,3,3,60,0,0
129355,-100,4,3,6,60,0,0
130328,-100,4,3,3,60,0,0
130815,324.324324324324,4,3,1,60,1,0
131302,-100,4,3,8,60,0,0
131626,-100,4,3,6,60,0,0
132437,-100,4,3,3,60,0,0
132761,-100,4,3,1,60,0,0
133086,-100,4,3,3,60,0,0
133734,-100,4,3,6,60,0,0
134545,324.324324324324,4,3,1,60,1,0
135032,-100,4,3,8,60,0,0
136248,-100,4,2,8,60,0,0
136329,-100,4,3,8,60,0,0
136490,324.324324324324,4,3,6,60,1,0
136491,-100,4,3,6,60,0,0
136814,-100,4,3,3,60,0,0
136816,-100,4,3,3,60,0,0
137057,-100,4,2,3,60,0,0
137059,-100,4,2,3,60,0,0
137138,-100,4,3,3,60,0,0
137140,-100,4,3,3,60,0,0
137300,-100,4,3,1,60,0,0
137302,-100,4,3,1,60,0,0
137381,-100,4,2,1,60,0,0
137383,-100,4,2,1,60,0,0
137462,-100,4,3,1,60,0,0
137464,-100,4,3,1,60,0,0
137787,-100,4,3,6,60,0,0
137789,-100,4,3,6,60,0,0
138030,-100,4,3,1,35,0,0
138032,-100,4,3,1,35,0,0
138111,-100,4,3,1,60,0,0
138113,-100,4,3,1,60,0,0
138761,324.324324324324,4,3,1,60,1,0
139247,-100,4,3,6,60,0,0
139249,-100,4,3,6,60,0,0
140706,324.324324324324,4,3,5,60,1,0
140708,-100,4,3,5,60,0,0
141922,-100,4,3,11,60,0,0
141925,-100,4,3,11,60,0,0
142003,-100,4,3,1,60,0,0
142006,-100,4,3,1,60,0,0
142165,-100,4,3,11,60,0,0
142168,-100,4,3,11,60,0,0
142327,-100,4,3,1,60,0,0
142330,-100,4,3,1,60,0,0
142651,-100,4,3,11,60,0,0
142654,-100,4,3,11,60,0,0
142814,-100,4,3,12,60,0,0
142817,-100,4,3,12,60,0,0
142976,324.324324324324,4,3,1,60,1,0
142976,-333.333333333333,4,3,1,60,0,0
146627,-333.333333333333,4,2,1,60,0,0
146867,-166.666666666667,4,2,0,30,0,0
147191,-166.666666666667,4,2,0,60,0,0
147195,-166.666666666667,4,2,0,60,0,0
148813,-166.666666666667,4,2,0,30,0,0
148817,-166.666666666667,4,2,0,30,0,0
149137,-166.666666666667,4,2,0,60,0,0
149141,-166.666666666667,4,2,0,60,0,0
149703,-166.666666666667,4,2,1,5,0,0
149716,-166.666666666667,4,2,0,60,0,0
150597,-166.666666666667,4,2,1,45,0,0
150601,-166.666666666667,4,2,1,45,0,0
150759,-142.857142857143,4,2,1,45,0,0
151246,-142.857142857143,4,2,1,60,0,0
151250,-142.857142857143,4,2,1,60,0,0
151570,-142.857142857143,4,2,1,45,0,0
151574,-142.857142857143,4,2,1,45,0,0
152709,-133.333333333333,4,2,1,45,0,0
152786,-133.333333333333,4,2,1,60,0,0
152790,-133.333333333333,4,2,1,60,0,0
153029,-133.333333333333,4,2,1,45,0,0
153033,-133.333333333333,4,2,1,45,0,0
154655,-125,4,2,1,45,0,0
154732,-125,4,2,1,60,0,0
154736,-125,4,2,1,60,0,0
154975,-125,4,2,1,45,0,0
154979,-125,4,2,1,45,0,0
155138,-125,4,2,1,60,0,0
155142,-125,4,2,1,60,0,0
155462,-125,4,2,1,45,0,0
155466,-125,4,2,1,45,0,0
156597,-500,4,2,1,45,0,0
158222,-500,4,2,1,60,0,0
158543,444.444444444444,4,3,1,60,1,0
158543,-142.857142857143,4,3,1,60,0,0
158991,444.444444444444,4,3,3,60,1,0
158991,-100,4,3,3,60,0,0
159324,-100,4,3,6,60,0,0
159988,-100,4,3,6,60,0,0
160100,-100,4,2,6,60,0,0
160102,-100,4,3,6,60,0,0
161768,-100,4,2,6,60,0,0
161879,-100,4,3,6,60,0,0
161988,-100,4,3,6,60,0,0
162100,-100,4,2,6,60,0,0
162102,444.444444444444,4,3,3,60,1,0
162435,-100,4,3,6,60,0,0
165211,-142.857142857143,4,2,6,60,0,0
165213,-142.857142857143,4,3,3,60,0,0
165546,-142.857142857143,4,3,99,60,0,0
165656,-100,4,3,1,60,0,0
167990,-100,4,3,3,60,0,0
168768,444.444444444444,4,3,3,60,1,0
169101,-100,4,3,6,60,0,0
170323,-100,4,3,1,60,0,0
170656,-100,4,3,6,60,0,0
171878,-200,4,3,3,60,0,0
172212,-200,4,3,99,60,0,0
172323,-76.9230769230769,4,3,1,60,0,0
172656,-76.9230769230769,4,3,6,60,0,0
173990,-76.9230769230769,4,2,6,60,0,0
174101,-76.9230769230769,4,3,6,60,0,0
174323,-76.9230769230769,4,2,6,60,0,0
174434,-76.9230769230769,4,3,6,60,0,0
175434,-125,4,3,3,60,0,0
175880,-66.6666666666667,4,3,3,60,0,0
175990,-66.6666666666667,4,2,3,60,0,0
176101,-66.6666666666667,4,3,3,60,0,0
176212,-66.6666666666667,4,3,6,60,0,0
177545,-66.6666666666667,4,2,6,60,0,0
177656,-66.6666666666667,4,3,6,60,0,0
177879,-66.6666666666667,4,2,6,60,0,0
177990,-66.6666666666667,4,3,6,60,0,0
178323,-66.6666666666667,4,2,6,60,0,0
178434,-66.6666666666667,4,3,6,60,0,0
178990,-133.333333333333,4,3,3,60,0,0
179156,-133.333333333333,4,2,3,60,0,0
179435,-76.9230769230769,4,3,1,60,0,0
181768,-76.9230769230769,4,3,3,60,0,0
182101,-76.9230769230769,4,3,1,60,0,0
182546,444.444444444444,4,3,3,60,1,0
182546,-76.9230769230769,4,3,3,60,0,0
182657,-76.9230769230769,4,2,3,60,0,0
182768,-76.9230769230769,4,3,3,60,0,0
182879,-76.9230769230769,4,3,6,60,0,0
183101,-76.9230769230769,4,2,6,60,0,0
183212,-76.9230769230769,4,3,6,60,0,0
184101,-76.9230769230769,4,3,1,60,0,0
184212,-76.9230769230769,4,2,1,60,0,0
184323,-76.9230769230769,4,3,1,60,0,0
184434,-76.9230769230769,4,3,6,60,0,0
184546,-76.9230769230769,4,2,6,60,0,0
184657,-76.9230769230769,4,3,6,60,0,0
184990,-76.9230769230769,4,2,6,60,0,0
185101,-76.9230769230769,4,3,6,60,0,0
185657,-153.846153846153,4,3,3,60,0,0
185823,-153.846153846153,4,2,3,60,0,0
186102,-76.9230769230769,4,3,1,60,0,0
187768,-76.9230769230769,4,2,1,60,0,0
187879,-76.9230769230769,4,3,1,60,0,0
188101,-76.9230769230769,4,2,1,60,0,0
188213,-76.9230769230769,4,3,1,60,0,0
188435,-76.9230769230769,4,3,3,60,0,0
188768,-76.9230769230769,4,3,1,60,0,0
189213,444.444444444444,4,3,3,60,1,0
189213,-76.9230769230769,4,3,3,60,0,0
189546,-76.9230769230769,4,3,6,60,0,0
190768,-76.9230769230769,4,3,1,60,0,0
191101,-76.9230769230769,4,3,6,60,0,0
192324,-153.846153846153,4,3,3,60,0,0
192768,324.324324324324,4,3,1,60,1,0
192769,-100,4,3,1,60,0,0
192930,-100,4,2,1,60,0,0
193092,-100,4,3,4,60,0,0
193254,-100,4,2,4,60,0,0
193416,-100,4,3,4,60,0,0
193578,-100,4,2,4,60,0,0
193740,-100,4,3,4,60,0,0
193902,-100,4,2,4,60,0,0
194065,-100,4,3,4,60,0,0
194389,-100,4,3,5,60,0,0
194551,-100,4,2,5,60,0,0
194713,-100,4,3,5,60,0,0
195038,324.324324324324,4,3,5,60,1,0
195362,-100,4,3,4,60,0,0
196010,-100,4,3,5,60,0,0
196497,-100,4,3,3,60,0,0
197956,-100,4,3,5,60,0,0
198686,-100,4,3,11,60,0,0
198767,-100,4,3,1,60,0,0
198929,-100,4,3,11,60,0,0
199091,-100,4,3,1,60,0,0
199253,-100,4,3,8,60,0,0
199577,-100,4,3,1,60,0,0
200550,-100,4,3,1,35,0,0
200604,-100,4,3,11,60,0,0
200712,-100,4,3,1,60,0,0
201199,-100,4,3,3,60,0,0
201523,-100,4,3,1,60,0,0
201848,-100,4,3,5,60,0,0
207037,-100,4,3,3,60,0,0
207361,-100,4,3,1,60,0,0
207686,-100,4,3,5,60,0,0
209306,324.324324324324,4,3,1,60,1,0
209630,-100,4,3,5,60,0,0
210927,-100,4,3,3,60,0,0
211576,-100,4,3,11,60,0,0
211900,-100,4,3,1,60,0,0
212224,-100,4,3,5,60,0,0
216116,-100,4,3,3,60,0,0
216440,-100,4,3,1,35,0,0
216495,-100,4,3,1,60,0,0
216499,-100,4,3,1,60,0,0
216683,-100,4,3,11,60,0,0
216688,-100,4,2,1,60,0,0
216764,-100,4,3,11,60,0,0
217413,-100,4,3,12,60,0,0
217575,-100,4,3,1,60,0,0
218062,-100,4,3,5,60,0,0
219602,-100,4,2,5,60,0,0
219683,-100,4,3,1,60,0,0
220007,-100,4,3,5,60,0,0
221142,-100,4,3,8,60,0,0
222277,-100,4,3,1,60,0,0
222601,-100,4,3,4,60,0,0
227466,-100,4,3,1,60,0,0
227791,-100,4,3,4,60,0,0
230061,-100,4,3,1,60,0,0
230385,-100,4,3,4,60,0,0
231683,-100,4,3,6,60,0,0
231845,-100,4,3,5,60,0,0
232007,-100,4,3,1,40,0,0
232088,-100,4,3,1,50,0,0
232169,-100,4,3,1,60,0,0
232980,-100,4,3,5,60,0,0
235250,-83.3333333333333,4,3,1,60,0,0
235574,-83.3333333333333,4,3,5,60,0,0
236466,-83.3333333333333,4,2,5,60,0,0
236547,-83.3333333333333,4,3,6,60,0,0
236872,-83.3333333333333,4,3,3,60,0,0
237196,-83.3333333333333,4,3,6,60,0,0
237520,-83.3333333333333,4,3,3,60,0,0
237845,-90.9090909090909,4,3,1,60,0,0
238655,-90.9090909090909,4,3,3,60,0,0
239142,-90.9090909090909,4,3,1,60,0,0
239953,-90.9090909090909,4,3,3,60,0,0
240520,-90.9090909090909,4,3,11,60,0,0
240764,-90.9090909090909,4,3,1,60,0,0
241007,-90.9090909090909,4,3,11,60,0,0
241250,-90.9090909090909,4,3,3,60,0,0
241655,-90.9090909090909,4,3,1,35,0,0
241737,-90.9090909090909,4,3,1,60,0,0
243035,-76.9230769230769,4,3,1,60,0,1
243358,-76.9230769230769,4,3,2,60,0,1
243601,-76.9230769230769,4,2,2,60,0,1
243682,-76.9230769230769,4,3,2,60,0,1
243763,-76.9230769230769,4,2,2,60,0,1
243845,-76.9230769230769,4,3,2,60,0,1
244250,-76.9230769230769,4,2,2,60,0,1
244331,-76.9230769230769,4,3,2,60,0,1
244493,-76.9230769230769,4,2,2,60,0,1
244655,-76.9230769230769,4,3,2,60,0,1
245547,-76.9230769230769,4,2,2,60,0,1
245628,-76.9230769230769,4,3,2,60,0,1
246358,-76.9230769230769,4,2,2,60,0,1
246439,-76.9230769230769,4,3,2,60,0,1
247088,-76.9230769230769,4,2,2,60,0,1
247250,-76.9230769230769,4,3,2,60,0,1
248791,-76.9230769230769,4,2,2,60,0,1
248872,-76.9230769230769,4,3,2,60,0,1
248953,-76.9230769230769,4,2,2,60,0,1
249034,-76.9230769230769,4,3,2,60,0,1
249439,-76.9230769230769,4,2,2,60,0,1
249520,-76.9230769230769,4,3,2,60,0,1
249682,-76.9230769230769,4,2,2,60,0,1
249845,-76.9230769230769,4,3,2,60,0,1
250169,-76.9230769230769,4,2,2,60,0,1
250331,-76.9230769230769,4,3,2,60,0,1
250737,-76.9230769230769,4,2,2,60,0,1
250818,-76.9230769230769,4,3,2,60,0,1
252034,-76.9230769230769,4,2,2,60,0,1
252115,-76.9230769230769,4,3,2,60,0,1
252439,-76.9230769230769,4,3,3,60,0,1
252764,-76.9230769230769,4,3,11,60,0,1
252872,-76.9230769230769,4,2,11,60,0,1
253088,-76.9230769230769,4,3,11,60,0,1
253196,-76.9230769230769,4,2,11,60,0,1
253412,-83.3333333333333,4,3,1,60,0,1
253737,-83.3333333333333,4,3,6,60,0,1
254142,-83.3333333333333,4,2,6,60,0,1
254223,-83.3333333333333,4,3,6,60,0,1
255277,-83.3333333333333,4,2,6,60,0,1
255358,-83.3333333333333,4,3,6,60,0,1
256007,-83.3333333333333,4,3,1,60,0,1
256331,-83.3333333333333,4,3,6,60,0,1
256736,-83.3333333333333,4,2,6,60,0,1
256818,-83.3333333333333,4,3,6,60,0,1
258277,-83.3333333333333,4,3,8,60,0,1
258601,-83.3333333333333,4,3,1,60,0,1
258925,-83.3333333333333,4,3,6,60,0,1
259899,-83.3333333333333,4,3,1,60,0,1
260142,-83.3333333333333,4,2,1,60,0,1
260223,-83.3333333333333,4,3,6,60,0,1
260304,-83.3333333333333,4,2,6,60,0,1
260385,-83.3333333333333,4,3,1,40,0,1
260547,-83.3333333333333,4,3,1,60,0,1
260872,-83.3333333333333,4,3,11,60,0,1
261034,-83.3333333333333,4,3,1,60,0,1
261197,-83.3333333333333,4,3,1,35,0,0
261250,-83.3333333333333,4,3,1,60,0,0
262493,-83.3333333333333,4,3,1,35,0,0
262547,-83.3333333333333,4,3,1,60,0,0
262817,-83.3333333333333,4,3,1,35,0,0
262871,-83.3333333333333,4,3,1,60,0,0
263141,-83.3333333333333,4,3,3,60,0,0
263222,-83.3333333333333,4,2,3,60,0,0
264763,-83.3333333333333,4,3,3,60,0,0
265088,-166.666666666667,4,3,3,60,0,0
266060,-83.3333333333333,4,2,3,60,0,0
266871,-83.3333333333333,4,3,3,60,0,0
267844,-83.3333333333333,4,3,1,60,0,0
267845,-166.666666666667,4,3,1,60,0,0
268087,-83.3333333333333,4,2,1,60,0,0
268168,-83.3333333333333,4,3,1,60,0,0
268331,-166.666666666667,4,3,1,60,0,0
268574,-83.3333333333333,4,2,1,60,0,0
268655,-83.3333333333333,4,3,1,60,0,0
268979,-83.3333333333333,4,3,3,60,0,0
270925,-166.666666666667,4,3,3,60,0,0
271168,-83.3333333333333,4,2,3,60,0,0
271250,-166.666666666667,4,3,3,60,0,0
271655,-83.3333333333333,4,2,3,60,0,0
272547,-83.3333333333333,4,3,3,60,0,0
272871,-83.3333333333333,4,3,1,60,0,0
272877,-100,4,2,1,60,0,0
273033,-100,4,3,1,60,0,0
273276,-100,4,2,1,60,0,0
273358,-100,4,3,1,60,0,0
273601,-100,4,2,1,60,0,0
273682,-100,4,3,1,60,0,0
273844,-100,4,3,8,60,0,0
274168,-100,4,3,2,60,0,0
274493,-100,4,3,3,60,0,0
274817,324.324324324324,4,3,3,60,1,0
274898,-100,4,3,11,60,0,0
275060,-100,4,3,1,60,0,0
275384,-100,4,3,11,60,0,0
275546,-100,4,3,1,60,0,0
275870,-100,4,3,12,60,0,0
276033,-100,4,3,1,60,0,0
277087,324.324324324324,4,3,1,60,1,0
277255,-100,4,2,1,60,0,0
277411,-100,4,3,2,60,0,0
277816,-100,4,2,2,60,0,0
277897,-100,4,3,2,60,0,0
278546,-100,4,2,2,60,0,0
278708,-100,4,3,2,60,0,0
278789,-100,4,2,2,60,0,0
278870,-100,4,3,1,60,0,0
279357,-100,4,3,2,60,0,0
279438,-100,4,2,2,60,0,0
279519,-100,4,3,2,60,0,0
279924,-100,4,2,2,60,0,0
280005,-100,4,3,2,60,0,0
280086,-100,4,2,2,60,0,0
280168,-100,4,3,2,60,0,0
280816,-100,4,3,1,60,0,0
281303,-100,4,3,2,60,0,0
282600,-100,4,3,8,60,0,0
282924,-100,4,3,2,60,0,0
284708,-100,4,3,1,60,0,0
285195,-100,4,3,2,60,0,0
285276,-100,4,2,2,60,0,0
285357,-100,4,3,2,60,0,0
286329,-100,4,2,2,60,0,0
286492,-100,4,3,2,60,0,0
286573,-100,4,2,2,60,0,0
286654,-100,4,3,1,60,0,0
287059,-100,4,2,1,60,0,0
287141,-100,4,3,2,60,0,0
287708,-100,4,2,2,60,0,0
287789,-100,4,3,2,60,0,0
288600,-100,4,3,1,60,0,0
289087,-100,4,3,8,60,0,0
289168,-100,4,2,8,60,0,0
289249,-100,4,3,8,60,0,0
289411,-100,4,3,2,60,0,0
289735,-100,4,3,8,60,0,0
290059,-100,4,3,2,60,0,0
290384,-100,4,3,1,60,0,0
290708,-100,4,3,3,60,0,0
292168,-100,4,3,11,60,0,0
292492,-100,4,3,1,60,0,0
292978,-100,4,3,2,60,0,0
293546,-100,4,2,2,60,0,0
293627,-100,4,3,2,60,0,0
294194,-100,4,2,2,60,0,0
294276,-100,4,3,2,60,0,0
294438,-100,4,3,1,60,0,0
294924,-100,4,3,2,60,0,0
295492,-100,4,2,2,60,0,0
295573,-100,4,3,2,60,0,0
296384,-100,4,3,1,60,0,0
296870,-100,4,3,2,60,0,0
298005,-100,4,3,8,60,0,0
298168,-100,4,3,1,60,0,0
298492,-100,4,3,8,60,0,0
299951,-100,4,3,11,60,0,0
300059,-100,4,2,11,60,0,0
300114,-100,4,3,1,60,0,0
300762,-100,4,3,2,60,0,0
301897,-100,4,2,2,60,0,0
302059,-100,4,3,2,60,0,0
302222,-100,4,3,1,60,0,0
302708,-100,4,3,2,60,0,0
303275,-100,4,2,2,60,0,0
303357,-100,4,3,2,60,0,0
303600,-100,4,2,2,60,0,0
303681,-100,4,3,2,60,0,0
304168,-100,4,3,1,60,0,0
304654,-100,4,3,2,60,0,0
305221,-100,4,2,2,60,0,0
305303,-100,4,3,8,60,0,0
305951,-100,4,3,3,60,0,0
306276,-100,4,3,1,20,0,0
306438,-100,4,3,1,25,0,0
306600,-100,4,3,1,30,0,0
306762,-100,4,3,1,40,0,0
306924,-100,4,3,1,50,0,0
307086,-100,4,3,1,60,0,0
307249,-100,4,3,1,70,0,0

[Colours]
Combo1 : 193,233,244
Combo2 : 174,174,255
Combo3 : 183,232,186
Combo4 : 241,188,241

[HitObjects]
256,192,6598,12,0,16165,0:0:0:0:
468,303,16328,5,8,0:0:0:0:
158,183,16490,1,8,0:0:0:0:
158,183,16814,6,0,P|176:270|169:360,1,180,6|4,0:0|0:0,0:0:0:0:
76,131,17300,1,10,0:0:0:0:
80,108,17382,1,0,0:0:0:0:
84,85,17463,1,0,0:0:0:0:
10,224,17625,5,6,0:0:0:0:
10,224,17787,1,4,0:0:0:0:
161,97,17949,1,10,0:0:0:0:
330,213,18111,6,0,P|240:216|158:183,1,180,6|4,0:0|0:0,0:0:0:0:
0,39,18598,1,10,0:0:0:0:
4,62,18679,1,0,0:0:0:0:
8,85,18760,1,0,0:0:0:0:
188,21,18922,5,6,0:0:0:0:
158,183,19084,1,4,0:0:0:0:
190,10,19246,1,10,0:0:0:0:
156,194,19409,6,0,B|219:188|219:188|267:218|267:218|326:211,1,180,6|4,0:0|0:0,0:0:0:0:
191,330,19895,1,10,0:0:0:0:
195,308,19976,1,0,0:0:0:0:
200,286,20057,1,0,0:0:0:0:
282,119,20219,5,6,0:0:0:0:
282,119,20382,1,4,0:0:0:0:
379,293,20544,1,10,0:0:0:0:
411,124,20706,2,0,P|386:185|326:211,1,135,6|0,0:0|0:0,0:0:0:0:
326,211,21030,6,0,P|306:161|315:108,2,107.999996704102,4|10|4,0:0|0:0|0:0,0:0:0:0:
395,368,21517,1,6,0:0:0:0:
379,293,21679,1,6,0:0:0:0:
321,343,21841,1,8,0:0:0:0:
512,253,22003,6,0,B|479:206|479:206|499:85,1,180,6|4,0:0|0:0,0:0:0:0:
379,293,22490,1,10,0:0:0:0:
400,286,22571,1,0,0:0:0:0:
421,279,22652,1,0,0:0:0:0:
313,143,22814,5,6,0:0:0:0:
313,143,22976,1,4,0:0:0:0:
498,85,23138,1,10,0:0:0:0:
354,209,23300,6,0,L|335:29,1,180,6|4,0:0|0:0,0:0:0:0:
438,183,23787,1,10,0:0:0:0:
442,204,23868,1,0,0:0:0:0:
447,225,23949,1,0,0:0:0:0:
205,156,24111,5,6,0:0:0:0:
323,132,24273,1,4,0:0:0:0:
139,100,24436,1,10,0:0:0:0:
367,62,24598,6,0,P|404:139|353:208,1,180,6|4,0:0|0:0,0:0:0:0:
167,241,25084,1,10,0:0:0:0:
145,234,25165,1,0,0:0:0:0:
123,227,25246,1,0,0:0:0:0:
346,344,25409,5,6,0:0:0:0:
346,344,25571,1,4,0:0:0:0:
276,200,25733,1,10,0:0:0:0:
121,341,25895,6,0,P|192:289|280:280,1,180,6|4,0:0|0:0,0:0:0:0:
92,234,26382,1,10,0:0:0:0:
230,376,26544,1,4,0:0:0:0:
230,376,26625,1,4,0:0:0:0:
230,376,26706,5,12,0:0:0:0:
375,221,26868,1,12,0:0:0:0:
276,33,27030,1,12,0:0:0:0:
131,188,27192,6,0,B|177:199|215:168|215:168|252:137|299:149,1,180,6|4,0:0|0:0,0:0:0:0:
154,95,27679,1,10,0:0:0:0:
150,72,27760,1,0,0:0:0:0:
146,49,27841,1,0,0:0:0:0:
276,242,28003,5,6,0:0:0:0:
276,242,28165,1,4,0:0:0:0:
339,64,28328,1,10,0:0:0:0:
476,173,28490,6,0,B|434:147|434:147|350:159,1,135,6|0,0:0|0:0,0:0:0:0:
350,159,28814,6,0,L|363:257,2,99.0000030212403,4|10|4,0:0|0:0|0:0,0:0:0:0:
246,28,29300,1,6,0:0:0:0:
238,104,29463,1,4,0:0:0:0:
229,180,29625,1,10,0:0:0:0:
5,79,29787,6,0,P|93:84|166:135,1,180,6|4,0:0|0:0,0:0:0:0:
75,0,30273,1,10,0:0:0:0:
96,4,30355,1,0,0:0:0:0:
117,9,30436,1,0,0:0:0:0:
18,161,30598,5,6,0:0:0:0:
18,161,30760,1,4,0:0:0:0:
169,267,30922,1,10,0:0:0:0:
10,333,31084,5,6,0:0:0:0:
99,203,31246,1,4,0:0:0:0:
248,226,31409,1,4,0:0:0:0:
342,337,31571,1,10,0:0:0:0:
478,312,31733,1,4,0:0:0:0:
483,210,31895,5,6,0:0:0:0:
374,230,32057,1,6,0:0:0:0:
300,142,32219,1,8,0:0:0:0:
393,56,32382,6,0,P|402:144|373:229,1,180,6|4,0:0|0:0,0:0:0:0:
262,17,32868,1,10,0:0:0:0:
283,27,32949,1,0,0:0:0:0:
304,37,33030,1,0,0:0:0:0:
191,191,33192,5,6,0:0:0:0:
191,191,33355,1,4,0:0:0:0:
366,141,33517,1,10,0:0:0:0:
149,106,33679,6,0,L|167:285,1,180,6|4,0:0|0:0,0:0:0:0:
224,68,34165,1,10,0:0:0:0:
219,45,34246,1,0,0:0:0:0:
215,22,34328,1,4,0:0:0:0:
51,166,34490,5,6,0:0:0:0:
253,186,34652,1,4,0:0:0:0:
32,166,34814,1,10,0:0:0:0:
249,295,34976,6,0,P|335:299|393:233,1,180,6|4,0:0|0:0,0:0:0:0:
439,0,35463,1,10,0:0:0:0:
367,116,35625,5,4,0:0:0:0:
367,116,35706,1,4,0:0:0:0:
367,116,35787,1,8,0:0:0:0:
510,207,35949,1,12,0:0:0:0:
484,90,36111,1,12,0:0:0:0:
392,233,36273,6,0,P|322:260|249:245,1,153.000002918243,6|4,0:0|0:0,0:0:0:0:
88,348,36760,1,10,0:0:0:0:
158,256,36922,5,12,0:0:0:0:
159,264,36976,1,8,0:0:0:0:
161,271,37030,1,8,0:0:0:0:
163,278,37084,1,4,0:0:0:0:
190,362,37246,1,4,0:0:0:0:
287,178,37409,5,8,0:0:0:0:
319,281,37571,1,4,0:0:0:0:
136,172,37733,6,0,P|145:106|149:23,1,144,6|6,0:0|0:0,0:0:0:0:
242,66,38219,2,0,P|306:81|383:85,1,144
424,155,38706,2,0,P|476:147|522:187,1,108,6|0,0:0|0:0,0:0:0:0:
467,240,39030,6,0,P|451:277|446:310,1,72,6|0,0:0|0:0,0:0:0:0:
361,287,39355,2,0,P|365:327|377:358,1,72,6|0,0:0|0:0,0:0:0:0:
353,206,39679,1,6,0:0:0:0:
467,240,39841,1,0,0:0:0:0:
285,263,40003,1,6,0:0:0:0:
289,346,40165,1,2,0:0:0:0:
289,346,40246,1,0,0:0:0:0:
289,346,40328,6,0,L|138:337,1,144,6|6,0:0|0:0,0:0:0:0:
11,369,40814,1,0,0:0:0:0:
51,301,40976,1,6,0:0:0:0:
121,336,41138,1,0,0:0:0:0:
5,225,41300,2,0,P|45:222|112:210,1,108,6|0,0:0|0:0,0:0:0:0:
144,231,41625,6,0,P|161:153|155:86,1,144,6|6,0:0|0:0,0:0:0:0:
93,40,42111,1,0,0:0:0:0:
93,40,42192,1,0,0:0:0:0:
93,40,42273,2,0,P|51:32|11:31,1,72,6|0,0:0|0:0,0:0:0:0:
155,89,42598,1,6,0:0:0:0:
282,157,42760,1,0,0:0:0:0:
352,31,42922,6,0,P|393:20|504:61,1,144,6|6,0:0|0:0,0:0:0:0:
418,172,43409,2,0,P|377:183|266:142,1,144
498,134,43895,2,0,P|493:195|488:254,1,108,6|0,0:0|0:0,0:0:0:0:
497,276,44219,6,0,P|437:283|412:291,2,72,6|0|6,0:0|0:0|0:0,0:0:0:0:
311,334,44706,2,0,P|351:343|379:357,1,72,0|6,0:0|0:0,0:0:0:0:
349,244,45030,1,0,0:0:0:0:
211,285,45192,2,0,P|225:329|228:370,1,72,6|0,0:0|0:0,0:0:0:0:
301,135,45517,6,0,P|325:184|296:270,1,144,6|6,0:0|0:0,0:0:0:0:
223,288,46003,1,0,0:0:0:0:
125,170,46165,2,0,P|177:160|218:164,1,72,6|0,0:0|0:0,0:0:0:0:
120,299,46490,2,0,P|84:298|49:289,1,72,6|0,0:0|0:0,0:0:0:0:
44,283,46733,1,0,0:0:0:0:
39,277,46814,6,0,P|25:207|31:111,1,144,6|6,0:0|0:0,0:0:0:0:
119,39,47300,1,8,0:0:0:0:
132,43,47355,1,8,0:0:0:0:
145,47,47409,1,8,0:0:0:0:
158,51,47463,1,4,0:0:0:0:
284,30,47625,1,4,0:0:0:0:
109,149,47787,1,10,0:0:0:0:
41,61,47949,1,0,0:0:0:0:
274,142,48111,6,0,P|306:222|290:320,1,180,6|10,0:0|0:0,0:0:0:0:
209,268,48598,1,0,0:0:0:0:
369,351,48760,2,0,P|418:335|468:328,1,90,6|4,0:0|0:0,0:0:0:0:
508,194,49084,2,0,P|463:186|421:171,1,90,10|0,0:0|0:0,0:0:0:0:
265,27,49409,5,6,0:0:0:0:
213,100,49571,1,4,0:0:0:0:
309,203,49733,2,0,P|296:126|292:92,1,90,10|4,0:0|0:0,0:0:0:0:
131,260,50057,5,6,0:0:0:0:
213,100,50219,1,4,0:0:0:0:
308,203,50382,2,0,P|228:202|162:181,1,135,10|0,0:0|0:0,0:0:0:0:
132,171,50706,5,6,0:0:0:0:
132,171,50868,1,4,0:0:0:0:
19,103,51030,1,10,0:0:0:0:
192,38,51192,1,0,0:0:0:0:
19,103,51355,2,0,L|30:193,1,90,6|4,0:0|0:0,0:0:0:0:
161,258,51679,2,0,L|149:347,1,90,10|0,0:0|0:0,0:0:0:0:
155,359,51922,1,0,0:0:0:0:
163,374,52003,5,6,0:0:0:0:
10,265,52165,1,6,0:0:0:0:
247,186,52328,2,0,P|202:184|125:160,1,108,10|0,0:0|0:0,0:0:0:0:
141,167,52652,5,6,0:0:0:0:
278,347,52814,1,6,0:0:0:0:
430,234,52976,2,0,B|449:208|449:208|435:126,1,108,10|0,0:0|0:0,0:0:0:0:
497,90,53300,6,0,B|408:54|414:120|321:80,1,180,6|10,0:0|0:0,0:0:0:0:
123,205,53787,2,0,B|114:152|114:152|155:97|155:97|145:38,1,180,4|4,0:0|0:0,0:0:0:0:
203,165,54273,1,10,0:0:0:0:
31,119,54436,1,0,0:0:0:0:
212,181,54598,5,6,0:0:0:0:
180,265,54760,1,4,0:0:0:0:
243,98,54922,1,10,0:0:0:0:
307,217,55084,2,0,P|250:222|132:239,1,135,4|0,0:0|0:0,0:0:0:0:
131,250,55409,1,4,0:0:0:0:
31,119,55571,1,10,0:0:0:0:
226,4,55733,1,4,0:0:0:0:
234,51,55814,1,4,0:0:0:0:
243,98,55895,5,10,0:0:0:0:
353,58,56057,1,4,0:0:0:0:
396,166,56219,1,4,0:0:0:0:
245,112,56382,1,10,0:0:0:0:
430,27,56544,1,4,0:0:0:0:
475,178,56706,1,4,0:0:0:0:
381,167,56868,1,10,0:0:0:0:
488,182,57030,1,4,0:0:0:0:
502,298,57192,5,8,0:0:0:0:
456,276,57273,1,4,0:0:0:0:
407,269,57355,1,4,0:0:0:0:
362,289,57436,1,4,0:0:0:0:
329,325,57517,1,8,0:0:0:0:
284,346,57598,1,4,0:0:0:0:
234,347,57679,1,4,0:0:0:0:
187,328,57760,1,4,0:0:0:0:
155,290,57841,5,8,0:0:0:0:
206,82,58003,1,8,0:0:0:0:
155,290,58165,1,8,0:0:0:0:
206,82,58328,1,8,0:0:0:0:
60,376,58490,6,0,L|54:278,2,99.0000030212403,6|4|10,0:0|0:0|0:0,0:0:0:0:
155,290,58976,1,4,0:0:0:0:
158,275,59057,1,0,0:0:0:0:
161,260,59138,2,0,L|168:210,1,49.5000015106202,6|0,0:0|0:0,0:0:0:0:
178,136,59300,1,4,0:0:0:0:
44,184,59463,2,0,L|38:86,1,99.0000030212403,10|4,0:0|0:0,0:0:0:0:
149,15,59787,6,0,P|231:66|328:55,1,198.000006042481,6|10,0:0|0:0,0:0:0:0:
512,108,60273,1,4,0:0:0:0:
420,6,60436,2,0,L|437:220,1,198.000006042481,6|10,0:0|0:0,0:0:0:0:
478,365,60922,2,0,L|484:315,1,49.5000015106202,4|0,0:0|0:0,0:0:0:0:
435,203,61084,6,0,P|439:251|468:291,2,99.0000030212403,6|4|10,0:0|0:0|0:0,0:0:0:0:
371,292,61571,1,4,0:0:0:0:
361,282,61652,1,0,0:0:0:0:
353,270,61733,2,0,P|336:288|324:310,1,49.5000015106202,6|0,0:0|0:0,0:0:0:0:
306,384,61895,1,4,0:0:0:0:
164,326,62057,2,0,P|198:290|245:277,1,99.0000030212403,10|4,0:0|0:0,0:0:0:0:
390,138,62382,6,0,P|304:184|207:172,1,198.000006042481,6|10,0:0|0:0,0:0:0:0:
86,242,62868,1,4,0:0:0:0:
142,101,63030,2,0,P|189:86|238:90,1,99.0000030212403,6|4,0:0|0:0,0:0:0:0:
71,261,63355,1,10,0:0:0:0:
0,144,63517,1,4,0:0:0:0:
175,279,63679,6,0,L|166:377,2,99.0000030212403,6|4|10,0:0|0:0|0:0,0:0:0:0:
281,176,64165,1,4,0:0:0:0:
280,191,64246,1,0,0:0:0:0:
279,206,64328,2,0,L|274:255,1,49.5000015106202,6|0,0:0|0:0,0:0:0:0:
268,331,64490,1,4,0:0:0:0:
371,163,64652,1,10,0:0:0:0:
462,313,64814,1,4,0:0:0:0:
468,289,64895,1,0,0:0:0:0:
474,265,64976,2,0,P|424:265|379:284,2,99.0000030212403,6|0|10,0:0|0:0|0:0,0:0:0:0:
427,22,65463,2,0,P|430:118|502:181,1,198.000006042481,4|4,0:0|0:0,0:0:0:0:
318,231,65949,2,0,P|341:188|348:139,1,99.0000030212403,10|4,0:0|0:0,0:0:0:0:
181,0,66273,6,0,B|184:89|184:89|221:124|221:124|229:208,1,225,6|10,0:0|0:0,0:0:0:0:
83,384,66760,2,0,B|86:294|86:294|123:259|123:259|131:175,1,225,4|4,0:0|0:0,0:0:0:0:
8,27,67246,2,0,B|40:65|40:65|45:127,1,112.5,10|4,0:0|0:0,0:0:0:0:
181,0,67571,6,0,B|310:-15|262:66|393:44,1,225,6|10,0:0|0:0,0:0:0:0:
512,2,68057,1,4,0:0:0:0:
512,2,68138,1,4,0:0:0:0:
512,2,68219,1,8,0:0:0:0:
504,55,68300,1,8,0:0:0:0:
497,109,68382,1,8,0:0:0:0:
491,163,68463,1,8,0:0:0:0:
458,147,68544,5,4,0:0:0:0:
462,186,68625,1,4,0:0:0:0:
468,227,68706,1,4,0:0:0:0:
472,268,68787,1,4,0:0:0:0:
485,312,68868,6,0,P|445:284|396:278,2,99.0000030212403,6|4|10,0:0|0:0|0:0,0:0:0:0:
384,148,69355,1,4,0:0:0:0:
377,161,69436,1,0,0:0:0:0:
366,171,69517,2,0,P|342:178|320:190,1,49.5000015106202,6|0,0:0|0:0,0:0:0:0:
272,250,69679,1,4,0:0:0:0:
180,209,69841,2,0,P|175:256|194:303,1,99.0000030212403,10|4,0:0|0:0,0:0:0:0:
1,383,70165,6,0,P|53:299|51:201,1,198.000006042481,6|10,0:0|0:0,0:0:0:0:
115,376,70652,1,4,0:0:0:0:
272,250,70814,2,0,P|367:253|415:335,1,198.000006042481,6|10,0:0|0:0,0:0:0:0:
313,384,71300,2,0,L|320:336,1,49.5000015106202,4|0,0:0|0:0,0:0:0:0:
272,250,71463,6,0,L|285:348,2,99.0000030212403,6|4|10,0:0|0:0|0:0,0:0:0:0:
390,125,71949,1,4,0:0:0:0:
387,140,72030,1,0,0:0:0:0:
384,155,72111,2,0,L|377:204,1,49.5000015106202,6|0,0:0|0:0,0:0:0:0:
363,282,72273,1,4,0:0:0:0:
472,366,72436,2,0,L|458:267,1,99.0000030212403,10|4,0:0|0:0,0:0:0:0:
496,82,72760,6,0,P|406:121|312:99,1,198.000006042481,6|10,0:0|0:0,0:0:0:0:
173,218,73246,1,4,0:0:0:0:
251,272,73409,2,0,P|267:226|259:177,1,99.0000030212403,6|4,0:0|0:0,0:0:0:0:
169,333,73733,1,10,0:0:0:0:
339,304,73895,1,4,0:0:0:0:
155,214,74057,6,0,L|58:234,2,99.0000030212403,6|4|10,0:0|0:0|0:0,0:0:0:0:
247,146,74544,1,4,0:0:0:0:
262,149,74625,1,0,0:0:0:0:
277,152,74706,2,0,L|325:162,1,49.5000015106202,2|0,0:0|0:0,0:0:0:0:
403,176,74868,1,4,0:0:0:0:
251,272,75030,1,10,0:0:0:0:
164,114,75192,1,4,0:0:0:0:
170,75,75273,1,4,0:0:0:0:
177,36,75355,5,10,0:0:0:0:
278,18,75517,1,4,0:0:0:0:
379,0,75679,1,4,0:0:0:0:
174,63,75841,5,10,0:0:0:0:
275,45,76003,1,4,0:0:0:0:
376,27,76165,1,4,0:0:0:0:
171,87,76328,5,10,0:0:0:0:
272,69,76490,1,4,0:0:0:0:
476,188,76652,6,0,P|363:184|359:298,1,252,6|0,0:0|0:0,0:0:0:0:
172,210,77949,6,0,L|154:213,1,12,8|0,0:0|0:0,0:0:0:0:
237,268,78111,5,0,0:0:0:0:
236,278,78165,1,0,0:0:0:0:
235,287,78219,1,0,0:0:0:0:
235,296,78273,2,0,L|230:331,1,36
419,242,78598,5,8,0:0:0:0:
400,61,78760,2,0,B|437:107|437:107|422:215,1,168.750006437302,6|0,0:0|0:0,0:0:0:0:
419,242,79246,6,0,P|350:254|275:286,1,135.000005149842,6|6,0:0|0:0,0:0:0:0:
197,349,79733,2,0,P|128:337|53:305,1,135.000005149842
126,190,80219,2,0,P|142:251|142:277,1,67.5000025749208,6|0,0:0|0:0,0:0:0:0:
32,159,80544,6,0,P|91:154|184:111,1,135.000005149842,6|6,0:0|0:0,0:0:0:0:
212,54,81030,1,0,0:0:0:0:
296,162,81192,2,0,P|256:154|213:157,1,67.5000025749208,6|0,0:0|0:0,0:0:0:0:
360,75,81517,2,0,P|320:83|277:80,1,67.5000025749208,6|10,0:0|0:0,0:0:0:0:
438,152,81841,6,0,P|414:108|456:19,1,135.000005149842,6|6,0:0|0:0,0:0:0:0:
511,206,82328,2,0,P|441:197|361:197,1,135.000005149842
349,284,82814,2,0,P|389:281|428:282,1,67.5000025749208,6|0,0:0|0:0,0:0:0:0:
303,212,83138,1,6,0:0:0:0:
303,212,83463,5,6,0:0:0:0:
338,360,83625,1,10,0:0:0:0:
287,224,83787,1,6,0:0:0:0:
456,212,83949,1,10,0:0:0:0:
273,234,84111,1,6,0:0:0:0:
270,33,84273,1,8,0:0:0:0:
276,53,84355,1,8,0:0:0:0:
281,73,84436,6,0,L|277:148,1,67.5000025749208,6|4,0:0|0:0,0:0:0:0:
277,140,84922,2,0,P|192:141|75:135,1,180,8|4,0:0|0:0,0:0:0:0:
2,116,85409,1,10,0:0:0:0:
75,302,85571,1,0,0:0:0:0:
62,279,85652,1,0,0:0:0:0:
49,256,85733,6,0,P|80:250|126:247,1,67.5000025749208,6|4,0:0|0:0,0:0:0:0:
115,247,86219,2,0,P|97:305|194:340,1,180,8|4,0:0|0:0,0:0:0:0:
289,242,86706,2,0,P|301:288|292:377,1,135,10|0,0:0|0:0,0:0:0:0:
292,374,87030,5,6,0:0:0:0:
386,333,87192,1,4,0:0:0:0:
284,254,87355,1,0,0:0:0:0:
479,197,87517,2,0,P|474:258|471:313,1,101.250003862381,8|0,0:0|0:0,0:0:0:0:
489,341,87841,1,4,0:0:0:0:
370,244,88003,1,10,0:0:0:0:
370,244,88328,5,6,0:0:0:0:
395,80,88490,1,4,0:0:0:0:
317,129,88652,1,10,0:0:0:0:
436,178,88814,1,4,0:0:0:0:
302,23,88976,1,8,0:0:0:0:
273,26,89057,1,8,0:0:0:0:
244,32,89138,1,8,0:0:0:0:
215,37,89219,1,8,0:0:0:0:
186,42,89300,1,8,0:0:0:0:
156,49,89382,1,8,0:0:0:0:
127,56,89463,1,8,0:0:0:0:
98,63,89544,1,8,0:0:0:0:
62,45,89625,6,0,P|62:136|53:234,1,180,6|10,0:0|0:0,0:0:0:0:
0,320,90111,1,4,0:0:0:0:
156,272,90273,1,6,0:0:0:0:
6,315,90436,1,4,0:0:0:0:
80,353,90598,1,10,0:0:0:0:
91,209,90760,1,4,0:0:0:0:
256,344,90922,6,0,P|312:335|360:334,2,90,6|4|10,0:0|0:0|0:0,0:0:0:0:
395,265,91409,1,4,0:0:0:0:
428,339,91571,1,6,0:0:0:0:
317,261,91733,1,4,0:0:0:0:
487,264,91895,1,10,0:0:0:0:
504,94,92057,1,4,0:0:0:0:
386,54,92219,6,0,B|412:93|412:93|395:207,1,135,6|0,0:0|0:0,0:0:0:0:
427,192,92544,1,10,0:0:0:0:
273,218,92706,1,4,0:0:0:0:
223,38,92868,2,0,P|266:49|310:55,1,90,6|4,0:0|0:0,0:0:0:0:
151,164,93192,2,0,P|144:119|132:75,1,90,10|4,0:0|0:0,0:0:0:0:
54,22,93517,5,6,0:0:0:0:
54,22,93679,1,6,0:0:0:0:
128,159,93841,2,0,P|81:149|39:146,1,90,10|4,0:0|0:0,0:0:0:0:
146,26,94165,1,6,0:0:0:0:
6,79,94328,1,6,0:0:0:0:
106,249,94490,2,0,P|153:239|195:236,1,90,10|4,0:0|0:0,0:0:0:0:
189,262,94733,1,4,0:0:0:0:
184,288,94814,5,10,0:0:0:0:
279,384,94976,1,4,0:0:0:0:
315,254,95138,1,4,0:0:0:0:
479,336,95300,5,10,0:0:0:0:
407,280,95463,1,4,0:0:0:0:
382,366,95625,1,4,0:0:0:0:
306,129,95787,1,10,0:0:0:0:
498,107,95949,1,4,0:0:0:0:
504,134,96030,1,4,0:0:0:0:
510,161,96111,5,10,0:0:0:0:
402,168,96273,1,4,0:0:0:0:
294,175,96436,1,4,0:0:0:0:
332,83,96598,5,10,0:0:0:0:
224,90,96760,1,4,0:0:0:0:
116,97,96922,1,4,0:0:0:0:
14,14,97084,1,10,0:0:0:0:
211,215,97246,1,4,0:0:0:0:
200,191,97328,1,4,0:0:0:0:
185,169,97409,6,0,P|192:203|197:229,1,45,8|8,0:0|0:0,0:0:0:0:
94,353,97571,1,4,0:0:0:0:
52,336,97652,1,4,0:0:0:0:
35,293,97733,1,8,0:0:0:0:
40,248,97814,1,8,0:0:0:0:
74,218,97895,2,0,P|106:220|140:232,1,45,8|4,0:0|0:0,0:0:0:0:
224,319,98057,5,4,0:0:0:0:
264,338,98138,1,4,0:0:0:0:
308,340,98219,1,4,0:0:0:0:
349,323,98300,1,4,0:0:0:0:
373,285,98382,2,0,P|379:250|380:221,1,45,8|4,0:0|0:0,0:0:0:0:
485,317,98544,1,4,0:0:0:0:
471,274,98625,1,4,0:0:0:0:
461,229,98706,2,0,P|460:198|469:170,1,45,8|4,0:0|0:0,0:0:0:0:
498,39,98868,5,4,0:0:0:0:
469,85,98949,1,4,0:0:0:0:
416,96,99030,1,8,0:0:0:0:
363,82,99111,1,8,0:0:0:0:
329,39,99192,1,8,0:0:0:0:
276,26,99273,1,8,0:0:0:0:
222,26,99355,2,0,P|211:66|211:90,1,45,4|4,0:0|0:0,0:0:0:0:
114,129,99517,2,0,P|110:106|102:85,1,45,4|4,0:0|0:0,0:0:0:0:
275,143,99679,6,0,P|269:184|265:231,1,80.9999975280763,10|0,0:0|0:0,0:0:0:0:
265,223,100003,6,0,P|362:178|469:177,1,215.999993408203,6|10,0:0|0:0,0:0:0:0:
224,43,100490,1,4,0:0:0:0:
247,20,100571,1,0,0:0:0:0:
277,6,100652,2,0,P|279:59|259:109,1,107.999996704102,6|4,0:0|0:0,0:0:0:0:
51,234,100976,2,0,P|75:162|150:167,1,161.999995056153,10|0,0:0|0:0,0:0:0:0:
171,158,101300,6,0,P|177:265|145:367,1,215.999993408203,6|10,0:0|0:0,0:0:0:0:
51,234,101787,1,4,0:0:0:0:
244,361,101949,2,0,P|350:348|446:300,1,215.999993408203,6|10,0:0|0:0,0:0:0:0:
462,111,102436,2,0,P|450:134|447:161,1,53.9999983520508,4|0,0:0|0:0,0:0:0:0:
456,183,102598,6,0,P|476:95|371:44,1,215.999993408203,6|10,0:0|0:0,0:0:0:0:
209,163,103084,1,4,0:0:0:0:
240,174,103165,1,0,0:0:0:0:
273,177,103246,2,0,P|325:167|363:129,1,107.999996704102,6|4,0:0|0:0,0:0:0:0:
294,0,103571,2,0,P|292:53|261:96,1,107.999996704102,10|4,0:0|0:0,0:0:0:0:
76,30,103895,6,0,P|82:136|151:216,1,215.999993408203,6|10,0:0|0:0,0:0:0:0:
0,341,104382,1,4,0:0:0:0:
120,230,104544,2,0,P|172:242|211:279,1,107.999996704102,6|4,0:0|0:0,0:0:0:0:
0,116,104868,1,10,0:0:0:0:
153,47,105030,1,4,0:0:0:0:
257,166,105192,6,0,B|311:191|360:158|338:137|404:102|462:135,1,215.999993408203,6|10,0:0|0:0,0:0:0:0:
361,323,105679,1,4,0:0:0:0:
330,333,105760,1,0,0:0:0:0:
298,335,105841,2,0,P|247:318|210:279,1,107.999996704102,6|4,0:0|0:0,0:0:0:0:
300,88,106165,2,0,P|340:156|336:236,1,161.999995056153,10|0,0:0|0:0,0:0:0:0:
336,236,106490,6,0,L|443:222,1,107.999996704102,6|0,0:0|0:0,0:0:0:0:
313,348,106814,1,10,0:0:0:0:
193,214,106976,2,0,P|87:201|0:260,1,215.999993408203,4|4,0:0|0:0,0:0:0:0:
169,109,107463,2,0,P|181:57|172:4,1,107.999996704102,10|4,0:0|0:0,0:0:0:0:
85,314,107787,6,0,B|171:306|171:306|234:352|234:352|312:347,1,243.000000926971,6|10,0:0|0:0,0:0:0:0:
485,200,108273,2,0,B|398:205|398:205|342:259|342:259|264:264,1,243.000000926971,4|4,0:0|0:0,0:0:0:0:
193,139,108760,2,0,B|253:136|253:136|297:178,1,121.500000463486,10|4,0:0|0:0,0:0:0:0:
118,254,109084,6,0,B|161:198|161:198|146:26,1,243.000000926971,6|10,0:0|0:0,0:0:0:0:
304,185,109571,1,4,0:0:0:0:
304,185,109652,1,4,0:0:0:0:
305,185,109733,5,8,0:0:0:0:
261,170,109814,1,8,0:0:0:0:
216,180,109895,1,8,0:0:0:0:
181,212,109976,1,8,0:0:0:0:
164,185,110057,5,4,0:0:0:0:
129,196,110138,1,4,0:0:0:0:
92,187,110219,1,8,0:0:0:0:
66,163,110300,1,8,0:0:0:0:
28,177,110382,6,0,P|15:230|25:282,2,107.999996704102,6|4|10,0:0|0:0|0:0,0:0:0:0:
77,21,110868,1,4,0:0:0:0:
91,38,110949,1,0,0:0:0:0:
108,52,111030,2,0,P|128:69|153:78,1,53.9999983520508,6|0,0:0|0:0,0:0:0:0:
229,81,111192,1,4,0:0:0:0:
343,165,111355,2,0,P|383:129|435:118,1,107.999996704102,10|4,0:0|0:0,0:0:0:0:
308,30,111679,6,0,L|332:244,1,215.999993408203,6|10,0:0|0:0,0:0:0:0:
229,81,112165,1,4,0:0:0:0:
417,141,112328,2,0,L|429:248,1,107.999996704102,6|4,0:0|0:0,0:0:0:0:
466,56,112652,1,10,0:0:0:0:
343,165,112814,2,0,P|318:153|291:150,1,53.9999983520508,4|0,0:0|0:0,0:0:0:0:
189,223,112976,6,0,P|231:190|284:183,2,107.999996704102,6|4|10,0:0|0:0|0:0,0:0:0:0:
20,117,113463,1,4,0:0:0:0:
36,133,113544,1,0,0:0:0:0:
47,152,113625,2,0,P|54:204|33:254,1,107.999996704102,6|4,0:0|0:0,0:0:0:0:
96,1,113949,2,0,P|128:43|177:63,1,107.999996704102,10|4,0:0|0:0,0:0:0:0:
381,47,114273,6,0,P|281:79|236:175,1,215.999993408203,6|10,0:0|0:0,0:0:0:0:
299,21,114760,1,4,0:0:0:0:
368,178,114922,1,6,0:0:0:0:
443,98,115084,1,4,0:0:0:0:
512,255,115246,2,0,L|495:361,1,107.999996704102,10|4,0:0|0:0,0:0:0:0:
306,292,115571,6,0,P|348:259|401:252,2,107.999996704102,6|4|10,0:0|0:0|0:0,0:0:0:0:
188,102,116057,1,4,0:0:0:0:
192,124,116138,1,0,0:0:0:0:
203,143,116219,2,0,P|222:163|246:176,1,53.9999983520508,2|0,0:0|0:0,0:0:0:0:
322,178,116382,1,4,0:0:0:0:
193,273,116544,2,0,P|126:231|46:231,1,161.999995056153,10|0,0:0|0:0,0:0:0:0:
46,231,116868,6,0,L|56:123,1,107.999996704102,6|4,0:0|0:0,0:0:0:0:
99,326,117192,1,10,0:0:0:0:
199,247,117355,1,4,0:0:0:0:
331,337,117517,5,8,0:0:0:0:
326,257,117625,1,8,0:0:0:0:
322,178,117733,1,8,0:0:0:0:
388,133,117841,5,8,0:0:0:0:
392,212,117949,1,8,0:0:0:0:
397,292,118057,1,8,0:0:0:0:
402,372,118165,6,0,L|461:364,2,45,6|0|0,0:0|0:0|0:0,0:0:0:0:
331,343,118652,1,0,0:0:0:0:
255,328,118814,1,0,0:0:0:0:
178,335,118976,1,0,0:0:0:0:
164,329,119138,5,0,0:0:0:0:
153,321,119301,1,0,0:0:0:0:
163,249,119463,1,0,0:0:0:0:
145,174,119625,1,0,0:0:0:0:
80,132,119787,1,0,0:0:0:0:
80,132,120111,2,0,P|71:166|74:193,1,45
191,120,120436,2,0,P|201:76|186:24,1,90
286,97,120922,5,2,0:0:0:0:
286,97,121003,1,0,0:0:0:0:
286,97,121084,1,0,0:0:0:0:
357,68,121247,1,0,0:0:0:0:
431,86,121409,1,0,0:0:0:0:
349,139,121571,1,0,0:0:0:0:
425,136,121733,1,0,0:0:0:0:
489,178,121895,1,0,0:0:0:0:
414,150,122057,1,0,0:0:0:0:
459,211,122220,1,0,0:0:0:0:
371,350,122382,6,0,P|356:309|375:247,1,90,2|0,0:0|0:0,0:0:0:0:
441,299,122869,1,0,0:0:0:0:
426,223,123031,1,0,0:0:0:0:
426,223,123355,2,0,P|455:230|472:228,1,45
356,184,123680,1,0,0:0:0:0:
281,164,123842,1,0,0:0:0:0:
211,195,124004,1,0,0:0:0:0:
211,195,124328,5,4,0:0:0:0:
215,235,124410,1,4,0:0:0:0:
221,274,124491,1,10,0:0:0:0:
39,257,124653,1,4,0:0:0:0:
154,70,124815,1,10,0:0:0:0:
130,175,124977,1,4,0:0:0:0:
37,119,125139,1,4,0:0:0:0:
236,141,125301,1,10,0:0:0:0:
55,104,125464,1,4,0:0:0:0:
201,223,125626,1,10,0:0:0:0:
269,47,125788,1,4,0:0:0:0:
410,142,125950,5,8,0:0:0:0:
421,140,126004,1,8,0:0:0:0:
432,138,126058,1,0,0:0:0:0:
443,136,126112,1,8,0:0:0:0:
512,74,126274,1,4,0:0:0:0:
497,250,126437,2,0,P|465:247|432:239,1,45,8|8,0:0|0:0,0:0:0:0:
305,170,126599,5,6,0:0:0:0:
305,170,126762,1,4,0:0:0:0:
305,170,126924,1,4,0:0:0:0:
242,340,127086,2,0,P|174:343|41:311,1,180,10|4,0:0|0:0,0:0:0:0:
206,117,127572,1,2,0:0:0:0:
234,193,127735,1,4,0:0:0:0:
219,272,127897,1,4,0:0:0:0:
57,195,128059,2,0,P|31:146|53:27,1,180,10|0,0:0|0:0,0:0:0:0:
256,57,128545,1,6,0:0:0:0:
117,112,128707,1,4,0:0:0:0:
270,71,128869,6,0,B|327:69|327:69|381:103|381:103|443:97,1,180,10|4,0:0|0:0,0:0:0:0:
483,26,129355,1,6,0:0:0:0:
483,26,129517,1,6,0:0:0:0:
403,182,129680,2,0,P|459:191|508:204,1,90,8|0,0:0|0:0,0:0:0:0:
372,24,130004,1,6,0:0:0:0:
372,24,130166,1,6,0:0:0:0:
238,179,130328,1,10,0:0:0:0:
311,213,130490,1,4,0:0:0:0:
307,131,130653,1,8,0:0:0:0:
316,303,130815,5,6,0:0:0:0:
316,303,130977,1,4,0:0:0:0:
316,303,131139,1,4,0:0:0:0:
93,336,131301,2,0,P|96:277|86:157,1,180,10|6,0:0|0:0,0:0:0:0:
226,283,131787,1,0,0:0:0:0:
257,358,131950,1,6,0:0:0:0:
176,358,132112,1,4,0:0:0:0:
176,358,132274,1,6,0:0:0:0:
167,180,132436,2,0,P|217:193|272:200,1,90,10|0,0:0|0:0,0:0:0:0:
37,120,132760,1,6,0:0:0:0:
125,249,132923,1,4,0:0:0:0:
198,64,133085,5,10,0:0:0:0:
198,64,133247,1,0,0:0:0:0:
317,39,133409,2,0,P|328:89|325:135,1,90,4|8,0:0|0:0,0:0:0:0:
479,131,133733,2,0,P|477:86|488:42,1,90,6|6,0:0|0:0,0:0:0:0:
397,15,134058,1,6,0:0:0:0:
398,122,134220,1,4,0:0:0:0:
420,227,134382,1,8,0:0:0:0:
398,332,134544,5,6,0:0:0:0:
398,332,134707,1,4,0:0:0:0:
398,332,134869,1,4,0:0:0:0:
234,357,135031,2,0,P|187:361|52:331,1,180,10|4,0:0|0:0,0:0:0:0:
75,329,135436,1,4,0:0:0:0:
92,324,135517,1,6,0:0:0:0:
22,221,135680,1,4,0:0:0:0:
136,196,135842,1,4,0:0:0:0:
54,9,136004,2,0,L|42:156,1,135,10|0,0:0|0:0,0:0:0:0:
13,171,136328,1,4,0:0:0:0:
149,94,136490,2,0,L|238:104,1,90,6|4,0:0|0:0,0:0:0:0:
488,41,136814,6,0,P|441:33|374:110,1,135,10|0,0:0|0:0,0:0:0:0:
339,73,137138,1,4,0:0:0:0:
492,220,137300,1,6,0:0:0:0:
496,207,137381,1,0,0:0:0:0:
500,194,137462,1,0,0:0:0:0:
394,240,137625,1,4,0:0:0:0:
421,145,137787,1,10,0:0:0:0:
301,237,137949,2,0,P|313:278|322:296,1,45,0|8,0:0|0:0,0:0:0:0:
447,355,138111,1,8,0:0:0:0:
394,240,138273,1,8,0:0:0:0:
244,321,138435,1,8,0:0:0:0:
211,242,138598,5,10,0:0:0:0:
211,242,138761,1,4,0:0:0:0:
211,242,138923,1,4,0:0:0:0:
211,242,139085,1,4,0:0:0:0:
46,354,139247,2,0,P|29:287|26:171,1,180,10|4,0:0|0:0,0:0:0:0:
103,45,139733,2,0,P|157:64|193:70,1,90,6|4,0:0|0:0,0:0:0:0:
116,161,140058,1,4,0:0:0:0:
288,25,140220,6,0,P|303:74|282:202,1,180,10|4,0:0|0:0,0:0:0:0:
290,224,140625,1,4,0:0:0:0:
297,250,140706,1,10,0:0:0:0:
448,336,140868,1,4,0:0:0:0:
451,309,140949,1,4,0:0:0:0:
454,282,141030,1,10,0:0:0:0:
292,341,141192,1,4,0:0:0:0:
318,334,141273,1,4,0:0:0:0:
344,327,141354,1,10,0:0:0:0:
449,162,141516,1,10,0:0:0:0:
226,262,141678,5,4,0:0:0:0:
183,277,141760,1,4,0:0:0:0:
138,278,141841,2,0,P|108:264|91:246,1,45,8|8,0:0|0:0,0:0:0:0:
13,155,142003,1,4,0:0:0:0:
30,113,142084,1,4,0:0:0:0:
68,89,142165,1,8,0:0:0:0:
112,97,142246,1,8,0:0:0:0:
144,127,142327,2,0,P|165:135|190:138,1,45,8|8,0:0|0:0,0:0:0:0:
446,83,142489,1,4,0:0:0:0:
429,41,142570,1,4,0:0:0:0:
392,15,142651,1,4,0:0:0:0:
347,15,142733,1,4,0:0:0:0:
303,29,142814,1,8,0:0:0:0:
281,68,142895,1,8,0:0:0:0:
233,88,142976,6,0,B|133:163|36:142|0:43|84:-20|167:-18|199:59|192:143|139:183|97:131|31:212|67:329|165:334|206:262|175:222,1,607.499981460572,6|0,0:0|0:0,0:0:0:0:
176,223,146867,6,0,P|228:229|267:265,1,107.999996704102,2|0,0:0|0:0,0:0:0:0:
324,209,147354,2,0,P|381:264|460:274,1,161.999995056153
461,275,148813,6,0,P|445:223|450:170,1,107.999996704102,2|0,0:0|0:0,0:0:0:0:
455,160,149219,1,0,0:0:0:0:
460,150,149300,1,0,0:0:0:0:
467,141,149381,2,0,P|401:146|358:195,1,134.999995880127
358,195,150597,5,4,0:0:0:0:
359,189,150678,1,4,0:0:0:0:
360,183,150759,2,0,L|356:120,1,62.9999980773926,4|4,0:0|0:0,0:0:0:0:
215,69,151084,1,8,0:0:0:0:
277,149,151246,2,0,L|295:25,1,125.999996154785,0|4,0:0|0:0,0:0:0:0:
202,75,151732,1,8,0:0:0:0:
189,81,152381,1,8,0:0:0:0:
175,215,152705,5,6,0:0:0:0:
175,215,152786,2,0,P|217:187|266:188,1,101.250003862381,0|8,0:0|0:0,0:0:0:0:
355,129,153192,2,0,P|321:127|290:113,2,67.5000025749208,4|2|6,0:0|0:0|0:0,0:0:0:0:
411,202,153678,1,8,0:0:0:0:
414,217,154327,1,8,0:0:0:0:
344,291,154651,5,6,0:0:0:0:
344,291,154732,2,0,L|328:184,1,108,0|12,0:0|0:0,0:0:0:0:
394,91,155138,2,0,P|440:142|509:137,1,144,0|2,0:0|0:0,0:0:0:0:
471,68,155624,1,8,0:0:0:0:
376,106,155786,2,0,L|305:93,1,72,2|2,0:0|0:0,0:0:0:0:
278,17,156111,2,0,L|207:29,1,72,4|8,0:0|0:0,0:0:0:0:
129,78,156435,1,2,0:0:0:0:
43,28,156597,6,0,L|59:207,1,180,8|0,0:0|0:0,0:0:0:0:
59,207,158543,2,0,B|92:182|92:182|164:197,1,94.499997116089,4|4,0:0|0:0,0:0:0:0:
218,157,158991,6,0,P|222:217|229:252,1,90,10|0,0:0|0:0,0:0:0:0:
293,292,159324,1,6,0:0:0:0:
353,238,159435,2,0,L|456:251,1,90,8|6,0:0|0:0,0:0:0:0:
491,185,159768,1,4,0:0:0:0:
478,105,159879,2,0,L|427:110,1,45,8|6,0:0|0:0,0:0:0:0:
394,24,160102,2,0,L|438:28,1,45,4|6,0:0|0:0,0:0:0:0:
328,119,160324,1,8,0:0:0:0:
328,119,160546,5,6,0:0:0:0:
264,68,160657,1,4,0:0:0:0:
194,108,160768,1,8,0:0:0:0:
135,53,160879,2,0,L|22:41,1,90,6|4,0:0|0:0,0:0:0:0:
9,116,161213,1,8,0:0:0:0:
114,151,161324,2,0,P|124:202|115:251,1,90,6|6,0:0|0:0,0:0:0:0:
33,300,161657,2,0,P|16:264|14:249,1,45,8|0,0:0|0:0,0:0:0:0:
173,330,161879,2,0,P|166:351|155:370,1,45,6|4,0:0|0:0,0:0:0:0:
206,236,162102,6,0,P|265:253|305:254,1,90,10|0,0:0|0:0,0:0:0:0:
390,304,162435,1,6,0:0:0:0:
316,328,162546,2,0,P|285:339|264:355,1,45,8|0,0:0|0:0,0:0:0:0:
354,184,162768,2,0,P|362:220|370:237,1,45,6|0,0:0|0:0,0:0:0:0:
390,304,162990,2,0,P|428:303|450:298,2,45,8|6|0,0:0|0:0|0:0,0:0:0:0:
501,350,163324,1,6,0:0:0:0:
475,230,163435,2,0,L|484:177,1,45,8|0,0:0|0:0,0:0:0:0:
346,139,163657,6,0,L|353:183,1,45,6|0,0:0|0:0,0:0:0:0:
435,109,163879,1,8,0:0:0:0:
435,109,163990,2,0,P|427:45|429:7,1,90,6|4,0:0|0:0,0:0:0:0:
332,43,164324,1,8,0:0:0:0:
265,32,164435,1,6,0:0:0:0:
204,61,164546,2,0,P|169:54|143:41,1,45,4|6,0:0|0:0,0:0:0:0:
22,120,164768,2,0,P|46:115|72:113,1,45,8|0,0:0|0:0,0:0:0:0:
67,31,164990,2,0,P|44:28|22:24,1,45,6|0,0:0|0:0,0:0:0:0:
148,133,165213,6,0,L|142:233,1,94.499997116089,10|0,0:0|0:0,0:0:0:0:
58,320,165657,6,0,P|45:275|41:222,1,90,6|0,0:0|0:0,0:0:0:0:
227,271,165990,2,0,P|222:315|209:358,1,90,6|8,0:0|0:0,0:0:0:0:
142,227,166323,1,4,0:0:0:0:
238,162,166434,2,0,P|286:183|327:190,1,90,6|0,0:0|0:0,0:0:0:0:
387,278,166768,2,0,P|351:283|325:294,1,45,6|0,0:0|0:0,0:0:0:0:
470,347,166990,2,0,P|486:301|486:282,1,45,4|0,0:0|0:0,0:0:0:0:
464,138,167212,6,0,B|451:237,1,90,10|0,0:0|0:0,0:0:0:0:
332,111,167545,2,0,L|397:96,1,45,6|0,0:0|0:0,0:0:0:0:
458,22,167768,1,8,0:0:0:0:
332,111,167990,2,0,P|266:99|231:96,1,90,6|0,0:0|0:0,0:0:0:0:
181,44,168323,1,8,0:0:0:0:
193,96,168434,1,4,0:0:0:0:
191,149,168545,1,4,0:0:0:0:
173,200,168657,1,4,0:0:0:0:
113,259,168768,6,0,P|63:249|4:244,1,90,10|0,0:0|0:0,0:0:0:0:
190,280,169101,2,0,P|195:324|204:368,1,90,6|0,0:0|0:0,0:0:0:0:
283,353,169434,1,6,0:0:0:0:
283,353,169545,1,4,0:0:0:0:
363,340,169656,2,0,P|397:343|427:352,1,45,8|6,0:0|0:0,0:0:0:0:
416,263,169879,2,0,P|393:261|371:257,1,45,4|6,0:0|0:0,0:0:0:0:
496,254,170101,1,8,0:0:0:0:
496,254,170323,6,0,P|502:222|506:188,1,45,6|0,0:0|0:0,0:0:0:0:
434,167,170545,1,8,0:0:0:0:
483,102,170656,2,0,P|489:56|491:9,1,90,6|4,0:0|0:0,0:0:0:0:
322,95,170990,1,8,0:0:0:0:
344,173,171101,2,0,P|390:168|449:166,1,90,6|6,0:0|0:0,0:0:0:0:
407,38,171434,2,0,P|400:74|394:103,1,45,8|0,0:0|0:0,0:0:0:0:
293,26,171656,2,0,P|302:60|306:91,1,45,6|4,0:0|0:0,0:0:0:0:
165,138,171879,6,0,P|124:143|84:133,1,67.5,10|0,0:0|0:0,0:0:0:0:
51,106,172323,6,0,P|39:164|45:226,1,116.999994644165,10|0,0:0|0:0,0:0:0:0:
83,286,172656,1,6,0:0:0:0:
178,348,172768,2,0,P|206:338|250:333,1,58.4999973220826,8|0,0:0|0:0,0:0:0:0:
312,251,172990,2,0,P|339:260|368:265,1,58.4999973220826,6|0,0:0|0:0,0:0:0:0:
472,317,173212,1,8,0:0:0:0:
472,317,173323,1,6,0:0:0:0:
472,317,173434,2,0,P|487:347|496:375,1,58.4999973220826,4|6,0:0|0:0,0:0:0:0:
436,230,173656,2,0,P|419:167|435:92,1,116.999994644165,8|6,0:0|0:0,0:0:0:0:
464,51,173990,1,4,3:0:0:0:
357,27,174101,6,0,P|349:56|349:97,1,58.4999973220826,8|6,0:0|0:0,0:0:0:0:
222,90,174323,2,0,P|220:60|212:32,1,58.4999973220826,4|4,3:0|0:0,0:0:0:0:
14,76,174545,1,8,0:0:0:0:
55,107,174656,1,6,0:0:0:0:
107,113,174768,1,4,0:0:0:0:
142,74,174879,1,6,0:0:0:0:
193,62,174990,2,0,P|207:107|209:132,1,58.4999973220826,8|0,0:0|0:0,0:0:0:0:
56,278,175212,1,6,0:0:0:0:
18,268,175323,1,4,0:0:0:0:
1,235,175434,6,0,P|48:232|118:240,1,108,10|4,0:0|0:0,0:0:0:0:
162,375,175879,5,10,0:0:0:0:
199,320,175990,1,4,3:0:0:0:
257,285,176101,1,4,0:0:0:0:
323,278,176212,1,6,0:0:0:0:
387,301,176323,2,0,P|439:259|505:262,1,135.000005149842,8|6,0:0|0:0,0:0:0:0:
406,138,176656,1,4,0:0:0:0:
406,138,176768,5,8,0:0:0:0:
474,173,176879,2,0,P|482:140|477:107,1,67.5000025749208,6|0,0:0|0:0,0:0:0:0:
403,46,177101,1,6,0:0:0:0:
307,87,177212,1,8,0:0:0:0:
307,87,177434,6,0,L|239:80,1,67.5000025749208,6|0,0:0|0:0,0:0:0:0:
154,37,177656,1,8,0:0:0:0:
228,67,177768,2,0,L|160:60,1,67.5000025749208,6|0,0:0|0:0,0:0:0:0:
88,32,177990,1,4,0:0:0:0:
28,77,178101,5,8,0:0:0:0:
90,143,178212,2,0,P|90:176|79:208,1,67.5000025749208,6|0,0:0|0:0,0:0:0:0:
46,363,178434,1,6,0:0:0:0:
0,300,178545,2,0,P|64:285|115:326,1,135.000005149842,8|6,0:0|0:0,0:0:0:0:
120,339,178879,1,4,0:0:0:0:
209,266,178990,6,0,L|224:367,1,101.250003862381,10|0,0:0|0:0,0:0:0:0:
223,367,179435,6,0,P|271:334|328:339,1,116.999994644165,6|0,0:0|0:0,0:0:0:0:
412,268,179768,2,0,L|402:210,1,58.4999973220826,6|0,0:0|0:0,0:0:0:0:
432,376,179990,1,8,0:0:0:0:
432,376,180212,5,6,0:0:0:0:
486,319,180323,1,4,0:0:0:0:
501,244,180435,1,4,0:0:0:0:
476,226,180546,5,6,0:0:0:0:
412,268,180657,1,4,0:0:0:0:
333,270,180768,1,4,0:0:0:0:
124,31,180990,6,0,L|106:147,1,116.999994644165,10|0,0:0|0:0,0:0:0:0:
212,267,181323,2,0,L|202:210,1,58.4999973220826,6|0,0:0|0:0,0:0:0:0:
236,139,181546,1,8,0:0:0:0:
70,304,181768,5,6,0:0:0:0:
112,366,181879,1,4,0:0:0:0:
186,384,181990,1,4,0:0:0:0:
204,373,182101,5,10,0:0:0:0:
187,318,182212,1,4,0:0:0:0:
212,267,182323,1,4,0:0:0:0:
281,257,182435,1,4,0:0:0:0:
349,244,182546,6,0,P|354:215|347:187,1,58.4999973220826,10|0,0:0|0:0,0:0:0:0:
308,120,182768,1,4,0:0:0:0:
340,49,182879,5,6,0:0:0:0:
411,65,182990,1,8,0:0:0:0:
487,85,183101,1,4,3:0:0:0:
407,80,183212,1,6,0:0:0:0:
242,176,183434,5,8,0:0:0:0:
171,192,183546,1,6,0:0:0:0:
95,212,183657,1,4,0:0:0:0:
175,207,183768,1,6,0:0:0:0:
396,291,184101,5,6,0:0:0:0:
325,307,184212,1,4,0:0:0:0:
249,327,184323,1,8,0:0:0:0:
316,371,184434,5,6,0:0:0:0:
245,355,184546,1,4,3:0:0:0:
169,335,184657,1,4,0:0:0:0:
158,265,184768,1,8,0:0:0:0:
147,193,184879,5,6,0:0:0:0:
76,209,184990,1,4,3:0:0:0:
0,229,185101,1,6,0:0:0:0:
80,224,185212,1,8,0:0:0:0:
135,94,185434,5,6,0:0:0:0:
241,152,185546,1,4,0:0:0:0:
353,116,185657,6,0,L|336:29,1,87.749995983124,10|0,0:0|0:0,0:0:0:0:
337,30,186102,6,0,L|315:145,1,116.999994644165,6|0,0:0|0:0,0:0:0:0:
370,229,186435,1,6,0:0:0:0:
330,12,186657,1,8,0:0:0:0:
490,124,186879,6,0,L|512:238,1,116.999994644165,6|0,0:0|0:0,0:0:0:0:
457,322,187213,1,6,0:0:0:0:
457,322,187435,1,4,0:0:0:0:
464,100,187657,6,0,P|473:73|472:44,2,58.4999973220826,10|0|0,0:0|0:0|0:0,0:0:0:0:
396,0,187990,2,0,L|338:4,1,58.4999973220826,6|0,0:0|0:0,0:0:0:0:
264,98,188213,2,0,P|276:125|280:154,1,58.4999973220826,8|0,0:0|0:0,0:0:0:0:
318,263,188435,6,0,B|258:256|258:256|217:295,1,116.999994644165,6|0,0:0|0:0,0:0:0:0:
288,340,188768,2,0,L|350:350,1,58.4999973220826,8|0,0:0|0:0,0:0:0:0:
128,343,188990,1,4,0:0:0:0:
110,334,189102,1,4,0:0:0:0:
95,326,189213,6,0,L|87:269,2,58.4999973220826,10|0|0,0:0|0:0|0:0,0:0:0:0:
168,215,189546,2,0,L|179:157,1,58.4999973220826,6|8,0:0|0:0,0:0:0:0:
139,71,189768,2,0,P|114:85|85:89,1,58.4999973220826,4|6,0:0|0:0,0:0:0:0:
203,12,189990,1,4,0:0:0:0:
203,12,190101,6,0,P|230:25|258:32,1,58.4999973220826,8|6,0:0|0:0,0:0:0:0:
344,92,190324,2,0,P|315:98|289:111,1,58.4999973220826,4|6,0:0|0:0,0:0:0:0:
385,23,190546,1,8,0:0:0:0:
385,23,190768,6,0,L|407:162,1,116.999994644165,6|8,0:0|0:0,0:0:0:0:
503,213,191101,2,0,L|512:155,2,58.4999973220826,6|0|4,0:0|0:0|0:0,0:0:0:0:
427,290,191435,1,8,0:0:0:0:
371,238,191546,2,0,P|313:234|265:266,1,116.999994644165,6|6,0:0|0:0,0:0:0:0:
427,290,191879,2,0,P|441:334|439:355,1,58.4999973220826,8|0,0:0|0:0,0:0:0:0:
293,368,192101,5,6,0:0:0:0:
274,365,192213,1,4,0:0:0:0:
202,320,192324,6,0,L|144:329,1,58.4999973220826,10|4,0:0|0:0,0:0:0:0:
141,334,192620,1,4,0:0:0:0:
138,339,192694,1,4,0:0:0:0:
134,347,192768,6,0,P|130:303|128:242,2,90,10|0|6,0:0|0:0|0:0,0:0:0:0:
24,358,193254,1,0,0:0:0:0:
15,250,193416,2,0,P|19:200|21:147,1,90,6|0,0:0|0:0,0:0:0:0:
197,174,193740,2,0,P|152:176|107:179,1,90,6|0,0:0|0:0,0:0:0:0:
5,70,194065,6,0,P|79:78|191:76,1,180,6|6,0:0|0:0,0:0:0:0:
245,27,194551,1,0,0:0:0:0:
333,208,194713,1,8,0:0:0:0:
358,202,194795,1,8,0:0:0:0:
384,196,194876,1,8,0:0:0:0:
409,190,194957,1,8,0:0:0:0:
434,184,195038,1,8,0:0:0:0:
434,184,195362,6,0,L|441:275,1,90,6|0,0:0|0:0,0:0:0:0:
357,351,195686,2,0,L|350:261,1,90,6|0,0:0|0:0,0:0:0:0:
456,356,196010,1,6,0:0:0:0:
456,356,196335,1,4,0:0:0:0:
438,351,196416,1,4,0:0:0:0:
420,346,196497,5,10,0:0:0:0:
285,356,196659,1,4,0:0:0:0:
149,368,196821,1,4,0:0:0:0:
241,155,196983,1,10,0:0:0:0:
309,251,197146,1,4,0:0:0:0:
287,255,197227,1,4,0:0:0:0:
266,261,197308,2,0,P|234:269|207:272,1,45,8|8,0:0|0:0,0:0:0:0:
40,356,197470,2,0,P|43:333|49:312,1,45,8|8,0:0|0:0,0:0:0:0:
110,149,197632,2,0,P|137:203|121:274,1,135,8|0,0:0|0:0,0:0:0:0:
49,312,197956,6,0,B|102:316|102:316|123:342|123:342|179:345,2,135,6|6|14,0:0|0:0|0:0,0:0:0:0:
243,384,198604,1,8,0:0:0:0:
266,365,198686,1,0,0:0:0:0:
289,341,198767,1,4,0:0:0:0:
305,315,198848,1,4,0:0:0:0:
318,285,198929,1,8,0:0:0:0:
322,256,199010,1,8,0:0:0:0:
321,222,199091,1,4,0:0:0:0:
315,192,199172,1,4,0:0:0:0:
301,162,199253,5,10,0:0:0:0:
49,187,199415,1,4,0:0:0:0:
41,208,199496,1,4,0:0:0:0:
36,230,199577,2,0,P|32:281|54:320,1,90,10|4,0:0|0:0,0:0:0:0:
171,237,199902,1,4,0:0:0:0:
130,98,200064,2,0,P|84:83|26:80,1,90,10|4,0:0|0:0,0:0:0:0:
206,149,200388,1,4,0:0:0:0:
270,74,200550,5,0,0:0:0:0:
270,74,200604,1,0,0:0:0:0:
357,130,200713,1,0,0:0:0:0:
448,27,200875,1,4,0:0:0:0:
512,199,201037,1,4,0:0:0:0:
479,191,201118,1,4,0:0:0:0:
446,184,201199,1,10,0:0:0:0:
446,184,201523,6,0,P|455:231|438:280,1,90,6|4,0:0|0:0,0:0:0:0:
299,349,201848,2,0,P|287:305|296:262,1,90,10|4,0:0|0:0,0:0:0:0:
337,141,202172,1,2,0:0:0:0:
380,238,202334,1,4,0:0:0:0:
337,141,202496,2,0,L|231:152,1,90,10|0,0:0|0:0,0:0:0:0:
34,290,202821,5,6,0:0:0:0:
178,345,202983,1,4,0:0:0:0:
112,232,203145,2,0,P|106:179|108:129,1,90,10|4,0:0|0:0,0:0:0:0:
25,181,203469,1,6,0:0:0:0:
160,50,203632,2,0,P|115:50|70:44,1,90,4|10,0:0|0:0,0:0:0:0:
3,95,203956,1,4,0:0:0:0:
198,142,204118,5,2,0:0:0:0:
198,142,204280,1,4,0:0:0:0:
264,39,204442,2,0,P|316:27|359:14,1,90,10|0,0:0|0:0,0:0:0:0:
477,129,204767,2,0,P|425:117|382:104,1,90,6|4,0:0|0:0,0:0:0:0:
288,204,205091,2,0,P|299:148|300:103,1,90,10|4,0:0|0:0,0:0:0:0:
382,216,205415,5,6,0:0:0:0:
468,221,205577,1,4,0:0:0:0:
331,357,205740,1,10,0:0:0:0:
326,271,205902,2,0,P|371:274|414:286,1,90,4|2,0:0|0:0,0:0:0:0:
468,221,206226,1,4,0:0:0:0:
251,323,206388,6,0,P|228:276|231:176,1,135,10|0,0:0|0:0,0:0:0:0:
238,175,206713,1,6,0:0:0:0:
331,357,206875,1,4,0:0:0:0:
157,361,207037,2,0,P|144:307|140:211,1,135,10|0,0:0|0:0,0:0:0:0:
150,208,207361,5,6,0:0:0:0:
31,253,207523,1,4,0:0:0:0:
21,127,207686,2,0,P|17:66|13:19,1,90,10|4,0:0|0:0,0:0:0:0:
147,19,208010,2,0,P|149:63|153:108,1,90,2|4,0:0|0:0,0:0:0:0:
252,186,208334,1,10,0:0:0:0:
377,172,208496,1,0,0:0:0:0:
466,82,208659,2,0,P|478:20|479:-6,1,90,6|4,0:0|0:0,0:0:0:0:
388,194,208983,2,0,P|376:256|375:282,1,90,10|0,0:0|0:0,0:0:0:0:
448,353,209306,5,6,0:0:0:0:
296,328,209468,1,0,0:0:0:0:
448,353,209630,1,10,0:0:0:0:
358,202,209792,2,0,L|191:220,1,135,4|0,0:0|0:0,0:0:0:0:
206,242,210116,1,4,0:0:0:0:
102,212,210278,1,8,0:0:0:0:
134,314,210441,1,0,0:0:0:0:
38,148,210603,5,6,0:0:0:0:
13,253,210765,1,4,0:0:0:0:
154,123,210927,5,10,0:0:0:0:
129,18,211089,1,4,0:0:0:0:
181,229,211251,1,8,0:0:0:0:
234,220,211333,1,8,0:0:0:0:
264,175,211414,1,8,0:0:0:0:
265,121,211495,1,8,0:0:0:0:
302,81,211576,1,8,0:0:0:0:
355,77,211657,1,8,0:0:0:0:
402,102,211738,1,4,0:0:0:0:
414,154,211819,1,4,0:0:0:0:
387,200,211900,5,6,0:0:0:0:
321,311,212062,1,4,0:0:0:0:
437,384,212224,1,10,0:0:0:0:
313,295,212386,2,0,B|250:287|250:287|204:321|204:321|145:313,1,180,4|4,0:0|0:0,0:0:0:0:
281,211,212872,2,0,L|370:222,1,90,10|0,0:0|0:0,0:0:0:0:
152,209,213197,6,0,L|169:121,1,90,6|4,0:0|0:0,0:0:0:0:
77,10,213521,2,0,L|94:98,1,90,10|4,0:0|0:0,0:0:0:0:
152,209,213845,1,6,0:0:0:0:
306,57,214008,5,4,0:0:0:0:
281,211,214170,1,10,0:0:0:0:
308,41,214332,2,0,L|325:129,1,90,4|2,0:0|0:0,0:0:0:0:
281,211,214656,1,4,0:0:0:0:
512,323,214818,6,0,P|453:290|387:293,1,135,10|0,0:0|0:0,0:0:0:0:
404,315,215143,2,0,P|449:316|489:336,1,90,6|4,0:0|0:0,0:0:0:0:
266,373,215467,5,10,0:0:0:0:
197,270,215629,1,4,0:0:0:0:
294,183,215791,1,6,0:0:0:0:
186,285,215954,1,4,0:0:0:0:
112,118,216116,1,10,0:0:0:0:
2,245,216278,1,4,0:0:0:0:
28,237,216359,1,4,0:0:0:0:
54,229,216440,2,0,L|24:225,1,30,12|8,0:0|0:0,0:0:0:0:
180,144,216683,5,8,0:0:0:0:
180,144,216764,1,8,0:0:0:0:
112,118,216927,1,8,0:0:0:0:
244,50,217089,5,4,0:0:0:0:
251,120,217251,1,4,0:0:0:0:
306,164,217413,1,8,0:0:0:0:
375,155,217575,1,4,0:0:0:0:
415,292,217737,5,6,0:0:0:0:
312,248,217900,1,4,0:0:0:0:
466,202,218062,1,10,0:0:0:0:
294,255,218224,2,0,P|215:215|126:215,1,180,4|4,0:0|0:0,0:0:0:0:
2,307,218710,2,0,P|43:290|88:288,1,90,10|0,0:0|0:0,0:0:0:0:
248,371,219035,5,6,0:0:0:0:
211,309,219197,1,4,0:0:0:0:
252,379,219359,2,0,B|292:344|292:344|373:356,1,135,10|0,0:0|0:0,0:0:0:0:
373,356,219683,6,0,L|364:266,1,90,6|0,0:0|0:0,0:0:0:0:
456,172,220007,1,10,0:0:0:0:
356,353,220170,2,0,L|337:173,1,180,4|4,0:0|0:0,0:0:0:0:
462,77,220657,1,10,0:0:0:0:
496,254,220819,1,4,0:0:0:0:
341,68,220981,5,4,0:0:0:0:
203,97,221143,1,10,0:0:0:0:
250,21,221306,5,4,0:0:0:0:
197,197,221468,1,4,0:0:0:0:
78,94,221630,6,0,L|71:49,1,45,10|0,0:0|0:0,0:0:0:0:
116,239,221792,1,4,0:0:0:0:
64,83,221954,2,0,L|57:38,1,45,10|0,0:0|0:0,0:0:0:0:
102,232,222116,1,4,0:0:0:0:
197,197,222278,6,0,P|268:204|366:209,1,135,6|0,0:0|0:0,0:0:0:0:
374,223,222603,1,10,0:0:0:0:
339,353,222765,1,4,0:0:0:0:
503,281,222927,1,6,0:0:0:0:
374,223,223089,1,4,0:0:0:0:
460,55,223251,2,0,P|462:122|471:215,1,135,10|0,0:0|0:0,0:0:0:0:
476,201,223576,5,6,0:0:0:0:
395,129,223738,1,4,0:0:0:0:
356,229,223900,1,10,0:0:0:0:
192,135,224062,1,4,0:0:0:0:
231,235,224224,1,6,0:0:0:0:
312,163,224387,1,4,0:0:0:0:
114,232,224549,2,0,P|59:222|11:217,1,90,10|4,0:0|0:0,0:0:0:0:
197,257,224873,5,6,0:0:0:0:
103,145,225035,1,4,0:0:0:0:
216,11,225197,2,0,P|213:41|211:78,1,45,10|0,0:0|0:0,0:0:0:0:
312,163,225360,2,0,P|335:106|295:49,1,135,4|0,0:0|0:0,0:0:0:0:
296,49,225684,1,4,0:0:0:0:
307,246,225846,2,0,P|367:232|463:227,1,135,10|0,0:0|0:0,0:0:0:0:
473,249,226170,5,6,0:0:0:0:
454,151,226333,1,4,0:0:0:0:
492,349,226495,1,10,0:0:0:0:
290,312,226657,1,4,0:0:0:0:
295,325,226738,1,8,0:0:0:0:
300,338,226819,2,0,L|313:240,1,90,6|4,0:0|0:0,0:0:0:0:
492,349,227143,1,10,0:0:0:0:
377,201,227305,1,4,0:0:0:0:
208,348,227468,6,0,P|138:346|57:329,1,135,6|0,0:0|0:0,0:0:0:0:
25,343,227792,1,10,0:0:0:0:
229,207,227954,2,0,P|165:230|99:243,1,135,4|0,0:0|0:0,0:0:0:0:
50,248,228278,1,4,0:0:0:0:
275,269,228441,1,10,0:0:0:0:
275,269,228603,1,0,0:0:0:0:
83,141,228765,6,0,L|91:50,2,90,6|4|10,0:0|0:0|0:0,0:0:0:0:
275,269,229251,2,0,P|260:172|254:105,1,135,4|0,0:0|0:0,0:0:0:0:
273,65,229576,2,0,P|303:60|337:61,1,45,4|0,0:0|0:0,0:0:0:0:
203,88,229738,1,10,0:0:0:0:
275,269,229900,1,0,0:0:0:0:
431,128,230062,5,6,0:0:0:0:
355,118,230224,1,4,0:0:0:0:
431,128,230387,1,10,0:0:0:0:
401,335,230549,2,0,L|384:179,1,135,4|0,0:0|0:0,0:0:0:0:
378,189,230873,1,4,0:0:0:0:
315,338,231035,1,10,0:0:0:0:
482,274,231197,1,4,0:0:0:0:
254,197,231360,6,0,P|206:207|157:212,1,90,6|4,0:0|0:0,0:0:0:0:
322,148,231684,1,10,0:0:0:0:
322,148,231846,1,6,0:0:0:0:
212,329,232008,1,8,0:0:0:0:
159,339,232089,1,8,0:0:0:0:
106,331,232170,1,8,0:0:0:0:
59,303,232251,1,8,0:0:0:0:
24,263,232333,1,8,0:0:0:0:
7,211,232414,1,8,0:0:0:0:
10,158,232495,1,8,0:0:0:0:
31,108,232576,1,8,0:0:0:0:
69,69,232657,6,0,L|157:82,1,90,6|4,0:0|0:0,0:0:0:0:
6,6,232981,1,10,0:0:0:0:
190,164,233143,2,0,B|229:130|229:130|356:149,1,180,4|4,0:0|0:0,0:0:0:0:
456,22,233630,2,0,B|475:63|475:63|456:109,1,90,10|4,0:0|0:0,0:0:0:0:
365,321,233954,5,6,0:0:0:0:
398,230,234116,1,4,0:0:0:0:
489,263,234278,1,10,0:0:0:0:
346,339,234441,2,0,P|306:318|261:313,1,90,4|6,0:0|0:0,0:0:0:0:
508,254,234765,1,4,0:0:0:0:
391,212,234927,2,0,P|375:146|385:80,1,135,8|0,0:0|0:0,0:0:0:0:
397,66,235251,6,0,L|504:86,1,107.999996704102,4|4,0:0|0:0,0:0:0:0:
289,9,235576,1,10,0:0:0:0:
284,192,235738,6,0,L|391:212,1,107.999996704102,4|6,0:0|0:0,0:0:0:0:
176,135,236062,1,4,0:0:0:0:
59,271,236224,2,0,P|11:259|22:211,1,107.999996704102,10|4,0:0|0:0,0:0:0:0:
92,213,236468,1,0,0:0:0:0:
92,213,236549,5,6,0:0:0:0:
113,318,236711,1,6,0:0:0:0:
176,135,236873,2,0,L|197:240,1,107.999996704102,10|4,0:0|0:0,0:0:0:0:
411,106,237197,5,6,0:0:0:0:
390,211,237360,1,6,0:0:0:0:
327,28,237522,2,0,L|305:133,1,107.999996704102,10|4,0:0|0:0,0:0:0:0:
314,152,237765,1,4,0:0:0:0:
324,168,237846,6,0,L|303:264,1,99.0000030212403,10|4,0:0|0:0,0:0:0:0:
303,264,238170,1,4,0:0:0:0:
227,91,238333,6,0,L|206:187,1,99.0000030212403,10|4,0:0|0:0,0:0:0:0:
421,92,238657,1,10,0:0:0:0:
130,14,238819,6,0,L|109:110,1,99.0000030212403,10|4,0:0|0:0,0:0:0:0:
105,125,239062,1,4,0:0:0:0:
101,138,239143,6,0,P|58:116|9:114,1,99.0000030212403,10|4,0:0|0:0,0:0:0:0:
9,114,239468,1,4,0:0:0:0:
180,319,239630,6,0,P|165:272|131:236,1,99.0000030212403,10|4,0:0|0:0,0:0:0:0:
123,274,239873,1,4,0:0:0:0:
114,312,239954,1,10,0:0:0:0:
242,147,240116,1,4,0:0:0:0:
250,185,240197,1,4,0:0:0:0:
259,223,240278,1,10,0:0:0:0:
369,19,240441,5,8,0:0:0:0:
413,0,240522,1,8,0:0:0:0:
460,12,240603,1,8,0:0:0:0:
489,51,240684,1,8,0:0:0:0:
485,100,240765,2,0,P|480:124|472:147,1,49.5000015106202,4|4,0:0|0:0,0:0:0:0:
242,147,240927,5,8,0:0:0:0:
198,128,241008,1,4,0:0:0:0:
151,140,241089,1,4,0:0:0:0:
122,179,241170,1,4,0:0:0:0:
125,228,241251,2,0,P|129:252|137:275,1,49.5000015106202,4|4,0:0|0:0,0:0:0:0:
274,342,241414,6,0,L|372:328,1,99.0000030212403,10|0,0:0|0:0,0:0:0:0:
398,323,241657,1,8,0:0:0:0:
423,319,241738,5,8,0:0:0:0:
472,147,241900,1,8,0:0:0:0:
301,98,242062,1,8,0:0:0:0:
252,270,242224,1,8,0:0:0:0:
434,339,242387,5,8,0:0:0:0:
288,77,242549,5,8,0:0:0:0:
492,135,242711,5,8,0:0:0:0:
231,281,242873,5,8,0:0:0:0:
62,53,243035,6,0,B|96:100|96:100|70:153,1,116.999994644165,6|4,0:0|0:0,0:0:0:0:
233,0,243360,1,10,0:0:0:0:
416,152,243522,1,4,0:0:0:0:
403,162,243603,1,4,0:3:0:0:
387,170,243684,2,0,P|386:141|396:114,1,58.4999973220826,6|0,0:0|0:0,0:0:0:0:
441,52,243846,1,4,0:0:0:0:
462,302,244008,2,0,P|390:252|304:242,1,175.499991966248,10|0,0:0|0:0,0:0:0:0:
279,249,244333,5,6,0:0:0:0:
357,342,244495,1,0,0:0:0:0:
379,214,244657,1,10,0:0:0:0:
257,258,244819,1,0,0:0:0:0:
106,84,244981,5,6,0:0:0:0:
128,211,245143,1,4,0:0:0:0:
228,128,245305,1,10,0:0:0:0:
2,213,245468,5,4,0:0:0:0:
4,190,245549,1,4,0:3:0:0:
6,167,245630,2,0,L|27:283,1,116.999994644165,6|4,0:0|0:0,0:0:0:0:
106,84,245954,1,10,0:0:0:0:
209,297,246116,1,4,0:0:0:0:
225,292,246197,1,4,0:0:0:0:
242,288,246278,2,0,L|184:274,1,58.4999973220826,6|0,0:0|0:0,0:0:0:0:
111,257,246441,1,4,0:0:0:0:
297,200,246603,2,0,B|341:237|341:237|400:231,1,116.999994644165,10|4,0:0|0:0,0:0:0:0:
496,51,246927,5,6,0:0:0:0:
476,154,247089,1,0,0:0:0:0:
400,231,247251,1,10,0:0:0:0:
380,334,247414,1,4,0:0:0:0:
343,123,247576,5,6,0:0:0:0:
220,154,247738,1,4,0:0:0:0:
266,77,247900,1,10,0:0:0:0:
297,200,248062,1,4,0:0:0:0:
462,8,248224,6,0,P|412:38|354:36,1,116.999994644165,6|4,0:0|0:0,0:0:0:0:
220,154,248549,1,10,0:0:0:0:
50,27,248711,1,4,0:0:0:0:
66,36,248792,1,4,0:3:0:0:
79,49,248873,2,0,P|92:76|94:105,1,58.4999973220826,6|0,0:0|0:0,0:0:0:0:
78,181,249035,1,4,0:0:0:0:
6,328,249197,2,0,P|86:292|173:294,1,175.499991966248,10|0,0:0|0:0,0:0:0:0:
194,278,249522,6,0,P|246:304|304:302,1,116.999994644165,6|0,0:0|0:0,0:0:0:0:
475,222,249846,1,10,0:0:0:0:
400,328,250008,2,0,L|387:211,1,116.999994644165,4|0,0:0|0:0,0:0:0:0:
304,302,250333,1,4,0:0:0:0:
237,170,250495,2,0,L|249:53,1,116.999994644165,10|4,0:0|0:0,0:0:0:0:
259,39,250738,1,0,0:0:0:0:
267,28,250819,6,0,L|390:44,1,116.999994644165,6|4,0:0|0:0,0:0:0:0:
158,157,251143,1,10,0:0:0:0:
304,302,251305,2,0,L|427:286,1,116.999994644165,4|6,0:0|0:0,0:0:0:0:
237,170,251630,1,4,0:0:0:0:
32,369,251792,2,0,P|20:308|105:331,1,175.499991966248,10|0,0:0|0:0,0:0:0:0:
88,330,252116,6,0,P|55:219|80:106,1,233.999989288331,6|10,0:0|0:0,0:0:0:0:
199,260,252603,1,4,0:0:0:0:
193,278,252684,1,4,0:0:0:0:
185,297,252765,5,8,0:0:0:0:
131,240,252873,1,4,0:3:0:0:
139,165,252981,1,4,0:3:0:0:
80,106,253089,5,8,0:0:0:0:
137,52,253197,1,4,0:3:0:0:
212,60,253305,1,4,0:3:0:0:
285,2,253414,6,0,P|289:102|296:233,1,215.999993408203,6|10,0:0|0:0,0:0:0:0:
452,355,253900,2,0,P|483:291|445:203,1,161.999995056153,4|0,0:0|0:0,0:0:0:0:
427,203,254224,1,4,0:0:0:0:
452,42,254387,1,10,0:0:0:0:
427,203,254549,1,4,0:0:0:0:
280,102,254711,6,0,P|224:107|161:104,1,107.999996704102,6|4,0:0|0:0,0:0:0:0:
63,48,255035,1,10,0:0:0:0:
80,257,255197,1,4,0:0:0:0:
80,257,255278,1,0,0:0:0:0:
80,257,255360,2,0,P|62:197|61:132,1,107.999996704102,6|4,0:0|0:0,0:0:0:0:
63,48,255684,1,10,0:0:0:0:
302,204,255846,1,4,0:0:0:0:
148,356,256008,6,0,B|150:276|150:276|191:245|191:245|190:155,1,215.999993408203,6|10,0:0|0:0,0:0:0:0:
373,331,256495,2,0,P|295:352|245:284,1,161.999995056153,4|0,0:0|0:0,0:0:0:0:
246,297,256819,1,4,0:0:0:0:
474,278,256981,1,10,0:0:0:0:
453,354,257143,1,4,0:0:0:0:
338,246,257305,5,6,0:0:0:0:
496,199,257468,1,4,0:0:0:0:
286,173,257630,1,10,0:0:0:0:
496,199,257792,1,4,0:0:0:0:
396,36,257954,2,0,P|384:94|382:142,1,107.999996704102,6|4,0:0|0:0,0:0:0:0:
196,17,258278,2,0,P|207:69|209:123,1,107.999996704102,10|4,0:0|0:0,0:0:0:0:
15,83,258603,6,0,P|78:61|108:195,1,215.999993408203,6|10,0:0|0:0,0:0:0:0:
20,293,259089,1,4,0:0:0:0:
171,352,259251,2,0,P|227:346|287:347,1,107.999996704102,6|4,0:0|0:0,0:0:0:0:
312,182,259576,2,0,P|258:182|204:176,1,107.999996704102,10|4,0:0|0:0,0:0:0:0:
20,293,259900,6,0,P|5:218|5:117,1,161.999995056153,6|0,0:0|0:0,0:0:0:0:
35,70,260224,2,0,P|62:78|96:83,1,53.9999983520508,10|0,0:0|0:0,0:0:0:0:
186,104,260387,1,8,0:0:0:0:
188,93,260468,1,8,0:0:0:0:
190,82,260549,5,8,0:0:0:0:
231,47,260630,1,8,0:0:0:0:
284,48,260711,1,8,0:0:0:0:
330,75,260792,1,8,0:0:0:0:
347,126,260873,1,8,0:0:0:0:
322,173,260954,1,8,0:0:0:0:
320,226,261035,1,4,0:0:0:0:
360,261,261116,1,4,0:0:0:0:
413,268,261197,6,0,L|454:260,1,35.9999989013672,8|8,0:0|0:0,0:0:0:0:
413,268,262495,6,0,L|409:303,1,35.9999989013672,8|8,0:0|0:0,0:0:0:0:
350,362,262657,1,4,0:0:0:0:
251,212,262819,6,0,L|254:247,1,35.9999989013672,8|8,0:0|0:0,0:0:0:0:
330,288,262981,1,4,0:0:0:0:
330,288,263062,1,4,0:0:0:0:
330,288,263143,6,0,L|336:218,1,53.9999983520508,10|0,0:0|0:0,0:0:0:0:
495,213,264765,5,8,0:0:0:0:
450,201,264846,1,8,0:0:0:0:
410,222,264927,1,8,0:0:0:0:
366,209,265008,1,8,0:0:0:0:
326,231,265089,6,0,L|319:106,1,107.999996704102,6|0,0:0|0:0,0:0:0:0:
254,201,265576,2,0,L|245:31,1,161.999995056153,6|0,0:0|0:0,0:0:0:0:
245,39,266873,5,4,0:0:0:0:
242,54,266954,1,4,0:0:0:0:
239,69,267035,1,10,0:0:0:0:
169,26,267197,1,4,0:0:0:0:
111,74,267360,1,4,0:0:0:0:
37,57,267522,1,4,0:0:0:0:
131,277,267684,5,8,0:0:0:0:
314,25,267846,2,0,P|308:109|306:126,1,80.9999975280763,6|0,0:0|0:0,0:0:0:0:
300,142,268170,1,6,0:0:0:0:
491,268,268333,2,0,P|485:215|480:168,1,80.9999975280763,6|0,0:0|0:0,0:0:0:0:
475,149,268657,1,6,0:0:0:0:
466,15,268819,1,4,0:0:0:0:
461,46,268900,1,4,0:0:0:0:
457,77,268981,1,10,0:0:0:0:
316,259,270765,5,4,0:0:0:0:
325,274,270846,1,4,0:0:0:0:
332,289,270927,2,0,P|340:333|340:382,1,80.9999975280763,8|0,0:0|0:0,0:0:0:0:
237,384,271251,1,4,0:0:0:0:
228,369,271333,1,4,0:0:0:0:
221,354,271414,2,0,P|213:310|213:261,1,80.9999975280763,8|0,0:0|0:0,0:0:0:0:
25,75,272549,5,8,0:0:0:0:
78,66,272630,1,8,0:0:0:0:
131,61,272711,1,8,0:0:0:0:
184,60,272792,1,8,0:0:0:0:
237,68,272873,5,6,0:0:0:0:
309,254,273035,2,0,P|300:196|297:106,1,135,6|0,0:0|0:0,0:0:0:0:
313,82,273360,2,0,P|386:113|455:118,1,135,6|0,0:0|0:0,0:0:0:0:
476,98,273684,1,4,0:0:0:0:
410,285,273846,1,10,0:0:0:0:
446,205,274008,1,4,0:0:0:0:
410,285,274170,5,10,0:0:0:0:
377,141,274333,1,4,0:0:0:0:
492,288,274495,1,10,0:0:0:0:
316,200,274657,1,4,0:0:0:0:
224,337,274817,6,0,P|198:342|159:343,1,45,8|8,0:0|0:0,0:0:0:0:
64,152,274979,1,8,0:0:0:0:
117,140,275060,1,4,0:0:0:0:
166,166,275141,1,4,0:0:0:0:
185,217,275222,1,4,0:0:0:0:
176,269,275303,6,0,P|150:261|115:244,1,45,8|4,0:0|0:0,0:0:0:0:
223,45,275465,1,4,0:0:0:0:
275,57,275546,1,4,0:0:0:0:
308,102,275627,1,4,0:0:0:0:
303,156,275708,1,4,0:0:0:0:
272,199,275789,6,0,P|252:181|228:150,1,45,8|8,0:0|0:0,0:0:0:0:
433,69,275952,1,8,0:0:0:0:
470,107,276033,1,0,0:0:0:0:
473,163,276114,1,4,0:0:0:0:
439,205,276195,1,4,0:0:0:0:
390,224,276276,6,0,P|383:198|379:158,1,45,8|0,0:0|0:0,0:0:0:0:
223,45,276438,2,0,P|219:67|213:88,1,45,8|0,0:0|0:0,0:0:0:0:
47,269,276600,2,0,P|40:247|38:225,1,45,8|0,0:0|0:0,0:0:0:0:
58,156,276925,6,0,P|143:186|232:185,1,180,6|4,0:0|0:0,0:0:0:0:
306,340,277411,1,10,0:0:0:0:
327,268,277573,1,4,0:0:0:0:
194,368,277735,2,0,P|174:357|152:353,1,45,6|0,0:0|0:0,0:0:0:0:
81,349,277897,1,4,0:0:0:0:
209,376,278059,1,10,0:0:0:0:
327,268,278222,2,0,B|375:253|408:292|408:292|440:332|489:317,1,180,4|0,0:0|0:0,0:0:0:0:
399,127,278708,6,0,P|395:104|397:82,1,45,10|0,0:0|0:0,0:0:0:0:
404,66,278870,2,0,P|419:107|417:152,1,90,6|0,0:0|0:0,0:0:0:0:
327,268,279195,1,4,0:0:0:0:
241,168,279357,1,10,0:0:0:0:
243,154,279438,1,0,0:0:0:0:
246,140,279519,1,4,0:0:0:0:
113,312,279681,2,0,P|137:249|134:182,1,135,6|0,0:0|0:0,0:0:0:0:
125,173,280005,2,0,P|120:194|121:217,1,45,10|0,0:0|0:0,0:0:0:0:
183,384,280168,5,4,0:0:0:0:
183,384,280249,1,4,0:0:0:0:
183,384,280330,1,6,0:0:0:0:
209,351,280411,1,4,0:0:0:0:
244,333,280492,1,4,0:0:0:0:
284,328,280573,1,4,0:0:0:0:
323,339,280654,1,10,0:0:0:0:
492,260,280816,6,0,B|454:294|454:294|327:268,1,180,6|4,0:0|0:0,0:0:0:0:
230,169,281303,2,0,B|216:123|216:123|237:86,1,90,10|4,0:0|0:0,0:0:0:0:
95,319,281627,5,6,0:0:0:0:
207,247,281789,1,0,0:0:0:0:
327,268,281951,1,10,0:0:0:0:
64,160,282114,5,4,0:0:0:0:
181,268,282276,1,6,0:0:0:0:
327,268,282438,1,8,0:0:0:0:
423,384,282600,6,0,L|512:370,2,90,6|0|10,0:0|0:0|0:0,0:0:0:0:
327,268,283087,1,4,0:0:0:0:
414,156,283249,1,6,0:0:0:0:
320,60,283411,1,0,0:0:0:0:
251,166,283573,5,10,0:0:0:0:
122,115,283735,1,4,0:0:0:0:
142,252,283897,1,2,0:0:0:0:
211,145,284059,5,4,0:0:0:0:
124,158,284222,1,10,0:0:0:0:
179,228,284384,1,4,0:0:0:0:
179,228,284546,1,6,0:0:0:0:
86,24,284708,6,0,P|32:94|37:182,1,180,6|4,0:0|0:0,0:0:0:0:
167,335,285195,1,10,0:0:0:0:
180,333,285276,1,0,0:0:0:0:
193,331,285357,1,4,0:0:0:0:
53,305,285519,5,6,0:0:0:0:
179,228,285681,1,4,0:0:0:0:
304,310,285843,1,10,0:0:0:0:
238,384,286005,2,0,P|314:338|403:344,1,180,4|0,0:0|0:0,0:0:0:0:
486,73,286492,6,0,L|441:65,1,45,10|0,0:0|0:0,0:0:0:0:
423,81,286654,2,0,B|402:123|402:123|416:163,1,90,6|0,0:0|0:0,0:0:0:0:
498,272,286978,1,4,0:0:0:0:
495,285,287059,1,0,0:0:0:0:
492,298,287141,1,10,0:0:0:0:
336,177,287303,1,4,0:0:0:0:
210,273,287465,2,0,P|144:273|95:229,1,135,6|0,0:0|0:0,0:0:0:0:
95,229,287789,2,0,P|114:269|117:313,1,90,10|4,0:0|0:0,0:0:0:0:
6,118,288114,5,6,0:0:0:0:
49,126,288195,1,4,0:0:0:0:
93,136,288276,1,4,0:0:0:0:
137,146,288357,1,4,0:0:0:0:
181,156,288438,1,10,0:0:0:0:
346,18,288600,6,0,B|311:54|311:54|326:187,1,180,6|4,0:0|0:0,0:0:0:0:
439,0,289087,2,0,L|444:45,1,45,10|0,0:0|0:0,0:0:0:0:
453,156,289249,1,4,0:0:0:0:
288,54,289411,5,6,0:0:0:0:
190,116,289573,1,0,0:0:0:0:
172,229,289735,1,10,0:0:0:0:
138,3,289897,5,4,0:0:0:0:
205,107,290059,1,6,0:0:0:0:
172,229,290222,1,8,0:0:0:0:
368,384,290384,5,6,0:0:0:0:
283,350,290546,5,4,0:0:0:0:
302,320,290627,1,0,0:0:0:0:
332,300,290708,1,10,0:0:0:0:
367,293,290789,1,0,0:0:0:0:
402,301,290870,2,0,L|359:316,1,45,4|4,0:0|0:0,0:0:0:0:
224,298,291032,5,8,0:0:0:0:
207,256,291114,1,0,0:0:0:0:
172,229,291195,1,4,0:0:0:0:
128,226,291276,1,0,0:0:0:0:
88,247,291357,2,0,L|133:255,1,45,4|0,0:0|0:0,0:0:0:0:
321,230,291519,5,8,0:0:0:0:
335,178,291600,1,0,0:0:0:0:
374,142,291681,1,4,0:0:0:0:
426,131,291762,1,0,0:0:0:0:
476,150,291843,1,4,0:0:0:0:
470,167,291924,1,4,0:0:0:0:
464,184,292005,5,8,0:0:0:0:
397,175,292087,1,8,0:0:0:0:
330,167,292168,1,8,0:0:0:0:
263,158,292249,1,8,0:0:0:0:
196,150,292330,2,0,L|188:105,1,45,4|4,0:0|0:0,0:0:0:0:
251,9,292492,6,0,L|364:21,2,90,6|0|4,0:0|0:0|0:0,0:0:0:0:
16,123,292978,1,10,0:0:0:0:
85,104,293141,1,4,0:0:0:0:
0,5,293303,1,6,0:0:0:0:
188,105,293465,2,0,L|179:163,1,45,4|0,0:0|0:0,0:0:0:0:
113,196,293627,1,10,0:0:0:0:
106,21,293789,1,4,0:0:0:0:
326,249,293951,6,0,P|315:171|306:93,1,135,6|0,0:0|0:0,0:0:0:0:
349,39,294276,1,10,0:0:0:0:
503,172,294438,1,6,0:0:0:0:
326,249,294600,1,0,0:0:0:0:
349,39,294762,1,4,0:0:0:0:
500,257,294924,1,10,0:0:0:0:
426,237,295087,1,4,0:0:0:0:
288,361,295249,6,0,P|233:357|147:308,1,135,6|0,0:0|0:0,0:0:0:0:
84,147,295573,2,0,P|115:206|117:248,1,90,10|4,0:0|0:0,0:0:0:0:
61,307,295816,1,4,0:0:0:0:
61,307,295897,1,6,0:0:0:0:
101,69,296059,1,4,0:0:0:0:
61,307,296222,1,10,0:0:0:0:
177,95,296384,6,0,B|211:91|248:77|248:77|271:104|271:104|306:93|351:88,1,180,6|4,0:0|0:0,0:0:0:0:
433,283,296870,2,0,P|390:246|379:201,1,90,10|4,0:0|0:0,0:0:0:0:
420,39,297195,1,6,0:0:0:0:
420,39,297519,5,10,0:0:0:0:
437,127,297681,1,4,0:0:0:0:
349,145,297843,1,4,0:0:0:0:
296,335,298005,1,8,0:0:0:0:
486,278,298168,5,6,0:0:0:0:
437,225,298330,1,4,0:0:0:0:
416,293,298492,1,10,0:0:0:0:
375,178,298654,1,4,0:0:0:0:
221,354,298816,1,10,0:0:0:0:
38,203,298978,1,0,0:0:0:0:
17,282,299141,5,6,0:0:0:0:
17,282,299303,1,4,0:0:0:0:
110,281,299465,1,10,0:0:0:0:
50,107,299627,1,4,0:0:0:0:
110,281,299789,1,10,0:0:0:0:
119,208,299951,1,8,0:0:0:0:
117,193,300005,1,8,0:0:0:0:
115,178,300059,1,4,0:3:0:0:
113,162,300114,1,4,0:0:0:0:
49,31,300276,6,0,P|121:42|256:47,1,180,6|4,0:0|0:0,0:0:0:0:
380,27,300762,1,10,0:0:0:0:
302,219,300924,1,4,0:0:0:0:
491,138,301087,2,0,P|427:118|386:112,1,90,6|4,0:0|0:0,0:0:0:0:
302,219,301411,1,10,0:0:0:0:
416,357,301573,6,0,P|478:324|449:220,1,180,4|0,0:0|0:0,0:0:0:0:
331,133,302059,1,10,0:0:0:0:
289,337,302222,1,6,0:0:0:0:
211,319,302384,1,0,0:0:0:0:
289,337,302546,1,4,0:0:0:0:
152,254,302708,1,10,0:0:0:0:
36,346,302870,1,4,0:0:0:0:
227,223,303032,6,0,P|243:171|212:86,1,135,6|0,0:0|0:0,0:0:0:0:
48,111,303357,2,0,P|31:175|55:237,1,135,10|0,0:0|0:0,0:0:0:0:
152,254,303681,1,6,0:0:0:0:
147,212,303762,1,4,0:0:0:0:
143,171,303843,1,4,0:0:0:0:
139,129,303924,1,4,0:0:0:0:
135,88,304005,1,10,0:0:0:0:
433,33,304168,6,0,P|424:113|420:224,1,180,6|4,0:0|0:0,0:0:0:0:
442,336,304654,1,10,0:0:0:0:
247,366,304816,1,4,0:0:0:0:
310,143,304978,6,0,P|330:238|332:293,1,135,6|0,0:0|0:0,0:0:0:0:
332,275,305303,1,10,0:0:0:0:
217,224,305465,1,4,0:0:0:0:
162,337,305627,1,10,0:0:0:0:
27,230,305789,1,4,0:0:0:0:
35,261,305870,1,4,0:0:0:0:
44,292,305951,1,10,0:0:0:0:
44,292,306276,5,8,0:0:0:0:
136,256,306438,1,8,0:0:0:0:
46,207,306600,5,8,0:0:0:0:
218,237,306762,1,8,0:0:0:0:
44,292,306924,5,8,0:0:0:0:
291,210,307086,1,8,0:0:0:0:
220,316,307249,5,8,0:0:0:0:
183,76,307411,5,8,0:0:0:0:
424,50,307573,5,8,0:0:0:0:
455,290,307735,5,8,0:0:0:0:
