osu file format v14

[General]
AudioFilename: audio.mp3
AudioLeadIn: 0
PreviewTime: 152493
Countdown: 0
SampleSet: Normal
StackLeniency: 0.4
Mode: 0
LetterboxInBreaks: 0
WidescreenStoryboard: 1

[Editor]
Bookmarks: 11990,55177,97705,353185
DistanceSpacing: 0.9
BeatDivisor: 4
GridSize: 4
TimelineZoom: 3.299999

[Metadata]
Title:Youyou Bakko ~ Who done it!!!
TitleUnicode:妖々跋扈 ~ Who done it!!!
Artist:Demetori
ArtistUnicode:Demetori
Creator:[-Crissaegrim-]
Version:Extra Stage
Source:東方妖々夢 ~ Perfect Cherry Blossom.
Tags:touhou project perfect cherry blossom stream yakumo ran Le Grimoire De reve 妖々跋扈 ~ who done it!!!
BeatmapID:1397146
BeatmapSetID:659749

[Difficulty]
HPDrainRate:5
CircleSize:4.4
OverallDifficulty:9
ApproachRate:9.5
SliderMultiplier:2
SliderTickRate:1

[Events]
//Background and Video events
0,0,"bg1.png",0,0
//Break Periods
//Storyboard Layer 0 (Background)
//Storyboard Layer 1 (Fail)
//Storyboard Layer 2 (Pass)
//Storyboard Layer 3 (Foreground)
//Storyboard Sound Samples

[TimingPoints]
10032,329.67032967033,4,1,3,60,1,0
11680,-100,4,2,3,5,0,0
11845.8012111688,329.67032967033,4,1,3,60,1,0
16461,-76.9230769230769,4,1,3,60,0,0
17450,-100,4,1,3,60,0,0
21076,-76.9230769230769,4,1,3,60,0,0
22560,-90.9090909090909,4,1,3,60,0,0
27175,-76.9230769230769,4,1,3,60,0,0
27999,-90.9090909090909,4,1,3,60,0,0
32944,-111.111111111111,4,1,3,60,0,0
38878,-83.3333333333333,4,1,3,60,0,0
39538,-111.111111111111,4,1,3,60,0,0
44483,-76.9230769230769,4,1,3,60,0,0
44812,-100,4,1,3,60,0,1
52230,-76.9230769230769,4,1,3,60,0,1
52724,-100,4,1,3,60,0,1
54043,-100,4,1,3,60,0,0
55362,-76.9230769230769,4,1,3,60,0,0
56021,-100,4,1,3,60,0,0
56680,-76.9230769230769,4,1,3,60,0,0
57340,-100,4,1,3,60,0,0
57999,-71.4285714285714,4,1,3,60,0,0
58658,-100,4,1,3,60,0,0
59318,-76.9230769230769,4,1,3,60,0,0
59977,-71.4285714285714,4,1,3,60,0,0
63933,-83.3333333333333,4,1,3,60,0,0
73823,-71.4285714285714,4,1,3,60,0,0
74318,-83.3333333333333,4,1,3,60,0,0
78274,-76.9230769230769,4,1,3,60,0,0
79098,-76.9230769230769,4,1,3,60,0,0
79593,-83.3333333333333,4,1,3,60,0,0
81735,-71.4285714285714,4,1,3,60,0,0
82065,-83.3333333333333,4,1,3,60,0,0
84373,-71.4285714285714,4,1,3,60,0,0
84867,-83.3333333333333,4,1,3,60,0,0
87010,-71.4285714285714,4,1,4,60,0,0
87505,-83.3333333333333,4,1,4,60,0,0
91708,-83.3333333333333,4,1,3,60,0,0
95746,-71.4285714285714,4,1,3,60,0,0
96241,-83.3333333333333,4,1,3,60,0,0
102340,-71.4285714285714,4,1,3,60,0,0
103164,-83.3333333333333,4,1,3,60,0,0
108109,377.358490566038,4,1,3,60,1,0
108486,348.837209302326,4,1,3,60,1,0
108834,357.142857142857,4,1,3,60,1,0
109191,428.571428571429,4,1,3,60,1,0
109476,447.761194029851,4,1,3,60,1,0
109625,329.67032967033,4,1,3,60,1,0
109954,342.857142857143,4,1,3,60,1,0
110296,329.67032967033,4,1,3,60,1,0
120845,-83.3333333333333,4,1,3,60,0,0
126120,-76.9230769230769,4,1,3,60,0,0
126614,-83.3333333333333,4,1,3,60,0,0
127438,-71.4285714285714,4,1,3,60,0,0
127933,-83.3333333333333,4,1,3,60,0,0
128757,-76.9230769230769,4,1,3,60,0,0
131394,-83.3333333333333,4,1,3,60,0,0
135350,-76.9230769230769,4,1,3,60,0,0
137823,-83.3333333333333,4,1,3,60,0,0
139306,-71.4285714285714,4,1,3,60,0,0
139801,-83.3333333333333,4,1,3,60,0,0
141944,-71.4285714285714,4,1,3,60,0,0
142109,-71.4285714285714,4,1,4,60,0,0
142438,-83.3333333333333,4,1,4,60,0,0
147219,-83.3333333333333,4,1,3,60,0,0
150350,-71.4285714285714,4,1,3,60,0,0
151175,-83.3333333333333,4,1,3,60,0,0
152493,-76.9230769230769,4,1,3,60,0,1
161724,-76.9230769230769,4,1,3,60,0,0
163043,-76.9230769230769,4,1,4,60,0,1
167823,-66.6666666666667,4,1,3,60,0,1
168317,-76.9230769230769,4,1,4,60,0,1
170460,-66.6666666666667,4,1,3,60,0,1
170955,-71.4285714285714,4,1,3,60,0,1
176230,-71.4285714285714,4,1,3,60,0,0
177383,-71.4285714285714,4,1,3,5,0,0
177548,-71.4285714285714,4,1,3,60,0,0
178702,-71.4285714285714,4,1,3,5,0,0
178867,-71.4285714285714,4,1,3,60,0,0
180021,-71.4285714285714,4,1,3,5,0,0
180186,-100,4,1,3,60,0,0
182658,-100,4,1,3,5,0,0
182823,-100,4,1,3,60,0,0
183977,-100,4,1,3,5,0,0
184142,-100,4,1,3,60,0,0
186449,-76.9230769230769,4,1,3,60,0,0
197328,-76.9230769230769,4,1,3,60,0,1
203922,-66.6666666666667,4,1,3,60,0,1
204252,-76.9230769230769,4,1,3,60,0,1
210515,-66.6666666666667,4,1,3,60,0,1
211175,-76.9230769230769,4,1,3,60,0,1
211834,-66.6666666666667,4,1,3,60,0,1
213153,-76.9230769230769,4,1,3,60,0,0
218427,439.56043956044,4,1,3,60,1,0
219746,439.56043956044,4,1,3,60,1,0
219746,-57.8034682080925,4,1,3,60,0,0
223263,342.857142857143,4,1,3,60,1,0
223434,439.56043956044,4,1,3,60,1,0
223434,-66.6666666666667,4,1,3,60,0,0
223873,487.80487804878,4,1,3,60,1,0
224116,558.139534883721,4,1,3,60,1,0
224395,600,4,1,3,60,1,0
224695,659.340659340659,4,1,3,60,1,0
225024,1153.84615384615,4,1,3,60,1,0
225024,-81.3008130081301,4,1,3,60,0,0
225456,-81.3008130081301,4,1,3,5,0,0
225600,365.853658536585,4,1,3,60,1,0
225965,375,4,1,3,60,1,0
226152,342.857142857143,4,1,3,60,1,0
226152,-125,4,1,3,60,0,0
226494,375,4,1,3,60,1,0
226681,344.827586206897,4,1,3,60,1,0
227370,333.333333333333,4,1,3,60,1,0
227536,329.67032967033,4,1,3,60,1,0
228360,329.67032967033,4,1,3,60,1,0
229678,333.333333333333,4,1,3,60,1,0
230178,332.409972299169,4,1,3,60,1,0
230842,342.857142857143,4,1,3,60,1,0
231013,333.333333333333,4,1,3,60,1,0
231013,-76.9230769230769,4,1,3,60,0,0
236513,-76.9230769230769,4,1,4,60,0,0
241679,-76.9230769230769,4,1,3,60,0,0
247012,-66.6666666666667,4,1,4,60,0,0
247346,-76.9230769230769,4,1,4,60,0,0
249679,-66.6666666666667,4,1,4,60,0,0
250012,-76.9230769230769,4,1,4,60,0,0
251846,-66.6666666666667,4,1,3,60,0,0
252679,-76.9230769230769,4,1,3,60,0,0
253679,-66.6666666666667,4,1,3,60,0,0
254012,-76.9230769230769,4,1,3,60,0,0
258346,333.333333333333,4,1,3,60,1,1
258346,-66.6666666666667,4,1,3,60,0,1
258679,-76.9230769230769,4,1,3,60,0,1
263679,-71.4285714285714,4,1,3,60,0,1
264346,-76.9230769230769,4,1,3,60,0,1
266346,-66.6666666666667,4,1,3,60,0,1
267679,-76.9230769230769,4,1,3,60,0,0
269012,-66.6666666666667,4,1,4,60,0,1
269346,-76.9230769230769,4,1,4,60,0,1
269679,-66.6666666666667,4,1,4,60,0,1
270012,-76.9230769230769,4,1,4,60,0,1
270346,-66.6666666666667,4,1,4,60,0,1
270679,-76.9230769230769,4,1,4,60,0,1
271679,-66.6666666666667,4,1,4,60,0,1
272012,-76.9230769230769,4,1,4,60,0,1
273012,-66.6666666666667,4,1,4,60,0,1
273346,-76.9230769230769,4,1,4,60,0,1
273846,-66.6666666666667,4,1,4,60,0,1
274179,-76.9230769230769,4,1,4,60,0,1
276512,-66.6666666666667,4,1,4,60,0,1
277012,-76.9230769230769,4,1,3,60,0,1
280679,-66.6666666666667,4,1,3,60,0,1
282346,-76.9230769230769,4,1,4,60,0,0
287012,-66.6666666666667,4,1,4,60,0,0
287846,-76.9230769230769,4,1,4,60,0,0
291679,-66.6666666666667,4,1,3,60,0,0
293346,-76.9230769230769,4,1,3,60,0,0
295679,-66.6666666666667,4,1,3,60,0,0
296012,-76.9230769230769,4,1,3,60,0,0
297012,-66.6666666666667,4,1,3,60,0,0
297512,-76.9230769230769,4,1,3,60,0,0
297679,-66.6666666666667,4,1,3,60,0,0
298679,-76.9230769230769,4,1,3,60,0,0
303679,-76.9230769230769,4,1,3,60,0,1
309012,-66.6666666666667,4,1,3,60,0,1
309846,-76.9230769230769,4,1,3,60,0,1
314346,-66.6666666666667,4,1,3,60,0,1
319846,-71.4285714285714,4,1,3,60,0,1
321012,-66.6666666666667,4,1,3,60,0,1
321679,-76.9230769230769,4,1,3,60,0,1
325012,-76.9230769230769,4,1,3,60,0,0
327012,-71.4285714285714,4,1,3,60,0,0
329679,-66.6666666666667,4,1,3,60,0,0
330345,-66.6666666666667,4,1,3,60,0,1
346345,444.444444444444,7,1,3,60,1,0
346345,-50,7,1,3,60,0,0
349456,444.444444444444,4,1,3,60,1,0
349456,-50,4,1,3,60,0,0

[Colours]
Combo1 : 165,95,95
Combo2 : 255,176,179
Combo3 : 255,194,140
Combo4 : 179,179,255
Combo5 : 255,236,176

[HitObjects]
256,192,10031,12,0,11680,0:0:0:0:
304,96,11845,5,12,0:0:0:0:
198,196,12010,1,0,0:0:0:0:
368,248,12175,2,0,P|366:294|340:341,1,100,8|0,0:0|0:0,0:0:0:0:
300,369,12422,1,0,0:0:0:0:
300,369,12505,1,8,0:0:0:0:
171,288,12669,1,0,0:0:0:0:
296,178,12834,1,8,0:0:0:0:
296,178,12917,1,0,0:0:0:0:
296,178,12999,1,0,0:0:0:0:
238,356,13164,6,0,P|197:378|143:379,1,100,8|0,0:0|0:0,0:0:0:0:
95,368,13411,1,0,0:0:0:0:
95,368,13494,1,8,0:0:0:0:
122,179,13658,1,0,0:0:0:0:
11,256,13823,1,8,0:0:0:0:
200,248,13988,2,0,B|160:248|160:248|144:256|144:256|96:256,2,100,0|8|0,0:0|0:0|0:0,0:0:0:0:
352,248,14483,5,12,0:0:0:0:
276,117,14647,1,0,0:0:0:0:
277,299,14812,2,0,P|321:334|381:335,1,100,8|0,0:0|0:0,0:0:0:0:
413,331,15060,1,0,0:0:0:0:
413,331,15142,1,8,0:0:0:0:
448,147,15307,1,0,0:0:0:0:
352,248,15472,1,8,0:0:0:0:
352,248,15554,1,0,0:0:0:0:
352,248,15637,1,0,0:0:0:0:
496,368,15801,6,0,P|504:312|475:259,1,100,8|0,0:0|0:0,0:0:0:0:
454,237,16049,1,0,0:0:0:0:
454,237,16131,1,8,0:0:0:0:
329,341,16296,1,0,0:0:0:0:
398,111,16461,22,0,L|263:97,1,129.999994049073,12|0,0:0|0:0,0:0:0:0:
106,178,16708,1,0,0:0:0:0:
120,165,16790,2,0,L|255:179,1,129.999994049073,12|0,0:0|0:0,0:0:0:0:
107,354,17120,5,12,0:0:0:0:
178,257,17285,1,0,0:0:0:0:
38,207,17450,2,0,P|28:146|63:89,1,100,8|0,0:0|0:0,0:0:0:0:
73,73,17697,1,0,0:0:0:0:
73,73,17779,1,8,0:0:0:0:
247,125,17944,1,0,0:0:0:0:
178,257,18109,1,8,0:0:0:0:
178,257,18191,1,0,0:0:0:0:
178,257,18274,1,0,0:0:0:0:
168,76,18439,6,0,P|215:36|282:38,1,100,8|0,0:0|0:0,0:0:0:0:
301,39,18686,1,0,0:0:0:0:
301,39,18768,1,8,0:0:0:0:
417,189,18933,1,0,0:0:0:0:
258,140,19098,1,8,0:0:0:0:
386,107,19263,2,0,B|437:106|437:106|504:139,2,100,0|8|0,0:0|0:0|0:0,0:0:0:0:
262,336,19757,5,12,0:0:0:0:
405,288,19922,1,0,0:0:0:0:
229,254,20087,2,0,P|208:204|217:139,1,100,8|0,0:0|0:0,0:0:0:0:
228,112,20334,1,0,0:0:0:0:
228,112,20417,1,8,0:0:0:0:
405,43,20582,1,0,0:0:0:0:
348,167,20746,1,8,0:0:0:0:
348,167,20829,1,0,0:0:0:0:
348,167,20911,1,0,0:0:0:0:
115,68,21076,22,0,L|130:210,1,129.999994049073,12|0,0:0|0:0,0:0:0:0:
50,305,21323,1,0,0:0:0:0:
61,289,21406,2,0,L|203:274,1,129.999994049073,12|0,0:0|0:0,0:0:0:0:
435,168,21735,5,8,0:3:0:0:
391,155,21818,1,8,0:3:0:0:
348,167,21900,1,8,0:3:0:0:
317,200,21983,1,8,0:3:0:0:
307,243,22065,1,8,0:3:0:0:
233,88,22230,1,8,0:3:0:0:
224,44,22312,1,8,0:3:0:0:
215,0,22395,5,6,0:0:0:0:
92,169,22560,1,0,0:0:0:0:
303,125,22724,2,0,P|354:171|362:235,1,110.000003356934,8|0,0:0|0:0,0:0:0:0:
360,265,22972,1,0,0:0:0:0:
360,265,23054,1,10,0:0:0:0:
188,193,23219,1,0,0:0:0:0:
187,63,23384,1,8,0:0:0:0:
187,63,23466,1,0,0:0:0:0:
187,63,23549,1,0,0:0:0:0:
219,281,23713,6,0,P|266:243|280:182,1,110.000003356934,10|0,0:0|0:0,0:0:0:0:
281,141,23961,1,0,0:0:0:0:
281,141,24043,1,8,0:0:0:0:
374,301,24208,1,0,0:0:0:0:
444,187,24373,1,10,0:0:0:0:
293,271,24538,2,0,B|293:311|293:311|301:343|301:343|301:399,2,110.000003356934,0|8|0,0:0|0:0|0:0,0:0:0:0:
380,77,25032,21,6,0:0:0:0:
388,242,25197,1,0,0:0:0:0:
213,152,25362,2,0,P|161:164|102:226,1,110.000003356934,8|0,0:0|0:0,0:0:0:0:
91,248,25609,1,0,0:0:0:0:
91,248,25691,1,10,0:0:0:0:
305,212,25856,1,0,0:0:0:0:
282,58,26021,1,8,0:0:0:0:
282,58,26104,1,0,0:0:0:0:
282,58,26186,1,0,0:0:0:0:
207,261,26351,6,0,P|243:300|326:320,1,110.000003356934,10|0,0:0|0:0,0:0:0:0:
351,318,26598,1,0,0:0:0:0:
351,318,26680,1,8,0:0:0:0:
261,117,26845,1,0,0:0:0:0:
391,138,27010,1,8,0:0:0:0:
178,72,27175,6,0,B|178:137|178:137|206:194|206:194|206:259,1,194.999991073609,12|0,0:0|0:0,0:0:0:0:
206,338,27505,1,8,0:0:0:0:
128,221,27669,5,4,0:0:0:0:
261,117,27834,1,0,0:0:0:0:
66,45,27999,2,0,P|28:83|21:166,1,110.000003356934,8|0,0:0|0:0,0:0:0:0:
22,191,28246,1,0,0:0:0:0:
22,191,28329,1,8,0:0:0:0:
177,270,28494,1,0,0:0:0:0:
261,117,28658,1,8,0:0:0:0:
261,117,28741,1,0,0:0:0:0:
261,117,28823,1,0,0:0:0:0:
496,250,28988,22,0,L|367:245,1,110.000003356934,8|0,0:0|0:0,0:0:0:0:
331,243,29235,1,0,0:0:0:0:
331,243,29318,1,8,0:0:0:0:
192,383,29483,1,0,0:0:0:0:
192,240,29647,1,8,0:0:0:0:
353,319,29812,2,0,B|305:319|305:319|289:311|289:311|217:311,2,110.000003356934,0|8|0,0:0|0:0|0:0,0:0:0:0:
316,136,30307,5,8,0:0:0:0:
289,142,30389,1,0,0:0:0:0:
262,141,30471,1,0,0:0:0:0:
236,131,30554,1,0,0:0:0:0:
215,114,30636,1,8,0:0:0:0:
193,96,30719,1,0,0:0:0:0:
168,86,30802,1,0,0:0:0:0:
140,85,30884,1,0,0:0:0:0:
114,96,30966,6,0,L|97:15,1,55.0000016784668,10|0,0:0|0:0,0:0:0:0:
170,224,31131,2,0,L|153:143,1,55.0000016784668,8|0,0:0|0:0,0:0:0:0:
46,101,31296,1,8,0:3:0:0:
12,132,31378,1,8,0:3:0:0:
2,176,31460,1,8,0:3:0:0:
14,220,31543,1,8,0:3:0:0:
40,248,31626,6,0,B|68:240|95:238|95:238|139:214|139:214|166:213|210:201,1,165.000005035401,4|0,0:0|0:0,0:0:0:0:
300,200,31955,1,8,0:2:0:0:
297,227,32038,1,8,0:2:0:0:
295,254,32120,1,8,0:2:0:0:
293,282,32202,1,8,0:2:0:0:
292,309,32285,22,0,P|350:299|404:206,1,165.000005035401,4|0,0:0|0:0,0:0:0:0:
349,158,32615,1,8,0:2:0:0:
351,130,32697,1,8,0:2:0:0:
354,103,32779,1,8,0:2:0:0:
356,76,32862,1,8,0:2:0:0:
358,54,32944,22,0,P|259:69|196:175,1,224.999993133545,4|0,0:0|0:0,0:0:0:0:
203,204,33439,6,0,L|237:233,2,29.9999990844727
126,129,33604,1,8,0:0:0:0:
282,346,33851,1,8,0:0:0:0:
392,103,34098,1,8,0:0:0:0:
314,208,34263,21,6,0:0:0:0:
326,228,34345,1,0,0:0:0:0:
342,247,34427,1,0,0:0:0:0:
362,261,34510,1,0,0:0:0:0:
384,271,34592,1,8,0:3:0:0:
403,288,34675,1,0,0:0:0:0:
416,309,34757,1,0,0:0:0:0:
422,333,34840,1,0,0:0:0:0:
420,357,34922,5,2,0:3:0:0:
394,343,35005,1,0,0:0:0:0:
364,337,35087,1,0,0:0:0:0:
334,340,35170,1,0,0:0:0:0:
307,349,35252,1,8,0:3:0:0:
278,358,35335,1,0,0:0:0:0:
249,360,35418,1,0,0:0:0:0:
220,355,35500,1,0,0:0:0:0:
194,342,35582,21,2,0:3:0:0:
218,299,35664,1,0,0:0:0:0:
227,250,35746,1,0,0:0:0:0:
220,201,35829,1,0,0:0:0:0:
199,157,35911,1,8,0:3:0:0:
152,169,35994,1,0,0:0:0:0:
102,168,36076,1,0,0:0:0:0:
55,150,36158,1,0,0:0:0:0:
20,121,36241,21,2,0:3:0:0:
30,168,36323,1,0,0:0:0:0:
41,216,36405,1,0,0:0:0:0:
52,265,36488,1,0,0:0:0:0:
62,313,36570,1,8,0:3:0:0:
78,294,36653,1,0,0:0:0:0:
94,275,36735,1,0,0:0:0:0:
109,256,36818,1,0,0:0:0:0:
124,237,36900,5,2,0:3:0:0:
147,254,36982,1,0,0:0:0:0:
176,263,37064,1,0,0:0:0:0:
206,260,37147,1,0,0:0:0:0:
232,249,37229,1,8,0:3:0:0:
259,237,37313,1,0,0:0:0:0:
288,235,37396,1,0,0:0:0:0:
317,244,37478,1,0,0:0:0:0:
339,265,37560,6,0,L|332:326,3,44.999998626709,2|0|0|0,0:3|0:0|0:0|0:0,0:0:0:0:
405,198,37889,2,0,L|414:258,3,44.999998626709,8|0|0|0,0:3|0:0|0:0|0:0,0:0:0:0:
446,313,38219,5,2,0:3:0:0:
428,327,38301,1,0,0:0:0:0:
412,343,38383,1,0,0:0:0:0:
395,358,38466,1,0,0:0:0:0:
378,373,38548,21,8,0:3:0:0:
377,327,38631,1,0,0:0:0:0:
355,287,38713,1,0,0:0:0:0:
314,268,38796,1,0,0:0:0:0:
269,266,38878,6,0,B|220:240|208:200|208:200|206:150|172:120,1,179.999994506836,4|0,0:3|0:0,0:0:0:0:
0,98,39208,2,0,P|49:79|131:92,1,119.999996337891,4|0,0:3|0:0,0:0:0:0:
187,177,39538,5,6,0:3:0:0:
210,177,39620,1,0,0:0:0:0:
234,171,39702,1,0,0:0:0:0:
256,159,39785,1,0,0:0:0:0:
275,144,39867,1,8,0:3:0:0:
305,133,39950,1,0,0:0:0:0:
341,127,40032,1,0,0:0:0:0:
376,134,40115,1,0,0:0:0:0:
401,156,40197,5,2,0:3:0:0:
399,190,40279,1,0,0:0:0:0:
398,225,40361,1,0,0:0:0:0:
396,259,40444,1,0,0:0:0:0:
393,294,40527,1,8,0:3:0:0:
368,271,40609,1,0,0:0:0:0:
335,259,40691,1,0,0:0:0:0:
301,258,40774,1,0,0:0:0:0:
268,270,40856,21,2,0:3:0:0:
218,262,40938,1,0,0:0:0:0:
178,235,41020,1,0,0:0:0:0:
152,193,41103,1,0,0:0:0:0:
146,145,41186,1,8,0:3:0:0:
141,96,41268,1,0,0:0:0:0:
114,56,41350,1,0,0:0:0:0:
70,34,41433,1,0,0:0:0:0:
22,35,41516,5,2,0:3:0:0:
33,82,41598,1,0,0:0:0:0:
45,130,41680,1,0,0:0:0:0:
56,179,41763,1,0,0:0:0:0:
68,227,41845,1,8,0:3:0:0:
92,203,41927,1,0,0:0:0:0:
123,186,42009,1,0,0:0:0:0:
156,179,42092,1,0,0:0:0:0:
191,182,42174,5,4,0:3:0:0:
225,184,42258,1,0,0:0:0:0:
259,177,42341,1,0,0:0:0:0:
289,161,42423,1,0,0:0:0:0:
314,137,42505,1,8,0:3:0:0:
328,156,42587,1,0,0:0:0:0:
344,175,42669,1,0,0:0:0:0:
359,194,42752,1,0,0:0:0:0:
371,213,42834,6,0,L|361:267,3,44.999998626709,2|0|0|0,0:3|0:0|0:0|0:0,0:0:0:0:
380,344,43164,2,0,L|344:385,3,44.999998626709,8|0|0|0,0:3|0:0|0:0|0:0,0:0:0:0:
298,310,43494,21,12,0:3:0:0:
256,327,43576,1,0,0:0:0:0:
212,328,43658,2,0,P|187:321|167:305,1,44.999998626709
173,230,43823,1,12,0:3:0:0:
132,213,43906,1,0,0:0:0:0:
87,214,43988,2,0,P|60:219|37:234,1,44.999998626709
18,318,44153,5,8,0:3:0:0:
78,315,44235,1,8,0:3:0:0:
123,274,44318,1,8,0:3:0:0:
132,213,44400,1,8,0:3:0:0:
98,164,44483,6,0,P|99:124|112:91,1,64.9999970245363,8|0,0:3|0:0,0:0:0:0:
204,150,44647,2,0,P|239:130|274:125,1,64.9999970245363,8|0,0:3|0:0,0:0:0:0:
272,234,44812,1,6,0:3:0:0:
263,283,44895,1,0,0:0:0:0:
236,324,44977,1,8,0:0:0:0:
188,341,45060,1,0,0:0:0:0:
139,349,45142,6,0,P|126:322|121:291,1,50,2|0,0:3|0:0,0:0:0:0:
46,248,45307,2,0,P|47:217|59:188,1,50,8|0,0:0|0:0,0:0:0:0:
15,113,45472,1,2,3:0:0:0:
56,86,45554,1,0,0:0:0:0:
105,76,45637,1,8,0:0:0:0:
154,85,45719,1,0,0:0:0:0:
196,112,45801,22,0,P|209:139|214:170,1,50,2|0,0:3|0:0,0:0:0:0:
288,201,45966,2,0,P|286:231|274:260,1,50,8|0,0:0|0:0,0:0:0:0:
322,323,46131,1,2,0:3:0:0:
371,316,46213,1,0,0:0:0:0:
411,288,46296,1,8,0:0:0:0:
434,244,46378,1,0,0:0:0:0:
435,195,46461,1,2,0:3:0:0:
381,169,46543,1,0,0:0:0:0:
357,116,46625,1,8,0:0:0:0:
374,60,46708,1,0,0:0:0:0:
423,28,46790,5,2,0:3:0:0:
409,75,46872,1,0,0:0:0:0:
374,109,46954,1,8,0:0:0:0:
325,121,47037,1,0,0:0:0:0:
278,106,47120,1,2,0:3:0:0:
231,91,47202,1,0,0:0:0:0:
182,96,47284,1,8,0:1:0:0:
139,121,47367,1,0,0:0:0:0:
119,167,47450,6,0,L|131:240,1,50,6|0,0:3|0:0,0:0:0:0:
256,208,47615,2,0,L|259:281,1,50,8|0,0:0|0:0,0:0:0:0:
398,246,47779,1,2,0:3:0:0:
393,296,47862,1,0,0:0:0:0:
366,337,47944,1,8,0:0:0:0:
321,358,48027,1,0,0:0:0:0:
272,364,48109,5,2,0:3:0:0:
248,356,48191,1,0,0:0:0:0:
223,353,48274,1,8,0:0:0:0:
199,356,48356,1,0,0:0:0:0:
175,364,48439,2,0,L|179:310,3,50,2|0|8|0,0:3|0:0|0:0|0:0,0:0:0:0:
104,310,48768,2,0,L|107:255,3,50,2|0|8|0,0:3|0:0|0:0|0:0,0:0:0:0:
32,255,49098,21,2,0:3:0:0:
25,215,49180,1,0,0:0:0:0:
37,176,49263,1,8,0:0:0:0:
66,149,49345,1,0,0:0:0:0:
103,135,49428,6,0,B|129:129|129:129|187:129,1,50,2|0,0:3|0:0,0:0:0:0:
366,196,49593,2,0,B|340:190|340:190|282:190,1,50,12|0,0:0|0:0,0:0:0:0:
109,155,49757,2,0,B|135:149|135:149|193:149,1,50,2|0,0:3|0:0,0:0:0:0:
372,216,49922,2,0,B|346:210|346:210|288:210,1,50,12|0,0:0|0:0,0:0:0:0:
185,236,50087,1,2,0:3:0:0:
180,270,50169,1,0,0:0:0:0:
190,303,50252,1,8,0:0:0:0:
212,330,50334,1,0,0:0:0:0:
243,345,50417,5,2,0:3:0:0:
280,311,50499,1,0,0:0:0:0:
325,290,50582,1,8,0:0:0:0:
374,283,50664,1,0,0:0:0:0:
423,290,50746,1,2,0:3:0:0:
455,276,50829,1,0,0:0:0:0:
480,252,50911,1,8,0:0:0:0:
496,221,50994,1,0,0:0:0:0:
499,186,51076,5,2,0:3:0:0:
453,205,51158,1,0,0:0:0:0:
403,207,51241,1,8,0:0:0:0:
356,191,51323,1,0,0:0:0:0:
317,160,51406,2,0,P|313:133|316:99,1,50,6|0,0:3|0:0,0:0:0:0:
228,97,51571,2,0,P|237:71|257:42,1,50,8|0,0:0|0:0,0:0:0:0:
139,161,51735,21,2,0:3:0:0:
111,202,51818,1,0,0:0:0:0:
102,251,51900,1,8,0:0:0:0:
111,300,51983,1,0,0:0:0:0:
138,341,52065,2,0,P|160:351|188:354,1,50,2|0,0:3|0:0,0:0:0:0:
420,294,52230,6,0,L|326:295,1,64.9999970245363,12|0,0:0|0:0,0:0:0:0:
191,212,52395,2,0,L|285:211,1,64.9999970245363,12|0,0:3|0:0,0:0:0:0:
378,168,52560,1,0,0:0:0:0:
378,168,52642,1,0,0:0:0:0:
378,168,52724,5,8,0:2:0:0:
346,143,52807,1,0,0:0:0:0:
307,135,52889,1,0,0:0:0:0:
269,147,52972,1,0,0:0:0:0:
240,174,53054,1,8,0:3:0:0:
208,198,53137,1,0,0:0:0:0:
170,204,53219,1,0,0:0:0:0:
132,190,53301,1,0,0:0:0:0:
106,160,53384,5,10,0:2:0:0:
137,136,53466,1,0,0:0:0:0:
177,130,53549,1,0,0:0:0:0:
213,144,53631,1,0,0:0:0:0:
240,174,53713,1,8,0:3:0:0:
255,211,53796,1,0,0:0:0:0:
252,250,53878,1,0,0:0:0:0:
233,285,53961,1,0,0:0:0:0:
200,308,54043,5,8,0:3:0:0:
310,48,54263,1,8,0:2:0:0:
479,272,54483,1,8,0:2:0:0:
331,209,54702,1,8,0:2:0:0:
460,152,54867,5,8,0:2:0:0:
461,142,54922,5,8,0:2:0:0:
462,132,54977,5,8,0:2:0:0:
463,122,55032,6,0,B|435:131|424:151|424:151|420:233,1,100,12|0,0:0|0:0,0:0:0:0:
349,313,55362,22,0,L|213:306,1,129.999994049073,12|0,0:3|0:0,0:0:0:0:
115,208,55691,1,0,0:0:0:0:
260,156,55856,1,0,0:0:0:0:
261,141,55939,1,0,0:0:0:0:
261,126,56021,6,0,P|236:75|190:48,1,100,8|0,0:3|0:0,0:0:0:0:
126,39,56268,1,0,0:0:0:0:
126,39,56351,1,0,0:0:0:0:
169,140,56516,1,0,0:0:0:0:
353,112,56680,6,0,L|360:254,1,129.999994049073,8|0,0:3|0:0,0:0:0:0:
366,340,56928,1,0,0:0:0:0:
366,340,57010,1,0,0:0:0:0:
457,247,57175,1,0,0:0:0:0:
261,235,57340,6,0,P|214:217|183:178,1,100,8|0,0:3|0:0,0:0:0:0:
163,106,57587,1,0,0:0:0:0:
163,106,57669,1,0,0:0:0:0:
277,129,57834,1,0,0:0:0:0:
248,344,57999,22,0,B|193:329|193:329|167:334|167:334|74:310,1,139.999995727539,12|0,0:3|0:0,0:0:0:0:
13,283,58246,1,0,0:0:0:0:
13,283,58329,1,0,0:0:0:0:
170,258,58494,1,0,0:0:0:0:
50,111,58658,6,0,P|81:75|154:58,1,100,8|0,0:3|0:0,0:0:0:0:
205,59,58906,1,0,0:0:0:0:
205,59,58988,1,0,0:0:0:0:
134,151,59153,1,0,0:0:0:0:
353,97,59318,6,0,B|394:153|394:153|393:239,1,129.999994049073,12|0,0:3|0:0,0:0:0:0:
389,311,59565,1,0,0:0:0:0:
389,311,59647,1,0,0:0:0:0:
468,196,59812,1,0,0:0:0:0:
288,252,59977,6,0,B|237:245|237:245|202:258|202:258|138:246,1,139.999995727539,12|0,0:3|0:0,0:0:0:0:
46,262,60224,1,0,0:0:0:0:
46,262,60307,2,0,B|71:196|71:196|129:140,1,139.999995727539,12|0,0:3|0:0,0:0:0:0:
351,233,60637,6,0,P|305:235|264:216,2,93.3333304850261,2|0|0,0:0|0:0|0:0,0:0:0:0:
323,145,60966,1,8,0:3:0:0:
413,160,61076,1,0,0:0:0:0:
445,245,61186,1,0,0:0:0:0:
387,315,61296,2,0,P|428:335|491:325,2,93.3333304850261,2|0|0,0:0|0:0|0:0,0:0:0:0:
445,245,61626,1,8,0:3:0:0:
413,160,61735,1,0,0:3:0:0:
471,90,61845,1,0,0:0:0:0:
323,145,61955,6,0,P|285:125|185:168,1,139.999995727539,4|0,0:0|0:0,0:0:0:0:
355,231,62175,2,0,P|391:208|403:100,1,139.999995727539,4|0,0:0|0:0,0:0:0:0:
264,215,62395,2,0,P|265:257|324:318,1,93.3333304850261,4|0,0:0|0:0,0:0:0:0:
387,315,62615,21,4,0:0:0:0:
258,30,62834,1,0,0:0:0:0:
45,241,63054,1,0,0:0:0:0:
393,150,63274,5,4,0:0:0:0:
219,196,63439,1,0,0:0:0:0:
354,318,63604,1,8,0:3:0:0:
391,287,63686,1,8,0:3:0:0:
412,243,63768,1,8,0:3:0:0:
413,195,63851,1,8,0:3:0:0:
393,150,63933,22,0,L|342:193,1,59.9999981689454,8|0,0:3|0:0,0:0:0:0:
312,81,64098,2,0,L|289:143,1,59.9999981689454,8|0,0:3|0:0,0:0:0:0:
219,196,64263,1,8,0:3:0:0:
179,211,64345,1,8,0:3:0:0:
138,214,64428,1,8,0:3:0:0:
97,206,64510,1,8,0:3:0:0:
67,175,64593,5,8,0:3:0:0:
98,147,64675,1,0,0:0:0:0:
139,141,64757,1,0,0:0:0:0:
177,157,64840,1,0,0:0:0:0:
201,190,64922,1,0,0:0:0:0:
203,232,65005,1,0,0:0:0:0:
184,268,65087,1,0,0:0:0:0:
148,289,65169,1,0,0:0:0:0:
105,288,65252,5,8,0:3:0:0:
102,247,65334,1,0,0:0:0:0:
122,211,65417,1,0,0:0:0:0:
158,190,65499,1,0,0:0:0:0:
201,190,65582,1,8,0:2:0:0:
242,203,65664,1,0,0:0:0:0:
282,192,65746,1,8,0:0:0:0:
311,162,65829,1,0,0:0:0:0:
318,120,65911,5,4,0:0:0:0:
314,328,66076,1,8,0:0:0:0:
416,228,66241,1,0,0:0:0:0:
416,228,66323,1,0,0:0:0:0:
416,228,66406,2,0,L|286:223,1,119.999996337891,8|0,0:0|0:0,0:0:0:0:
131,250,66735,1,8,0:0:0:0:
118,73,66900,1,0,0:0:0:0:
118,73,66983,1,0,0:0:0:0:
118,73,67065,1,8,0:0:0:0:
277,151,67230,22,0,P|295:218|273:275,1,119.999996337891,0|8,0:0|0:0,0:0:0:0:
129,365,67560,1,0,0:0:0:0:
129,365,67642,1,0,0:0:0:0:
129,365,67724,2,0,B|129:317|129:317|121:293|121:293|121:213,1,119.999996337891,8|0,0:0|0:0,0:0:0:0:
19,138,68054,1,8,0:0:0:0:
196,61,68219,1,0,0:0:0:0:
196,61,68301,1,0,0:0:0:0:
196,61,68384,1,8,0:0:0:0:
213,257,68549,6,0,L|346:257,1,119.999996337891,4|8,0:0|0:0,0:0:0:0:
460,347,68878,1,0,0:0:0:0:
460,347,68961,1,0,0:0:0:0:
460,347,69043,2,0,P|485:291|477:219,1,119.999996337891,8|0,0:0|0:0,0:0:0:0:
439,88,69373,1,8,0:0:0:0:
333,257,69538,1,0,0:0:0:0:
318,259,69620,1,0,0:0:0:0:
303,261,69702,1,8,0:0:0:0:
288,263,69785,1,0,0:0:0:0:
273,265,69867,6,0,L|268:195,1,59.9999981689454
174,68,70032,2,0,L|179:138,1,59.9999981689454,8|0,0:0|0:0,0:0:0:0:
124,251,70197,2,0,L|119:181,1,59.9999981689454
30,113,70362,2,0,L|35:183,1,59.9999981689454,8|0,0:0|0:0,0:0:0:0:
8,331,70527,2,0,L|140:320,1,119.999996337891,0|8,0:0|0:0,0:0:0:0:
127,321,70774,1,0,0:0:0:0:
127,321,70856,1,0,0:0:0:0:
35,173,71021,1,8,0:0:0:0:
278,163,71186,6,0,B|296:208|296:208|292:297,1,119.999996337891,4|8,0:0|0:0,0:0:0:0:
178,127,71516,1,0,0:0:0:0:
178,127,71598,1,0,0:0:0:0:
178,127,71680,2,0,P|222:69|283:55,1,119.999996337891,8|0,0:0|0:0,0:0:0:0:
292,279,72010,1,8,0:0:0:0:
278,163,72175,1,0,0:0:0:0:
278,163,72257,1,0,0:0:0:0:
278,163,72340,2,0,L|357:155,1,59.9999981689454,8|0,0:0|0:0,0:0:0:0:
461,186,72505,22,0,B|413:191|413:191|388:181|388:181|336:187,1,119.999996337891,0|8,0:0|0:0,0:0:0:0:
333,365,72834,1,0,0:0:0:0:
333,365,72917,1,0,0:0:0:0:
333,365,72999,2,0,P|375:306|370:249,1,119.999996337891,8|0,0:0|0:0,0:0:0:0:
197,255,73329,1,8,0:0:0:0:
290,104,73494,1,0,0:0:0:0:
290,104,73576,1,0,0:0:0:0:
290,104,73658,2,0,L|210:99,1,59.9999981689454,8|0,0:0|0:0,0:0:0:0:
94,146,73823,6,0,B|172:126|172:126|231:130,1,139.999995727539,4|8,0:0|0:0,0:0:0:0:
338,347,74153,1,0,0:0:0:0:
338,347,74235,1,0,0:0:0:0:
338,347,74318,2,0,L|350:199,1,119.999996337891,8|0,0:0|0:0,0:0:0:0:
212,278,74647,1,8,0:0:0:0:
429,249,74812,2,0,P|430:213|419:178,1,59.9999981689454
463,93,74977,2,0,P|462:57|473:22,1,59.9999981689454,8|0,0:0|0:0,0:0:0:0:
331,76,75142,5,4,0:0:0:0:
317,70,75224,1,0,0:0:0:0:
302,66,75307,1,8,0:0:0:0:
287,65,75389,1,0,0:0:0:0:
272,65,75472,1,0,0:0:0:0:
258,68,75554,1,0,0:0:0:0:
243,73,75637,1,8,0:0:0:0:
230,79,75719,1,0,0:0:0:0:
218,88,75801,6,0,P|217:124|234:174,1,59.9999981689454
158,209,75966,2,0,P|188:227|240:238,1,59.9999981689454,8|0,0:0|0:0,0:0:0:0:
232,321,76131,1,8,0:3:0:0:
273,316,76213,1,8,0:3:0:0:
315,311,76296,1,8,0:3:0:0:
357,306,76378,1,8,0:3:0:0:
398,301,76461,22,0,B|398:253|398:253|390:229|390:229|390:173,1,119.999996337891,4|8,0:0|0:0,0:0:0:0:
282,53,76790,1,0,0:0:0:0:
282,53,76873,1,0,0:0:0:0:
282,53,76955,2,0,P|217:40|162:55,1,119.999996337891,8|0,0:0|0:0,0:0:0:0:
175,270,77285,1,8,0:0:0:0:
223,164,77450,1,0,0:0:0:0:
223,164,77532,1,0,0:0:0:0:
223,164,77615,1,8,0:0:0:0:
15,198,77779,6,0,L|41:324,1,119.999996337891,0|8,0:0|0:0,0:0:0:0:
243,352,78109,1,0,0:0:0:0:
273,346,78191,1,0,0:0:0:0:
305,339,78274,2,0,B|363:323|363:323|403:266,1,129.999994049073,8|0,0:0|0:0,0:0:0:0:
408,72,78604,1,8,0:0:0:0:
310,245,78768,1,0,0:0:0:0:
310,245,78851,1,0,0:0:0:0:
310,245,78933,1,8,0:0:0:0:
283,14,79098,6,0,B|204:0|204:0|145:11,1,129.999994049073,4|8,0:0|0:0,0:0:0:0:
34,114,79428,1,0,0:0:0:0:
34,114,79510,1,0,0:0:0:0:
34,114,79593,2,0,P|18:177|46:260,1,119.999996337891,8|0,0:0|0:0,0:0:0:0:
225,318,79922,1,8,0:0:0:0:
259,147,80087,1,0,0:0:0:0:
259,147,80169,1,0,0:0:0:0:
259,147,80252,6,0,L|190:165,1,59.9999981689454,8|0,0:0|0:0,0:0:0:0:
100,263,80417,2,0,L|169:245,1,59.9999981689454
346,224,80582,2,0,L|277:242,1,59.9999981689454,8|0,0:0|0:0,0:0:0:0:
187,340,80746,2,0,L|256:322,1,59.9999981689454
374,316,80911,2,0,L|433:301,1,59.9999981689454,8|0,0:0|0:0,0:0:0:0:
440,159,81076,2,0,P|403:121|324:113,1,119.999996337891,0|8,0:0|0:0,0:0:0:0:
299,123,81323,1,0,0:0:0:0:
299,123,81406,1,0,0:0:0:0:
309,303,81571,1,8,0:0:0:0:
61,239,81735,22,0,B|75:185|75:185|73:156|73:156|92:86,1,139.999995727539,4|8,0:0|0:0,0:0:0:0:
278,22,82065,1,0,0:0:0:0:
278,22,82147,1,0,0:0:0:0:
278,22,82230,2,0,P|290:88|276:148,1,119.999996337891,8|0,0:0|0:0,0:0:0:0:
202,303,82560,1,8,0:0:0:0:
148,162,82724,1,0,0:0:0:0:
148,162,82807,1,0,0:0:0:0:
148,162,82889,6,0,L|229:168,1,59.9999981689454,8|0,0:0|0:0,0:0:0:0:
324,196,83054,2,0,B|297:249|297:249|240:284,1,119.999996337891,4|8,0:0|0:0,0:0:0:0:
42,282,83384,1,0,0:0:0:0:
42,282,83466,1,0,0:0:0:0:
42,282,83549,2,0,L|26:155,1,119.999996337891,8|0,0:0|0:0,0:0:0:0:
148,29,83878,1,8,0:0:0:0:
185,234,84043,1,0,0:0:0:0:
185,234,84126,1,0,0:0:0:0:
185,234,84208,1,8,0:0:0:0:
434,80,84373,6,0,B|394:92|394:92|284:71,1,139.999995727539,4|8,0:0|0:0,0:0:0:0:
309,243,84702,1,0,0:0:0:0:
309,243,84785,1,0,0:0:0:0:
309,243,84867,2,0,P|287:308|240:347,1,119.999996337891,8|0,0:0|0:0,0:0:0:0:
185,234,85197,1,8,0:0:0:0:
4,368,85362,2,0,L|74:356,1,59.9999981689454
116,248,85527,2,0,L|45:259,1,59.9999981689454,8|0,0:0|0:0,0:0:0:0:
13,165,85691,5,4,0:0:0:0:
42,159,85774,1,0,0:0:0:0:
71,153,85856,2,0,L|149:139,1,59.9999981689454,8|0,0:0|0:0,0:0:0:0:
192,68,86021,1,0,0:0:0:0:
221,74,86104,1,0,0:0:0:0:
250,80,86186,2,0,L|328:94,1,59.9999981689454,8|0,0:0|0:0,0:0:0:0:
395,182,86351,21,8,0:3:0:0:
383,240,86433,1,8,0:3:0:0:
342,282,86516,1,8,0:3:0:0:
284,294,86598,1,8,0:3:0:0:
229,273,86680,5,8,0:2:0:0:
201,263,86763,1,8,0:2:0:0:
171,259,86845,1,8,0:2:0:0:
140,261,86928,1,8,0:2:0:0:
109,269,87010,6,0,B|111:221|111:221|99:175|99:175|102:126,1,139.999995727539,4|10,0:0|0:2,0:0:0:0:
325,110,87340,1,0,0:0:0:0:
139,40,87505,2,0,L|128:185,1,119.999996337891,10|0,0:2|0:0,0:0:0:0:
170,318,87834,1,10,0:2:0:0:
289,204,87999,1,0,0:0:0:0:
27,178,88164,1,10,0:2:0:0:
27,178,88246,1,0,0:0:0:0:
27,178,88329,6,0,P|30:251|76:300,1,119.999996337891,0|10,0:0|0:2,0:0:0:0:
232,160,88658,2,0,L|93:223,1,119.999996337891,0|10,0:0|0:2,0:0:0:0:
262,330,88988,1,0,0:0:0:0:
399,221,89153,2,0,P|421:156|406:101,1,119.999996337891,10|0,0:2|0:0,0:0:0:0:
232,160,89483,1,10,0:2:0:0:
377,337,89647,21,4,0:0:0:0:
319,108,89812,1,10,0:2:0:0:
276,339,89977,1,0,0:0:0:0:
232,160,90142,1,10,0:2:0:0:
482,223,90307,5,0,0:0:0:0:
276,339,90472,1,10,0:2:0:0:
409,153,90637,1,0,0:0:0:0:
247,241,90801,1,10,0:2:0:0:
395,43,90966,6,0,B|455:54|455:54|516:100,1,119.999996337891,4|10,0:0|0:2,0:0:0:0:
303,147,91296,1,0,0:0:0:0:
303,147,91378,1,0,0:0:0:0:
303,147,91461,2,0,B|235:138|235:138|195:151|195:151|119:140,1,179.999994506836,10|8,0:2|0:3,0:0:0:0:
56,87,91790,1,0,0:2:0:0:
56,87,91873,1,0,0:2:0:0:
56,87,91955,5,8,0:3:0:0:
100,57,92038,1,8,0:3:0:0:
153,58,92120,1,8,0:3:0:0:
197,88,92202,1,8,0:3:0:0:
215,138,92285,22,0,L|211:234,1,59.9999981689454,4|0,0:0|0:0,0:0:0:0:
205,319,92450,1,8,0:0:0:0:
333,205,92615,1,0,0:0:0:0:
212,198,92779,1,8,0:0:0:0:
426,341,92944,1,0,0:0:0:0:
443,85,93109,1,8,0:0:0:0:
361,208,93274,2,0,L|328:135,1,59.9999981689454
271,24,93439,6,0,B|226:18|226:18|199:22|199:22|145:15,1,119.999996337891,8|4,0:0|0:0,0:0:0:0:
14,133,93768,1,8,0:0:0:0:
14,133,93851,1,0,0:0:0:0:
14,133,93933,2,0,L|144:147,1,119.999996337891,0|8,0:0|0:0,0:0:0:0:
190,333,94263,2,0,L|208:266,1,59.9999981689454
243,139,94428,2,0,B|312:134|312:134|346:142|346:142|426:136,1,179.999994506836,8|0,0:0|0:0,0:0:0:0:
456,74,94757,2,0,L|445:155,1,59.9999981689454,8|0,0:0|0:0,0:0:0:0:
435,253,94922,6,0,L|360:269,1,59.9999981689454,8|0,0:2|0:0,0:0:0:0:
205,275,95087,2,0,L|280:259,1,59.9999981689454,8|0,0:3|0:0,0:0:0:0:
362,73,95252,2,0,L|287:89,1,59.9999981689454,8|0,0:2|0:0,0:0:0:0:
132,95,95417,2,0,L|207:79,1,59.9999981689454,8|0,0:3|0:0,0:0:0:0:
297,163,95582,2,0,L|222:179,1,59.9999981689454,8|0,0:2|0:0,0:0:0:0:
37,242,95746,6,0,B|44:278|44:278|79:324,1,69.9999978637696,8|0,0:0|0:0,0:0:0:0:
205,275,95911,2,0,B|295:275|295:275|331:263|331:263|463:263,1,209.999993591309,12|0,0:0|0:0,0:0:0:0:
500,164,96241,6,0,B|488:200|488:200|488:272,2,79.9999975585938,8|0|0,0:3|0:0|0:0,0:0:0:0:
424,140,96571,2,0,B|436:104|436:104|436:32,2,79.9999975585938,8|0|0,0:3|0:0|0:0,0:0:0:0:
413,263,96900,1,8,0:3:0:0:
356,194,97010,1,0,0:0:0:0:
325,278,97120,1,0,0:0:0:0:
341,106,97230,1,8,0:3:0:0:
273,163,97340,1,0,0:0:0:0:
356,194,97450,1,0,0:0:0:0:
190,132,97560,5,4,0:0:0:0:
216,313,97724,1,0,0:0:0:0:
356,194,97889,2,0,P|352:130|318:78,1,119.999996337891,8|0,0:0|0:0,0:0:0:0:
281,55,98137,1,0,0:0:0:0:
281,55,98219,1,0,0:0:0:0:
70,138,98384,1,0,0:0:0:0:
238,129,98549,1,8,0:0:0:0:
238,129,98631,1,0,0:0:0:0:
238,129,98713,1,0,0:0:0:0:
303,360,98878,6,0,P|249:326|220:271,1,119.999996337891
214,229,99126,1,0,0:0:0:0:
214,229,99208,1,8,0:0:0:0:
379,255,99373,2,0,L|498:206,1,119.999996337891
285,44,99702,6,0,B|235:17|235:17|152:15,1,119.999996337891,4|0,0:0|0:0,0:0:0:0:
122,17,99950,1,0,0:0:0:0:
122,17,100032,1,0,0:0:0:0:
345,144,100197,1,4,0:0:0:0:
210,284,100362,5,0,0:0:0:0:
187,116,100527,2,0,P|126:134|84:179,1,119.999996337891,8|0,0:0|0:0,0:0:0:0:
68,218,100774,1,0,0:0:0:0:
68,218,100856,1,0,0:0:0:0:
210,284,101021,1,0,0:0:0:0:
313,160,101186,1,8,0:0:0:0:
313,160,101268,1,0,0:0:0:0:
313,160,101351,1,0,0:0:0:0:
268,384,101516,22,0,P|224:337|210:277,1,119.999996337891
210,235,101763,1,0,0:0:0:0:
210,235,101845,1,8,0:0:0:0:
21,339,102010,2,0,L|159:343,1,119.999996337891
307,218,102340,6,0,B|263:163|263:163|115:104,1,209.999993591309,4|0,0:0|0:0,0:0:0:0:
45,129,102669,1,0,0:0:0:0:
210,235,102834,1,4,0:0:0:0:
93,239,102999,1,0,0:0:0:0:
273,129,103164,6,0,P|335:130|387:163,1,119.999996337891,8|0,0:0|0:0,0:0:0:0:
416,195,103411,1,0,0:0:0:0:
416,195,103494,1,0,0:0:0:0:
174,182,103658,1,0,0:0:0:0:
200,26,103823,1,8,0:0:0:0:
200,26,103906,1,0,0:0:0:0:
200,26,103988,1,0,0:0:0:0:
266,227,104153,6,0,P|219:270|159:284,1,119.999996337891
118,281,104400,1,0,0:0:0:0:
118,281,104483,1,8,0:0:0:0:
258,125,104647,2,0,L|422:116,1,119.999996337891
458,360,104977,1,0,0:0:0:0:
500,115,105142,2,0,B|483:55|483:55|438:6,1,119.999996337891,12|0,0:0|0:0,0:0:0:0:
375,235,105472,2,0,L|302:240,1,59.9999981689454,8|0,0:0|0:0,0:0:0:0:
174,266,105637,21,0,0:0:0:0:
167,236,105719,1,0,0:0:0:0:
170,206,105801,2,0,P|187:179|210:157,1,59.9999981689454,8|0,0:0|0:0,0:0:0:0:
241,315,105966,1,0,0:0:0:0:
218,336,106048,1,0,0:0:0:0:
191,348,106130,2,0,P|159:346|128:337,1,59.9999981689454,8|0,0:0|0:0,0:0:0:0:
250,233,106296,1,0,0:0:0:0:
279,241,106378,1,0,0:0:0:0:
303,259,106461,2,0,P|317:287|325:318,1,59.9999981689454,8|0,0:0|0:0,0:0:0:0:
417,157,106626,2,0,P|385:155|354:146,1,59.9999981689454,8|0,0:0|0:0,0:0:0:0:
448,306,106790,6,0,P|465:279|488:257,1,59.9999981689454,8|0,0:3|0:0,0:0:0:0:
475,91,106955,1,0,0:0:0:0:
440,56,107038,1,0,0:0:0:0:
394,41,107120,2,0,P|361:43|323:68,1,59.9999981689454,8|0,0:3|0:0,0:0:0:0:
336,207,107285,2,0,L|327:142,1,59.9999981689454,8|0,0:3|0:0,0:0:0:0:
250,85,107450,5,0,0:0:0:0:
208,89,107532,1,0,0:0:0:0:
171,108,107615,1,8,0:3:0:0:
144,140,107697,1,0,0:0:0:0:
130,179,107779,1,8,0:3:0:0:
141,206,107862,1,0,0:0:0:0:
146,236,107944,1,0,0:0:0:0:
144,266,108027,1,0,0:0:0:0:
133,292,108109,6,0,B|109:318|109:318|58:337,2,66.6666666666667,12|0|0,0:3|0:0|0:0,0:0:0:0:
189,352,108486,2,0,B|213:326|213:326|264:307,2,66.6666666666667
348,356,108834,22,0,P|358:316|346:272,1,66.6666666666667
270,211,109072,1,0,0:0:0:0:
270,211,109191,2,0,P|296:191|329:184,1,66.6666666666667
434,215,109476,1,0,0:0:0:0:
442,82,109625,6,0,P|373:79|326:94,1,66.6666666666667,8|0,0:3|0:0,0:0:0:0:
297,115,109844,1,8,0:2:0:0:
297,115,109954,2,0,P|259:120|197:107,1,66.6666666666667,8|0,0:2|0:0,0:0:0:0:
151,82,110182,1,8,0:2:0:0:
67,248,110296,6,0,B|82:306|130:325|130:325|178:308|225:326,1,200,12|0,0:0|0:0,0:0:0:0:
261,346,110708,1,0,0:0:0:0:
261,346,110790,1,0,0:0:0:0:
297,115,110955,1,12,0:0:0:0:
480,262,111120,1,0,0:0:0:0:
478,286,111202,1,0,0:0:0:0:
476,311,111285,2,0,P|428:297|361:316,1,100
261,346,111614,6,0,B|231:302|231:302|214:228,1,100,12|0,0:0|0:0,0:0:0:0:
300,274,111861,2,0,B|330:230|330:230|347:156,1,100
264,198,112109,2,0,L|234:154,1,50
166,50,112274,2,0,L|137:91,1,50,12|0,0:0|0:0,0:0:0:0:
26,225,112438,1,0,0:0:0:0:
52,232,112521,1,0,0:0:0:0:
78,242,112603,2,0,B|228:282,1,150
232,356,112933,21,12,0:0:0:0:
255,349,113015,1,0,0:0:0:0:
276,334,113098,1,0,0:0:0:0:
291,314,113180,1,0,0:0:0:0:
298,291,113263,1,0,0:0:0:0:
323,294,113345,1,0,0:0:0:0:
344,306,113427,1,0,0:0:0:0:
371,52,113592,5,12,0:1:0:0:
419,214,113757,1,0,0:0:0:0:
394,211,113840,1,0,0:0:0:0:
369,209,113922,2,0,B|212:200,1,150
165,124,114252,6,0,B|196:204|196:204|164:272,2,150,12|0|0,0:0|0:0|0:0,0:0:0:0:
68,262,114911,1,12,0:0:0:0:
93,262,114994,1,0,0:0:0:0:
118,262,115076,1,0,0:0:0:0:
143,262,115158,1,0,0:0:0:0:
168,262,115241,6,0,P|211:338|293:368,1,150,8|0,0:3|0:0,0:0:0:0:
352,372,115571,1,0,0:0:0:0:
371,342,115653,1,0,0:0:0:0:
382,309,115735,1,0,0:0:0:0:
384,274,115818,1,0,0:0:0:0:
376,240,115900,1,8,0:3:0:0:
410,229,115983,1,0,0:0:0:0:
444,232,116065,22,0,B|454:194|454:194|448:166|448:166|463:93,1,100
288,231,116395,1,0,0:0:0:0:
286,38,116560,1,8,0:3:0:0:
347,134,116724,2,0,L|275:130,1,50
142,147,116889,6,0,B|156:176|156:176|144:264|144:264|168:300,2,150,4|0|0,0:0|0:2|0:2,0:0:0:0:
83,65,117549,1,0,0:0:0:0:
105,54,117631,1,0,0:0:0:0:
128,49,117713,1,0,0:0:0:0:
153,50,117796,1,0,0:0:0:0:
175,62,117878,6,0,P|228:82|339:44,1,150,12|0,0:3|0:0,0:0:0:0:
407,18,118208,2,0,L|393:104,1,50
364,161,118373,1,0,0:0:0:0:
357,195,118455,1,0,0:0:0:0:
357,230,118538,1,8,0:3:0:0:
364,264,118620,1,0,0:0:0:0:
378,296,118702,2,0,P|382:328|369:366,1,50
290,320,118867,5,0,0:0:0:0:
255,313,118950,1,0,0:0:0:0:
220,313,119032,1,0,0:0:0:0:
186,320,119115,1,0,0:0:0:0:
154,334,119197,2,0,P|122:337|84:324,1,50,12|0,0:3|0:0,0:0:0:0:
0,240,119362,2,0,P|31:236|69:249,1,50
220,237,119527,22,0,L|228:177,1,50,8|0,0:3|0:0,0:0:0:0:
173,130,119691,2,0,L|228:106,1,50,8|0,0:2|0:0,0:0:0:0:
242,35,119856,1,0,0:0:0:0:
273,19,119939,1,0,0:0:0:0:
307,12,120021,1,0,0:0:0:0:
341,16,120104,1,0,0:0:0:0:
373,30,120186,6,0,B|382:51|382:51|381:89,1,50,8|0,0:3|0:0,0:0:0:0:
320,134,120351,2,0,B|311:154|311:154|312:192,1,50,8|0,0:3|0:0,0:0:0:0:
428,134,120516,2,0,B|436:154|436:154|435:192,1,50,8|0,0:2|0:0,0:0:0:0:
374,237,120680,2,0,B|365:257|365:257|366:295,1,50,8|0,0:2|0:0,0:0:0:0:
471,356,120845,6,0,B|423:359|423:359|399:352|399:352|342:355,1,119.999996337891,4|8,0:0|0:0,0:0:0:0:
174,369,121175,1,0,0:0:0:0:
176,339,121257,1,0,0:0:0:0:
178,309,121340,2,0,P|163:253|105:203,1,119.999996337891,8|0,0:0|0:0,0:0:0:0:
63,311,121669,1,8,0:0:0:0:
61,110,121834,1,0,0:0:0:0:
61,110,121917,1,0,0:0:0:0:
61,110,121999,1,8,0:0:0:0:
237,209,122164,6,0,P|262:167|261:79,1,119.999996337891,0|8,0:0|0:0,0:0:0:0:
121,183,122494,1,0,0:0:0:0:
120,210,122576,1,0,0:0:0:0:
124,239,122658,2,0,P|147:282|223:326,1,119.999996337891,8|0,0:0|0:0,0:0:0:0:
385,311,122988,1,8,0:0:0:0:
237,209,123153,1,0,0:0:0:0:
237,209,123235,1,0,0:0:0:0:
237,209,123318,1,8,0:0:0:0:
388,64,123483,22,0,B|388:108|388:108|380:140|380:140|380:188,1,119.999996337891,4|8,0:0|0:0,0:0:0:0:
498,285,123812,1,0,0:0:0:0:
473,302,123895,1,0,0:0:0:0:
444,309,123977,2,0,L|325:311,1,119.999996337891,8|0,0:0|0:0,0:0:0:0:
149,360,124307,1,8,0:0:0:0:
324,311,124472,1,0,0:0:0:0:
171,99,124637,5,8,0:0:0:0:
171,140,124719,1,0,0:0:0:0:
173,181,124801,1,0,0:0:0:0:
353,22,124966,1,8,0:0:0:0:
171,99,125131,1,0,0:0:0:0:
411,168,125296,1,8,0:0:0:0:
229,245,125461,5,0,0:0:0:0:
216,272,125543,1,0,0:0:0:0:
212,301,125626,1,8,0:0:0:0:
214,331,125708,1,0,0:0:0:0:
224,359,125790,2,0,L|287:346,1,59.9999981689454
347,288,125955,2,0,L|409:301,1,59.9999981689454,8|0,0:0|0:0,0:0:0:0:
508,332,126120,6,0,B|508:288|508:288|496:248|496:248|496:200,1,129.999994049073,4|8,0:0|0:0,0:0:0:0:
405,26,126449,1,0,0:0:0:0:
376,40,126531,1,0,0:0:0:0:
347,48,126614,2,0,P|281:62|214:40,1,119.999996337891,8|0,0:0|0:0,0:0:0:0:
38,78,126943,1,8,0:0:0:0:
230,164,127108,1,0,0:0:0:0:
230,164,127190,1,0,0:0:0:0:
230,164,127273,1,8,0:0:0:0:
48,297,127438,22,0,B|98:310|98:310|131:311|131:311|186:325,1,139.999995727539,4|8,0:0|0:0,0:0:0:0:
390,293,127768,1,0,0:0:0:0:
390,293,127851,1,0,0:0:0:0:
390,293,127933,2,0,P|416:232|403:166,1,119.999996337891,8|0,0:0|0:0,0:0:0:0:
274,53,128263,1,8,0:0:0:0:
308,219,128427,1,0,0:0:0:0:
308,219,128510,1,0,0:0:0:0:
308,219,128592,2,0,L|241:229,1,59.9999981689454,8|0,0:0|0:0,0:0:0:0:
132,336,128757,6,0,B|132:284|132:284|124:256|124:256|124:200,1,129.999994049073,4|8,0:0|0:0,0:0:0:0:
124,50,129087,1,0,0:0:0:0:
332,98,129252,2,0,L|340:178,1,64.9999970245363,8|0,0:3|0:0,0:0:0:0:
255,163,129417,2,0,L|247:243,1,64.9999970245363,8|0,0:3|0:3,0:3:0:0:
332,242,129582,2,0,L|340:322,1,64.9999970245363,8|0,0:2|0:0,0:0:0:0:
228,337,129746,1,0,0:0:0:0:
185,323,129829,1,0,0:0:0:0:
151,292,129911,1,0,0:0:0:0:
133,251,129994,1,0,0:0:0:0:
133,206,130076,5,0,0:0:0:0:
141,174,130158,1,0,0:0:0:0:
137,142,130241,1,0,0:0:0:0:
123,113,130323,1,0,0:0:0:0:
99,91,130406,6,0,P|132:73|177:65,1,64.9999970245363,8|0,0:3|0:0,0:0:0:0:
261,45,130571,2,0,P|260:83|245:125,1,64.9999970245363,8|0,0:3|0:0,0:0:0:0:
221,208,130735,1,0,0:0:0:0:
216,239,130818,1,0,0:0:0:0:
221,270,130900,22,0,P|259:269|303:255,1,64.9999970245363,8|0,0:3|0:0,0:0:0:0:
346,177,131065,2,0,P|368:200|383:228,1,64.9999970245363,8|0,0:3|0:0,0:0:0:0:
364,331,131230,5,8,0:2:0:0:
361,343,131285,5,8,0:2:0:0:
358,355,131339,5,8,0:2:0:0:
355,367,131394,22,0,P|290:354|218:371,1,119.999996337891,10|0,0:3|0:0,0:0:0:0:
128,256,131724,1,0,0:0:0:0:
275,215,131889,1,0,0:0:0:0:
117,364,132054,2,0,P|62:342|24:284,1,119.999996337891,10|0,0:3|0:0,0:0:0:0:
45,108,132384,1,0,0:0:0:0:
74,105,132466,1,0,0:0:0:0:
103,114,132549,5,0,0:0:0:0:
133,112,132631,1,0,0:0:0:0:
162,110,132713,2,0,P|213:86|253:22,1,119.999996337891,10|0,0:3|0:0,0:0:0:0:
342,180,133043,2,0,L|331:317,1,119.999996337891
108,249,133373,1,10,0:3:0:0:
342,180,133538,1,0,0:0:0:0:
208,77,133702,5,0,0:0:0:0:
208,107,133785,1,0,0:0:0:0:
210,136,133867,1,0,0:0:0:0:
211,166,133950,1,0,0:0:0:0:
212,213,134032,6,0,B|215:274|215:274|223:303|257:337,1,119.999996337891,12|0,0:3|0:0,0:0:0:0:
422,185,134362,1,0,0:0:0:0:
302,237,134527,1,0,0:0:0:0:
300,38,134691,1,10,0:3:0:0:
420,92,134856,1,0,0:0:0:0:
242,117,135021,21,0,0:0:0:0:
212,113,135104,1,0,0:0:0:0:
182,110,135186,1,0,0:0:0:0:
152,106,135268,1,0,0:0:0:0:
104,100,135350,6,0,B|104:140|104:140|116:188|116:188|112:248,1,129.999994049073,10|0,0:3|0:0,0:0:0:0:
56,308,135598,1,0,0:0:0:0:
56,308,135680,2,0,B|150:295|150:295|221:316,1,129.999994049073,12|0,0:3|0:0,0:0:0:0:
278,332,135927,1,0,0:0:0:0:
278,332,136010,5,8,0:3:0:0:
322,322,136093,1,8,0:3:0:0:
351,287,136175,1,8,0:3:0:0:
359,242,136257,1,8,0:3:0:0:
343,198,136340,5,8,0:2:0:0:
321,173,136422,1,8,0:2:0:0:
310,142,136505,1,8,0:2:0:0:
314,110,136587,1,8,0:2:0:0:
344,75,136669,21,4,0:0:0:0:
427,298,136834,1,8,0:0:0:0:
452,165,136999,1,0,0:0:0:0:
452,165,137082,1,0,0:0:0:0:
452,165,137164,1,8,0:0:0:0:
231,243,137329,1,0,0:0:0:0:
319,140,137494,1,8,0:0:0:0:
335,331,137658,1,0,0:0:0:0:
296,355,137741,1,0,0:0:0:0:
251,363,137823,6,0,P|190:358|135:316,1,119.999996337891,8|0,0:0|0:0,0:0:0:0:
66,107,138153,1,8,0:0:0:0:
231,243,138318,2,0,L|97:236,1,119.999996337891,0|8,0:0|0:0,0:0:0:0:
210,98,138647,1,0,0:0:0:0:
304,301,138812,2,0,P|363:316|425:296,1,119.999996337891,8|0,0:0|0:0,0:0:0:0:
503,182,139142,1,8,0:0:0:0:
212,234,139306,6,0,B|204:189|204:189|219:140|219:140|209:94,1,139.999995727539,4|8,0:0|0:0,0:0:0:0:
26,45,139637,1,0,0:0:0:0:
26,45,139719,1,0,0:0:0:0:
26,45,139801,2,0,L|47:174,1,119.999996337891,8|0,0:0|0:0,0:0:0:0:
19,244,140048,1,0,0:0:0:0:
19,244,140131,2,0,P|81:234|146:264,1,119.999996337891,8|0,0:0|0:0,0:0:0:0:
199,295,140377,1,0,0:0:0:0:
199,295,140460,1,8,0:0:0:0:
140,32,140625,5,4,0:0:0:0:
169,33,140707,1,0,0:0:0:0:
199,34,140789,1,0,0:0:0:0:
229,35,140872,1,0,0:0:0:0:
273,56,140954,21,8,0:2:0:0:
302,55,141037,1,0,0:0:0:0:
332,54,141119,1,0,0:0:0:0:
362,53,141201,1,0,0:0:0:0:
406,35,141284,5,8,0:2:0:0:
428,54,141366,1,0,0:0:0:0:
443,80,141449,1,0,0:0:0:0:
451,109,141531,1,0,0:0:0:0:
451,145,141614,5,8,0:3:0:0:
429,194,141696,1,8,0:3:0:0:
389,230,141778,1,8,0:3:0:0:
335,239,141861,1,8,0:3:0:0:
281,228,141944,6,0,B|212:238|212:238|149:300,1,139.999995727539,4|10,0:3|0:2,0:0:0:0:
12,181,142273,1,0,0:0:0:0:
10,146,142355,1,0,0:0:0:0:
17,116,142438,2,0,P|61:67|120:51,1,119.999996337891,10|0,0:2|0:0,0:0:0:0:
201,49,142686,1,0,0:0:0:0:
201,49,142768,2,0,L|210:129,1,59.9999981689454,10|0,0:2|0:0,0:0:0:0:
298,112,142933,2,0,L|289:192,1,59.9999981689454
234,241,143098,1,10,0:2:0:0:
240,288,143180,1,0,0:0:0:0:
268,326,143263,22,0,P|326:355|388:346,1,119.999996337891,0|10,0:0|0:2,0:0:0:0:
458,305,143510,1,0,0:0:0:0:
458,305,143593,2,0,B|454:169,1,119.999996337891,0|10,0:0|0:2,0:0:0:0:
490,105,143840,1,0,0:0:0:0:
490,105,143922,2,0,P|459:97|410:105,1,59.9999981689454
350,165,144087,2,0,P|319:173|270:165,1,59.9999981689454,10|0,0:2|0:0,0:0:0:0:
174,81,144252,2,0,P|142:138|151:209,1,119.999996337891,0|10,0:0|0:2,0:0:0:0:
165,234,144499,1,0,0:0:0:0:
165,234,144582,5,4,0:0:0:0:
364,285,144746,1,10,0:2:0:0:
291,171,144911,1,0,0:0:0:0:
291,171,144994,1,0,0:0:0:0:
291,171,145076,1,10,0:2:0:0:
198,353,145241,6,0,L|277:348,1,59.9999981689454
419,339,145406,1,10,0:2:0:0:
419,339,145488,1,0,0:0:0:0:
419,339,145571,1,0,0:0:0:0:
290,250,145735,2,0,L|211:255,1,59.9999981689454,10|0,0:2|0:0,0:0:0:0:
80,316,145900,6,0,B|80:269|80:269|87:242|87:242|85:196,1,119.999996337891,4|10,0:0|0:2,0:0:0:0:
80,124,146147,1,0,0:0:0:0:
80,124,146230,2,0,L|151:117,1,59.9999981689454
288,108,146395,2,0,B|334:113|374:92|374:92|426:91|457:124,1,179.999994506836,10|0,0:2|0:0,0:0:0:0:
484,210,146724,21,0,0:0:0:0:
484,210,146807,1,0,0:0:0:0:
484,210,146889,2,0,P|440:216|413:210,1,59.9999981689454
318,191,147054,2,0,P|274:185|247:191,1,59.9999981689454
277,350,147219,5,8,0:0:0:0:
127,284,147383,1,0,0:0:0:0:
127,284,147465,1,0,0:0:0:0:
127,284,147548,2,0,L|119:217,1,59.9999981689454,8|0,0:3|0:0,0:0:0:0:
202,201,147713,2,0,L|210:133,1,59.9999981689454
284,56,147877,2,0,L|288:115,1,59.9999981689454,8|0,0:3|0:0,0:0:0:0:
369,95,148042,2,0,L|373:154,1,59.9999981689454
455,46,148207,2,0,L|451:105,1,59.9999981689454,8|0,0:3|0:0,0:0:0:0:
408,232,148372,6,0,B|368:236|368:236|332:228|332:228|284:232,1,119.999996337891,0|12,0:0|0:3,0:0:0:0:
125,276,148702,1,0,0:0:0:0:
125,276,148785,1,0,0:0:0:0:
125,276,148867,2,0,P|201:270|241:286,1,119.999996337891,8|0,0:3|0:0,0:0:0:0:
291,361,149115,1,0,0:0:0:0:
291,361,149197,6,0,P|316:335|328:306,1,59.9999981689454,12|0,0:3|0:0,0:0:0:0:
265,177,149362,2,0,P|275:211|294:236,1,59.9999981689454
437,246,149527,2,0,P|401:237|370:241,1,59.9999981689454,12|0,0:3|0:0,0:0:0:0:
240,285,149691,1,0,0:0:0:0:
209,287,149774,1,0,0:0:0:0:
179,290,149856,22,0,P|159:273|137:229,1,59.9999981689454,12|0,0:0|0:0,0:0:0:0:
80,89,150021,1,0,0:0:0:0:
103,84,150104,1,0,0:0:0:0:
126,79,150186,1,0,0:0:0:0:
149,75,150268,1,0,0:0:0:0:
176,69,150350,6,0,P|201:73|242:100,1,69.9999978637696,12|0,0:0|0:0,0:0:0:0:
359,195,150515,1,0,0:0:0:0:
355,218,150597,1,0,0:0:0:0:
351,241,150679,1,0,0:0:0:0:
348,264,150762,1,0,0:0:0:0:
343,291,150844,6,0,L|249:290,1,69.9999978637696,12|0,0:0|0:0,0:0:0:0:
132,268,151009,1,0,0:0:0:0:
132,268,151092,1,0,0:0:0:0:
132,268,151175,5,8,0:3:0:0:
104,235,151257,1,0,0:0:0:0:
99,193,151340,1,0,0:0:0:0:
112,153,151422,1,0,0:0:0:0:
168,107,151505,21,8,0:3:0:0:
208,99,151587,1,0,0:0:0:0:
247,114,151669,1,0,0:0:0:0:
275,146,151752,1,0,0:0:0:0:
289,215,151834,5,8,0:2:0:0:
275,253,151917,1,8,0:2:0:0:
242,280,151999,1,8,0:2:0:0:
201,288,152082,1,8,0:2:0:0:
197,196,152164,5,8,0:3:0:0:
221,148,152246,1,8,0:3:0:0:
266,118,152329,1,8,0:3:0:0:
319,115,152411,1,8,0:3:0:0:
373,136,152493,6,0,B|386:183|386:183|366:289,1,129.999994049073,4|8,2:0|0:0,2:0:0:0:
192,333,152823,1,0,0:0:0:0:
192,333,152906,1,0,0:0:0:0:
192,333,152988,1,8,0:0:0:0:
131,168,153153,2,0,P|199:159|268:182,1,129.999994049073,0|8,0:0|0:0,0:0:0:0:
63,245,153483,1,0,0:0:0:0:
63,245,153565,1,0,0:0:0:0:
63,245,153647,1,8,0:0:0:0:
141,26,153812,22,0,P|215:14|281:31,1,129.999994049073,0|8,0:0|0:0,0:0:0:0:
437,96,154142,1,0,0:0:0:0:
437,96,154224,1,0,0:0:0:0:
437,96,154307,2,0,L|367:103,1,64.9999970245363,8|0,0:0|0:0,0:0:0:0:
257,175,154472,1,0,0:0:0:0:
257,175,154554,1,0,0:0:0:0:
257,175,154637,2,0,L|327:182,1,64.9999970245363,8|0,0:0|0:0,0:0:0:0:
444,250,154801,1,0,0:0:0:0:
444,250,154884,1,0,0:0:0:0:
444,250,154966,2,0,L|374:257,1,64.9999970245363,8|0,0:0|0:0,0:0:0:0:
236,343,155131,6,0,B|222:292|222:292|207:267|207:267|195:221,1,129.999994049073,4|8,0:0|0:0,0:0:0:0:
115,48,155461,2,0,P|149:35|195:34,1,64.9999970245363
310,56,155626,2,0,L|249:189,1,129.999994049073,8|0,0:0|0:0,0:0:0:0:
68,216,155955,1,8,0:0:0:0:
172,329,156120,2,0,L|252:346,1,64.9999970245363
291,263,156285,2,0,L|371:246,1,64.9999970245363,8|0,0:0|0:0,0:0:0:0:
488,284,156450,6,0,B|501:237|501:237|481:131,1,129.999994049073,4|8,0:3|0:0,2:0:0:0:
316,70,156779,1,0,0:0:0:0:
316,70,156862,1,0,0:0:0:0:
316,70,156944,2,0,L|313:146,1,64.9999970245363,8|0,0:0|0:0,0:0:0:0:
231,124,157109,1,0,0:0:0:0:
231,124,157191,1,0,0:0:0:0:
231,124,157274,2,0,L|234:200,1,64.9999970245363,8|0,0:0|0:0,0:0:0:0:
139,159,157439,1,0,0:0:0:0:
139,159,157521,1,0,0:0:0:0:
139,159,157604,2,0,L|136:235,1,64.9999970245363,8|0,0:0|0:0,0:0:0:0:
20,340,157768,6,0,B|84:328|84:328|152:344,1,129.999994049073,4|8,0:0|0:0,0:0:0:0:
328,360,158098,1,0,0:0:0:0:
328,360,158180,1,0,0:0:0:0:
328,360,158263,1,8,0:0:0:0:
257,218,158428,2,0,P|244:144|258:81,1,129.999994049073,0|8,0:0|0:0,0:0:0:0:
406,18,158757,1,0,0:0:0:0:
406,18,158840,1,0,0:0:0:0:
406,18,158922,1,8,0:0:0:0:
485,184,159087,22,0,P|415:180|352:145,1,129.999994049073,0|8,0:0|0:0,0:0:0:0:
173,154,159417,1,0,0:0:0:0:
173,154,159499,1,0,0:0:0:0:
173,154,159582,2,0,L|175:222,1,64.9999970245363,8|0,0:0|0:0,0:0:0:0:
269,317,159746,1,0,0:0:0:0:
269,317,159829,1,0,0:0:0:0:
269,317,159911,2,0,L|267:249,1,64.9999970245363,8|0,0:0|0:0,0:0:0:0:
361,150,160076,1,0,0:0:0:0:
361,150,160158,1,0,0:0:0:0:
361,150,160241,2,0,L|363:218,1,64.9999970245363,8|0,0:0|0:0,0:0:0:0:
492,308,160406,6,0,B|402:326|402:326|353:316,1,129.999994049073,4|8,0:0|0:0,0:0:0:0:
263,133,160735,2,0,P|275:97|298:70,1,64.9999970245363
370,17,160900,1,8,0:0:0:0:
267,218,161065,2,0,B|205:231|205:231|118:208,1,129.999994049073,4|8,0:0|0:3,0:0:0:0:
57,166,161312,1,8,0:3:0:0:
57,166,161395,5,8,0:3:0:0:
41,209,161477,1,0,0:0:0:0:
46,253,161560,1,0,0:0:0:0:
70,291,161642,1,0,0:0:0:0:
110,314,161724,5,0,0:0:0:0:
140,302,161807,1,0,0:0:0:0:
172,298,161889,1,0,0:0:0:0:
204,302,161972,1,0,0:0:0:0:
237,314,162054,1,8,0:2:0:0:
266,326,162137,1,0,0:0:0:0:
298,326,162219,1,0,0:0:0:0:
328,315,162301,1,0,0:0:0:0:
351,292,162384,21,0,0:0:0:0:
363,263,162466,1,0,0:0:0:0:
364,230,162549,1,0,0:0:0:0:
352,201,162631,1,0,0:0:0:0:
330,179,162713,2,0,P|309:151|304:115,1,64.9999970245363,8|0,0:2|0:0,0:0:0:0:
314,26,162878,1,0,0:0:0:0:
343,12,162961,1,0,0:0:0:0:
375,9,163043,6,2,B|419:35|419:35|468:128,1,129.999994049073,4|10,0:0|0:2,0:2:0:0:
457,194,163290,1,0,0:0:0:0:
457,194,163373,2,0,L|382:188,1,64.9999970245363
328,256,163538,2,0,L|253:262,1,64.9999970245363,10|0,0:2|0:0,0:0:0:0:
180,200,163702,2,0,P|110:203|54:161,1,129.999994049073,0|10,0:0|0:2,0:0:0:0:
30,81,163950,1,0,0:0:0:0:
30,81,164032,6,0,P|77:76|110:88,1,64.9999970245363
183,124,164197,2,0,P|230:129|263:117,1,64.9999970245363,10|0,0:2|0:0,0:0:0:0:
329,72,164362,2,0,P|345:124|298:210,1,129.999994049073,0|10,0:0|0:2,0:0:0:0:
235,243,164609,1,0,0:0:0:0:
235,243,164691,2,0,P|266:276|290:286,1,64.9999970245363
380,268,164856,2,0,P|408:233|415:208,1,64.9999970245363,10|0,0:2|0:0,0:0:0:0:
386,120,165021,5,0,0:0:0:0:
386,120,165104,1,0,0:0:0:0:
386,120,165186,2,0,L|306:114,1,64.9999970245363,10|0,0:2|0:0,0:0:0:0:
239,70,165351,1,0,0:0:0:0:
239,70,165433,1,0,0:0:0:0:
239,70,165516,2,0,L|159:76,1,64.9999970245363,10|0,0:2|0:0,0:0:0:0:
36,56,165680,22,0,B|36:100|36:100|44:132|44:132|44:192,1,129.999994049073,4|10,0:0|0:2,0:0:0:0:
40,284,165928,1,0,0:0:0:0:
40,284,166010,2,0,P|68:291|111:280,1,64.9999970245363
179,222,166175,2,0,P|207:215|250:226,1,64.9999970245363,10|0,0:2|0:0,0:0:0:0:
324,275,166340,2,0,P|392:297|470:250,1,129.999994049073,0|10,0:0|0:2,0:0:0:0:
387,198,166587,1,0,0:0:0:0:
387,198,166669,2,0,L|391:116,1,64.9999970245363
303,112,166834,2,0,L|299:30,1,64.9999970245363,10|0,0:2|0:0,0:0:0:0:
176,92,166999,6,0,B|126:98|126:98|99:91|99:91|41:98,1,129.999994049073,4|10,0:0|0:2,0:0:0:0:
9,183,167246,1,0,0:0:0:0:
9,183,167329,2,0,L|22:284,1,64.9999970245363
77,325,167494,1,10,0:2:0:0:
77,325,167576,1,0,0:0:0:0:
77,325,167658,2,0,L|178:312,1,64.9999970245363
327,253,167823,6,0,B|307:106|307:106|257:48,1,225.000008583069,2|0,0:3|0:0,0:0:0:0:
190,19,168153,2,0,P|183:58|212:110,1,75.0000028610231,2|0,0:3|0:0,0:0:0:0:
241,178,168317,6,0,P|181:188|114:149,1,129.999994049073,4|10,0:0|0:2,0:0:0:0:
52,87,168565,1,0,0:0:0:0:
52,87,168647,2,0,L|46:168,1,64.9999970245363
121,157,168812,2,0,L|127:238,1,64.9999970245363,10|0,0:2|0:0,0:0:0:0:
55,287,168977,2,0,P|112:317|184:301,1,129.999994049073,0|10,0:0|0:2,0:0:0:0:
253,248,169224,1,0,0:0:0:0:
253,248,169307,2,0,P|284:241|325:252,1,64.9999970245363
400,297,169472,2,0,P|431:304|472:293,1,64.9999970245363,10|0,0:2|0:0,0:0:0:0:
432,204,169637,22,0,P|422:173|340:120,1,129.999994049073,0|10,0:0|0:2,0:0:0:0:
247,105,169884,1,0,0:0:0:0:
247,105,169966,2,0,L|250:189,1,64.9999970245363
165,141,170131,2,0,L|162:225,1,64.9999970245363,10|0,0:2|0:0,0:0:0:0:
80,120,170296,2,0,L|83:204,1,64.9999970245363
195,322,170460,6,0,B|232:312|232:312|288:312,1,75.0000028610231,4|0,0:0|0:0,0:0:0:0:
373,354,170625,2,0,P|372:266|325:215,1,150.000005722046,4|0,0:0|0:0,0:0:0:0:
249,169,170872,1,0,0:0:0:0:
249,169,170955,6,0,P|312:124|381:133,1,139.999995727539,12|0,0:3|0:0,0:0:0:0:
470,165,171201,1,0,0:0:0:0:
470,165,171284,2,0,L|484:251,1,69.9999978637696,8|0,0:3|0:0,0:0:0:0:
334,220,171449,2,0,L|326:289,1,69.9999978637696
190,292,171614,1,8,0:3:0:0:
157,278,171696,1,0,0:0:0:0:
121,274,171778,1,0,0:0:0:0:
87,283,171861,1,0,0:0:0:0:
57,300,171943,6,0,L|54:224,1,69.9999978637696,8|0,0:3|0:0,0:0:0:0:
10,157,172108,2,0,L|13:81,1,69.9999978637696
144,20,172273,2,0,B|192:20|192:20|232:32|232:32|288:32,1,139.999995727539,12|0,0:3|0:0,0:0:0:0:
388,32,172520,1,0,0:0:0:0:
388,32,172603,2,0,P|379:83|356:111,1,69.9999978637696,8|0,0:3|0:0,0:0:0:0:
285,160,172767,2,0,P|294:211|317:239,1,69.9999978637696
384,294,172932,2,0,P|341:323|305:327,1,69.9999978637696,8|0,0:3|0:0,0:0:0:0:
161,316,173097,1,0,0:0:0:0:
128,304,173179,1,0,0:0:0:0:
102,280,173262,22,0,P|88:242|87:204,1,69.9999978637696,12|0,0:3|0:0,0:0:0:0:
82,107,173427,2,0,P|121:113|155:132,1,69.9999978637696
241,176,173592,1,8,0:3:0:0:
275,178,173674,1,8,0:3:0:0:
308,166,173756,2,0,P|319:133|313:80,1,69.9999978637696
345,10,173921,2,0,P|375:26|398:52,1,69.9999978637696
396,144,174086,5,8,0:3:0:0:
401,179,174168,1,8,0:3:0:0:
405,213,174251,2,0,L|380:280,1,69.9999978637696
311,338,174416,2,0,L|244:313,1,69.9999978637696
142,222,174581,2,0,B|168:178|154:130|154:130|162:115|162:115|151:58|184:22,1,209.999993591309,12|0,0:0|0:0,0:0:0:0:
213,6,174911,37,8,0:3:0:0:
286,79,175021,2,0,L|310:145,2,46.6666652425131,8|0|0,0:2|0:0|0:0,0:0:0:0:
285,215,175241,2,0,P|335:211|377:180,1,93.3333304850261,8|0,0:3|0:0,0:0:0:0:
415,109,175460,1,0,0:0:0:0:
415,263,175570,1,8,0:3:0:0:
460,186,175680,2,0,L|506:169,2,46.6666652425131,8|8|8,0:2|0:2|0:2,0:0:0:0:
415,263,175900,1,8,0:3:0:0:
370,187,176010,1,0,0:3:0:0:
326,263,176120,1,0,0:0:0:0:
256,171,176230,5,4,0:3:0:0:
256,192,176312,12,0,177384,0:0:0:0:
224,160,177548,5,4,0:0:0:0:
256,192,177631,12,0,178702,0:0:0:0:
288,224,178867,5,4,0:0:0:0:
256,192,178949,12,0,180020,0:0:0:0:
287,163,180186,6,0,B|266:207|276:255|276:255|298:275|303:307,1,150,4|0,0:0|0:0,0:0:0:0:
303,303,180515,1,0,0:0:0:0:
420,218,180679,1,0,0:0:0:0:
184,238,180844,2,0,B|205:194|195:146|195:146|173:126|168:94,1,150,4|0,0:0|0:0,0:0:0:0:
169,99,181174,1,0,0:0:0:0:
43,174,181339,1,0,0:0:0:0:
288,160,181504,21,4,0:0:0:0:
256,192,181587,12,0,182658,0:0:0:0:
224,224,182823,5,4,0:0:0:0:
256,192,182905,12,0,183976,0:0:0:0:
287,235,184142,6,0,P|304:179|121:188,1,350,4|0,0:0|0:0,0:0:0:0:
178,246,184801,6,0,P|149:180|188:120,1,150,4|0,0:0|0:0,0:0:0:0:
255,261,185131,2,0,P|211:318|139:315,1,150
226,188,185460,2,0,B|254:178|279:179|303:194|317:212|317:212|361:213|396:200|415:175|420:146|414:112|389:91|354:86|323:95|309:127,1,350,4|0,0:0|0:0,0:0:0:0:
311,81,186120,1,8,0:2:0:0:
316,77,186175,1,8,0:2:0:0:
322,75,186230,1,8,0:2:0:0:
328,74,186285,1,8,0:2:0:0:
334,74,186339,1,8,0:2:0:0:
340,75,186394,1,8,0:2:0:0:
346,76,186449,22,0,B|361:112|357:142|357:142|369:168|369:168|364:211|381:272,1,194.999991073609,8|0,0:3|0:0,0:0:0:0:
432,332,186779,5,0,0:0:0:0:
403,346,186862,1,0,0:0:0:0:
371,350,186944,1,0,0:0:0:0:
340,341,187027,1,0,0:0:0:0:
314,321,187109,1,8,0:3:0:0:
285,307,187191,1,0,0:0:0:0:
253,302,187274,1,0,0:0:0:0:
221,305,187356,1,0,0:0:0:0:
190,316,187439,5,0,0:0:0:0:
160,303,187521,1,0,0:0:0:0:
135,282,187603,1,0,0:0:0:0:
118,254,187686,1,0,0:0:0:0:
111,223,187768,2,0,P|108:192|92:160,3,64.9999970245363,8|0|0|0,0:3|0:0|0:0|0:0,0:0:0:0:
209,189,188098,5,0,0:0:0:0:
239,200,188180,1,0,0:0:0:0:
271,204,188263,1,0,0:0:0:0:
303,199,188345,1,0,0:0:0:0:
333,187,188428,1,8,0:3:0:0:
361,170,188510,1,0,0:0:0:0:
392,163,188593,1,0,0:0:0:0:
424,166,188675,1,0,0:0:0:0:
453,181,188757,21,0,0:0:0:0:
478,143,188840,1,0,0:0:0:0:
477,99,188922,1,0,0:0:0:0:
450,63,189005,1,0,0:0:0:0:
407,49,189087,6,0,L|326:55,1,64.9999970245363,8|0,0:3|0:0,0:0:0:0:
253,31,189252,2,0,L|171:25,1,64.9999970245363,8|0,0:3|0:0,0:0:0:0:
105,55,189417,1,4,0:0:0:0:
115,85,189499,1,0,0:0:0:0:
126,116,189581,1,0,0:0:0:0:
137,146,189664,1,0,0:0:0:0:
148,177,189746,5,8,0:3:0:0:
181,178,189828,1,0,0:0:0:0:
211,188,189910,1,0,0:0:0:0:
238,206,189993,1,0,0:0:0:0:
259,231,190075,1,0,0:0:0:0:
279,255,190159,1,0,0:0:0:0:
306,273,190242,1,0,0:0:0:0:
337,283,190324,1,0,0:0:0:0:
370,284,190406,2,0,P|387:313|390:351,3,64.9999970245363,8|0|0|0,0:3|0:0|0:3|0:0,0:0:0:0:
470,265,190735,5,0,0:0:0:0:
484,236,190818,1,0,0:0:0:0:
489,204,190900,1,0,0:0:0:0:
485,172,190983,1,0,0:0:0:0:
472,142,191065,21,8,0:3:0:0:
442,152,191147,1,0,0:0:0:0:
409,156,191230,1,0,0:0:0:0:
377,154,191312,1,0,0:0:0:0:
346,146,191395,1,0,0:0:0:0:
317,131,191477,1,0,0:0:0:0:
285,123,191560,1,0,0:0:0:0:
253,122,191642,1,0,0:0:0:0:
221,129,191724,6,0,L|228:203,1,64.9999970245363,12|0,0:3|0:0,0:0:0:0:
128,220,191889,2,0,L|121:293,1,64.9999970245363,8|0,0:3|0:0,0:0:0:0:
226,349,192054,5,4,0:0:0:0:
266,370,192137,1,0,0:0:0:0:
310,375,192219,1,0,0:0:0:0:
354,364,192301,1,0,0:0:0:0:
391,337,192384,1,8,0:3:0:0:
416,299,192466,1,0,0:0:0:0:
426,255,192549,1,0,0:0:0:0:
419,211,192631,1,0,0:0:0:0:
396,171,192713,5,0,0:0:0:0:
372,134,192796,1,0,0:0:0:0:
377,89,192878,1,0,0:0:0:0:
408,58,192961,1,0,0:0:0:0:
453,53,193043,1,8,0:3:0:0:
490,78,193126,1,0,0:0:0:0:
503,120,193208,1,0,0:0:0:0:
485,161,193290,1,0,0:0:0:0:
445,181,193373,21,0,0:0:0:0:
400,189,193455,1,0,0:0:0:0:
365,217,193538,1,0,0:0:0:0:
341,254,193620,1,0,0:0:0:0:
345,298,193702,1,8,0:3:0:0:
377,330,193785,1,0,0:0:0:0:
421,335,193867,1,0,0:0:0:0:
458,310,193950,1,0,0:0:0:0:
471,267,194032,5,0,0:0:0:0:
425,270,194115,1,0,0:0:0:0:
382,258,194197,1,0,0:0:0:0:
345,232,194279,1,0,0:0:0:0:
318,195,194362,1,8,0:3:0:0:
284,166,194444,1,0,0:0:0:0:
242,150,194527,1,0,0:0:0:0:
197,149,194609,1,0,0:0:0:0:
155,164,194691,6,0,P|135:187|125:231,1,64.9999970245363,8|0,0:0|0:0,0:0:0:0:
250,306,194856,2,0,P|269:282|279:238,1,64.9999970245363
287,85,195021,1,8,0:0:0:0:
287,85,195104,2,0,L|218:76,1,64.9999970245363
45,93,195268,1,0,0:0:0:0:
45,93,195351,2,0,L|114:102,1,64.9999970245363,8|0,0:0|0:0,0:0:0:0:
165,183,195516,6,0,L|234:192,1,64.9999970245363
349,281,195680,1,8,0:0:0:0:
349,281,195763,2,0,L|280:272,1,64.9999970245363
158,333,195928,1,0,0:0:0:0:
158,333,196010,2,0,L|227:342,1,64.9999970245363,8|0,0:0|0:0,0:0:0:0:
322,369,196175,2,0,L|391:378,1,64.9999970245363
459,290,196340,21,0,0:0:0:0:
462,270,196422,1,0,0:0:0:0:
465,250,196505,1,0,0:0:0:0:
468,230,196587,1,0,0:0:0:0:
470,208,196669,5,8,0:3:0:0:
428,226,196752,1,8,0:3:0:0:
383,233,196834,1,8,0:3:0:0:
339,227,196917,1,8,0:3:0:0:
297,208,196999,1,8,0:2:0:0:
257,188,197082,1,8,0:2:0:0:
212,191,197164,1,8,0:2:0:0:
175,216,197246,1,8,0:2:0:0:
158,286,197328,6,0,P|196:284|228:265,1,64.9999970245363,4|0,0:0|0:0,0:0:0:0:
144,146,197493,1,8,0:3:0:0:
105,124,197576,1,0,0:0:0:0:
59,119,197658,2,0,P|21:124|-8:147,1,64.9999970245363
175,216,197823,1,8,0:3:0:0:
212,191,197906,1,0,0:0:0:0:
239,153,197988,2,0,P|252:117|247:76,1,64.9999970245363
99,205,198153,1,8,0:3:0:0:
100,250,198235,1,0,0:0:0:0:
119,293,198318,2,0,P|142:322|177:337,1,64.9999970245363
263,224,198483,2,0,P|225:229|195:252,1,64.9999970245363,8|0,0:3|0:0,0:0:0:0:
250,383,198647,6,0,L|340:382,1,64.9999970245363,4|0,0:0|0:0,0:0:0:0:
441,334,198812,1,8,0:3:0:0:
442,320,198895,1,0,0:0:0:0:
443,307,198977,2,0,L|448:235,1,64.9999970245363
461,117,199142,1,8,0:3:0:0:
437,103,199224,1,0,0:0:0:0:
414,90,199307,21,0,0:0:0:0:
378,128,199389,1,0,0:0:0:0:
330,150,199472,1,8,0:3:0:0:
279,150,199554,1,0,0:0:0:0:
232,129,199637,1,0,0:0:0:0:
202,135,199719,1,0,0:0:0:0:
176,152,199801,1,8,0:3:0:0:
158,176,199884,1,0,0:0:0:0:
150,207,199966,6,0,B|197:209|231:238|231:238|305:238|305:238|344:272|394:272,1,259.999988098145,4|0,0:0|0:0,0:0:0:0:
341,40,200460,1,8,0:3:0:0:
309,47,200542,1,0,0:0:0:0:
280,63,200625,2,0,P|267:92|261:131,1,64.9999970245363
326,177,200789,1,8,0:3:0:0:
326,177,200872,2,0,L|329:260,1,64.9999970245363
244,321,201037,1,0,0:0:0:0:
244,321,201119,2,0,L|171:329,1,64.9999970245363,8|0,0:3|0:0,0:0:0:0:
80,260,201284,6,0,P|8:209|-6:145,1,129.999994049073,4|0,0:3|0:0,0:0:0:0:
100,152,201531,1,0,0:0:0:0:
100,152,201614,2,0,P|130:160|164:186,1,64.9999970245363
176,259,201779,2,0,B|249:228|249:228|308:242,1,129.999994049073,8|0,0:3|0:0,0:0:0:0:
354,302,202026,1,0,0:0:0:0:
354,302,202109,2,0,P|383:232|356:176,1,129.999994049073,8|0,0:3|0:0,0:0:0:0:
286,150,202355,1,0,0:0:0:0:
286,150,202438,2,0,P|306:123|347:101,1,64.9999970245363,8|0,0:3|0:0,0:0:0:0:
463,22,202603,6,0,L|472:99,1,64.9999970245363,4|0,0:0|0:0,0:0:0:0:
466,213,202767,1,8,0:3:0:0:
453,214,202850,1,0,0:0:0:0:
440,216,202932,2,0,L|363:225,1,64.9999970245363
317,306,203097,1,8,0:3:0:0:
304,305,203179,1,0,0:0:0:0:
291,303,203262,2,0,L|214:294,1,64.9999970245363
75,185,203427,1,8,0:3:0:0:
88,186,203509,1,0,0:0:0:0:
101,188,203592,2,0,L|178:197,1,64.9999970245363
332,106,203756,1,8,0:3:0:0:
319,105,203839,1,0,0:0:0:0:
306,103,203922,22,0,B|256:97|256:97|208:115,1,75.0000028610231,4|0,0:0|0:0,0:0:0:0:
250,263,204087,1,8,0:3:0:0:
261,267,204169,1,0,0:0:0:0:
273,271,204252,2,0,P|308:275|340:267,1,64.9999970245363
207,180,204417,1,8,0:3:0:0:
198,187,204499,1,0,0:0:0:0:
188,195,204582,2,0,P|167:223|157:255,1,64.9999970245363
300,184,204746,1,8,0:3:0:0:
298,172,204829,1,0,0:0:0:0:
296,160,204911,2,0,P|281:127|259:103,1,64.9999970245363
117,40,205076,2,0,P|131:72|153:96,1,64.9999970245363,8|0,0:3|0:0,0:0:0:0:
325,27,205241,5,4,0:0:0:0:
368,13,205323,1,0,0:0:0:0:
412,18,205406,1,8,0:3:0:0:
451,42,205488,1,0,0:0:0:0:
477,79,205571,5,0,0:0:0:0:
474,111,205653,1,0,0:0:0:0:
471,144,205735,1,8,0:3:0:0:
468,176,205818,1,0,0:0:0:0:
465,208,205900,6,0,L|488:277,1,64.9999970245363
379,178,206065,2,0,L|383:249,1,64.9999970245363,8|0,0:3|0:0,0:0:0:0:
296,253,206230,2,0,L|318:321,1,64.9999970245363
209,222,206395,2,0,L|213:293,1,64.9999970245363,8|0,0:3|0:0,0:0:0:0:
72,304,206560,22,0,B|72:256|72:256|64:240|64:240|72:224|72:224|52:169|72:114,1,194.999991073609,4|0,0:0|0:0,0:0:0:0:
102,82,206889,2,0,P|135:86|175:78,1,64.9999970245363
303,33,207054,1,8,0:3:0:0:
348,29,207137,1,0,0:0:0:0:
390,43,207219,2,0,P|408:71|415:137,1,64.9999970245363
510,130,207384,2,0,P|494:159|441:198,1,64.9999970245363,8|0,0:3|0:0,0:0:0:0:
369,227,207549,5,8,0:3:0:0:
339,282,207631,1,8,0:3:0:0:
358,342,207713,1,8,0:3:0:0:
415,370,207796,1,8,0:3:0:0:
476,322,207878,6,0,P|452:301|405:294,1,64.9999970245363,4|0,0:0|0:0,0:0:0:0:
286,334,208043,2,0,P|262:355|215:362,1,64.9999970245363,8|0,0:3|0:0,0:0:0:0:
132,359,208208,1,0,0:0:0:0:
97,330,208290,1,0,0:0:0:0:
73,292,208373,1,8,0:3:0:0:
62,248,208455,1,0,0:0:0:0:
67,203,208538,6,0,P|90:173|99:125,1,64.9999970245363
48,35,208702,1,8,0:3:0:0:
92,25,208785,1,0,0:0:0:0:
136,31,208867,1,0,0:0:0:0:
176,53,208950,1,0,0:0:0:0:
206,87,209032,1,8,0:3:0:0:
221,130,209115,1,0,0:0:0:0:
220,175,209197,22,0,P|230:205|251:230,1,64.9999970245363,4|0,0:0|0:0,0:0:0:0:
357,304,209362,1,8,0:3:0:0:
400,300,209444,1,0,0:0:0:0:
424,264,209527,1,0,0:0:0:0:
409,223,209609,1,0,0:0:0:0:
367,210,209691,1,8,0:3:0:0:
335,187,209774,1,0,0:0:0:0:
323,149,209856,2,0,P|328:115|353:78,1,64.9999970245363
461,29,210021,2,0,P|456:63|431:100,1,64.9999970245363,8|0,0:3|0:0,0:0:0:0:
246,61,210186,5,0,0:0:0:0:
184,43,210268,1,0,0:0:0:0:
122,62,210351,1,0,0:0:0:0:
81,111,210433,1,0,0:0:0:0:
72,174,210515,6,0,P|75:209|116:267,1,75.0000028610231,4|0,0:0|0:0,0:0:0:0:
219,321,210680,1,8,0:3:0:0:
244,283,210763,1,0,0:0:0:0:
250,239,210845,1,0,0:0:0:0:
240,193,210928,1,0,0:0:0:0:
246,149,211010,1,8,0:3:0:0:
272,112,211093,1,0,0:0:0:0:
314,93,211175,2,0,P|351:97|390:122,1,64.9999970245363
456,216,211340,2,0,P|419:212|380:187,1,64.9999970245363,8|0,0:3|0:0,0:0:0:0:
246,149,211505,5,0,0:0:0:0:
181,152,211587,1,0,0:0:0:0:
138,198,211669,1,8,0:3:0:0:
139,262,211752,1,0,0:0:0:0:
181,308,211834,22,0,L|289:304,1,75.0000028610231,4|0,0:0|0:0,0:0:0:0:
416,328,211999,1,8,0:3:0:0:
419,282,212082,1,0,0:0:0:0:
423,237,212164,1,0,0:0:0:0:
425,191,212246,1,0,0:0:0:0:
428,138,212329,6,0,L|340:143,1,75.0000028610231,12|0,0:3|0:0,0:0:0:0:
224,155,212494,1,0,0:0:0:0:
186,152,212576,1,0,0:0:0:0:
148,149,212658,2,0,L|60:144,1,75.0000028610231,12|0,0:3|0:0,0:0:0:0:
6,27,212823,1,0,0:0:0:0:
44,30,212906,1,0,0:0:0:0:
82,33,212988,2,0,L|170:38,1,75.0000028610231,12|0,0:3|0:0,0:0:0:0:
353,142,213153,6,0,B|335:191|335:191|347:295,1,129.999994049073,4|8,0:0|0:3,0:0:0:0:
382,348,213399,1,0,0:0:0:0:
382,348,213482,2,0,P|349:357|299:346,1,64.9999970245363
213,286,213646,1,8,0:3:0:0:
185,268,213729,1,0,0:0:0:0:
153,260,213811,2,0,P|120:257|89:266,1,64.9999970245363
38,379,213976,1,8,0:3:0:0:
63,357,214059,1,0,0:0:0:0:
79,328,214141,2,0,P|90:297|89:265,1,64.9999970245363
29,166,214306,2,0,P|17:135|18:103,1,64.9999970245363,8|0,0:3|0:0,0:0:0:0:
200,100,214471,6,0,B|247:100|247:100|283:88|283:88|335:88,1,129.999994049073,4|8,0:0|0:3,0:0:0:0:
419,88,214718,1,0,0:0:0:0:
419,88,214800,2,0,P|409:132|385:159,1,64.9999970245363
294,180,214965,1,8,0:3:0:0:
284,224,215048,1,0,0:0:0:0:
298,267,215130,2,0,P|322:304|354:322,1,64.9999970245363
466,255,215295,1,8,0:3:0:0:
471,210,215377,1,0,0:0:0:0:
459,166,215460,2,0,P|427:160|397:147,1,64.9999970245363
332,45,215625,2,0,P|302:31|270:26,1,64.9999970245363
196,186,215790,22,0,B|188:269|188:269|206:323,1,129.999994049073,4|8,0:0|0:3,0:0:0:0:
128,379,216037,1,0,0:0:0:0:
128,379,216119,2,0,L|104:308,1,64.9999970245363
46,233,216284,1,8,0:3:0:0:
46,233,216366,1,0,0:0:0:0:
46,233,216449,2,0,L|60:159,1,64.9999970245363
47,65,216614,1,8,0:3:0:0:
47,65,216696,1,0,0:0:0:0:
47,65,216778,2,0,L|96:8,1,64.9999970245363
192,83,216943,2,0,L|276:77,1,64.9999970245363,8|0,0:3|0:0,0:0:0:0:
428,66,217108,5,8,0:3:0:0:
443,127,217190,1,8,0:3:0:0:
412,183,217273,1,8,0:3:0:0:
351,202,217355,1,8,0:3:0:0:
294,175,217438,1,0,0:0:0:0:
250,162,217520,1,0,0:0:0:0:
207,174,217603,1,0,0:0:0:0:
175,205,217685,1,0,0:0:0:0:
168,249,217767,5,8,0:3:0:0:
231,241,217850,1,8,0:3:0:0:
281,201,217932,1,8,0:3:0:0:
300,139,218015,1,8,0:3:0:0:
282,78,218097,1,0,0:0:0:0:
233,36,218179,1,0,0:0:0:0:
170,28,218262,1,0,0:0:0:0:
112,56,218344,1,0,0:0:0:0:
79,110,218427,5,8,0:0:0:0:
163,98,219746,6,0,L|174:218,1,86.5000021118165,8|0,0:0|0:0,0:0:0:0:
209,262,219965,1,0,0:0:0:0:
294,251,220075,1,0,0:0:0:0:
309,166,220185,1,0,0:0:0:0:
232,125,220295,1,0,0:0:0:0:
294,251,220405,5,8,0:0:0:0:
376,222,220515,1,0,0:0:0:0:
391,136,220625,1,0,0:0:0:0:
324,80,220735,1,0,0:0:0:0:
242,110,220844,1,0,0:0:0:0:
226,196,220954,1,0,0:0:0:0:
376,222,221064,6,0,P|380:277|365:307,1,86.5000021118165,12|0,0:0|0:0,0:0:0:0:
245,353,221284,1,0,0:0:0:0:
202,346,221394,1,0,0:0:0:0:
159,340,221504,38,0,P|136:289|140:256,1,86.5000021118165,12|0,0:0|0:0,0:0:0:0:
182,184,221724,1,0,0:0:0:0:
124,121,221833,1,0,0:0:0:0:
46,156,221943,1,0,0:0:0:0:
55,240,222053,1,0,0:0:0:0:
182,184,222163,6,0,L|281:197,1,86.5000021118165,8|0,0:0|0:0,0:0:0:0:
352,174,222383,1,0,0:0:0:0:
399,249,222493,1,0,0:0:0:0:
342,316,222603,1,0,0:0:0:0:
260,282,222713,1,0,0:0:0:0:
352,174,222822,6,0,L|357:81,1,86.5000021118165,12|0,0:0|0:0,0:0:0:0:
185,141,223042,1,0,0:0:0:0:
182,184,223152,1,0,0:0:0:0:
180,227,223262,5,4,0:0:0:0:
302,346,223434,2,0,B|388:335|388:335|462:341,2,150.000005722046
186,291,224116,6,0,L|306:272,1,100
449,151,224695,1,0,0:0:0:0:
293,184,225024,22,0,B|282:230|282:230|286:299,1,92.2500014076233,0|0,0:0|2:0,0:0:0:0:
348,316,225600,6,0,B|288:304|288:304|220:336|220:336|136:316,1,200,4|0,0:0|0:0,0:0:0:0:
56,269,226152,2,0,B|160:244|160:244|236:263,1,160
158,321,226681,1,0,0:0:0:0:
136,148,226853,5,0,0:0:0:0:
152,145,226910,5,0,0:0:0:0:
169,143,226968,21,0,0:0:0:0:
185,141,227025,5,4,0:0:0:0:
211,256,227198,6,0,L|358:237,1,100
396,122,227536,2,0,P|340:200|377:311,1,200
455,224,228030,1,0,0:0:0:0:
396,122,228195,1,0,0:0:0:0:
362,295,228360,6,0,B|319:326|265:317|265:317|237:273|162:262,1,200,4|0,0:0|0:0,0:0:0:0:
64,348,228854,2,0,B|55:320|64:288|64:288|52:268|52:268|76:216|52:152,1,200
184,266,229349,1,0,0:0:0:0:
214,97,229513,21,0,0:0:0:0:
230,98,229568,5,0,0:0:0:0:
247,99,229623,5,0,0:0:0:0:
263,100,229678,5,8,0:3:0:0:
316,239,229844,1,0,0:0:0:0:
250,185,230011,1,0,0:0:0:0:
382,86,230178,1,8,0:3:0:0:
402,250,230344,1,0,0:0:0:0:
263,100,230510,1,8,0:3:0:0:
462,54,230676,1,8,0:3:0:0:
392,290,230842,1,8,0:3:0:0:
189,76,231013,22,0,P|123:62|50:87,1,129.999994049073,4|8,0:0|0:0,0:0:0:0:
7,142,231263,1,0,0:0:0:0:
7,142,231346,2,0,L|17:216,1,64.9999970245363
148,264,231513,2,0,B|283:251,1,129.999994049073,8|0,0:0|0:0,0:0:0:0:
430,384,231846,1,8,0:0:0:0:
459,200,232013,1,0,0:0:0:0:
451,175,232096,1,0,0:0:0:0:
432,156,232179,6,0,P|404:142|363:137,1,64.9999970245363,8|0,0:0|0:0,0:0:0:0:
232,196,232346,2,0,B|236:160|236:160|228:128|228:128|236:96|228:68,1,129.999994049073,4|8,0:0|0:0,0:0:0:0:
171,4,232596,1,0,0:0:0:0:
171,4,232679,2,0,P|145:47|142:72,1,64.9999970245363
132,204,232846,2,0,P|66:182|22:131,1,129.999994049073,8|0,0:0|0:0,0:0:0:0:
232,196,233179,1,8,0:0:0:0:
181,328,233346,5,0,0:2:0:0:
200,336,233401,5,0,0:2:0:0:
222,340,233457,21,0,0:2:0:0:
243,340,233513,6,0,P|277:343|312:363,1,64.9999970245363,8|0,0:0|0:0,0:0:0:0:
456,352,233679,6,0,B|460:304|460:304|456:276|456:276|460:220,1,129.999994049073,4|8,0:0|0:0,0:0:0:0:
479,139,233929,1,0,0:0:0:0:
479,139,234013,2,0,P|445:141|410:157,1,64.9999970245363
357,212,234179,1,8,0:0:0:0:
340,183,234263,1,0,0:0:0:0:
322,155,234346,6,0,P|292:130|255:122,1,64.9999970245363
129,164,234513,2,0,P|158:188|195:196,1,64.9999970245363,8|0,0:0|0:0,0:0:0:0:
307,159,234679,2,0,P|277:134|240:126,1,64.9999970245363
114,168,234846,2,0,P|143:192|180:200,1,64.9999970245363,8|0,0:0|0:0,0:0:0:0:
425,202,235013,2,0,B|435:265|435:265|414:330,1,129.999994049073,4|8,0:0|0:0,0:0:0:0:
335,357,235263,1,0,0:0:0:0:
335,357,235346,22,0,L|263:348,1,64.9999970245363
196,306,235513,2,0,L|124:315,1,64.9999970245363,8|0,0:0|0:0,0:0:0:0:
49,297,235679,1,0,0:0:0:0:
36,266,235763,1,0,0:0:0:0:
31,234,235846,1,0,0:0:0:0:
33,202,235929,1,0,0:0:0:0:
43,171,236013,5,8,0:3:0:0:
104,193,236096,1,8,0:3:0:0:
168,192,236179,1,8,0:3:0:0:
228,167,236263,1,8,0:3:0:0:
275,122,236346,6,0,B|339:114|339:114|418:140,1,129.999994049073,4|10,0:0|0:2,0:0:0:0:
334,305,236679,1,0,0:0:0:0:
334,305,236763,1,0,0:0:0:0:
334,305,236846,2,0,L|194:299,1,129.999994049073,10|0,0:2|0:0,0:0:0:0:
333,188,237179,1,10,0:2:0:0:
203,182,237346,2,0,P|164:187|131:208,1,64.9999970245363
29,256,237513,5,10,0:2:0:0:
14,225,237596,1,0,0:0:0:0:
11,192,237679,2,0,P|36:126|92:82,1,129.999994049073,0|10,0:0|0:2,0:0:0:0:
254,97,238013,1,0,0:0:0:0:
254,97,238096,1,0,0:0:0:0:
254,97,238179,2,0,P|286:106|321:146,1,64.9999970245363,10|0,0:2|0:0,0:0:0:0:
393,90,238346,2,0,P|401:122|384:172,1,64.9999970245363,0|0,0:2|0:0,0:0:0:0:
475,260,238513,2,0,P|467:228|484:178,1,64.9999970245363,10|0,0:2|0:0,0:0:0:0:
310,268,238679,21,0,0:0:0:0:
300,269,238735,5,0,0:0:0:0:
290,270,238790,5,0,0:0:0:0:
280,271,238846,6,0,L|207:267,1,64.9999970245363,8|0,0:0|0:0,0:0:0:0:
53,199,239013,1,4,0:0:0:0:
270,178,239179,1,10,0:2:0:0:
156,126,239346,1,0,0:0:0:0:
158,158,239429,1,0,0:0:0:0:
160,190,239513,1,10,0:2:0:0:
259,54,239679,21,0,0:0:0:0:
280,271,239846,1,10,0:2:0:0:
332,157,240013,1,0,0:0:0:0:
299,159,240096,1,0,0:0:0:0:
266,161,240179,1,10,0:2:0:0:
445,42,240346,6,0,B|476:83|476:83|492:171,1,129.999994049073,4|10,0:0|0:2,0:0:0:0:
460,236,240596,1,0,0:0:0:0:
460,236,240679,2,0,L|386:233,1,64.9999970245363
270,352,240846,2,0,B|274:304|274:304|266:272|266:272|285:220|265:160,1,194.999991073609,10|0,0:2|0:0,0:0:0:0:
212,96,241179,5,10,0:2:0:0:
212,96,241263,1,0,0:0:0:0:
212,96,241346,2,0,P|188:131|181:170,1,64.9999970245363
94,167,241513,2,0,P|106:196|127:220,1,64.9999970245363,10|0,0:2|0:0,0:0:0:0:
331,194,241679,5,4,0:0:0:0:
252,382,241846,2,0,L|183:381,1,64.9999970245363,8|0,0:0|0:0,0:0:0:0:
63,339,242013,1,0,0:0:0:0:
50,309,242096,1,0,0:0:0:0:
44,277,242179,2,0,P|45:243|54:206,1,64.9999970245363,8|0,0:0|0:0,0:0:0:0:
119,91,242346,1,0,0:0:0:0:
209,259,242513,2,0,L|278:258,1,64.9999970245363,8|0,0:0|0:0,0:0:0:0:
410,258,242679,1,0,0:0:0:0:
238,56,242846,22,0,B|258:124|219:124|247:205,1,129.999994049073,8|0,0:0|0:0,0:0:0:0:
309,350,243179,2,0,P|340:334|365:310,1,64.9999970245363,8|0,0:0|0:0,0:0:0:0:
369,172,243346,2,0,B|240:184,1,129.999994049073,0|8,0:0|0:0,0:0:0:0:
128,82,243679,1,0,0:0:0:0:
21,223,243846,2,0,P|80:258|155:261,1,129.999994049073,8|0,0:0|0:0,0:0:0:0:
15,107,244179,1,8,0:0:0:0:
219,20,244346,6,0,B|225:62|225:62|216:88|216:88|239:148|214:210,1,194.999991073609,4|0,0:0|0:0,0:0:0:0:
214,209,244679,1,0,0:0:0:0:
308,89,244846,2,0,L|443:65,1,129.999994049073,8|0,0:0|0:0,0:0:0:0:
487,55,245096,1,0,0:0:0:0:
487,55,245179,1,8,0:0:0:0:
426,227,245346,1,0,0:0:0:0:
426,227,245429,1,0,0:0:0:0:
426,227,245512,1,8,0:0:0:0:
247,145,245679,6,0,B|213:139|213:139|179:146,1,64.9999970245363,12|0,0:3|0:0,0:0:0:0:
62,47,245846,1,0,0:0:0:0:
62,47,245929,1,0,0:0:0:0:
62,47,246012,2,0,L|144:61,1,64.9999970245363,8|0,0:3|0:0,0:0:0:0:
83,149,246179,1,0,0:0:0:0:
83,155,246262,1,0,0:0:0:0:
83,161,246346,5,0,0:3:0:0:
110,177,246429,1,0,0:0:0:0:
142,184,246512,1,0,0:0:0:0:
174,181,246596,1,0,0:0:0:0:
203,167,246679,21,0,0:0:0:0:
263,144,246762,1,0,0:0:0:0:
326,158,246845,1,0,0:0:0:0:
371,204,246929,1,0,0:0:0:0:
384,266,247012,6,0,B|327:275|327:275|293:266|293:266|235:274,1,150.000005722046,4|10,0:0|0:2,0:0:0:0:
175,335,247262,1,0,0:0:0:0:
175,335,247346,2,0,P|153:292|152:255,1,64.9999970245363
192,195,247512,2,0,P|108:196|66:246,1,129.999994049073,10|0,0:2|0:0,0:0:0:0:
50,312,247762,1,0,0:0:0:0:
50,312,247846,2,0,P|11:289|-5:264,1,64.9999970245363,10|0,0:2|0:0,0:0:0:0:
23,182,248012,2,0,L|15:115,1,64.9999970245363
114,29,248179,1,10,0:2:0:0:
159,28,248262,1,0,0:0:0:0:
201,45,248346,6,0,P|252:104|268:160,1,129.999994049073,0|10,0:0|0:2,0:0:0:0:
271,231,248596,1,0,0:0:0:0:
271,231,248679,2,0,P|328:215|404:223,1,129.999994049073,0|10,0:0|0:2,0:0:0:0:
444,306,248929,1,0,0:0:0:0:
444,306,249012,2,0,L|508:315,1,64.9999970245363,0|0,0:2|0:0,0:0:0:0:
357,340,249179,2,0,L|292:349,1,64.9999970245363,8|0,0:2|0:0,0:0:0:0:
193,246,249346,2,0,P|194:208|209:181,1,64.9999970245363
353,113,249512,2,0,P|347:76|328:50,1,64.9999970245363,10|0,0:2|0:0,0:0:0:0:
119,71,249679,6,0,B|63:158|63:158|58:222,1,150.000005722046,4|10,0:0|0:2,0:0:0:0:
75,282,249929,1,0,0:0:0:0:
75,282,250012,2,0,P|118:260|138:233,1,64.9999970245363
153,151,250179,2,0,P|196:173|216:200,1,64.9999970245363,10|0,0:2|0:0,0:0:0:0:
230,282,250346,2,0,P|273:260|293:233,1,64.9999970245363
308,151,250512,1,10,0:2:0:0:
308,151,250596,1,0,0:0:0:0:
308,151,250679,22,0,L|396:160,1,64.9999970245363
258,50,250846,2,0,L|170:41,1,64.9999970245363,10|0,0:2|0:0,0:0:0:0:
283,248,251012,2,0,B|333:254|333:254|358:272|358:272|415:277,1,129.999994049073,4|10,0:0|0:2,0:0:0:0:
491,268,251262,1,0,0:0:0:0:
491,268,251346,2,0,P|484:309|443:350,1,64.9999970245363
368,342,251512,2,0,B|336:344|309:336|309:336|283:349|283:349|228:329|179:351,1,194.999991073609,10|0,0:2|0:0,0:0:0:0:
68,376,251846,6,0,P|66:338|86:288,1,75.0000028610231,4|0,0:0|0:0,0:0:0:0:
163,231,252012,2,0,P|156:143|81:228,1,225.000008583069,4|0,0:0|0:0,0:0:0:0:
76,303,252346,5,8,0:0:0:0:
274,229,252512,1,0,0:0:0:0:
274,229,252596,1,0,0:0:0:0:
274,229,252679,2,0,L|284:136,1,64.9999970245363,8|0,0:0|0:0,0:0:0:0:
293,63,252846,1,0,0:0:0:0:
293,63,252929,1,0,0:0:0:0:
293,63,253012,6,0,L|368:118,1,64.9999970245363,8|0,0:0|0:0,0:0:0:0:
429,161,253179,2,0,L|343:198,1,64.9999970245363
222,191,253346,2,0,L|307:153,1,64.9999970245363,8|0,0:0|0:0,0:0:0:0:
428,258,253512,2,0,L|342:295,1,64.9999970245363
223,339,253679,22,0,B|216:290|216:290|229:243|229:243|221:181,1,150.000005722046,4|0,0:0|0:0,0:0:0:0:
203,102,253929,1,0,0:0:0:0:
203,102,254012,2,0,P|164:120|141:148,1,64.9999970245363,8|0,0:0|0:0,0:0:0:0:
108,217,254179,1,0,0:0:0:0:
108,217,254262,1,0,0:0:0:0:
108,217,254346,6,0,L|120:297,1,64.9999970245363,12|0,0:0|0:0,0:0:0:0:
223,339,254512,2,0,L|211:259,1,64.9999970245363
294,174,254679,2,0,L|306:254,1,64.9999970245363,12|0,0:0|0:0,0:0:0:0:
370,318,254846,1,0,0:0:0:0:
478,47,255012,5,8,0:3:0:0:
434,34,255096,1,0,0:0:0:0:
389,37,255179,1,0,0:0:0:0:
348,55,255262,1,0,0:0:0:0:
316,87,255346,1,0,0:0:0:0:
297,129,255429,1,0,0:0:0:0:
294,174,255512,6,0,P|290:208|264:247,1,64.9999970245363,8|0,0:3|0:0,0:0:0:0:
103,246,255679,1,0,0:0:0:0:
80,207,255762,1,0,0:0:0:0:
88,163,255846,1,0,0:0:0:0:
122,135,255929,1,0,0:0:0:0:
167,137,256012,22,0,P|194:154|213:180,1,64.9999970245363,12|0,0:3|0:0,0:0:0:0:
230,310,256179,1,0,0:0:0:0:
275,334,256262,1,0,0:0:0:0:
327,328,256346,2,0,B|363:287|408:275|408:275|437:231|418:179,1,194.999991073609,8|0,0:3|0:0,0:0:0:0:
384,109,256679,5,8,0:3:0:0:
347,221,256846,1,8,0:3:0:0:
302,24,257012,1,8,0:3:0:0:
269,138,257179,5,8,0:2:0:0:
281,134,257235,5,8,0:2:0:0:
294,131,257290,21,8,0:2:0:0:
306,128,257346,5,8,0:2:0:0:
146,88,257512,2,0,P|127:156|161:224,1,129.999994049073,8|0,0:3|0:0,0:0:0:0:
360,284,258346,6,0,B|263:284|263:284|210:311,1,150.000005722046,4|8,0:0|0:0,0:0:0:0:
76,212,258679,1,0,0:0:0:0:
76,212,258762,1,0,0:0:0:0:
76,212,258846,1,8,0:0:0:0:
203,75,259012,2,0,P|246:134|251:222,1,129.999994049073,0|8,0:0|0:0,0:0:0:0:
106,59,259346,1,0,0:0:0:0:
106,59,259429,1,0,0:0:0:0:
106,59,259512,1,8,0:0:0:0:
313,7,259679,6,0,P|381:17|442:59,1,129.999994049073,0|8,0:0|0:0,0:0:0:0:
410,224,260012,1,0,0:0:0:0:
410,224,260096,1,0,0:0:0:0:
410,224,260179,2,0,L|331:217,1,64.9999970245363,8|0,0:0|0:0,0:0:0:0:
319,302,260346,1,0,0:0:0:0:
319,302,260429,1,0,0:0:0:0:
319,302,260512,2,0,L|254:256,1,64.9999970245363,8|0,0:0|0:0,0:0:0:0:
201,324,260679,1,0,0:0:0:0:
201,324,260762,1,0,0:0:0:0:
201,324,260846,2,0,L|167:252,1,64.9999970245363,8|0,0:0|0:0,0:0:0:0:
71,152,261012,22,0,B|148:140|148:140|214:155,1,129.999994049073,4|8,0:0|0:0,0:0:0:0:
324,209,261346,2,0,P|335:173|333:136,1,64.9999970245363
257,43,261512,2,0,P|314:18|388:28,1,129.999994049073,8|0,0:0|0:0,0:0:0:0:
477,194,261846,1,8,0:0:0:0:
334,145,262012,1,0,0:0:0:0:
334,145,262096,1,0,0:0:0:0:
334,145,262179,1,8,0:0:0:0:
208,312,262346,6,0,B|158:308|158:308|128:318|128:318|73:311,1,129.999994049073,4|8,0:0|0:0,0:0:0:0:
130,161,262679,1,0,0:0:0:0:
130,161,262762,1,0,0:0:0:0:
130,161,262846,2,0,L|205:181,1,64.9999970245363,8|0,0:0|0:0,0:0:0:0:
227,93,263012,1,0,0:0:0:0:
227,93,263096,1,0,0:0:0:0:
227,93,263179,2,0,L|281:147,1,64.9999970245363,8|0,0:0|0:0,0:0:0:0:
345,82,263346,1,0,0:0:0:0:
345,82,263429,1,0,0:0:0:0:
345,82,263512,2,0,L|365:156,1,64.9999970245363,8|0,0:0|0:0,0:0:0:0:
452,249,263679,6,0,B|363:236|363:236|308:250,1,139.999995727539,4|8,0:0|0:0,0:0:0:0:
213,357,264012,1,0,0:0:0:0:
213,357,264096,1,0,0:0:0:0:
213,357,264179,1,8,0:0:0:0:
78,249,264346,2,0,P|119:200|193:174,1,129.999994049073,0|8,0:0|0:0,0:0:0:0:
314,248,264679,1,0,0:0:0:0:
314,248,264762,1,0,0:0:0:0:
314,248,264846,1,8,0:0:0:0:
379,59,265012,6,0,P|320:41|237:55,1,129.999994049073,0|8,0:0|0:0,0:0:0:0:
178,175,265346,1,0,0:0:0:0:
178,175,265429,1,0,0:0:0:0:
178,175,265512,2,0,P|143:152|124:120,1,64.9999970245363,8|0,0:0|0:0,0:0:0:0:
215,256,265679,1,0,0:0:0:0:
215,256,265762,1,0,0:0:0:0:
215,256,265846,2,0,P|173:264|137:255,1,64.9999970245363,8|0,0:0|0:0,0:0:0:0:
298,287,266012,1,0,0:0:0:0:
298,287,266096,1,0,0:0:0:0:
298,287,266179,2,0,P|275:322|243:341,1,64.9999970245363,8|0,0:0|0:0,0:0:0:0:
425,231,266346,22,0,B|431:178|431:178|419:135|419:135|425:69,1,150.000005722046,4|8,0:0|0:0,0:0:0:0:
252,51,266679,1,0,0:0:0:0:
252,51,266762,1,0,0:0:0:0:
252,51,266846,1,8,0:0:0:0:
298,287,267012,2,0,B|196:297|196:297|142:280,1,150.000005722046,4|8,0:0|0:0,0:0:0:0:
112,42,267346,1,0,0:0:0:0:
57,227,267512,1,8,0:0:0:0:
245,183,267679,6,0,P|278:176|314:140,1,64.9999970245363
309,72,267846,2,0,P|342:79|378:115,1,64.9999970245363,8|0,0:3|0:0,0:0:0:0:
382,180,268012,1,0,0:0:0:0:
378,212,268096,1,0,0:0:0:0:
375,244,268179,1,0,0:0:0:0:
371,276,268262,1,0,0:0:0:0:
368,309,268346,5,8,0:3:0:0:
341,290,268429,1,0,0:0:0:0:
310,282,268512,1,0,0:0:0:0:
278,285,268596,1,0,0:0:0:0:
249,300,268679,1,8,0:3:0:0:
200,318,268762,1,0,0:0:0:0:
148,308,268846,1,8,0:3:0:0:
112,269,268929,1,0,0:0:0:0:
102,210,269012,6,0,B|124:162|124:162|213:97,1,150.000005722046,4|10,0:2|0:2,0:2:0:0:
291,116,269262,1,0,0:0:0:0:
291,116,269346,2,0,L|369:128,1,64.9999970245363
430,73,269512,2,0,L|508:61,1,64.9999970245363,10|0,0:2|0:0,0:0:0:0:
466,249,269679,22,0,P|392:275|318:264,1,150.000005722046,0|10,0:0|0:2,0:0:0:0:
234,234,269929,1,0,0:0:0:0:
234,234,270012,2,0,P|230:282|245:315,1,64.9999970245363
353,349,270179,2,0,P|321:355|289:349,1,64.9999970245363,10|0,0:2|0:0,0:0:0:0:
144,269,270346,6,0,P|125:198|143:117,1,150.000005722046,0|10,0:0|0:2,0:0:0:0:
216,62,270596,1,0,0:0:0:0:
216,62,270679,2,0,L|293:52,1,64.9999970245363
417,123,270846,2,0,L|340:133,1,64.9999970245363,10|0,0:2|0:0,0:0:0:0:
263,233,271012,5,0,0:0:0:0:
268,256,271096,1,0,0:0:0:0:
271,283,271179,2,0,P|262:315|234:346,1,64.9999970245363,10|0,0:2|0:0,0:0:0:0:
154,250,271346,1,0,0:0:0:0:
131,242,271429,1,0,0:0:0:0:
106,231,271512,2,0,P|82:207|70:168,1,64.9999970245363,10|0,0:2|0:0,0:0:0:0:
205,135,271679,6,0,B|255:128|255:128|301:141|301:141|353:131,1,150.000005722046,4|10,0:0|0:2,0:0:0:0:
418,58,271929,1,0,0:0:0:0:
418,58,272012,2,0,P|443:93|450:126,1,64.9999970245363
330,270,272179,2,0,P|305:235|298:202,1,64.9999970245363,10|0,0:2|0:0,0:0:0:0:
184,61,272346,2,0,P|133:108|142:181,1,129.999994049073,0|10,0:0|0:2,0:0:0:0:
180,235,272596,1,0,0:0:0:0:
180,235,272679,2,0,P|144:248|103:240,1,64.9999970245363
51,192,272846,2,0,P|33:219|29:251,1,64.9999970245363,10|0,0:2|0:0,0:0:0:0:
184,352,273012,22,0,B|276:336|276:336|350:377,1,150.000005722046,4|10,0:0|0:2,0:0:0:0:
425,369,273262,1,0,0:0:0:0:
425,369,273346,2,0,L|429:293,1,64.9999970245363
316,273,273512,1,10,0:2:0:0:
315,253,273596,1,0,0:0:0:0:
313,233,273679,2,0,L|309:157,1,64.9999970245363
491,42,273846,6,0,B|418:31|418:31|348:60,1,150.000005722046,10|0,0:2|0:0,0:0:0:0:
264,33,274096,1,0,0:0:0:0:
264,33,274179,2,0,P|262:76|277:113,1,64.9999970245363,10|0,0:2|0:0,0:0:0:0:
442,139,274346,2,0,B|467:201|467:201|446:267,1,129.999994049073,4|10,0:0|0:2,0:0:0:0:
373,205,274596,1,0,0:0:0:0:
373,205,274679,2,0,L|268:212,1,64.9999970245363
232,272,274846,1,10,0:2:0:0:
200,278,274929,1,0,0:0:0:0:
168,285,275012,6,0,B|151:238|151:238|153:143,1,129.999994049073,0|10,0:0|0:2,0:0:0:0:
154,72,275262,1,0,0:0:0:0:
154,72,275346,2,0,P|117:80|81:112,1,64.9999970245363
227,117,275512,2,0,P|238:80|228:33,1,64.9999970245363,10|0,0:2|0:0,0:0:0:0:
152,157,275679,2,0,P|183:190|278:186,1,129.999994049073,0|10,0:0|0:2,0:0:0:0:
340,158,275929,1,0,0:0:0:0:
340,158,276012,6,0,L|348:240,1,64.9999970245363
447,305,276179,2,0,L|439:223,1,64.9999970245363,10|0,0:2|0:0,0:0:0:0:
281,295,276346,1,0,0:0:0:0:
249,302,276429,1,0,0:0:0:0:
217,308,276512,22,0,B|181:295|181:295|144:256,1,75.0000028610231,14|0,0:2|0:0,0:0:0:0:
52,130,276679,2,0,L|212:107,1,150.000005722046,4|0,0:0|0:2,0:0:0:0:
379,31,277012,5,4,0:0:0:0:
395,58,277096,1,0,0:0:0:0:
403,90,277179,1,0,0:0:0:0:
402,122,277262,1,0,0:0:0:0:
391,153,277346,1,8,0:3:0:0:
387,185,277429,1,0,0:0:0:0:
401,213,277512,1,0,0:0:0:0:
430,228,277596,1,0,0:0:0:0:
462,224,277679,1,0,0:0:0:0:
485,202,277762,1,0,0:0:0:0:
490,170,277846,1,0,0:0:0:0:
475,142,277929,1,0,0:0:0:0:
446,128,278012,1,8,0:3:0:0:
422,150,278096,1,0,0:0:0:0:
392,162,278179,1,0,0:0:0:0:
360,161,278262,1,0,0:0:0:0:
304,105,278346,5,4,0:3:0:0:
287,133,278429,1,0,0:0:0:0:
282,165,278512,1,0,0:0:0:0:
289,196,278596,1,0,0:0:0:0:
300,226,278679,1,8,0:3:0:0:
297,258,278762,1,0,0:0:0:0:
281,286,278846,1,0,0:0:0:0:
255,305,278929,1,0,0:0:0:0:
223,311,279012,1,0,0:0:0:0:
192,304,279096,1,0,0:0:0:0:
165,285,279179,1,0,0:0:0:0:
148,258,279262,1,0,0:0:0:0:
186,188,279346,6,0,P|119:184|72:235,1,129.999994049073,12|0,0:3|0:0,0:0:0:0:
336,190,279679,1,8,0:3:0:0:
328,151,279762,1,0,0:0:0:0:
320,112,279846,1,0,0:0:0:0:
148,258,280012,1,8,0:3:0:0:
185,270,280096,1,0,0:0:0:0:
223,283,280179,1,0,0:0:0:0:
183,61,280346,1,8,0:3:0:0:
154,87,280429,1,0,0:0:0:0:
123,113,280512,1,0,0:0:0:0:
353,270,280679,2,0,B|439:235|439:235|452:208|452:175,1,150.000005722046,8|0,0:3|0:0,0:0:0:0:
239,275,281012,5,8,0:3:0:0:
288,212,281123,2,0,L|287:163,2,50.0000019073487,8|8|8,0:2|0:2|0:2,0:0:0:0:
192,81,281346,1,8,0:3:0:0:
133,137,281457,2,0,L|135:200,2,50.0000019073487,8|8|8,0:2|0:2|0:2,0:0:0:0:
287,163,281679,1,8,0:3:0:0:
207,161,281790,2,0,L|209:224,2,50.0000019073487,8|8|8,0:2|0:2|0:2,0:0:0:0:
336,110,282012,1,8,0:3:0:0:
357,178,282123,1,0,0:0:0:0:
308,230,282234,1,0,0:0:0:0:
267,95,282346,5,6,0:2:0:0:
378,247,282512,2,0,B|397:283|397:283|394:386,1,129.999994049073,0|2,0:2|0:2,0:0:0:0:
328,299,282846,1,0,0:2:0:0:
461,217,283012,2,0,B|442:181|442:181|445:78,1,129.999994049073,10|0,0:2|0:0,0:0:0:0:
282,141,283346,1,2,0:2:0:0:
249,138,283429,1,0,0:0:0:0:
217,135,283512,1,0,0:0:0:0:
184,133,283596,1,0,0:0:0:0:
152,130,283679,5,2,0:2:0:0:
53,245,283846,2,0,B|86:267|86:267|189:275,1,129.999994049073,0|2,0:0|0:2,0:0:0:0:
40,158,284179,1,0,0:0:0:0:
64,341,284346,2,0,L|206:352,1,129.999994049073,8|0,0:2|0:0,0:0:0:0:
369,287,284679,1,2,0:2:0:0:
378,256,284762,1,0,0:0:0:0:
379,223,284846,2,0,P|369:193|345:164,1,64.9999970245363
267,111,285012,1,6,0:2:0:0:
267,250,285179,1,0,0:0:0:0:
329,35,285346,6,0,P|271:12|190:51,1,129.999994049073,2|0,0:2|0:0,0:0:0:0:
407,99,285679,2,0,B|429:132|429:132|437:235,1,129.999994049073,10|0,0:2|0:0,0:0:0:0:
288,182,286012,2,0,L|210:181,1,64.9999970245363,2|0,0:2|0:0,0:0:0:0:
190,181,286179,1,0,0:0:0:0:
157,181,286262,1,0,0:0:0:0:
124,182,286346,1,2,0:2:0:0:
191,329,286512,1,8,0:2:0:0:
256,111,286679,1,2,0:2:0:0:
284,366,286846,1,0,0:0:0:0:
360,102,287012,6,0,B|354:77|338:53|338:53|286:44|255:9,1,150.000005722046,14|0,0:2|0:0,0:0:0:0:
350,188,287346,2,0,B|374:195|402:193|402:193|437:152|483:143,1,150.000005722046,14|0,0:2|0:0,0:0:0:0:
280,136,287679,21,2,0:2:0:0:
346,281,287846,2,0,B|379:303|379:303|482:311,1,129.999994049073,0|2,0:2|0:2,0:0:0:0:
280,136,288179,1,0,0:0:0:0:
264,294,288346,2,0,B|281:330|281:330|367:388,1,129.999994049073,8|2,0:2|0:2,0:0:0:0:
215,209,288679,1,2,0:2:0:0:
182,209,288762,1,2,0:2:0:0:
150,210,288846,1,0,0:0:0:0:
117,211,288929,1,0,0:0:0:0:
85,212,289012,5,0,0:0:0:0:
175,105,289179,2,0,L|324:102,1,129.999994049073,0|2,0:0|0:2,0:0:0:0:
215,209,289512,1,0,0:0:0:0:
361,37,289679,2,0,B|383:70|383:70|391:173,1,129.999994049073,8|0,0:0|0:0,0:0:0:0:
348,313,290012,1,2,0:2:0:0:
304,102,290179,1,0,0:0:0:0:
112,275,290346,6,0,P|154:333|236:347,1,129.999994049073,4|0,0:0|0:0,0:0:0:0:
141,182,290679,2,0,P|69:189|16:253,1,129.999994049073,0|2,0:0|0:2,0:0:0:0:
207,253,291012,2,0,P|236:187|207:109,1,129.999994049073,8|0,0:0|0:0,0:0:0:0:
99,85,291346,1,0,0:0:0:0:
129,96,291429,1,0,0:0:0:0:
159,107,291512,1,0,0:0:0:0:
190,118,291596,1,0,0:0:0:0:
224,133,291679,5,8,0:3:0:0:
427,88,291846,1,8,0:3:0:0:
427,88,291929,1,8,0:3:0:0:
427,88,292012,1,8,0:3:0:0:
344,294,292179,1,8,0:3:0:0:
445,215,292346,21,0,0:0:0:0:
326,167,292512,1,0,0:0:0:0:
225,247,292679,1,0,0:0:0:0:
243,374,292846,1,0,0:0:0:0:
206,119,293012,5,4,0:0:0:0:
124,326,293179,1,0,0:0:0:0:
138,61,293346,2,0,B|171:38|171:38|274:30,1,129.999994049073,2|0,0:0|0:0,0:0:0:0:
308,32,293596,1,0,0:0:0:0:
308,32,293679,1,8,0:0:0:0:
392,182,293846,1,0,0:0:0:0:
220,179,294012,5,2,0:0:0:0:
219,216,294096,1,0,0:0:0:0:
228,252,294179,1,0,0:0:0:0:
245,286,294262,1,0,0:0:0:0:
270,314,294346,1,8,0:0:0:0:
307,122,294512,5,0,0:0:0:0:
106,140,294679,2,0,B|99:180|99:180|136:276,1,129.999994049073,2|0,0:0|0:0,0:0:0:0:
203,65,295012,1,8,0:0:0:0:
245,286,295179,1,0,0:0:0:0:
412,159,295346,1,2,0:0:0:0:
377,148,295429,1,0,0:0:0:0:
343,138,295512,1,0,0:0:0:0:
309,128,295595,1,0,0:0:0:0:
273,119,295679,22,0,P|283:46|354:3,1,150.000005722046,12|0,0:0|0:0,0:0:0:0:
318,213,296012,2,0,B|234:190|234:190|191:148,1,129.999994049073,2|0,0:0|0:0,0:0:0:0:
377,128,296346,1,8,0:0:0:0:
362,306,296512,1,0,0:0:0:0:
184,289,296679,1,2,0:0:0:0:
189,257,296762,1,0,0:0:0:0:
194,225,296846,1,0,0:0:0:0:
198,193,296929,1,0,0:0:0:0:
203,160,297012,6,0,P|172:95|81:73,1,150.000005722046,8|0,0:0|0:0,0:0:0:0:
57,74,297262,1,0,0:0:0:0:
57,74,297346,1,10,0:0:0:0:
188,257,297512,1,0,0:0:0:0:
300,13,297679,6,0,P|370:48|404:134,1,150.000005722046,4|0,0:0|0:0,0:0:0:0:
363,206,297929,1,0,0:0:0:0:
363,206,298012,2,0,P|377:134|343:67,1,150.000005722046,12|0,0:0|0:0,0:0:0:0:
300,13,298262,1,0,0:0:0:0:
300,13,298346,5,12,0:0:0:0:
262,148,298512,1,0,0:0:0:0:
131,37,298679,2,0,B|104:68|104:68|88:169,1,129.999994049073,2|0,0:0|0:0,0:0:0:0:
223,60,299012,1,8,0:0:0:0:
206,226,299179,1,0,0:0:0:0:
359,158,299346,1,2,0:0:0:0:
373,186,299429,1,0,0:0:0:0:
380,218,299512,1,0,0:0:0:0:
379,250,299596,1,0,0:0:0:0:
368,281,299679,21,8,0:0:0:0:
206,226,299846,1,0,0:0:0:0:
323,85,300012,2,0,B|363:78|363:78|459:115,1,129.999994049073,2|0,0:0|0:0,0:0:0:0:
492,135,300262,1,0,0:0:0:0:
492,135,300346,1,8,0:0:0:0:
233,129,300512,1,0,0:0:0:0:
277,298,300679,5,2,0:0:0:0:
250,316,300762,1,0,0:0:0:0:
219,325,300846,1,0,0:0:0:0:
186,325,300929,1,0,0:0:0:0:
156,315,301012,6,0,L|140:240,1,64.9999970245363,8|0,0:3|0:0,0:0:0:0:
219,192,301179,2,0,L|235:116,1,64.9999970245363
121,95,301346,1,8,0:3:0:0:
121,95,301429,2,0,L|134:158,1,64.9999970245363
314,191,301596,1,0,0:0:0:0:
314,191,301679,2,0,L|330:115,1,64.9999970245363,8|0,0:3|0:0,0:0:0:0:
232,128,301846,2,0,L|219:192,1,64.9999970245363
283,315,302012,5,8,0:3:0:0:
283,315,302096,2,0,L|266:239,1,64.9999970245363
142,251,302262,1,0,0:0:0:0:
142,251,302346,2,0,L|158:326,1,64.9999970245363,8|0,0:3|0:0,0:0:0:0:
232,128,302512,2,0,L|218:64,1,64.9999970245363,8|0,0:3|0:0,0:0:0:0:
327,127,302679,2,0,L|340:190,1,64.9999970245363,8|0,0:3|0:0,0:0:0:0:
436,181,302846,2,0,L|416:242,1,64.9999970245363,8|0,0:3|0:0,0:0:0:0:
503,282,303012,21,0,0:0:0:0:
485,308,303096,1,0,0:0:0:0:
459,328,303179,1,0,0:0:0:0:
428,337,303262,1,0,0:0:0:0:
395,335,303346,5,0,0:0:0:0:
349,311,303429,1,0,0:0:0:0:
297,303,303512,1,0,0:0:0:0:
246,317,303596,1,0,0:0:0:0:
204,348,303679,6,0,P|205:309|188:259,1,64.9999970245363,4|0,0:0|0:0,0:0:0:0:
118,180,303846,2,0,B|166:188|166:188|198:176|198:176|246:180,1,129.999994049073,8|0,0:0|0:0,0:0:0:0:
329,192,304096,1,0,0:0:0:0:
329,192,304179,1,8,0:0:0:0:
157,111,304346,1,0,0:0:0:0:
125,326,304512,1,8,0:0:0:0:
92,326,304596,1,0,0:0:0:0:
62,313,304679,6,0,P|46:288|41:248,1,64.9999970245363
169,206,304846,2,0,P|155:232|123:256,1,64.9999970245363,8|0,0:0|0:0,0:0:0:0:
23,167,305012,2,0,B|35:75|35:75|61:38,1,129.999994049073,0|8,0:0|0:0,0:0:0:0:
293,78,305346,1,0,0:0:0:0:
293,78,305429,1,0,0:0:0:0:
293,78,305512,2,0,B|267:95|232:89|232:89|191:95|171:133,1,129.999994049073,8|0,0:0|0:0,0:0:0:0:
249,300,305846,2,0,B|261:208|261:208|245:165,1,129.999994049073,8|0,0:0|0:0,0:0:0:0:
472,374,306179,21,8,0:0:0:0:
472,374,306346,2,0,B|428:373|428:373|412:369|412:369|396:373|396:373|340:373,1,129.999994049073,0|8,0:0|0:0,0:0:0:0:
249,300,306679,2,0,L|389:300,1,129.999994049073,0|8,0:0|0:0,0:0:0:0:
412,300,306929,1,0,0:0:0:0:
412,300,307012,1,0,0:0:0:0:
201,208,307179,2,0,P|150:269|149:329,1,129.999994049073,8|0,0:0|0:0,0:0:0:0:
313,206,307512,1,8,0:0:0:0:
313,206,307679,6,0,P|285:131|234:100,1,129.999994049073,0|8,0:0|0:0,0:0:0:0:
215,92,307929,1,0,0:0:0:0:
215,92,308012,1,0,0:0:0:0:
201,208,308179,1,8,0:0:0:0:
341,61,308346,1,0,0:0:0:0:
341,61,308429,1,0,0:0:0:0:
341,61,308512,2,0,L|330:190,1,129.999994049073,8|0,0:0|0:0,0:0:0:0:
497,63,308846,1,8,0:0:0:0:
260,147,309012,6,0,B|255:201|255:201|265:239|265:239|260:298,1,150.000005722046,4|8,0:0|0:0,0:0:0:0:
252,370,309262,1,0,0:0:0:0:
252,370,309346,1,0,0:0:0:0:
331,191,309512,1,8,0:0:0:0:
190,247,309679,1,0,0:0:0:0:
180,80,309846,2,0,P|96:105|57:161,1,129.999994049073,8|0,0:0|0:0,0:0:0:0:
55,185,310096,1,0,0:0:0:0:
55,185,310179,1,8,0:0:0:0:
254,164,310346,6,0,B|266:72|266:72|250:21,1,129.999994049073,0|8,0:0|0:0,0:0:0:0:
240,6,310596,1,0,0:0:0:0:
240,6,310679,1,0,0:0:0:0:
158,226,310846,1,8,0:0:0:0:
386,166,311012,2,0,P|445:205|458:260,1,129.999994049073,0|8,0:0|0:0,0:0:0:0:
447,304,311262,1,0,0:0:0:0:
447,304,311346,2,0,L|366:297,1,64.9999970245363
323,346,311512,2,0,L|242:353,1,64.9999970245363,8|0,0:0|0:0,0:0:0:0:
127,275,311679,22,0,B|115:183|115:183|131:132,1,129.999994049073,4|8,0:0|0:0,0:0:0:0:
144,105,311929,1,0,0:0:0:0:
144,105,312012,1,0,0:0:0:0:
14,137,312179,1,8,0:0:0:0:
237,202,312346,1,0,0:0:0:0:
279,185,312429,1,0,0:0:0:0:
306,149,312512,2,0,P|308:75|275:25,1,129.999994049073,8|0,0:0|0:0,0:0:0:0:
216,288,312846,5,8,0:0:0:0:
472,214,313012,2,0,L|416:360,1,129.999994049073,4|8,0:0|0:0,0:0:0:0:
360,345,313262,1,0,0:0:0:0:
360,345,313346,1,0,0:0:0:0:
344,339,313429,1,0,0:0:0:0:
328,338,313512,1,0,0:0:0:0:
312,340,313596,1,0,0:0:0:0:
297,345,313679,5,8,0:3:0:0:
275,320,313762,1,0,0:0:0:0:
262,291,313846,1,0,0:0:0:0:
258,258,313929,1,0,0:0:0:0:
263,226,314012,1,8,0:2:0:0:
268,163,314096,1,0,0:0:0:0:
238,106,314179,1,0,0:0:0:0:
182,75,314262,1,0,0:0:0:0:
118,80,314346,6,0,P|89:108|82:175,1,75.0000028610231,12|0,0:3|0:0,0:0:0:0:
144,309,314512,1,0,0:0:0:0:
166,306,314596,1,0,0:0:0:0:
188,302,314679,2,0,L|268:290,1,75.0000028610231,8|0,0:3|0:0,0:0:0:0:
322,168,314846,1,0,0:0:0:0:
344,171,314929,1,0,0:0:0:0:
366,175,315012,2,0,L|446:187,1,75.0000028610231,8|0,0:3|0:0,0:0:0:0:
490,355,315179,1,0,0:0:0:0:
468,352,315262,1,0,0:0:0:0:
446,348,315346,2,0,P|414:334|386:303,1,75.0000028610231,8|0,0:3|0:0,0:0:0:0:
366,103,315512,21,0,0:0:0:0:
320,76,315596,1,0,0:0:0:0:
267,76,315679,2,0,P|229:91|205:127,1,75.0000028610231,8|0,0:3|0:0,0:0:0:0:
406,206,315846,1,0,0:0:0:0:
452,179,315929,1,0,0:0:0:0:
478,133,316012,2,0,P|484:92|464:53,1,75.0000028610231,8|0,0:3|0:0,0:0:0:0:
296,189,316179,1,0,0:0:0:0:
297,242,316262,1,0,0:0:0:0:
324,286,316346,2,0,P|355:311|399:314,1,75.0000028610231,8|0,0:3|0:0,0:0:0:0:
366,103,316512,1,0,0:0:0:0:
320,76,316596,1,0,0:0:0:0:
267,76,316679,2,0,P|229:91|205:127,1,75.0000028610231,8|0,0:3|0:0,0:0:0:0:
119,243,316846,2,0,P|157:228|181:192,1,75.0000028610231
36,64,317012,6,0,B|22:100|36:132|36:132|28:144|28:144|45:176|32:212,1,150.000005722046,4|0,0:3|0:0,0:0:0:0:
33,207,317262,1,0,0:0:0:0:
33,207,317346,1,8,0:3:0:0:
114,94,317512,1,0,0:0:0:0:
91,334,317679,1,8,0:3:0:0:
91,334,317762,1,0,0:0:0:0:
91,334,317846,2,0,B|192:322|192:322|266:341,1,150.000005722046,0|8,0:0|0:3,0:0:0:0:
155,172,318179,1,0,0:0:0:0:
373,135,318346,6,0,P|392:215|360:274,1,150.000005722046,12|0,0:3|0:0,0:0:0:0:
361,272,318596,1,0,0:0:0:0:
361,272,318679,1,8,0:3:0:0:
292,54,318846,1,0,0:0:0:0:
324,35,318929,1,0,0:0:0:0:
360,29,319012,2,0,B|432:51|432:51|475:115,1,150.000005722046,12|0,0:3|0:0,0:0:0:0:
486,212,319262,1,0,0:0:0:0:
486,212,319346,2,0,P|406:188|371:131,1,150.000005722046,8|0,0:3|0:0,0:0:0:0:
372,134,319596,1,0,0:0:0:0:
372,134,319679,1,8,0:3:0:0:
322,281,319846,6,0,L|173:285,1,139.999995727539,0|8,0:0|0:3,0:0:0:0:
146,286,320096,1,0,0:0:0:0:
146,286,320179,1,0,0:0:0:0:
215,38,320346,1,8,0:3:0:0:
259,173,320512,2,0,P|185:178|119:139,1,139.999995727539,0|8,0:0|0:3,0:0:0:0:
108,118,320762,1,0,0:0:0:0:
108,118,320846,1,0,0:0:0:0:
392,57,321012,22,0,L|406:219,1,150.000005722046,12|0,0:3|0:0,0:0:0:0:
427,311,321262,1,0,0:0:0:0:
427,311,321346,2,0,L|279:242,1,150.000005722046,8|0,0:3|0:0,0:0:0:0:
189,214,321596,1,0,0:0:0:0:
189,214,321679,6,0,B|265:151|265:151|364:151,2,194.999991073609,12|0|0,0:3|0:0|0:0,0:0:0:0:
335,78,322346,2,0,L|245:79,3,64.9999970245363,12|0|0|0,0:3|0:0|0:0|0:0,0:0:0:0:
413,61,322679,2,0,L|370:-9,3,64.9999970245363
469,114,323012,6,0,P|487:83|484:33,3,64.9999970245363,12|0|0|0,0:3|0:0|0:0|0:0,0:0:0:0:
451,188,323346,2,0,P|486:188|528:160,3,64.9999970245363
395,136,323679,5,12,0:3:0:0:
378,163,323762,1,0,0:0:0:0:
374,195,323846,1,0,0:0:0:0:
383,226,323929,1,0,0:0:0:0:
405,250,324012,1,0,0:0:0:0:
389,221,324096,1,0,0:0:0:0:
363,202,324179,1,0,0:0:0:0:
332,195,324262,1,0,0:0:0:0:
300,201,324346,21,0,0:0:0:0:
236,194,324429,1,0,0:3:0:0:
191,149,324512,1,0,0:0:0:0:
186,86,324596,1,0,0:0:0:0:
222,33,324679,1,0,0:0:0:0:
235,77,324762,1,0,0:0:0:0:
223,120,324846,1,0,0:0:0:0:
191,149,324929,1,0,0:0:0:0:
147,158,325012,6,0,P|83:192|61:271,2,129.999994049073,2|0|0,0:0|0:0|0:0,0:0:0:0:
359,157,325512,1,2,0:0:0:0:
285,292,325679,2,0,L|160:259,1,129.999994049073,0|0,0:3|0:0,0:0:0:0:
377,146,326012,1,2,0:0:0:0:
303,281,326179,2,0,L|177:247,1,129.999994049073,0|0,0:3|0:0,0:0:0:0:
425,268,326512,1,2,0:0:0:0:
278,353,326679,1,0,0:0:0:0:
279,183,326845,5,8,0:2:0:0:
277,170,326901,5,8,0:2:0:0:
275,157,326957,21,8,0:2:0:0:
273,144,327012,6,0,P|208:111|117:140,1,139.999995727539,8|0,0:3|0:0,0:0:0:0:
109,324,327346,2,0,P|170:284|190:190,1,139.999995727539,8|0,0:3|0:0,0:0:0:0:
40,102,327679,5,0,0:0:0:0:
63,91,327762,1,0,0:0:0:0:
87,87,327846,1,0,0:0:0:0:
112,92,327929,1,0,0:0:0:0:
134,103,328012,1,8,0:3:0:0:
146,124,328096,1,0,0:0:0:0:
151,148,328179,1,0,0:0:0:0:
149,173,328262,1,0,0:0:0:0:
140,196,328346,1,0,0:0:0:0:
127,218,328429,1,0,0:0:0:0:
117,241,328512,1,0,0:0:0:0:
115,265,328596,1,0,0:0:0:0:
121,290,328679,1,8,0:3:0:0:
132,312,328762,1,0,0:0:0:0:
149,330,328846,1,0,0:0:0:0:
170,343,328929,1,0,0:0:0:0:
194,350,329012,1,0,0:0:0:0:
219,350,329096,1,0,0:0:0:0:
243,344,329179,1,0,0:0:0:0:
264,331,329262,1,0,0:0:0:0:
281,313,329346,1,8,0:3:0:0:
297,293,329429,1,0,0:0:0:0:
318,280,329512,1,0,0:0:0:0:
342,274,329596,1,0,0:0:0:0:
402,278,329679,6,0,P|434:208|411:135,1,150.000005722046,12|8,0:3|0:3,0:0:0:0:
320,40,329929,1,8,0:3:0:0:
320,40,330012,2,0,L|233:18,1,75.0000028610231,8|8,0:3|0:3,0:0:0:0:
245,261,330179,2,0,L|332:283,1,75.0000028610231,8|8,0:3|0:3,0:0:0:0:
198,141,330345,21,6,0:0:0:0:
415,140,330512,1,0,0:0:0:0:
110,76,330679,2,0,L|97:250,1,150.000005722046,8|0,0:3|0:0,0:0:0:0:
96,263,330929,1,0,0:0:0:0:
94,300,331012,1,2,0:0:0:0:
299,242,331179,1,0,0:0:0:0:
281,44,331346,1,8,0:3:0:0:
249,22,331429,1,0,0:0:0:0:
217,0,331512,1,0,0:0:0:0:
189,245,331679,6,0,P|223:325|289:354,1,150.000005722046,2|0,0:0|0:0,0:0:0:0:
313,357,331929,1,0,0:0:0:0:
349,348,332012,1,8,0:3:0:0:
243,146,332179,1,0,0:0:0:0:
85,206,332346,1,2,0:0:0:0:
301,242,332512,2,0,B|341:204|341:204|354:166|354:166|397:115,2,150.000005722046,0|8|0,0:0|0:3|0:0,0:0:0:0:
152,28,333012,1,4,0:0:0:0:
286,54,333179,1,0,0:0:0:0:
79,149,333346,6,0,P|59:234|89:312,1,150.000005722046,8|0,0:3|0:0,0:0:0:0:
99,321,333596,1,0,0:0:0:0:
130,341,333679,1,2,0:0:0:0:
294,228,333846,1,0,0:0:0:0:
323,60,334012,1,8,0:3:0:0:
286,54,334096,1,0,0:0:0:0:
249,48,334179,1,0,0:0:0:0:
215,282,334345,6,0,P|235:315|279:342,1,75.0000028610231,4|0,0:0|0:0,0:0:0:0:
284,175,334512,1,0,0:0:0:0:
254,151,334596,1,0,0:0:0:0:
217,147,334679,2,0,P|178:147|133:172,1,75.0000028610231,8|0,0:3|0:0,0:0:0:0:
15,268,334846,2,0,P|53:267|98:242,1,75.0000028610231,8|0,0:3|0:0,0:0:0:0:
29,165,335012,21,8,0:2:0:0:
25,155,335068,5,8,0:2:0:0:
21,145,335123,5,8,0:2:0:0:
17,135,335179,6,0,B|71:120|71:120|92:97|92:97|165:78,1,150.000005722046,12|0,0:3|0:0,0:0:0:0:
427,80,335512,1,8,0:3:0:0:
219,4,335679,21,6,0:0:0:0:
219,4,335762,1,0,0:0:0:0:
219,4,335846,1,0,0:0:0:0:
223,233,336012,2,0,P|303:258|385:220,1,150.000005722046,8|0,0:3|0:0,0:0:0:0:
392,213,336262,1,0,0:0:0:0:
408,179,336346,1,2,0:0:0:0:
187,127,336512,1,0,0:0:0:0:
151,338,336679,1,8,0:3:0:0:
188,340,336762,1,0,0:0:0:0:
225,342,336846,1,0,0:0:0:0:
296,148,337012,6,0,P|277:66|203:14,1,150.000005722046,2|0,0:0|0:0,0:0:0:0:
193,12,337262,1,0,0:0:0:0:
155,19,337345,1,8,0:3:0:0:
223,233,337512,1,0,0:0:0:0:
376,232,337679,1,2,0:0:0:0:
187,127,337845,2,0,B|139:213|139:213|145:276,2,150.000005722046,0|8|0,0:0|0:3|0:0,0:0:0:0:
390,105,338346,1,4,0:0:0:0:
390,105,338429,1,0,0:0:0:0:
390,105,338512,1,0,0:0:0:0:
128,31,338679,6,0,P|47:52|16:118,1,150.000005722046,8|0,0:3|0:0,0:0:0:0:
14,144,338929,1,0,0:0:0:0:
21,180,339012,1,2,0:0:0:0:
88,347,339179,1,0,0:0:0:0:
172,177,339345,1,8,0:3:0:0:
134,174,339428,1,0,0:0:0:0:
96,170,339512,1,0,0:0:0:0:
283,32,339679,6,0,L|249:196,1,150.000005722046,2|0,0:0|0:0,0:0:0:0:
243,215,339929,1,0,0:0:0:0:
235,251,340012,1,8,0:3:0:0:
462,187,340179,2,0,P|403:127|330:133,1,150.000005722046,0|2,0:0|0:0,0:0:0:0:
211,341,340512,22,0,B|274:347|340:309|340:309|393:297|430:324,1,225.000008583069,8|0,0:3|0:0,0:0:0:0:
458,355,340845,1,8,0:3:0:0:
374,217,341012,5,6,0:0:0:0:
306,361,341179,1,0,0:0:0:0:
290,80,341346,2,0,P|210:61|144:95,1,150.000005722046,8|0,0:3|0:0,0:0:0:0:
122,112,341596,1,0,0:0:0:0:
102,144,341679,1,2,0:0:0:0:
231,229,341846,1,0,0:0:0:0:
351,127,342012,1,8,0:3:0:0:
368,162,342095,1,0,0:0:0:0:
384,197,342179,1,0,0:3:0:0:
213,134,342346,6,0,P|156:193|152:267,1,150.000005722046,2|0,0:0|0:0,0:0:0:0:
158,294,342596,1,0,0:0:0:0:
180,324,342679,1,8,0:3:0:0:
330,139,342846,1,0,0:0:0:0:
212,26,343012,1,2,0:0:0:0:
267,239,343179,1,0,0:0:0:0:
30,197,343346,2,0,L|96:58,1,150.000005722046,8|0,0:3|0:0,0:0:0:0:
238,197,343679,5,10,0:3:0:0:
267,239,343762,1,0,0:0:0:0:
267,290,343846,1,0,0:0:0:0:
237,332,343929,1,0,0:0:0:0:
189,349,344012,1,10,0:3:0:0:
160,307,344096,1,0,0:0:0:0:
160,256,344179,1,0,0:0:0:0:
190,214,344262,1,0,0:0:0:0:
238,197,344346,22,0,P|280:204|314:231,1,75.0000028610231,10|0,0:3|0:0,0:0:0:0:
511,280,344512,2,0,P|469:273|435:246,1,75.0000028610231,10|0,0:3|0:0,0:0:0:0:
419,101,344679,2,0,P|412:143|385:177,1,75.0000028610231,10|0,0:3|0:0,0:0:0:0:
334,378,344846,2,0,P|341:336|368:302,1,75.0000028610231,10|0,0:3|0:0,0:0:0:0:
235,100,345012,1,8,0:3:0:0:
198,92,345096,1,0,0:0:0:0:
161,85,345179,1,0,0:0:0:0:
124,77,345262,1,0,0:0:0:0:
86,74,345345,5,10,0:3:0:0:
99,110,345429,1,0,0:0:0:0:
111,145,345512,1,0,0:0:0:0:
123,181,345596,1,0,0:0:0:0:
137,215,345679,5,8,0:3:0:0:
161,186,345762,1,0,0:0:0:0:
186,158,345846,1,0,0:0:0:0:
211,130,345929,1,0,0:0:0:0:
235,100,346012,5,10,0:3:0:0:
172,62,346096,1,8,0:3:0:0:
102,83,346179,1,8,0:3:0:0:
68,147,346262,1,8,0:3:0:0:
93,217,346345,6,0,B|142:200|142:200|205:203,1,100.000003814697,4|0,0:0|0:0,0:0:0:0:
347,136,346567,2,0,B|299:139|299:139|250:122,1,100,0|0,0:3|0:0,0:0:0:0:
213,33,346789,1,0,0:3:0:0:
309,45,346900,1,0,0:0:0:0:
288,216,347011,2,0,B|337:233|337:233|400:230,1,100.000003814697,8|0,0:3|0:0,0:0:0:0:
347,136,347233,1,0,0:0:0:0:
250,122,347345,1,0,0:0:0:0:
190,202,347456,1,0,0:0:0:0:
288,216,347567,1,0,0:0:0:0:
153,112,347678,6,0,B|113:145|113:145|84:201,1,100.000003814697,8|0,0:3|0:0,0:0:0:0:
130,281,347900,1,0,0:0:0:0:
225,290,348011,1,0,0:0:0:0:
250,122,348122,2,0,P|240:66|199:23,1,100.000003814697,4|0,0:0|0:0,0:0:0:0:
190,202,348345,2,0,P|199:257|240:300,1,100.000003814697,4|0,0:0|0:0,0:0:0:0:
388,232,348567,5,8,0:3:0:0:
370,133,348678,1,8,0:3:0:0:
288,216,348789,1,8,0:2:0:0:
342,318,348900,1,8,0:2:0:0:
455,298,349011,1,8,0:3:0:0:
470,184,349122,1,0,0:0:0:0:
419,83,349233,1,0,0:0:0:0:
318,31,349345,1,8,0:2:0:0:
288,216,349456,38,0,B|238:198|238:198|176:202,1,100.000003814697,4|0,0:0|0:0,0:0:0:0:
93,188,349678,1,0,0:0:0:0:
54,96,349789,1,0,0:0:0:0:
114,17,349900,1,8,0:3:0:0:
212,29,350011,1,0,0:0:0:0:
93,188,350122,6,0,B|102:238|102:238|136:291,1,100.000003814697
227,291,350344,1,0,0:0:0:0:
285,211,350456,1,0,0:0:0:0:
244,120,350567,1,0,0:0:0:0:
144,110,350678,1,0,0:0:0:0:
227,291,350789,2,0,B|276:308|276:308|339:305,1,100.000003814697,8|0,0:3|0:0,0:0:0:0:
387,225,351011,1,0,0:0:0:0:
347,129,351122,1,0,0:0:0:0:
427,321,351233,54,0,P|468:291|490:226,1,100.000003814697,8|0,0:3|0:0,0:0:0:0:
454,157,351456,1,0,0:0:0:0:
285,211,351567,2,0,L|186:196,1,100.000003814697,8|0,0:3|0:0,0:0:0:0:
144,110,351789,1,0,0:0:0:0:
227,291,351900,2,0,L|328:306,1,100.000003814697,8|0,0:3|0:0,0:0:0:0:
387,222,352122,1,0,0:0:0:0:
186,196,352233,6,0,L|122:275,1,100.000003814697,8|0,0:3|0:0,0:0:0:0:
227,291,352456,1,0,0:0:0:0:
248,113,352567,2,0,L|146:98,1,100.000003814697,8|0,0:3|0:0,0:0:0:0:
186,196,352789,1,8,0:3:0:0:
288,206,352900,1,0,0:0:0:0:
208,20,353011,5,4,0:0:0:0:
