osu file format v14

[General]
AudioFilename: audio.mp3
AudioLeadIn: 0
PreviewTime: 115845
Countdown: 0
SampleSet: None
StackLeniency: 0.2
Mode: 0
LetterboxInBreaks: 0
WidescreenStoryboard: 1

[Editor]
Bookmarks: 26205,37634,62123,91511,104572,168246,196817,232735,302171,311966
DistanceSpacing: 1.5
BeatDivisor: 4
GridSize: 4
TimelineZoom: 1.7

[Metadata]
Title:Youma Yakou ~ Deterministic Chaos
TitleUnicode:妖魔夜行 ~ Deterministic Chaos
Artist:Demetori
ArtistUnicode:Demetori
Creator:GoldenWolf
Version:woof
Source:東方紅魔郷 ~ the Embodiment of Scarlet Devil.
Tags:Touhou Koumakyou th 06 Stage 1 Boss Rumia C92 ZUN woof
BeatmapID:1400470
BeatmapSetID:661510

[Difficulty]
HPDrainRate:8
CircleSize:4
OverallDifficulty:9
ApproachRate:9.5
SliderMultiplier:0.999999999999999
SliderTickRate:1

[Events]
//Background and Video events
0,0,"orz188.jpg",0,0
//Break Periods
//Storyboard Layer 0 (Background)
//Storyboard Layer 1 (Fail)
//Storyboard Layer 2 (Pass)
//Storyboard Layer 3 (Foreground)
//Storyboard Sound Samples

[TimingPoints]
131,408.163265306122,4,3,2,85,1,0
131,-33.3333333333333,4,3,2,85,0,0
233,-33.3333333333333,4,3,1,70,0,0
539,-100,4,3,1,70,0,0
1559,-100,4,3,4,70,0,0
1763,-100,4,3,1,70,0,0
3396,-33.3333333333333,4,3,1,70,0,0
3804,-100,4,3,1,70,0,0
5028,-100,4,3,4,70,0,0
5130,-100,4,3,1,70,0,0
6151,-100,4,3,1,40,0,0
6253,-200,4,3,1,70,0,0
6661,-33.3333333333333,4,3,4,70,0,0
7069,-100,4,3,1,70,0,0
8090,-100,4,3,4,70,0,0
8294,-100,4,3,1,70,0,0
9110,-100,4,3,4,70,0,0
9518,-100,4,3,4,70,0,0
9926,-100,4,3,4,85,0,0
10130,-100,4,3,12,85,0,0
10335,-100,4,3,11,85,0,0
10539,-100,4,3,4,85,0,0
10743,-200,4,3,3,70,0,0
11049,-50,4,3,2,70,0,0
11355,-66.6666666666667,4,3,1,70,0,0
11559,-100,4,3,4,70,0,0
11763,-100,4,3,1,70,0,0
12069,-100,4,3,4,70,0,0
12171,-100,4,3,1,35,0,0
12239,-100,4,3,1,45,0,0
12307,-100,4,3,1,55,0,0
12375,-100,4,3,1,85,0,0
12477,-100,4,3,12,85,0,0
12784,-100,4,3,11,85,0,0
12988,-100,4,3,10,85,0,0
13192,-33.3333333333333,4,3,1,85,0,0
13294,-33.3333333333333,4,3,1,70,0,0
13600,-100,4,3,1,70,0,0
14620,-100,4,3,2,70,0,0
14824,-100,4,3,4,70,0,0
14926,-100,4,3,1,70,0,0
16457,-33.3333333333333,4,3,2,70,0,0
16865,-100,4,3,1,70,0,0
17886,-100,4,3,4,70,0,0
18090,-100,4,3,2,70,0,0
18192,-100,4,3,1,70,0,0
19314,-100,4,3,1,85,0,0
19416,-100,4,3,1,70,0,0
19518,-100,4,3,1,85,0,0
19620,-100,4,3,1,55,0,0
19722,-33.3333333333333,4,3,3,70,0,0
20130,-100,4,3,1,70,0,0
21151,-100,4,3,2,70,0,0
21355,-100,4,3,4,70,0,0
21457,-100,4,3,1,70,0,0
22988,-100,4,3,1,85,0,0
23056,-100,4,3,12,85,0,0
23192,-100,4,3,11,85,0,0
23498,-100,4,3,10,85,0,0
23600,-100,4,3,1,70,0,0
23804,-200,4,3,2,70,0,0
24110,-50,4,3,3,70,0,0
24416,-66.6666666666667,4,3,4,70,0,0
24620,-66.6666666666667,4,3,2,70,0,0
24824,-66.6666666666667,4,3,1,70,0,0
25437,-66.6666666666667,4,3,1,85,0,0
25743,-66.6666666666667,4,3,11,100,0,0
25845,-66.6666666666667,4,3,11,85,0,0
26049,-66.6666666666667,4,3,10,70,0,0
26253,-100,4,3,4,55,0,0
26457,-100,4,3,2,70,0,0
29110,-100,4,3,4,70,0,0
29416,-100,4,3,4,40,0,0
29518,-100,4,3,2,70,0,0
32171,-100,4,3,12,70,0,0
32579,-100,4,3,11,70,0,0
32784,-100,4,3,4,70,0,0
32886,-100,4,3,2,70,0,0
35641,-100,4,3,4,70,0,0
35947,-100,4,3,4,40,0,0
36049,-100,4,3,1,70,0,0
37682,-66.6666666666667,4,3,1,85,0,0
38566,-66.6666666666667,4,3,12,85,0,0
38634,-66.6666666666667,4,3,11,85,0,0
38702,-66.6666666666667,4,3,10,85,0,0
38906,-66.6666666666667,4,3,1,85,0,0
39314,-50,4,3,1,100,0,1
39416,-50,4,3,1,70,0,1
45845,-50,4,3,2,85,0,1
45947,-50,4,3,1,70,0,1
49110,-50,4,3,2,70,0,1
49212,-50,4,3,1,70,0,1
50743,-50,4,3,2,70,0,1
51763,-50,4,3,3,70,0,1
51967,-50,4,3,3,85,0,1
52069,-50,4,3,3,70,0,1
52171,-50,4,3,3,85,0,1
52273,-50,4,3,3,70,0,1
52375,-50,4,3,2,85,0,1
52477,-50,4,3,1,70,0,1
58294,-50,4,3,3,70,0,1
58702,-50,4,3,4,70,0,1
58906,-50,4,3,2,85,0,1
59008,-50,4,3,1,70,0,1
65437,-100,4,3,1,100,0,0
117682,-100,4,3,1,100,0,1
143804,-100,4,3,1,100,0,0
170743,408.163265306122,4,3,1,100,1,0
209926,-100,4,3,1,100,0,1
236049,-100,4,3,1,100,0,0
249518,408.163265306122,4,3,1,100,1,1
275640,-100,4,3,1,100,0,0

[Colours]
Combo1 : 138,138,138
Combo2 : 243,54,54
Combo3 : 54,139,243
Combo4 : 242,196,55
Combo5 : 242,55,196
Combo6 : 223,223,223

[HitObjects]
236,84,131,6,0,P|244:120|232:156,1,75.000002861023,4|0,0:0|0:0,0:0:0:0:
296,204,335,2,0,P|268:228|231:236,1,75.000002861023
225,313,539,6,0,L|172:316,1,50,2|0,0:0|0:0,0:0:0:0:
304,196,845,1,0,0:0:0:0:
368,248,947,2,0,L|404:244,1,25,10|0,0:0|2:0,0:0:0:0:
228,76,1151,2,0,L|175:79,1,50,0|2,0:0|0:0,0:0:0:0:
340,124,1457,1,0,0:0:0:0:
408,28,1559,6,0,L|404:80,1,50,2|0,0:0|0:0,0:0:0:0:
468,268,1865,2,0,L|472:216,1,50,0|0,0:0|2:0,0:0:0:0:
392,344,2171,1,2,0:0:0:0:
488,256,2273,2,0,L|492:204,1,50
364,236,2579,6,0,B|360:212|360:212|368:188,1,50,10|0,0:0|0:0,0:0:0:0:
280,316,2886,2,0,L|284:368,1,50,2|0,0:0|0:0,0:0:0:0:
376,172,3192,2,0,L|373:139,1,25,0|0,0:0|2:0,0:0:0:0:
496,84,3396,38,0,P|464:96|424:88,1,75.000002861023,4|0,0:0|0:0,0:0:0:0:
288,32,3600,2,0,P|251:24|216:36,1,75.000002861023
108,144,3804,6,0,L|56:136,1,50,2|0,0:0|0:0,0:0:0:0:
176,228,4110,1,0,0:0:0:0:
244,144,4212,2,0,L|268:140,1,25,10|0,0:0|2:0,0:0:0:0:
188,312,4416,2,0,L|136:304,1,50,0|2,0:0|0:0,0:0:0:0:
292,236,4722,1,0,0:0:0:0:
343,351,4824,6,0,L|395:343,1,50,2|4,0:0|0:0,0:0:0:0:
412,192,5130,2,0,B|384:188|384:188|364:196,1,50,8|0,0:0|0:0,0:0:0:0:
144,292,5437,5,2,0:0:0:0:
224,304,5539,2,0,L|276:312,1,50,8|0,0:0|0:0,0:0:0:0:
92,224,5845,2,0,L|40:216,1,50,8|0,0:0|0:0,0:0:0:0:
196,8,6151,1,8,2:3:0:0:
204,82,6253,6,0,L|207:119,1,37.5,8|0,0:0|0:0,0:0:0:0:
164,188,6661,22,0,P|184:200|236:196,1,75.000002861023
436,160,6865,2,0,P|416:148|364:152,1,75.000002861023
300,308,7069,6,0,L|296:256,1,50,2|0,0:0|0:0,0:0:0:0:
392,224,7375,1,0,0:0:0:0:
234,197,7477,2,0,L|232:167,1,25,10|0,2:3|2:0,0:0:0:0:
352,72,7682,2,0,L|300:76,1,50,0|2,0:0|0:0,0:0:0:0:
200,28,7988,1,0,0:0:0:0:
120,124,8090,6,0,L|172:120,1,50,4|2,0:0|0:0,0:0:0:0:
296,258,8396,2,0,L|348:254,1,50
180,132,8702,1,2,0:0:0:0:
352,72,8804,2,0,L|404:68,1,50
376,332,9110,6,0,B|348:336|348:336|324:328,1,50,10|0,0:0|0:0,0:0:0:0:
283,192,9382,1,0,0:0:0:0:
291,200,9450,1,0,0:0:0:0:
299,208,9518,2,0,L|295:260,1,50,12|0,0:0|0:0,0:0:0:0:
112,328,9926,37,8,0:0:0:0:
110,319,9994,1,0,0:0:0:0:
108,310,10062,1,0,0:0:0:0:
128,272,10130,1,8,0:0:0:0:
126,263,10198,1,0,0:0:0:0:
124,254,10266,1,0,0:0:0:0:
84,236,10335,1,8,0:0:0:0:
82,227,10403,1,0,0:0:0:0:
80,218,10471,1,0,0:0:0:0:
96,176,10539,5,8,0:0:0:0:
192,184,10641,1,8,0:0:0:0:
288,192,10743,38,0,L|314:195,1,25,4|0,0:0|2:0,0:0:0:0:
199,347,11049,54,0,B|151:359|151:359|111:327,1,99.9999999999999,4|0,0:0|2:0,0:0:0:0:
372,252,11355,2,0,L|408:244,1,37.5000014305115,4|0,0:0|2:0,0:0:0:0:
176,100,11559,6,0,L|124:96,1,50,2|2,0:0|0:0,0:0:0:0:
188,116,11865,1,2,0:0:0:0:
276,108,11967,1,8,0:0:0:0:
364,100,12069,38,0,L|400:96,1,25,2|8,0:0|2:3,0:0:0:0:
464,144,12239,1,8,2:3:0:0:
468,152,12307,1,8,2:3:0:0:
472,160,12375,5,8,0:0:0:0:
408,224,12477,1,8,0:0:0:0:
320,204,12579,1,0,0:0:0:0:
248,260,12682,5,4,0:0:0:0:
176,224,12784,1,8,0:0:0:0:
96,232,12886,1,4,0:0:0:0:
32,184,12988,5,8,0:0:0:0:
40,112,13090,1,4,0:0:0:0:
105,72,13192,38,0,P|117:104|109:144,1,75.000002861023,4|0,0:0|0:0,0:0:0:0:
24,340,13396,2,0,P|12:308|20:268,1,75.000002861023
192,144,13600,6,0,L|244:136,1,50,2|0,0:0|0:0,0:0:0:0:
356,212,13906,1,0,0:0:0:0:
436,100,14008,2,0,L|438:76,1,25,10|0,0:0|2:0,0:0:0:0:
352,204,14212,2,0,L|360:256,1,50,0|2,0:0|0:0,0:0:0:0:
244,128,14518,1,0,0:0:0:0:
324,24,14620,6,0,B|350:21|350:21|372:28,1,50,4|2,0:0|0:0,0:0:0:0:
241,136,14926,2,0,L|189:132,1,50
343,97,15233,1,2,0:0:0:0:
220,156,15335,2,0,L|168:152,1,50
360,253,15641,6,0,B|384:245|384:245|408:249,1,50,10|0,0:0|0:0,0:0:0:0:
200,336,15947,2,0,L|148:340,1,50,2|0,0:0|0:0,0:0:0:0:
298,191,16253,2,0,L|300:159,1,25,0|0,0:0|2:0,0:0:0:0:
252,256,16457,38,0,P|284:272|324:268,1,75.000002861023,4|0,0:0|0:0,0:0:0:0:
170,152,16661,2,0,P|133:148|99:164,1,75.000002861023
36,336,16865,6,0,L|32:284,1,50,2|0,0:0|0:0,0:0:0:0:
148,228,17171,1,0,0:0:0:0:
24,164,17273,2,0,L|27:137,1,25,10|0,0:0|2:0,0:0:0:0:
144,64,17477,2,0,L|92:72,1,50,0|2,0:0|0:0,0:0:0:0:
260,136,17784,1,0,0:0:0:0:
304,8,17886,6,0,L|356:0,1,50,2|4,0:0|0:0,0:0:0:0:
256,148,18192,2,0,L|204:156,1,50,8|0,0:0|0:0,0:0:0:0:
340,80,18498,1,2,0:0:0:0:
392,180,18600,6,0,L|388:232,1,50,8|0,0:0|0:0,0:0:0:0:
256,64,18906,2,0,L|260:12,1,50,10|0,0:0|0:0,0:0:0:0:
156,148,19212,1,0,0:0:0:0:
248,236,19314,5,8,0:0:0:0:
252,237,19416,1,8,0:0:0:0:
256,238,19518,1,8,0:0:0:0:
260,239,19620,1,8,0:0:0:0:
264,240,19722,22,0,P|272:208|256:168,1,75.000002861023,4|0,0:0|0:0,0:0:0:0:
340,8,19926,2,0,P|332:40|348:80,1,75.000002861023
512,136,20130,6,0,L|460:132,1,50,2|0,0:0|0:0,0:0:0:0:
344,188,20437,1,0,0:0:0:0:
260,88,20539,2,0,L|228:86,1,25,10|0,0:0|2:0,0:0:0:0:
352,196,20743,2,0,L|404:192,1,50,0|2,0:0|0:0,0:0:0:0:
268,276,21049,1,0,0:0:0:0:
168,208,21151,6,0,L|116:212,1,50,4|2,0:0|0:0,0:0:0:0:
268,276,21457,2,0,B|294:279|294:279|320:268,1,50
176,216,21763,1,2,0:0:0:0:
300,196,21865,2,0,B|326:193|326:193|352:204,1,50
224,116,22171,6,0,L|216:64,1,50,10|0,0:0|0:0,0:0:0:0:
336,40,22443,1,0,0:0:0:0:
340,48,22511,1,0,0:0:0:0:
344,56,22579,2,0,L|336:108,1,50,12|0,0:0|0:0,0:0:0:0:
237,245,22988,37,8,0:0:0:0:
245,246,23056,1,8,0:0:0:0:
253,247,23124,1,4,0:0:0:0:
285,225,23192,1,8,0:0:0:0:
293,226,23260,1,0,0:0:0:0:
301,227,23328,1,0,0:0:0:0:
329,253,23396,5,4,0:0:0:0:
299,177,23498,1,8,0:0:0:0:
336,105,23600,1,8,0:0:0:0:
416,91,23702,1,8,0:0:0:0:
480,140,23804,38,0,L|484:172,1,25,4|0,0:0|2:0,0:0:0:0:
293,328,24110,54,0,B|341:340|341:340|385:316,1,99.9999999999999,4|0,0:0|2:0,0:0:0:0:
136,224,24416,2,0,L|96:228,1,37.5000014305115,4|0,0:0|2:0,0:0:0:0:
224,212,24620,5,2,0:0:0:0:
228,216,24824,37,0,0:0:0:0:
224,192,24926,1,2,0:0:0:0:
304,160,25028,1,8,0:0:0:0:
298,196,25130,1,2,0:0:0:0:
160,144,25233,1,0,0:0:0:0:
152,96,25335,1,0,0:0:0:0:
248,0,25437,5,8,0:0:0:0:
268,52,25539,1,8,0:0:0:0:
248,104,25641,1,0,0:0:0:0:
192,180,25743,5,8,0:0:0:0:
176,221,25845,1,4,0:0:0:0:
192,263,25947,1,0,0:0:0:0:
256,324,26049,5,8,0:0:0:0:
284,328,26151,1,4,0:0:0:0:
364,340,26253,38,0,P|396:328|436:320,1,74.9999999999999,4|0,0:0|0:0,0:0:0:0:
435,320,26661,2,0,P|440:292|448:272,1,50,2|0,2:3|0:0,0:0:0:0:
392,184,27069,6,0,L|316:192,2,74.9999999999999,10|0|0,2:3|2:0|0:0,0:0:0:0:
456,104,27886,1,2,0:0:0:0:
392,24,28090,5,2,2:3:0:0:
380,20,28192,2,0,P|352:16|304:24,1,74.9999999999999
184,80,28702,2,0,L|132:76,1,50,8|2,2:3|2:3,0:0:0:0:
260,292,29110,1,2,2:3:0:0:
260,292,29416,6,0,L|258:313,1,12.5,8|8,2:3|2:3,0:0:0:0:
260,292,29518,38,0,L|184:284,1,74.9999999999999,4|0,0:0|0:0,0:0:0:0:
185,284,29926,2,0,P|192:312|196:340,1,50,2|0,2:3|0:0,0:0:0:0:
148,156,30335,6,0,P|172:160|196:152,1,50,10|0,2:3|2:0,0:0:0:0:
300,88,30641,2,0,L|248:92,1,50,0|0,0:0|2:0,0:0:0:0:
372,132,30947,1,0,0:0:0:0:
388,8,31151,5,2,0:0:0:0:
340,208,31457,1,0,0:0:0:0:
344,224,31559,1,2,0:0:0:0:
191,136,31865,1,0,0:0:0:0:
195,152,31967,5,10,2:3:0:0:
276,56,32171,2,0,L|274:41,1,12.5,8|4,0:0|0:0,0:0:0:0:
428,264,32579,2,0,L|426:249,1,12.5,8|4,0:0|0:0,0:0:0:0:
360,344,32784,38,0,L|284:336,1,74.9999999999999,4|0,0:0|0:0,0:0:0:0:
285,336,33192,2,0,P|292:312|296:288,1,50,2|0,2:3|0:0,0:0:0:0:
232,134,33600,6,0,L|228:186,1,50,10|0,2:3|2:0,0:0:0:0:
220,118,33906,2,0,L|216:170,1,50,0|0,0:0|2:0,0:0:0:0:
208,102,34212,2,0,L|206:127,1,25,0|0,0:0|2:0,0:0:0:0:
196,86,34416,6,0,P|224:88|264:64,1,74.9999999999999,2|0,0:0|0:0,0:0:0:0:
263,64,34824,2,0,L|260:116,1,50,2|0,2:3|0:0,0:0:0:0:
140,224,35233,2,0,L|143:172,1,50,8|2,2:3|0:0,0:0:0:0:
96,44,35641,1,2,0:0:0:0:
96,44,35947,6,0,L|95:31,1,12.5,8|8,2:3|2:3,0:0:0:0:
96,44,36049,38,0,L|172:48,1,74.9999999999999,4|0,0:0|0:0,0:0:0:0:
170,47,36457,2,0,P|164:72|160:96,1,50,2|0,2:3|0:0,0:0:0:0:
196,296,36865,2,0,P|191:271|185:247,1,50,10|0,2:3|0:0,0:0:0:0:
84,128,37273,1,2,2:3:0:0:
260,224,37477,1,0,0:0:0:0:
332,208,37579,1,0,0:0:0:0:
404,192,37682,6,0,P|408:168|412:156,1,37.5000014305115,8|0,0:0|0:0,0:0:0:0:
208,56,37886,2,0,P|212:80|216:92,1,37.5000014305115,8|0,0:0|2:0,0:0:0:0:
324,316,38090,1,0,0:0:0:0:
384,268,38192,6,0,P|400:272|424:276,1,37.5000014305115,8|0,0:0|0:0,0:0:0:0:
200,168,38396,2,0,P|184:172|160:176,1,37.5000014305115,8|0,0:0|0:0,0:0:0:0:
151,177,38566,5,8,0:0:0:0:
164,178,38634,1,8,0:0:0:0:
176,180,38702,1,8,0:0:0:0:
188,184,38770,1,0,0:0:0:0:
200,188,38838,1,0,0:0:0:0:
211,194,38906,1,8,0:0:0:0:
221,201,38974,1,8,0:0:0:0:
221,201,39314,38,0,P|228:176|240:156,1,50,4|0,0:0|2:0,0:0:0:0:
392,56,39518,2,0,P|404:77|411:101,1,50,10|0,0:0|2:0,0:0:0:0:
408,333,39722,1,0,0:0:0:0:
276,321,39824,1,0,0:0:0:0:
144,309,39926,6,0,P|119:306|91:305,1,50,10|0,0:0|2:0,0:0:0:0:
348,268,40130,2,0,P|356:220|332:176,1,99.9999999999999,0|10,0:0|0:0,0:0:0:0:
268,332,40437,1,0,0:0:0:0:
372,364,40539,6,0,P|396:352|424:344,1,50,0|0,2:0|0:0,0:0:0:0:
264,232,40743,2,0,P|240:220|212:212,1,50,10|0,0:0|2:0,0:0:0:0:
440,136,40947,2,0,P|452:112|456:88,1,50,0|0,0:0|2:0,0:0:0:0:
244,56,41151,2,0,P|232:32|228:8,1,50,10|0,0:0|2:0,0:0:0:0:
196,288,41355,1,0,0:0:0:0:
328,276,41457,1,0,0:0:0:0:
460,264,41559,6,0,P|485:261|513:260,1,50,10|0,0:0|2:0,0:0:0:0:
224,372,41763,2,0,P|176:376|132:348,1,99.9999999999999,0|10,0:0|0:0,0:0:0:0:
218,213,42069,1,0,0:0:0:0:
328,276,42171,38,0,P|352:277|377:280,1,50,0|0,2:0|0:0,0:0:0:0:
212,204,42375,2,0,P|187:206|161:210,1,50,10|0,0:0|2:0,0:0:0:0:
357,105,42579,2,0,P|404:92|456:84,1,99.9999999999999,0|10,0:0|0:0,0:0:0:0:
192,284,42988,5,0,0:0:0:0:
112,288,43090,1,0,0:0:0:0:
48,240,43192,2,0,B|36:188|36:188|4:156|4:156|24:112|24:112|20:56,1,200,10|10,0:0|0:0,0:0:0:0:
188,152,43702,2,0,P|140:164|100:136,1,99.9999999999999
267,101,44008,6,0,B|299:89|331:89|331:89|367:109|367:109|403:81|459:89,1,200,10|10,0:0|0:0,0:0:0:0:
300,264,44620,1,0,0:0:0:0:
224,240,44722,1,0,0:0:0:0:
144,236,44824,2,0,B|104:232|72:256|72:256|56:192|0:160,1,200,10|10,0:0|0:0,0:0:0:0:
364,312,45437,6,0,P|388:312|416:304,1,50
456,156,45641,2,0,P|431:149|407:149,1,50,10|0,0:0|2:0,0:0:0:0:
216,312,45845,38,0,P|192:316|168:308,1,50,4|0,0:0|2:0,0:0:0:0:
72,152,46049,2,0,P|68:128|76:104,1,50,4|0,0:0|2:0,0:0:0:0:
316,0,46253,1,0,0:0:0:0:
308,132,46355,1,0,0:0:0:0:
300,264,46457,6,0,L|296:316,1,50,10|0,0:0|2:0,0:0:0:0:
456,156,46661,2,0,P|464:108|440:64,1,99.9999999999999,0|10,0:0|0:0,0:0:0:0:
376,184,46967,1,0,0:0:0:0:
416,284,47069,6,0,P|412:304|408:336,1,50,0|0,2:0|0:0,0:0:0:0:
296,160,47273,2,0,P|292:135|288:110,1,50,10|0,0:0|2:0,0:0:0:0:
208,300,47477,2,0,P|188:312|160:316,1,50,0|0,0:0|2:0,0:0:0:0:
112,148,47682,2,0,P|92:136|64:132,1,50,10|0,0:0|2:0,0:0:0:0:
30,320,47886,1,0,0:0:0:0:
162,316,47988,1,0,0:0:0:0:
294,312,48090,6,0,L|344:308,1,50,10|0,0:0|2:0,0:0:0:0:
208,148,48294,2,0,P|196:100|216:56,1,99.9999999999999,0|10,0:0|0:0,0:0:0:0:
272,108,48600,1,0,0:0:0:0:
148,204,48702,38,0,P|124:196|100:192,1,50,0|0,0:0|2:0,0:0:0:0:
288,100,48906,2,0,P|312:92|336:88,1,50,0|0,0:0|2:0,0:0:0:0:
448,260,49110,2,0,P|456:236|460:212,1,50,4|0,0:0|2:0,0:0:0:0:
355,348,49314,2,0,B|315:368|273:342|273:342|245:355|245:355|215:328|167:332,1,200,10|10,0:0|0:0,0:0:0:0:
292,147,49926,6,0,P|296:119|288:99,1,50,0|0,0:0|2:0,0:0:0:0:
128,216,50130,2,0,P|124:244|132:264,1,50,10|0,0:0|0:0,0:0:0:0:
320,276,50335,2,0,P|336:268|368:264,1,50,0|0,2:0|0:0,0:0:0:0:
172,144,50539,2,0,P|156:136|124:132,1,50,10|0,0:0|2:0,0:0:0:0:
352,48,50743,37,2,0:0:0:0:
482,27,50879,1,0,2:0:0:0:
435,150,51015,1,0,2:0:0:0:
272,160,51151,5,2,0:0:0:0:
172,144,51287,1,0,2:0:0:0:
208,239,51423,1,0,2:0:0:0:
328,295,51559,37,2,0:0:0:0:
367,264,51661,1,0,0:0:0:0:
414,248,51763,1,10,0:0:0:0:
464,249,51865,1,0,0:0:0:0:
510,266,51967,6,0,B|500:288|500:288|504:316,1,50,8|8,0:0|0:0,0:0:0:0:
348,172,52171,2,0,B|351:146|351:146|341:124,1,50,8|8,0:0|0:0,0:0:0:0:
