osu file format v14

[General]
AudioFilename: audio.mp3
AudioLeadIn: 0
PreviewTime: 78332
Countdown: 1
SampleSet: None
StackLeniency: 0.7
Mode: 0
LetterboxInBreaks: 0
WidescreenStoryboard: 0

[Editor]
Bookmarks: 99985,192985
DistanceSpacing: 1
BeatDivisor: 4
GridSize: 4
TimelineZoom: 1.6

[Metadata]
Title:Youkai no Yama ~ Mysterious Mountain
TitleUnicode:妖怪の山 ~ Mysterious Mountain
Artist:Demetori
ArtistUnicode:Demetori
Creator:TecGamer_Brazil
Version:Hyper Stage
Source:東方風神録 ~ Mountain of Faith.
Tags:
BeatmapID:1541526
BeatmapSetID:730424

[Difficulty]
HPDrainRate:6
CircleSize:4
OverallDifficulty:5
ApproachRate:9
SliderMultiplier:1.5
SliderTickRate:1

[Events]
//Background and Video events
0,0,"what is touhou.jpg",0,0
//Break Periods
2,35159,37453
2,105454,110748
2,114293,115532
2,194806,198385
//Storyboard Layer 0 (Background)
//Storyboard Layer 1 (Fail)
//Storyboard Layer 2 (Pass)
//Storyboard Layer 3 (Foreground)
//Storyboard Sound Samples

[TimingPoints]
-113,324.324324324324,4,2,1,100,1,0
551,-100,4,2,1,5,0,0
3243,-100,4,2,1,32,0,0
3810,-100,4,2,11,100,0,0
4216,-100,4,2,2,32,0,0
6337,-133.333333333333,4,2,1,32,0,0
9405,-100,4,2,1,32,0,0
15729,-100,4,2,13,32,0,0
16459,-100,4,2,13,86,0,0
27500,-100,4,3,13,86,0,0
32284,-133.333333333333,4,3,13,86,0,0
33419,-100,4,1,8,86,0,0
40149,-100,4,2,8,86,0,0
44365,-100,4,3,7,86,0,0
44608,-100,4,2,10,86,0,0
48662,-100,4,3,4,81,0,0
48906,-100,4,2,6,81,0,0
50041,-100,4,3,6,81,0,0
50203,-100,4,2,6,81,0,0
50365,-100,4,3,6,81,0,0
50689,-100,4,2,3,81,0,0
51419,-100,4,3,3,81,0,0
51581,-100,4,3,3,81,0,0
51906,-100,4,2,3,81,0,0
52068,-100,4,3,3,81,0,0
52960,-100,4,3,3,81,0,0
55635,324.324324324324,4,3,3,81,1,0
57580,-100,4,3,11,81,0,0
58878,-142.857142857143,4,3,11,81,0,0
62689,-142.857142857143,4,2,11,81,0,0
66905,-142.857142857143,4,3,6,81,0,0
67391,-142.857142857143,4,2,11,81,0,0
68770,-90.9090909090909,4,2,11,81,0,0
69743,-90.9090909090909,4,3,6,81,0,0
69905,-90.9090909090909,4,2,6,81,0,0
73716,324.324324324324,4,2,6,81,1,0
74770,-100,4,3,9,81,0,0
74932,-100,4,2,9,81,0,0
77202,-100,4,3,9,81,0,0
77364,-100,4,3,9,81,0,0
77607,-100,4,3,9,81,0,0
77770,-100,4,2,9,81,0,0
77870,-200,4,2,9,81,0,0
78986,324.324324324324,4,2,11,81,1,1
79067,-100,4,3,5,81,0,1
79229,-100,4,2,8,81,0,1
80202,-89.2857142857143,4,2,8,81,0,1
80931,-89.2857142857143,4,3,2,81,0,1
81094,-89.2857142857143,4,2,2,81,0,1
83202,-200,4,2,2,81,0,1
83445,-89.2857142857143,4,2,2,81,0,1
84256,-89.2857142857143,4,3,6,81,0,1
84904,-89.2857142857143,4,2,6,81,0,1
85958,-89.2857142857143,4,3,6,81,0,1
87823,-89.2857142857143,4,1,6,81,0,1
88310,-89.2857142857143,4,2,6,81,0,1
89283,-89.2857142857143,4,3,6,81,0,1
89688,324.324324324324,4,3,6,81,1,1
94796,324.324324324324,4,3,6,81,1,1
99823,324.324324324324,4,3,6,81,1,9
104687,-200,4,3,6,81,0,9
104768,-100,4,3,6,81,0,8
111498,-100,4,2,6,81,0,8
122120,-100,4,3,6,81,0,8
122525,-100,4,2,8,81,0,8
139147,-74.6268656716418,4,2,8,81,0,8
139309,-100,4,2,8,81,0,8
139958,-200,4,2,8,81,0,8
142795,-100,4,2,8,81,0,8
167039,-133.333333333333,4,2,9,87,0,8
167201,-74.074074074074,4,2,9,87,0,9
168255,-200,4,2,9,87,0,9
168985,-68.9655172413793,4,3,6,87,0,9
171498,-200,4,3,6,87,0,9
172066,-68.9655172413793,4,3,6,87,0,9
173850,-200,4,3,6,87,0,9
174985,-68.9655172413793,4,3,6,87,0,9
191687,-68.9655172413793,4,3,6,87,0,8
192579,-200,4,3,6,87,0,8
198951,-100,4,2,6,87,0,8
202471,-114.942528735632,4,2,6,87,0,8
202877,-85.4700854700855,4,2,6,87,0,8
210498,-85.4700854700855,4,3,6,87,0,8
210579,-85.4700854700855,4,2,6,87,0,8
210904,-85.4700854700855,4,3,6,87,0,8
211066,-85.4700854700855,4,2,6,87,0,8
211309,-133.333333333333,4,2,6,87,0,8
211633,-68.9655172413793,4,2,6,87,0,8
211877,-68.9655172413793,4,3,6,87,0,8
212039,-68.9655172413793,4,2,6,87,0,8
212201,-68.9655172413793,4,3,6,87,0,8
212363,-68.9655172413793,4,2,6,87,0,8
212525,-68.9655172413793,4,3,6,87,0,8
212687,-68.9655172413793,4,2,6,87,0,8
212850,-68.9655172413793,4,3,6,87,0,8
213012,-68.9655172413793,4,2,6,87,0,8
213174,-68.9655172413793,4,3,6,87,0,8
214471,-50,4,3,6,87,0,8
215768,-68.9655172413793,4,3,6,87,0,8
237336,324.324324324324,4,3,6,87,1,8
238633,324.324324324324,4,3,6,87,1,8
239930,324.324324324324,4,3,6,87,1,8
242848,324.324324324324,5,3,6,87,1,8
245120,-133.333333333333,5,3,6,87,0,8
245363,-100,5,3,6,87,0,8
247732,324.324324324324,4,3,6,87,1,9
247732,-68.9655172413793,5,3,6,87,0,9
258002,-68.9655172413793,4,3,6,87,0,8
258093,-68.9655172413793,4,3,6,87,0,9
278201,-68.9655172413793,4,3,6,87,0,8
293056,-68.9655172413793,4,2,6,87,0,8
293218,-68.9655172413793,4,3,6,87,0,8
301633,379.746835443038,4,3,6,87,1,8
302107,461.538461538462,4,3,6,87,1,8
302738,612.244897959184,4,3,6,87,1,8
303197,1000,3,3,6,87,1,8
303697,2000,4,3,6,87,1,8

[HitObjects]
88,136,581,5,0,0:0:0:0:
224,240,743,1,0,0:0:0:0:
256,192,906,12,2,3014,0:0:0:0:
120,188,3095,6,0,P|160:200|192:196,1,75
132,108,3419,2,0,P|96:88|44:92,1,75,2|0,0:0|0:0,0:0:0:0:
68,256,3743,6,0,L|72:324,3,37.5,0|2|2|0,0:0|0:0|0:0|0:0,0:0:0:0:
152,292,4149,2,0,P|208:292|264:272,1,112.5
292,168,4554,2,0,P|368:168|436:176,1,112.5
324,0,4960,5,0,0:0:0:0:
324,168,5203,1,6,0:0:0:0:
324,168,5446,2,0,P|272:160|248:128,1,75,0|2,0:0|0:0,0:0:0:0:
112,172,5770,5,0,0:0:0:0:
112,172,5851,1,0,0:0:0:0:
112,172,5933,2,0,L|212:168,1,75,0|8,0:0|0:0,0:0:0:0:
272,232,6257,6,0,P|328:220|352:176,1,84.3750032186509
240,144,6662,2,0,L|264:64,2,84.3750032186509,0|14|0,0:0|0:0|0:0,0:0:0:0:
312,212,7311,2,0,P|368:224|408:212,1,84.3750032186509
404,144,7716,1,2,0:0:0:0:
404,144,7798,1,0,0:0:0:0:
404,144,7879,1,2,0:0:0:0:
296,120,8041,6,0,P|236:116|196:128,1,84.3750032186509,0|6,0:0|0:0,0:0:0:0:
152,216,8446,2,0,B|116:176|116:176|76:156,2,84.3750032186509,0|2|0,0:0|0:0|0:0,0:0:0:0:
216,216,9095,5,0,0:0:0:0:
216,216,9176,1,8,0:0:0:0:
216,216,9257,2,8,B|260:216|300:232|300:232|368:204|344:104,1,225.000008583069,0|0,0:0|0:0,0:0:0:0:
223,79,9987,6,0,L|143:147,1,75
166,128,10230,1,0,0:0:0:0:
166,128,10311,1,14,0:0:0:0:
288,172,10473,6,0,P|336:156|352:96,1,112.5,0|8,0:0|0:0,0:0:0:0:
232,220,10879,2,0,P|292:252|348:240,1,112.5,0|8,0:0|0:0,0:0:0:0:
392,208,11284,6,0,P|448:168|488:168,1,75
372,96,11608,2,0,P|328:72|284:68,1,75,0|6,0:0|0:0,0:0:0:0:
220,108,11933,5,0,0:0:0:0:
236,248,12095,1,0,0:0:0:0:
236,248,12338,2,0,P|228:192|172:168,1,112.5,0|2,0:0|0:0,0:0:0:0:
88,124,12743,6,0,P|116:68|180:64,1,112.5,0|2,0:0|0:0,0:0:0:0:
236,104,13149,6,0,P|288:112|324:88,1,75
360,192,13473,6,0,L|352:248,2,37.5,8|8|8,0:0|0:0|0:0,0:0:0:0:
280,156,13797,2,0,L|292:92,2,37.5
192,64,14122,6,0,B|124:60|76:64|76:64|32:104,1,150
188,268,14608,6,0,P|260:272|292:256,1,75
140,184,14933,2,0,P|96:184|64:216,1,75
280,128,15257,1,0,0:0:0:0:
164,52,15419,1,0,0:0:0:0:
140,180,15581,1,4,0:0:0:0:
280,128,15743,6,0,P|292:176|288:216,2,75,8|0|0,0:0|0:0|0:0,0:0:0:0:
192,248,16311,6,0,P|232:284|264:292,1,75
328,212,16635,2,0,P|372:232|400:260,1,75,0|2,0:0|0:0,0:0:0:0:
432,160,16960,6,0,P|460:104|460:72,1,75
328,68,17284,6,0,P|244:84|228:108,1,112.5
140,176,17689,2,0,P|120:144|56:116,1,75
56,204,18014,5,0,0:0:0:0:
92,276,18176,1,4,0:0:0:0:
92,276,18257,1,2,0:0:0:0:
92,276,18338,2,0,P|136:272|176:252,1,75
240,184,18743,6,0,P|288:168|212:112,1,187.5
192,112,19230,1,0,0:0:0:0:
172,116,19311,2,0,P|120:132|96:156,1,75
180,212,19635,6,0,L|184:296,1,75
280,280,19960,1,4,0:0:0:0:
280,280,20041,2,0,L|280:184,1,75,0|4,0:0|0:0,0:0:0:0:
368,144,20365,2,0,P|412:136|464:164,1,75,4|0,0:0|0:0,0:0:0:0:
460,248,20689,2,0,P|460:312|444:352,1,75,0|4,0:0|0:0,0:0:0:0:
320,296,21014,6,0,P|312:240|348:208,2,75,0|2|0,0:0|0:0|0:0,0:0:0:0:
412,280,21500,1,0,0:0:0:0:
264,208,21662,1,0,0:0:0:0:
432,156,21824,1,0,0:0:0:0:
432,156,21987,6,0,L|408:60,1,75
272,8,22311,2,0,L|300:88,1,75,0|4,0:0|0:0,0:0:0:0:
248,240,22635,6,0,P|244:180|204:140,1,112.5
44,196,23041,5,0,0:0:0:0:
48,200,23122,1,4,0:0:0:0:
48,200,23203,2,0,P|44:240|32:288,1,75
204,264,23527,5,0,0:0:0:0:
380,212,23689,1,0,0:0:0:0:
276,120,23851,1,0,0:0:0:0:
400,84,24014,2,0,L|380:-4,1,75
168,128,24338,6,0,L|160:172,1,37.5
228,200,24581,6,0,L|216:248,1,37.5
304,264,24824,6,0,P|276:312|272:320,1,37.5
396,208,25068,2,0,P|416:144|344:164,1,150,0|8,0:0|0:0,0:0:0:0:
236,184,25554,6,0,P|180:236|172:248,1,75
120,160,25879,1,0,0:0:0:0:
120,160,25960,2,0,P|76:160|44:144,1,75,0|6,0:0|0:0,0:0:0:0:
68,76,26284,6,0,B|112:64|112:64|184:64,1,112.5,0|6,0:0|0:0,0:0:0:0:
268,132,26689,6,0,P|316:140|344:168,1,75
364,224,27014,1,0,0:0:0:0:
264,228,27176,1,4,0:0:0:0:
168,224,27338,1,4,0:0:0:0:
180,156,27500,6,0,P|136:172|120:212,1,75
180,156,27824,2,0,P|132:152|96:176,1,75
180,156,28149,2,0,P|156:108|92:100,1,112.5,0|8,0:0|0:0,0:0:0:0:
72,172,28554,1,0,0:0:0:0:
92,272,28716,1,8,0:0:0:0:
184,316,28879,1,0,0:0:0:0:
184,316,28960,1,0,0:0:0:0:
184,316,29041,6,0,L|232:228,1,75,0|8,0:0|0:0,0:0:0:0:
192,92,29365,6,0,L|200:144,2,37.5,0|8|0,0:0|0:0|0:0,0:0:0:0:
344,104,29851,1,8,0:0:0:0:
160,80,30176,1,0,0:0:0:0:
144,248,30338,1,8,0:0:0:0:
144,248,30500,6,0,B|192:252|208:288|272:248,1,112.5,0|4,0:0|0:0,0:0:0:0:
228,80,30987,2,0,P|232:128|220:164,1,75
140,180,31311,6,0,L|132:272,2,75,0|8|4,0:0|0:0|0:0,0:0:0:0:
196,168,32284,6,0,B|232:148|320:160|320:160|324:60|324:60|252:24|252:24|172:24|148:56,1,393.750015020371
108,104,33581,2,0,P|96:148|96:192,1,75,8|0,0:0|0:0,0:0:0:0:
204,280,33906,1,0,0:0:0:0:
204,280,34068,2,0,P|232:232|216:184,1,75,0|2,0:0|0:0,0:0:0:0:
144,120,34392,6,0,L|144:176,3,37.5,0|2|0|0,0:0|0:0|0:0|0:0,0:0:0:0:
164,168,34716,2,0,L|160:240,3,37.5,0|0|8|0,0:0|0:0|0:0|0:0,0:0:0:0:
144,136,38203,6,0,B|192:152|192:152|284:148,1,112.5,2|0,0:0|0:0,0:0:0:0:
360,144,38608,1,0,0:0:0:0:
240,48,38770,1,0,0:0:0:0:
248,228,38933,1,0,0:0:0:0:
248,228,39095,6,0,P|168:260|236:300,1,187.5
328,288,39662,2,0,L|420:292,2,75,0|8|0,0:0|0:0|0:0,0:0:0:0:
280,240,40149,1,2,0:0:0:0:
284,160,40311,1,4,0:0:0:0:
296,80,40473,1,14,0:0:0:0:
296,80,40635,6,0,P|244:72|188:96,1,112.5
284,160,41122,2,0,P|328:160|372:144,1,75
404,228,41446,6,0,P|392:268|368:296,1,75
284,276,41770,2,0,P|240:280|196:272,1,75
104,228,42176,5,0,0:0:0:0:
104,228,42257,1,0,0:0:0:0:
104,228,42338,2,0,L|104:144,1,75
196,192,42662,2,0,P|236:188|276:160,1,75
328,96,43068,2,0,P|368:60|372:32,1,75,2|0,0:0|0:0,0:0:0:0:
220,56,43392,6,0,L|228:104,4,37.5
160,104,43879,6,0,P|116:116|96:136,1,75
156,176,44203,1,0,0:0:0:0:
196,320,44365,6,0,L|196:212,1,75,0|8,0:0|0:0,0:0:0:0:
284,48,44689,5,0,0:0:0:0:
272,128,44851,1,0,0:0:0:0:
292,220,45014,1,0,0:0:0:0:
96,184,45176,6,0,B|136:188|160:168|160:168|120:144,1,112.5
52,264,45581,2,0,B|112:256|152:232|152:232|96:228,1,150,0|4,0:0|0:0,0:0:0:0:
52,164,46149,6,0,P|104:132|128:120,2,75,0|6|0,0:0|0:0|0:0,0:0:0:0:
44,68,46635,5,0,0:0:0:0:
188,44,46797,1,2,0:0:0:0:
188,44,46879,1,0,0:0:0:0:
188,44,46960,1,2,0:0:0:0:
176,144,47122,6,0,P|216:168|228:216,1,75
304,312,47446,2,0,P|328:264|320:232,1,75
272,176,47770,6,0,L|268:112,3,37.5,0|8|0|0,0:0|0:0|0:0|0:0,0:0:0:0:
104,68,48176,6,0,P|176:68|216:84,1,112.5
412,180,48581,2,0,P|456:176|484:120,1,112.5,0|8,0:0|0:0,0:0:0:0:
392,88,48987,6,0,B|344:72|344:72|276:100,1,112.5
220,168,49392,2,0,B|160:164|160:164|112:116,1,112.5
52,88,49797,5,0,0:0:0:0:
56,212,49960,2,0,L|60:296,1,75,0|8,0:0|0:0,0:0:0:0:
152,276,50284,5,0,0:0:0:0:
152,276,50365,1,0,0:0:0:0:
152,276,50446,2,0,P|196:296|248:276,1,75,0|8,0:0|0:0,0:0:0:0:
268,240,50851,6,0,B|312:208|312:208|380:184,1,112.5
208,132,51257,2,0,B|180:80|180:80|124:44,1,112.5,0|8,0:0|0:0,0:0:0:0:
60,104,51743,1,2,0:0:0:0:
120,180,51987,6,0,L|124:280,1,75,0|8,0:0|0:0,0:0:0:0:
164,284,52392,2,0,B|212:292|212:292|288:292,1,112.5
332,216,52797,2,0,B|372:176|372:176|448:136,1,112.5,0|8,0:0|0:0,0:0:0:0:
376,80,53203,5,8,0:0:0:0:
376,80,53284,1,8,0:0:0:0:
376,80,53365,2,0,P|304:80|256:100,1,112.5
188,188,53770,2,0,B|132:160|132:160|120:104,1,112.5,0|10,0:0|0:0,0:0:0:0:
184,40,54176,2,0,B|244:32|244:32|300:48,1,112.5
368,84,54581,2,0,B|368:128|368:128|316:184,1,112.5,0|8,0:0|0:0,0:0:0:0:
204,128,54987,5,0,0:0:0:0:
244,248,55230,1,0,0:0:0:0:
244,248,55392,2,0,P|208:224|220:296,1,150
312,324,55878,6,0,P|364:328|404:320,2,75,0|0|2,0:0|0:0|0:0,0:0:0:0:
256,256,56364,1,0,0:0:0:0:
352,240,56607,1,2,0:0:0:0:
296,184,56770,1,8,0:0:0:0:
296,184,56932,2,0,L|276:88,1,75
196,92,57256,2,0,L|144:4,1,75
76,112,57580,6,0,L|72:168,2,37.5,0|8|0,0:0|0:0|0:0,0:0:0:0:
128,44,57905,6,0,P|168:60|208:52,1,75
300,100,58229,2,0,P|360:104|388:120,1,75
384,188,58553,2,0,P|368:232|336:276,1,75
272,280,58878,2,0,P|220:276|188:288,1,78.7499975967408
120,212,59283,2,0,P|76:196|48:176,1,78.7499975967408,4|0,0:0|0:0,0:0:0:0:
112,104,59689,1,0,0:0:0:0:
224,96,59851,1,0,0:0:0:0:
152,16,60013,5,0,0:0:0:0:
152,16,60094,1,0,0:0:0:0:
152,16,60175,1,0,0:0:0:0:
168,176,60337,2,0,L|144:256,1,78.7499975967408
248,260,60743,2,0,P|288:260|244:200,1,157.499995193482
344,144,61391,6,0,P|396:128|412:80,2,104.999996795654
264,144,62202,5,0,0:0:0:0:
160,76,62364,1,0,0:0:0:0:
132,172,62526,1,8,0:0:0:0:
132,172,62689,2,0,P|152:204|148:260,1,78.7499975967408
256,196,63094,2,0,P|256:168|280:120,1,78.7499975967408
364,248,63580,6,0,L|372:216,1,26.2499991989136
412,268,63743,2,0,L|428:236,1,26.2499991989136
448,292,63905,2,0,L|472:252,1,26.2499991989136
304,176,64148,6,0,P|240:136|320:116,1,183.749994392395
392,160,64878,2,0,P|432:172|480:160,2,78.7499975967408,0|6|0,0:0|0:0|0:0,0:0:0:0:
308,180,65526,5,0,0:0:0:0:
224,184,65689,1,0,0:0:0:0:
144,172,65851,1,0,0:0:0:0:
104,216,66013,6,0,L|96:296,1,78.7499975967408
112,108,66418,1,0,0:0:0:0:
48,28,66580,1,0,0:0:0:0:
184,44,66743,5,0,0:0:0:0:
184,44,66824,1,0,0:0:0:0:
184,44,66905,2,0,P|232:56|280:48,1,78.7499975967408,6|0,0:0|0:0,0:0:0:0:
344,112,67310,6,0,B|368:164|368:164|368:240,1,131.249995994568,6|0,0:0|0:0,0:0:0:0:
244,268,67797,5,0,0:0:0:0:
212,140,67959,1,0,0:0:0:0:
212,140,68040,1,0,0:0:0:0:
212,140,68121,1,4,0:0:0:0:
304,108,68283,6,0,P|348:100|288:52,1,157.499995193482
208,40,68932,2,0,B|152:68|152:68|48:72,1,165.000005035401
40,248,69418,6,0,B|116:224|116:224|180:184,1,123.75000377655
224,152,69824,1,6,0:0:0:0:
340,96,69986,2,0,B|312:152|312:152|304:232,1,123.75000377655
412,152,70472,6,0,B|464:112|464:112|480:48,1,123.75000377655
364,44,70878,2,0,P|300:60|256:88,1,82.5000025177003,2|0,0:0|0:0,0:0:0:0:
168,172,71202,6,0,P|228:160|276:164,1,82.5000025177003,6|0,0:0|0:0,0:0:0:0:
284,288,71526,2,0,L|280:192,1,82.5000025177003,0|6,0:0|0:0,0:0:0:0:
208,220,71851,2,0,L|204:280,3,41.2500012588501
64,88,72256,6,0,P|104:48|172:52,1,123.75000377655
220,108,72662,2,0,B|260:188|260:188|320:220,1,123.75000377655,0|4,0:0|0:0,0:0:0:0:
380,208,73067,6,0,P|360:268|328:296,1,82.5000025177003,0|2,0:0|0:0,0:0:0:0:
276,260,73391,5,0,0:0:0:0:
276,260,73472,1,0,0:0:0:0:
276,260,73553,2,0,P|200:256|160:276,1,82.5000025177003
160,208,73878,6,0,P|196:196|256:164,1,75
88,136,74202,2,0,P|40:152|-8:180,1,75
24,64,74526,1,0,0:0:0:0:
152,32,74688,1,0,0:0:0:0:
300,68,74851,1,8,0:0:0:0:
280,160,75094,6,0,P|236:180|228:216,1,75
412,120,75418,2,0,P|452:112|472:72,1,75,0|6,0:0|0:0,0:0:0:0:
400,40,75743,5,0,0:0:0:0:
304,44,75905,1,0,0:0:0:0:
304,44,75986,1,0,0:0:0:0:
304,44,76067,1,0,0:0:0:0:
348,184,76229,1,0,0:0:0:0:
392,112,76391,1,0,0:0:0:0:
392,112,76472,1,0,0:0:0:0:
392,112,76553,1,0,0:0:0:0:
392,112,76716,6,0,P|336:104|288:112,1,75
240,224,77121,6,0,P|240:184|264:144,1,75,0|8,0:0|0:0,0:0:0:0:
128,172,77526,2,0,P|156:116|192:96,1,75,0|8,0:0|0:0,0:0:0:0:
304,80,77851,1,0,0:0:0:0:
296,328,78013,1,0,0:0:0:0:
232,188,78175,1,2,0:0:0:0:
116,344,78986,6,0,P|160:324|220:324,1,75
292,224,79310,1,0,0:0:0:0:
292,224,79472,2,0,L|292:132,1,75
444,104,79796,6,0,P|396:64|340:68,1,112.5
300,172,80202,2,0,P|244:144|196:128,1,112.5
176,124,80526,2,0,L|140:216,1,84.0000010253906
284,332,80850,6,0,P|328:340|372:340,1,84.0000010253906,0|8,0:0|0:0,0:0:0:0:
192,232,81256,2,0,P|140:212|84:216,1,84.0000010253906
104,120,81580,6,0,L|180:60,1,84.0000010253906,0|6,0:0|0:0,0:0:0:0:
248,44,81904,1,0,0:0:0:0:
248,44,82067,1,0,0:0:0:0:
284,180,82229,6,0,P|336:136|356:96,1,84.0000010253906
248,44,82553,5,0,0:0:0:0:
248,44,82715,1,0,0:0:0:0:
164,128,82877,2,0,P|212:136|256:128,1,84.0000010253906
128,240,83202,6,0,L|192:252,1,56.25
212,256,83526,2,0,L|228:160,1,84.0000010253906
392,120,83850,6,0,P|316:116|296:148,1,84.0000010253906
352,184,84175,1,4,0:0:0:0:
352,184,84337,2,0,L|348:276,1,84.0000010253906,6|0,0:0|0:0,0:0:0:0:
240,272,84661,2,0,L|236:376,1,84.0000010253906,0|6,0:0|0:0,0:0:0:0:
220,192,85067,6,0,B|176:184|144:164|144:164|76:208|40:172,1,168.000002050781
140,0,85553,1,0,0:0:0:0:
140,48,85715,1,0,0:0:0:0:
140,48,85796,1,0,0:0:0:0:
140,48,85877,1,2,0:0:0:0:
140,48,86040,6,0,P|168:80|176:124,1,84.0000010253906,6|8,0:0|0:0,0:0:0:0:
192,260,86445,6,0,L|208:160,1,84.0000010253906,0|6,0:0|0:0,0:0:0:0:
304,108,86769,2,0,P|328:152|260:164,1,126.000001538086,0|6,0:0|0:0,0:0:0:0:
220,80,87175,2,0,P|264:56|312:56,1,84.0000010253906,0|6,0:0|0:0,0:0:0:0:
352,232,87499,6,0,P|404:204|424:172,1,84.0000010253906
88,176,87823,6,0,L|168:160,5,42.0000005126953
160,156,88310,2,0,L|180:88,5,42.0000005126953
176,88,88796,2,0,L|160:24,4,42.0000005126953
156,240,89202,5,8,0:0:0:0:
88,80,89364,1,6,0:0:0:0:
232,168,89526,6,0,P|280:152|312:112,1,84.0000010253906,0|6,0:0|0:0,0:0:0:0:
320,228,89850,6,0,B|372:224|400:208|400:208|464:164|464:164|456:80,1,225,0|6,0:0|0:0,0:0:0:0:
324,104,90498,6,0,P|276:104|244:120,1,75
180,172,90823,2,0,L|180:232,1,37.5
140,252,91066,6,0,L|184:316,2,75
252,232,91552,1,0,0:0:0:0:
252,232,91715,2,0,P|292:228|336:272,1,75
416,208,92039,6,0,L|416:148,2,37.5,0|6|0,0:0|0:0|0:0,0:0:0:0:
344,164,92282,6,0,L|344:112,2,37.5,0|6|0,0:0|0:0|0:0,0:0:0:0:
260,128,92606,5,0,0:0:0:0:
176,96,92769,1,0,0:0:0:0:
176,96,92850,1,0,0:0:0:0:
176,96,92931,2,4,L|176:212,1,112.5,6|0,0:0|0:0,0:0:0:0:
268,244,93336,6,0,P|320:220|312:144,1,112.5
340,80,93742,1,0,0:0:0:0:
420,56,93904,2,0,L|416:156,1,75,0|6,0:0|0:0,0:0:0:0:
324,220,94228,5,0,0:0:0:0:
192,188,94390,1,0,0:0:0:0:
284,104,94552,1,0,0:0:0:0:
256,324,94715,1,0,0:0:0:0:
260,328,94877,6,0,P|228:300|264:312,1,112.5,0|6,0:0|0:0,0:0:0:0:
360,308,95363,6,0,P|404:288|436:264,1,75
340,208,95687,2,6,P|284:204|244:220,1,75
144,188,96012,6,2,P|168:160|208:144,1,75
300,88,96336,6,0,L|296:156,2,37.5,0|2|0,0:0|0:0|0:0,0:0:0:0:
200,72,96660,5,0,0:0:0:0:
200,72,96741,1,2,0:0:0:0:
200,72,96823,2,0,L|208:172,1,75,2|0,0:0|0:0,0:0:0:0:
296,248,97147,2,2,P|340:240|376:192,1,75
200,184,97471,1,0,0:0:0:0:
200,184,97633,6,0,L|204:136,2,37.5
128,84,97958,2,0,L|120:136,2,37.5
288,120,98282,6,0,L|328:132,5,37.5
88,184,98768,2,0,L|116:184,4,18.75
144,100,99012,2,0,L|180:104,5,18.75
164,176,99255,2,0,L|192:180,5,18.75
248,216,99823,6,0,P|312:208|352:136,1,150
396,48,100309,1,0,0:0:0:0:
440,128,100471,2,0,P|448:180|416:288,1,150,0|10,0:0|0:0,0:0:0:0:
174,235,100958,6,0,P|170:167|134:107,1,112.5,0|10,0:0|0:0,0:0:0:0:
292,100,101363,5,0,0:0:0:0:
196,44,101525,1,0,0:0:0:0:
152,128,101687,1,0,0:0:0:0:
156,132,101850,6,0,P|188:168|192:212,1,75,0|14,0:0|0:0,0:0:0:0:
248,260,102174,2,0,P|284:268|324:244,1,75
352,168,102498,2,0,P|376:112|416:92,1,75,0|10,0:0|0:0,0:0:0:0:
448,160,102823,2,0,P|476:184|472:228,1,75,0|10,0:0|0:0,0:0:0:0:
380,248,103147,6,0,B|324:268|324:268|256:264,1,112.5,0|10,0:0|0:0,0:0:0:0:
168,200,103552,2,0,B|160:152|184:112|184:112|120:92,1,150,0|10,0:0|0:0,0:0:0:0:
92,156,104039,1,0,0:0:0:0:
60,280,104282,1,0,0:0:0:0:
180,320,104606,1,10,0:0:0:0:
224,204,104768,6,0,P|256:236|416:200,1,225,0|4,0:0|0:0,0:0:0:0:
276,80,111498,6,0,P|308:108|324:140,1,75
224,164,111822,2,0,P|192:184|168:224,1,75
260,260,112147,2,0,P|300:288|316:208,1,150,0|2,0:0|0:0,0:0:0:0:
256,192,112633,12,0,114093,0:0:0:0:
160,116,116282,6,0,P|128:168|128:208,1,75
280,156,116606,2,0,P|240:176|200:184,1,75
308,68,116931,1,6,0:0:0:0:
308,68,117174,2,0,P|352:96|372:144,1,75
328,200,117579,6,0,P|280:232|240:236,1,75
144,204,117904,2,0,P|120:148|120:104,1,75,0|6,0:0|0:0,0:0:0:0:
204,52,118228,2,0,P|244:36|284:44,1,75
288,88,118552,5,0,0:0:0:0:
228,172,118714,1,0,0:0:0:0:
232,188,118795,1,0,0:0:0:0:
236,200,118877,1,0,0:0:0:0:
240,216,118958,2,0,P|204:232|196:284,2,75
356,112,119525,5,0,0:0:0:0:
208,80,119687,1,0,0:0:0:0:
288,172,119850,5,0,0:0:0:0:
248,272,120012,1,0,0:0:0:0:
416,148,120174,5,0,0:0:0:0:
464,12,120255,1,0,0:0:0:0:
464,12,120417,6,0,P|408:24|380:60,1,75
416,148,120741,2,0,L|428:240,2,75
332,136,121228,5,0,0:0:0:0:
192,88,121390,1,0,0:0:0:0:
176,240,121552,1,0,0:0:0:0:
272,252,121795,5,0,0:0:0:0:
284,264,121877,1,0,0:0:0:0:
296,268,121958,1,0,0:0:0:0:
308,272,122039,1,0,0:0:0:0:
324,272,122120,1,10,0:0:0:0:
340,272,122201,6,0,P|396:264|472:292,1,112.5,0|14,0:0|0:0,0:0:0:0:
396,160,122606,6,0,B|356:136|376:64|420:68|408:8,1,150
308,24,123093,6,0,P|252:40|232:88,1,112.5
220,168,123498,2,0,P|224:224|180:272,1,112.5
104,252,123904,5,0,0:0:0:0:
152,160,124066,1,0,0:0:0:0:
52,188,124228,1,4,0:0:0:0:
52,188,124309,1,0,0:0:0:0:
52,188,124390,1,2,0:0:0:0:
112,96,124552,5,0,0:0:0:0:
112,96,124633,1,0,0:0:0:0:
112,96,124714,1,6,0:0:0:0:
112,96,124958,6,0,P|176:120|196:148,1,75
248,216,125282,2,0,P|288:196|296:120,1,112.5
132,188,125687,2,0,L|152:304,1,112.5
340,264,126093,5,0,0:0:0:0:
200,112,126255,1,0,0:0:0:0:
220,288,126417,1,0,0:0:0:0:
220,288,126498,2,0,P|272:264|296:236,1,75
260,216,126822,2,0,P|300:184|300:136,1,75,0|8,0:0|0:0,0:0:0:0:
216,132,127147,6,0,P|172:76|176:36,1,112.5
88,64,127552,5,0,0:0:0:0:
120,288,127714,1,0,0:0:0:0:
120,288,127958,2,0,P|156:268|180:232,1,75
200,116,128282,2,0,L|212:200,1,75
380,224,128606,1,0,0:0:0:0:
280,112,128768,1,0,0:0:0:0:
280,112,128931,6,0,P|236:168|300:240,1,150
344,168,129417,2,0,P|392:176|456:220,1,112.5
408,248,129822,5,0,0:0:0:0:
396,264,129904,1,0,0:0:0:0:
384,276,129985,1,0,0:0:0:0:
344,296,130147,6,0,P|304:296|260:256,1,75
316,184,130471,2,0,P|352:164|356:108,1,75
240,84,130795,2,0,L|240:164,1,75,0|2,0:0|0:0,0:0:0:0:
140,200,131120,5,0,0:0:0:0:
140,200,131201,1,0,0:0:0:0:
140,200,131282,6,0,P|192:228|240:216,1,75
296,168,131606,2,0,P|348:156|396:168,1,75
424,220,131931,5,0,0:0:0:0:
440,56,132093,1,0,0:0:0:0:
296,40,132255,1,0,0:0:0:0:
296,108,132417,1,0,0:0:0:0:
296,176,132579,1,0,0:0:0:0:
296,248,132741,1,0,0:0:0:0:
296,248,132904,6,0,P|224:252|168:248,2,112.5
396,216,133552,5,0,0:0:0:0:
476,152,133714,1,0,0:0:0:0:
396,92,133877,1,2,0:0:0:0:
300,72,134039,2,0,P|256:72|160:84,1,112.5
176,144,134444,5,0,0:0:0:0:
176,144,134525,1,0,0:0:0:0:
176,144,134606,2,0,P|168:196|192:288,1,112.5
312,328,135012,5,0,0:0:0:0:
200,276,135174,1,0,0:0:0:0:
256,328,135336,2,0,P|292:308|312:260,1,75
232,184,135660,6,0,P|188:160|136:160,1,75
216,68,135985,2,0,P|244:32|288:16,1,75,0|2,0:0|0:0,0:0:0:0:
344,68,136309,5,0,0:0:0:0:
360,80,136390,1,0,0:0:0:0:
376,92,136471,1,0,0:0:0:0:
396,104,136552,1,6,0:0:0:0:
412,120,136633,6,0,P|448:144|488:132,1,75,0|6,0:0|0:0,0:0:0:0:
304,112,136958,5,0,0:0:0:0:
240,256,137120,1,0,0:0:0:0:
144,124,137282,2,0,P|200:88|256:92,1,112.5
336,164,137850,6,0,P|320:236|328:252,1,75
336,296,138174,5,0,0:0:0:0:
212,292,138336,1,0,0:0:0:0:
196,280,138417,1,0,0:0:0:0:
180,268,138498,1,0,0:0:0:0:
168,260,138579,1,0,0:0:0:0:
152,252,138660,1,0,0:0:0:0:
136,240,138741,2,0,P|76:192|72:132,1,112.5
280,80,139147,6,0,L|192:192,1,112.5
136,236,139471,1,0,0:0:0:0:
56,132,139633,2,0,P|128:120|152:100,1,75
260,232,139958,6,0,P|248:176|384:284,1,506.25
148,256,142390,6,0,L|152:220,1,18.75
216,152,142552,2,0,L|216:188,1,18.75
328,232,142958,6,0,P|384:220|448:176,1,131.25
368,152,143363,5,0,0:0:0:0:
368,152,143525,2,0,L|268:192,1,75,0|6,0:0|0:0,0:0:0:0:
200,184,143850,6,0,P|168:244|180:276,1,75,0|6,0:0|0:0,0:0:0:0:
288,260,144174,2,0,P|308:296|296:340,1,75,0|6,0:0|0:0,0:0:0:0:
200,300,144498,5,6,0:0:0:0:
176,288,144579,1,0,0:0:0:0:
156,280,144660,1,6,0:0:0:0:
140,272,144741,1,0,0:0:0:0:
124,264,144822,1,0,0:0:0:0:
112,260,144904,1,0,0:0:0:0:
100,252,144985,1,0,0:0:0:0:
84,248,145066,2,0,P|64:208|80:152,1,75
168,80,145390,6,0,P|204:152|196:168,1,75
312,224,145714,5,0,0:0:0:0:
340,199,145795,1,0,0:0:0:0:
376,191,145876,1,0,0:0:0:0:
412,200,145957,1,0,0:0:0:0:
440,225,146038,1,0,0:0:0:0:
284,96,146201,6,0,P|328:96|376:120,1,75
156,92,146525,5,6,0:0:0:0:
184,109,146606,1,0,0:0:0:0:
204,140,146687,1,0,0:0:0:0:
206,177,146768,1,0,0:0:0:0:
189,210,146849,1,0,0:0:0:0:
168,240,146931,6,0,P|136:264|96:280,1,75
72,168,147255,5,0,0:0:0:0:
108,159,147336,1,0,0:0:0:0:
145,155,147417,1,0,0:0:0:0:
183,158,147498,1,0,0:0:0:0:
219,167,147579,1,8,0:0:0:0:
256,176,147660,6,0,P|304:200|328:264,1,112.5,2|0,0:0|0:0,0:0:0:0:
336,312,148066,6,0,P|380:340|424:348,1,75
452,232,148390,1,8,0:0:0:0:
360,252,148552,2,0,P|352:212|368:164,1,75
240,84,148877,6,0,L|256:144,2,37.5
168,172,149201,5,0,0:0:0:0:
168,172,149282,1,0,0:0:0:0:
168,172,149363,2,0,P|232:172|288:156,1,112.5,2|0,0:0|0:0,0:0:0:0:
292,96,149768,5,0,0:0:0:0:
376,104,149931,1,0,0:0:0:0:
424,176,150093,1,0,0:0:0:0:
368,240,150255,1,0,0:0:0:0:
272,232,150417,1,0,0:0:0:0:
272,232,150498,6,0,P|224:252|184:256,1,75
156,100,150822,6,0,P|152:156|132:196,1,75
220,304,151147,2,0,P|272:296|308:304,1,75
212,204,151471,5,0,0:0:0:0:
248,195,151552,1,0,0:0:0:0:
285,192,151633,1,0,0:0:0:0:
324,192,151714,1,2,0:0:0:0:
364,200,151795,6,0,P|420:200|448:156,1,112.5
444,136,152120,6,0,P|432:88|344:88,1,150
80,256,152606,6,0,L|104:156,1,75
116,192,152850,6,0,L|204:212,1,75
268,64,153174,6,0,P|296:24|308:-20,1,75
408,112,153498,2,0,P|432:84|476:56,1,75
184,144,153822,6,0,L|192:224,1,75
68,236,154147,1,0,0:0:0:0:
284,120,154309,1,0,0:0:0:0:
284,120,154390,1,0,0:0:0:0:
284,120,154471,1,0,0:0:0:0:
284,120,154633,6,0,P|352:168|360:196,1,112.5
248,240,155039,2,0,P|216:260|196:308,1,75
124,48,155444,1,0,0:0:0:0:
155,155,155606,2,0,L|123:47,1,112.5
288,224,156012,2,0,L|312:124,1,75
84,152,156336,6,0,P|64:116|152:96,1,150
239,246,156822,2,0,P|167:238|131:210,1,112.5
304,152,157228,6,0,B|360:168|416:208|416:208|460:192,1,150
204,220,157714,2,0,P|176:248|168:304,1,75
376,288,158039,1,0,0:0:0:0:
376,288,158201,1,10,0:0:0:0:
416,140,158282,6,0,P|392:188|396:244,1,75
248,244,158606,6,0,P|288:244|324:204,1,75
168,104,158931,2,0,P|172:172|160:216,1,112.5
356,128,159336,6,0,P|404:108|364:64,1,112.5
320,212,159822,5,0,0:0:0:0:
400,304,159985,1,0,0:0:0:0:
400,160,160147,1,0,0:0:0:0:
272,196,160309,2,0,P|256:248|300:296,1,112.5
208,256,160795,6,0,L|264:248,1,37.5
228,244,161444,5,0,0:0:0:0:
224,232,161525,1,0,0:0:0:0:
224,224,161606,1,0,0:0:0:0:
224,220,161687,1,0,0:0:0:0:
224,216,161768,1,0,0:0:0:0:
224,212,161850,5,0,0:0:0:0:
224,212,161931,1,0,0:0:0:0:
224,208,162012,1,0,0:0:0:0:
220,192,162093,2,0,B|156:168|156:168|76:196,1,150
256,340,162579,6,0,P|312:300|344:296,1,75
384,176,162904,2,0,P|436:200|464:188,1,75
480,72,163228,6,0,P|464:136|480:176,1,75
196,352,163633,1,0,0:0:0:0:
464,36,163877,5,4,0:0:0:0:
336,344,164120,1,0,0:0:0:0:
140,216,164363,2,0,P|132:168|152:124,1,75
268,72,164687,2,0,P|280:120|280:156,1,75
216,256,165012,2,0,P|212:200|232:176,1,75
308,84,165336,1,0,0:0:0:0:
236,180,165498,1,0,0:0:0:0:
340,228,165660,1,0,0:0:0:0:
404,96,165822,1,0,0:0:0:0:
308,84,165985,6,0,L|308:136,1,37.5
56,204,166633,5,0,0:0:0:0:
152,200,166795,1,0,0:0:0:0:
236,196,166958,1,0,0:0:0:0:
276,248,167201,6,0,P|344:252|408:208,1,101.250000386238,8|0,0:0|0:0,0:0:0:0:
448,192,167525,1,2,0:0:0:0:
448,192,167687,2,2,P|428:240|372:292,1,101.250000386238
300,200,168012,6,0,P|232:176|196:208,1,101.250000386238
80,120,168336,2,0,L|104:112,1,18.75
192,200,168498,2,0,L|168:208,1,18.75
116,112,168660,2,0,L|148:112,1,18.75
152,212,168822,2,0,L|128:212,1,18.75
372,168,169066,6,0,P|304:148|256:176,1,108.750003318787,6|0,0:0|0:0,0:0:0:0:
264,212,169390,2,0,B|260:284|260:284|296:344,2,108.750003318787,14|0|0,0:0|0:0|0:0,0:0:0:0:
192,152,169877,5,0,0:0:0:0:
192,152,169958,1,8,0:0:0:0:
192,152,170039,2,0,P|144:184|152:232,1,108.750003318787,0|8,0:0|0:0,0:0:0:0:
404,224,170363,6,0,P|328:168|288:160,1,108.750003318787
280,160,170606,2,0,P|288:228|264:288,1,108.750003318787
156,280,170931,6,0,P|104:264|56:208,1,108.750003318787
60,208,171174,2,0,P|112:160|136:104,1,108.750003318787
252,176,171498,6,0,P|328:160|312:120,1,131.25
48,176,172228,6,0,L|168:184,1,108.750003318787
156,183,172471,1,0,0:0:0:0:
156,183,172552,1,8,0:0:0:0:
292,244,172714,6,0,P|344:216|364:156,1,108.750003318787
232,144,173039,2,0,P|232:80|272:44,1,108.750003318787,0|6,0:0|0:0,0:0:0:0:
344,68,173363,6,0,P|420:112|432:132,2,108.750003318787
256,184,173850,6,0,P|304:184|288:148,1,93.75
148,120,174417,6,0,L|176:112,1,18.75
232,160,174579,2,0,L|208:168,1,18.75
188,96,174741,2,0,L|216:96,1,18.75
168,184,174904,2,0,L|132:180,1,18.75
188,280,175147,6,0,P|256:296|288:352,1,108.750003318787
412,292,175471,1,0,0:0:0:0:
344,200,175633,1,0,0:0:0:0:
352,368,175795,1,0,0:0:0:0:
112,224,175958,5,0,0:0:0:0:
136,216,176039,1,0,0:0:0:0:
160,216,176120,1,0,0:0:0:0:
236,68,176282,5,0,0:0:0:0:
248,88,176363,1,0,0:0:0:0:
256,104,176444,1,0,0:0:0:0:
364,200,176606,5,0,0:0:0:0:
368,184,176687,1,0,0:0:0:0:
368,172,176768,1,0,0:0:0:0:
268,224,176931,6,0,L|292:296,5,54.3750016593934
160,264,177498,6,0,L|208:336,4,54.3750016593934,0|0|0|0|4,0:0|0:0|0:0|0:0|0:0,0:0:0:0:
204,152,177985,6,0,P|256:100|264:40,1,108.750003318787
124,176,178309,1,0,0:0:0:0:
124,176,178471,6,0,L|132:288,1,108.750003318787
284,232,178795,2,0,L|132:252,1,108.750003318787
288,112,179120,6,0,P|344:108|384:152,1,108.750003318787
412,228,179444,2,0,L|480:228,2,54.3750016593934
384,296,179768,6,0,L|416:340,2,54.3750016593934
280,304,180093,5,0,0:0:0:0:
268,288,180174,1,0,0:0:0:0:
248,276,180255,1,0,0:0:0:0:
176,240,180417,2,0,L|176:124,1,108.750003318787
88,100,180822,5,0,0:0:0:0:
112,92,180904,1,0,0:0:0:0:
128,88,180985,1,0,0:0:0:0:
216,92,181147,6,0,P|284:100|344:124,1,108.750003318787
416,128,181471,2,0,P|492:96|408:56,1,217.500006637573
348,160,181958,2,0,P|324:224|320:292,1,108.750003318787
224,196,182282,6,0,P|144:216|120:244,1,108.750003318787
144,136,182606,2,0,L|148:24,1,108.750003318787
164,80,182931,5,0,0:0:0:0:
188,92,183012,1,0,0:0:0:0:
216,108,183093,1,0,0:0:0:0:
244,120,183174,6,0,P|308:112|340:72,1,108.750003318787
384,188,183498,2,0,P|444:224|456:268,1,108.750003318787
268,276,183822,6,0,P|192:240|124:248,1,108.750003318787
144,168,184147,2,0,P|184:128|200:76,1,108.750003318787
376,56,184471,6,0,B|388:120|388:120|364:200,1,108.750003318787
160,276,184795,2,0,B|140:224|140:224|156:164,1,108.750003318787
376,168,185120,6,0,B|420:248|420:248|372:324,1,163.12500497818,0|8,0:0|0:0,0:0:0:0:
124,176,185525,2,0,B|96:76|96:76|208:16,1,217.500006637573
224,168,186012,1,0,0:0:0:0:
348,176,186174,1,0,0:0:0:0:
300,60,186336,1,0,0:0:0:0:
288,268,186498,1,0,0:0:0:0:
288,268,186660,6,0,P|344:280|408:268,2,108.750003318787
196,244,187147,6,0,L|156:300,3,54.3750016593934
136,288,187471,2,0,L|80:336,3,54.3750016593934
88,216,187958,6,0,P|148:184|168:108,1,108.750003318787
240,88,188282,2,0,P|312:92|364:72,1,108.750003318787
376,144,188606,2,0,P|412:196|472:224,1,108.750003318787
324,240,188931,5,0,0:0:0:0:
240,168,189093,1,0,0:0:0:0:
168,248,189255,1,0,0:0:0:0:
240,168,189417,1,0,0:0:0:0:
324,240,189579,1,0,0:0:0:0:
324,240,189741,6,0,P|244:264|204:268,1,108.750003318787
88,172,190066,2,0,P|168:184|224:168,1,108.750003318787
328,52,190390,2,0,P|360:104|356:160,1,108.750003318787,0|2,0:0|0:0,0:0:0:0:
192,152,190795,2,0,P|184:92|208:44,1,108.750003318787,0|8,0:0|0:0,0:0:0:0:
368,192,191120,2,6,P|368:308|356:324,1,108.750003318787,0|0,0:0|0:0,0:0:0:0:
152,264,191444,6,0,L|268:268,1,108.750003318787
460,96,191768,2,0,L|320:96,1,108.750003318787
112,216,192093,2,0,P|144:164|172:160,1,54.3750016593934
224,196,192336,5,0,0:0:0:0:
344,200,192498,1,0,0:0:0:0:
124,176,192985,6,0,B|176:192|232:184|232:184|288:116|288:116|252:48|252:48|360:28,1,375
116,260,198985,6,0,P|140:276|196:276,1,75
232,192,199309,2,0,P|280:184|324:200,1,75
360,92,199633,6,0,P|304:60|256:56,1,112.5
172,104,200039,5,0,0:0:0:0:
164,120,200120,1,0,0:0:0:0:
160,136,200201,1,0,0:0:0:0:
164,152,200282,5,0,0:0:0:0:
160,160,200363,1,0,0:0:0:0:
152,176,200444,1,8,0:0:0:0:
160,200,200525,1,0,0:0:0:0:
164,216,200606,5,0,0:0:0:0:
164,236,200687,5,0,0:0:0:0:
156,248,200768,5,0,0:0:0:0:
144,272,200850,6,0,P|204:284|272:280,1,112.5
404,120,201255,2,0,P|312:120|264:132,1,112.5,0|8,0:0|0:0,0:0:0:0:
136,168,201660,6,0,P|200:160|224:176,1,75
336,144,201985,2,0,P|376:176|388:216,1,75
400,312,202309,2,0,P|340:296|312:268,1,75
160,16,202633,6,0,P|144:64|164:120,1,97.8750008213997
280,152,203039,1,0,0:0:0:0:
280,152,203201,2,0,L|400:156,1,87.7500003347397
296,236,203525,6,0,P|232:232|156:208,1,131.62500050211
144,204,203850,6,0,B|256:64,1,175.500000669479
336,148,204336,6,0,P|396:164|452:168,1,87.7500003347397
268,192,204741,2,0,P|212:200|172:192,1,87.7500003347397
144,128,205066,1,0,0:0:0:0:
128,124,205147,1,0,0:0:0:0:
112,120,205228,5,0,0:0:0:0:
96,116,205309,1,0,0:0:0:0:
88,112,205390,1,0,0:0:0:0:
76,108,205471,6,0,P|32:80|12:48,1,87.7500003347397
272,272,205795,2,0,B|324:236|324:236|348:176,1,87.7500003347397
200,168,206120,5,0,0:0:0:0:
288,104,206282,1,0,0:0:0:0:
192,84,206444,1,0,0:0:0:0:
192,84,206525,1,0,0:0:0:0:
192,84,206606,1,2,0:0:0:0:
300,200,206768,1,0,0:0:0:0:
172,244,206931,6,0,P|216:256|256:292,1,87.7500003347397
376,172,207255,2,0,P|424:152|456:112,1,87.7500003347397
504,64,207579,1,0,0:0:0:0:
308,32,207741,1,0,0:0:0:0:
472,328,207904,1,0,0:0:0:0:
472,328,208066,6,0,P|388:320|344:300,1,131.62500050211
324,184,208471,2,0,P|396:176|448:192,1,87.7500003347397,0|8,0:0|0:0,0:0:0:0:
168,180,208877,6,0,P|220:152|236:120,1,87.7500003347397
348,232,209201,2,0,P|392:228|428:200,1,87.7500003347397
236,228,209444,5,0,0:0:0:0:
224,212,209525,1,0,0:0:0:0:
216,200,209606,1,0,0:0:0:0:
204,192,209687,1,0,0:0:0:0:
192,184,209768,1,0,0:0:0:0:
116,168,209931,6,0,L|120:244,2,43.8750001673698
120,84,210255,5,0,0:0:0:0:
144,280,210417,5,0,0:0:0:0:
316,328,210498,2,0,L|200:300,1,87.7500003347397,8|0,0:0|0:0,0:0:0:0:
248,184,210822,6,0,L|272:80,2,87.7500003347397,0|8|0,0:0|0:0|0:0,0:0:0:0:
356,120,211309,6,0,P|416:120|484:156,1,112.500004291535
312,56,211795,6,0,P|248:100|232:156,1,108.750003318787,0|8,0:0|0:0,0:0:0:0:
64,224,212120,2,0,P|124:248|176:240,1,108.750003318787,0|8,0:0|0:0,0:0:0:0:
372,312,212444,2,0,P|312:244|264:240,1,108.750003318787
348,64,212768,5,0,0:0:0:0:
144,260,212931,1,8,0:0:0:0:
400,264,213093,1,0,0:0:0:0:
128,60,213255,1,8,0:0:0:0:
72,160,213417,6,0,L|204:168,1,108.750003318787,0|8,0:0|0:0,0:0:0:0:
484,276,213741,5,8,0:0:0:0:
484,244,213823,1,0,0:0:0:0:
479,213,213903,1,8,0:0:0:0:
468,183,213985,1,0,0:0:0:0:
451,157,214065,1,8,0:0:0:0:
428,132,214147,1,0,0:0:0:0:
405,114,214227,1,8,0:0:0:0:
377,99,214309,1,0,0:0:0:0:
347,91,214389,1,8,0:0:0:0:
96,112,214552,6,0,L|252:112,1,150,0|8,0:0|0:0,0:0:0:0:
240,232,214877,2,0,L|80:240,1,150,0|8,0:0|0:0,0:0:0:0:
304,208,215201,2,0,L|480:204,1,150,0|8,0:0|0:0,0:0:0:0:
456,356,215525,2,0,L|264:352,1,150,0|12,0:0|0:0,0:0:0:0:
88,112,215850,6,0,P|72:184|88:248,1,108.750003318787,0|10,0:0|0:0,0:0:0:0:
284,268,216174,2,0,P|340:216|372:160,1,108.750003318787,0|10,0:0|0:0,0:0:0:0:
176,344,216498,6,0,P|188:280|216:224,1,108.750003318787
148,148,216822,5,8,0:0:0:0:
148,148,216903,1,8,0:0:0:0:
148,148,216985,1,10,0:0:0:0:
148,148,217147,6,0,P|208:176|264:168,1,108.750003318787,0|8,0:0|0:0,0:0:0:0:
296,112,217471,6,0,P|348:128|392:176,1,108.750003318787,0|10,0:0|0:0,0:0:0:0:
444,248,217795,2,0,P|484:196|488:136,1,108.750003318787,0|8,0:0|0:0,0:0:0:0:
392,96,218120,5,0,0:0:0:0:
204,264,218282,1,8,0:0:0:0:
36,136,218444,1,0,0:0:0:0:
204,264,218606,5,0,0:0:0:0:
204,264,218687,1,8,0:0:0:0:
204,264,218768,1,0,0:0:0:0:
204,264,218931,2,0,P|296:296|332:316,1,108.750003318787,0|8,0:0|0:0,0:0:0:0:
305,301,219255,2,0,P|333:245|337:185,1,108.750003318787,0|8,0:0|0:0,0:0:0:0:
280,168,219579,5,8,0:0:0:0:
184,144,219741,1,0,0:0:0:0:
104,144,219904,1,8,0:0:0:0:
24,116,220066,1,0,0:0:0:0:
24,116,220147,6,0,P|76:96|152:104,1,108.750003318787,0|8,0:0|0:0,0:0:0:0:
216,176,220471,2,0,P|284:172|360:156,1,108.750003318787,0|8,0:0|0:0,0:0:0:0:
236,236,220795,6,0,L|248:324,2,54.3750016593934,8|0|0,0:0|0:0|0:0,0:0:0:0:
104,196,221120,6,0,L|116:116,2,54.3750016593934,0|8|0,0:0|0:0|0:0,0:0:0:0:
240,236,221444,2,0,P|312:216|400:148,1,163.12500497818
356,196,221850,6,0,P|296:152|256:144,1,108.750003318787,0|8,0:0|0:0,0:0:0:0:
356,196,222174,2,0,P|420:184|480:148,1,108.750003318787,0|10,0:0|0:0,0:0:0:0:
356,196,222498,2,0,P|380:284|368:328,1,108.750003318787,0|10,0:0|0:0,0:0:0:0:
284,316,222822,6,0,P|216:292|132:304,2,108.750003318787,0|8|0,0:0|0:0|0:0,0:0:0:0:
356,316,223309,5,0,0:0:0:0:
376,300,223390,1,0,0:0:0:0:
392,284,223471,1,8,0:0:0:0:
312,128,223633,5,0,0:0:0:0:
328,144,223714,1,8,0:0:0:0:
344,160,223795,1,0,0:0:0:0:
200,216,223958,6,0,L|264:216,2,54.3750016593934
144,120,224282,6,0,L|60:120,2,54.3750016593934
128,196,224606,6,0,L|136:312,1,108.750003318787,0|8,0:0|0:0,0:0:0:0:
244,108,224931,2,0,L|116:112,1,108.750003318787,0|8,0:0|0:0,0:0:0:0:
284,228,225255,6,0,P|368:168|380:120,1,108.750003318787,0|8,0:0|0:0,0:0:0:0:
292,144,225579,1,8,0:0:0:0:
292,144,225741,2,0,P|236:108|176:108,2,108.750003318787,0|8|0,0:0|0:0|0:0,0:0:0:0:
56,192,226228,6,0,P|128:200|208:200,1,108.750003318787,0|8,0:0|0:0,0:0:0:0:
308,124,226552,1,8,0:0:0:0:
296,44,226714,2,0,P|232:88|232:164,1,108.750003318787,0|10,0:0|0:0,0:0:0:0:
464,204,227039,2,0,P|384:200|316:216,1,108.750003318787,0|8,0:0|0:0,0:0:0:0:
240,312,227363,6,0,L|248:172,1,108.750003318787,0|8,0:0|0:0,0:0:0:0:
64,288,227687,2,0,L|160:176,1,108.750003318787,0|8,0:0|0:0,0:0:0:0:
0,136,228012,2,0,L|128:128,1,108.750003318787
84,224,228336,5,8,0:0:0:0:
104,52,228498,1,8,0:0:0:0:
4,136,228660,1,8,0:0:0:0:
208,144,228822,1,8,0:0:0:0:
208,144,228904,1,0,0:0:0:0:
208,144,228985,1,0,0:0:0:0:
208,144,229147,6,8,P|268:176|292:228,1,108.750003318787
324,268,229471,6,0,P|368:308|424:316,1,108.750003318787,0|8,0:0|0:0,0:0:0:0:
468,224,229795,2,0,L|472:104,1,108.750003318787,0|8,0:0|0:0,0:0:0:0:
288,104,230120,6,0,P|368:76|424:64,1,108.750003318787,0|8,0:0|0:0,0:0:0:0:
248,216,230444,5,8,0:0:0:0:
104,40,230606,1,8,0:0:0:0:
84,280,230768,1,8,0:0:0:0:
220,104,230931,1,8,0:0:0:0:
44,144,231093,1,8,0:0:0:0:
44,144,231255,6,0,L|84:276,1,108.750003318787,0|8,0:0|0:0,0:0:0:0:
288,312,231579,2,0,L|220:184,1,108.750003318787,0|8,0:0|0:0,0:0:0:0:
404,136,231904,2,0,P|324:156|276:184,1,108.750003318787,0|14,0:0|0:0,0:0:0:0:
472,172,232228,2,0,P|500:108|488:44,1,108.750003318787
216,112,232552,2,0,P|284:104|328:84,1,108.750003318787,0|10,0:0|0:0,0:0:0:0:
312,224,232877,5,8,0:0:0:0:
376,156,233039,2,0,P|396:216|392:264,1,108.750003318787,0|8,0:0|0:0,0:0:0:0:
312,224,233363,2,0,P|212:248|200:280,1,108.750003318787,2|8,0:0|0:0,0:0:0:0:
116,204,233687,6,0,P|120:136|160:104,1,108.750003318787
232,196,234012,2,0,P|320:172|372:140,1,108.750003318787
288,80,234336,5,8,0:0:0:0:
176,100,234498,1,8,0:0:0:0:
128,180,234660,1,8,0:0:0:0:
140,264,234822,1,8,0:0:0:0:
204,308,234985,1,8,0:0:0:0:
288,304,235147,5,8,0:0:0:0:
288,304,235228,1,8,0:0:0:0:
288,304,235309,2,0,P|372:300|392:312,1,108.750003318787,0|8,0:0|0:0,0:0:0:0:
440,192,235633,6,8,L|408:308,1,108.750003318787,8|10,0:0|0:0,0:0:0:0:
360,136,235958,2,0,L|276:228,1,108.750003318787,0|10,0:0|0:0,0:0:0:0:
308,88,236282,2,0,L|208:156,1,108.750003318787,0|10,0:0|0:0,0:0:0:0:
88,188,236606,6,0,P|96:128|128:88,1,108.750003318787,0|14,0:0|0:0,0:0:0:0:
252,196,237336,5,0,0:0:0:0:
120,60,238633,5,2,0:0:0:0:
464,144,239931,5,0,0:0:0:0:
256,192,241715,6,0,P|332:232|344:264,1,108.750003318787
264,276,242039,2,0,P|272:332|224:380,1,108.750003318787
152,284,242363,5,0,0:0:0:0:
128,196,242525,1,0,0:0:0:0:
128,196,242606,1,0,0:0:0:0:
128,196,242687,1,0,0:0:0:0:
200,148,242850,1,0,0:0:0:0:
104,112,243012,1,0,0:0:0:0:
104,112,243093,1,0,0:0:0:0:
104,112,243174,1,8,0:0:0:0:
104,112,243336,6,0,P|176:108|224:128,1,108.750003318787
232,144,243660,5,0,0:0:0:0:
248,160,243741,1,0,0:0:0:0:
272,176,243822,1,0,0:0:0:0:
292,180,243904,1,0,0:0:0:0:
376,248,244066,6,0,P|432:228|480:184,1,108.750003318787,0|8,0:0|0:0,0:0:0:0:
296,180,244795,6,0,P|248:232|232:308,1,108.750003318787
172,144,245120,6,0,P|124:140|76:172,1,84.3750032186509
128,204,245525,5,0,0:0:0:0:
88,256,245768,1,0,0:0:0:0:
140,256,245931,1,0,0:0:0:0:
140,256,246093,5,0,0:0:0:0:
120,316,246255,1,0,0:0:0:0:
180,348,246417,1,0,0:0:0:0:
240,360,246579,1,0,0:0:0:0:
336,276,246741,5,0,0:0:0:0:
336,276,246822,1,0,0:0:0:0:
336,276,246904,2,0,P|344:232|344:224,1,37.5
224,84,247228,5,0,0:0:0:0:
224,84,247309,1,0,0:0:0:0:
224,84,247390,2,0,L|232:136,1,37.5
464,136,247712,6,0,P|392:144|316:168,1,108.750003318787,0|8,0:0|0:0,0:0:0:0:
152,264,248137,2,0,P|224:272|280:252,1,112.5,0|8,0:0|0:0,0:0:0:0:
304,176,248461,6,0,P|312:112|276:56,1,108.750003318787
208,228,248786,2,0,P|276:260|352:268,2,108.750003318787,0|8|0,0:0|0:0|0:0,0:0:0:0:
216,156,249272,5,0,0:0:0:0:
296,80,249434,1,0,0:0:0:0:
320,76,249515,1,0,0:0:0:0:
340,76,249596,1,0,0:0:0:0:
360,88,249677,1,0,0:0:0:0:
380,104,249759,6,0,P|424:160|424:244,1,108.750003318787,8|0,0:0|0:0,0:0:0:0:
308,240,250083,2,0,P|220:272|164:264,1,108.750003318787
152,188,250407,2,0,P|164:128|260:88,1,163.12500497818,0|8,0:0|0:0,0:0:0:0:
344,160,250813,6,0,P|448:168|476:136,1,108.750003318787
260,184,251137,1,0,0:0:0:0:
260,184,251299,2,0,L|256:300,1,108.750003318787
68,256,251623,6,0,L|100:128,2,108.750003318787,0|8|0,0:0|0:0|0:0,0:0:0:0:
188,280,252110,6,0,P|268:264|312:232,1,108.750003318787
280,160,252434,2,0,P|264:68|180:56,1,163.12500497818
192,124,252840,2,0,P|192:188|176:256,2,108.750003318787
92,128,253326,5,0,0:0:0:0:
68,140,253407,1,0,0:0:0:0:
56,164,253488,1,0,0:0:0:0:
56,196,253569,1,0,0:0:0:0:
68,232,253650,1,0,0:0:0:0:
56,288,253732,1,0,0:0:0:0:
72,336,253813,1,0,0:0:0:0:
112,356,253894,6,0,B|168:344|212:336|240:296,1,108.750003318787
384,232,254218,2,0,P|388:300|356:356,2,108.750003318787
212,224,254623,5,0,0:0:0:0:
352,116,254786,1,0,0:0:0:0:
220,64,254948,1,0,0:0:0:0:
220,36,255029,1,0,0:0:0:0:
232,12,255110,1,8,0:0:0:0:
248,216,255272,6,0,P|308:224|380:200,1,108.750003318787
200,144,255596,2,0,P|160:204|160:300,1,163.12500497818
244,116,256002,2,0,B|228:48|284:36|284:36|320:60|392:44,1,163.12500497818,0|8,0:0|0:0,0:0:0:0:
296,164,256407,6,0,L|296:284,2,108.750003318787,0|8|0,0:0|0:0|0:0,0:0:0:0:
232,168,256894,5,0,0:0:0:0:
192,160,256975,1,0,0:0:0:0:
152,164,257056,1,0,0:0:0:0:
124,176,257137,1,0,0:0:0:0:
104,188,257218,1,0,0:0:0:0:
84,208,257299,6,0,L|88:296,1,54.3750016593934
176,292,257461,2,0,L|176:368,1,54.3750016593934
260,328,257623,2,0,L|328:328,1,54.3750016593934
112,216,258012,6,0,P|180:200|204:156,1,108.750003318787,0|8,0:0|0:0,0:0:0:0:
272,120,258336,6,0,P|336:108|384:148,1,108.750003318787,0|8,0:0|0:0,0:0:0:0:
368,184,258660,6,0,P|368:256|352:320,2,108.750003318787,0|8|0,0:0|0:0|0:0,0:0:0:0:
244,184,259066,5,0,0:0:0:0:
220,192,259147,1,8,0:0:0:0:
192,200,259228,1,0,0:0:0:0:
160,208,259309,1,8,0:0:0:0:
140,212,259390,6,0,P|88:240|72:300,1,108.750003318787,0|8,0:0|0:0,0:0:0:0:
184,116,259714,2,0,P|240:92|272:36,1,108.750003318787,0|8,0:0|0:0,0:0:0:0:
328,176,260039,6,0,L|464:160,1,108.750003318787,0|8,0:0|0:0,0:0:0:0:
216,252,260363,2,0,L|60:272,1,108.750003318787,0|8,0:0|0:0,0:0:0:0:
84,200,260687,6,0,P|112:140|168:112,1,108.750003318787
204,52,261012,1,0,0:0:0:0:
240,124,261174,2,0,P|300:116|340:60,1,108.750003318787,0|8,0:0|0:0,0:0:0:0:
396,40,261498,2,0,B|464:16|464:16|464:144,1,163.12500497818
360,184,261904,2,0,P|416:180|472:152,1,108.750003318787
304,184,262228,2,0,P|388:184|444:152,1,108.750003318787,0|8,0:0|0:0,0:0:0:0:
172,152,262552,6,0,L|172:88,1,54.3750016593934
172,206,262714,2,0,L|172:114,1,54.3750016593934
176,244,262876,2,0,L|172:160,1,54.3750016593934
172,280,263039,2,0,L|172:192,1,54.3750016593934
172,334,263201,2,0,L|172:238,1,54.3750016593934
336,264,263525,6,0,L|360:192,1,54.3750016593934
320,316,263687,2,0,L|348:224,1,54.3750016593934
248,156,264012,6,0,L|224:96,1,54.3750016593934
259,209,264174,2,0,L|239:113,1,54.3750016593934
176,216,264498,6,0,P|112:212|64:248,1,108.750003318787,0|8,0:0|0:0,0:0:0:0:
352,252,264822,2,0,P|432:232|448:176,1,108.750003318787,0|8,0:0|0:0,0:0:0:0:
296,36,265147,6,0,L|304:156,1,108.750003318787,0|8,0:0|0:0,0:0:0:0:
240,336,265471,2,0,L|220:188,1,108.750003318787,0|8,0:0|0:0,0:0:0:0:
224,212,265714,1,8,0:0:0:0:
216,192,265796,1,0,0:0:0:0:
208,176,265877,1,8,0:0:0:0:
200,164,265958,1,0,0:0:0:0:
424,180,266201,6,0,L|296:204,1,108.750003318787,0|8,0:0|0:0,0:0:0:0:
232,216,266525,1,0,0:0:0:0:
116,240,266687,2,0,L|4:212,1,108.750003318787,0|8,0:0|0:0,0:0:0:0:
140,148,267012,1,0,0:0:0:0:
244,112,267174,2,0,L|376:84,1,108.750003318787,0|8,0:0|0:0,0:0:0:0:
412,144,267498,6,0,L|456:256,2,108.750003318787,0|8|0,0:0|0:0|0:0,0:0:0:0:
348,136,267985,6,0,P|276:108|228:124,1,108.750003318787
112,184,268309,2,0,P|100:120|144:68,1,108.750003318787
244,184,268633,6,0,P|296:160|320:100,1,108.750003318787
312,92,268877,6,0,P|264:48|208:56,1,108.750003318787,0|8,0:0|0:0,0:0:0:0:
172,116,269201,6,0,P|148:184|160:232,1,108.750003318787
160,236,269444,2,0,P|192:288|288:292,1,163.12500497818,0|8,0:0|0:0,0:0:0:0:
296,212,269850,6,0,B|316:140|316:140|364:104,1,108.750003318787,0|8,0:0|0:0,0:0:0:0:
464,88,270174,6,0,P|424:44|344:24,1,108.750003318787,0|8,0:0|0:0,0:0:0:0:
376,136,270498,1,0,0:0:0:0:
368,232,270660,2,0,P|432:244|504:220,1,108.750003318787,0|8,0:0|0:0,0:0:0:0:
480,264,270985,6,0,L|408:348,1,108.750003318787
328,288,271309,5,0,0:0:0:0:
312,276,271390,1,0,0:0:0:0:
292,264,271471,1,0,0:0:0:0:
272,252,271552,1,0,0:0:0:0:
256,244,271633,1,8,0:0:0:0:
144,224,271795,6,0,P|172:160|220:132,1,108.750003318787,0|8,0:0|0:0,0:0:0:0:
328,128,272120,2,0,P|372:64|368:16,1,108.750003318787,0|8,0:0|0:0,0:0:0:0:
252,56,272525,5,0,0:0:0:0:
280,248,272687,1,0,0:0:0:0:
280,248,272768,1,0,0:0:0:0:
280,248,272850,1,0,0:0:0:0:
280,248,273012,6,0,P|208:248|168:272,1,108.750003318787
108,204,273336,6,0,B|128:132|128:132|176:104,1,108.750003318787
256,192,273579,12,0,274877,0:0:0:0:
132,280,275120,6,0,P|212:268|240:228,1,108.750003318787
308,144,275444,1,0,0:0:0:0:
36,160,275606,2,0,L|72:272,1,108.750003318787
152,228,275931,6,0,P|204:200|272:192,2,108.750003318787
104,104,276417,1,0,0:0:0:0:
32,192,276579,1,0,0:0:0:0:
220,156,276741,2,0,B|212:212|248:296|248:296|184:316|112:364,2,271.875008296967,0|0|8,0:0|0:0|0:0,0:0:0:0:
104,172,277714,6,0,P|136:120|180:88,1,108.750003318787
300,152,278039,2,0,P|312:224|300:260,1,108.750003318787
256,192,278363,12,0,279904,0:0:0:0:
92,208,279985,6,0,P|180:216|216:204,1,108.750003318787
216,120,280309,2,0,P|276:116|328:136,1,108.750003318787
308,224,280633,2,0,L|328:332,2,108.750003318787,0|8|0,0:0|0:0|0:0,0:0:0:0:
176,308,281120,5,0,0:0:0:0:
360,12,281282,2,0,B|332:92|332:92|408:172|408:172|376:336,1,326.25000995636
316,268,281931,6,0,L|200:228,1,108.750003318787
412,228,282255,2,0,P|468:232|424:132,1,217.500006637573
320,136,282741,2,0,P|264:120|216:132,2,108.750003318787
184,204,283228,6,0,P|188:272|200:328,1,108.750003318787,8|0,0:0|0:0,0:0:0:0:
276,256,283552,2,0,P|280:200|232:140,1,108.750003318787
344,96,283877,6,0,P|408:96|460:76,1,108.750003318787
312,268,284201,2,0,P|260:300|240:356,1,108.750003318787
240,180,284525,2,0,L|220:60,1,108.750003318787,0|8,0:0|0:0,0:0:0:0:
256,192,284931,12,8,286796,0:0:0:0:
256,192,287039,5,0,0:0:0:0:
256,192,287120,12,0,288579,0:0:0:0:
296,180,288822,5,0,0:0:0:0:
196,64,288985,1,0,0:0:0:0:
144,204,289147,1,0,0:0:0:0:
144,204,289228,6,0,P|192:160|220:120,1,108.750003318787
308,172,289552,2,0,P|364:136|372:88,1,108.750003318787
220,0,289877,2,0,L|220:116,1,108.750003318787
256,192,290120,12,0,293120,0:0:0:0:
72,228,293282,6,0,B|124:268|124:268|236:264,1,163.12500497818,0|8,0:0|0:0,0:0:0:0:
280,180,293687,2,0,B|352:128|352:128|496:132,1,217.500006637573,0|8,0:0|0:0,0:0:0:0:
472,328,294174,2,0,P|468:272|420:232,1,108.750003318787
340,240,294498,5,0,0:0:0:0:
192,220,294660,1,0,0:0:0:0:
192,220,294741,1,0,0:0:0:0:
192,220,294822,1,0,0:0:0:0:
360,172,294985,1,0,0:0:0:0:
212,136,295147,1,0,0:0:0:0:
212,136,295228,1,0,0:0:0:0:
212,136,295309,1,0,0:0:0:0:
356,88,295471,5,0,0:0:0:0:
356,88,295552,5,0,0:0:0:0:
356,88,295650,5,8,0:0:0:0:
344,176,295795,6,0,P|400:168|440:120,1,108.750003318787
284,176,296120,2,0,P|344:176|412:144,1,108.750003318787
256,192,296542,12,8,301651,0:0:0:0:
256,192,301795,5,0,0:0:0:0:
256,192,302039,1,0,0:0:0:0:
256,192,302363,1,0,0:0:0:0:
256,192,302687,1,0,0:0:0:0:
256,192,302891,12,2,303850,0:0:0:0:
