osu file format v14

[General]
AudioFilename: audio.mp3
AudioLeadIn: 0
PreviewTime: 78412
Countdown: 0
SampleSet: Soft
StackLeniency: 0.7
Mode: 0
LetterboxInBreaks: 0
WidescreenStoryboard: 0

[Editor]
DistanceSpacing: 0.9
BeatDivisor: 4
GridSize: 32
TimelineZoom: 2.7

[Metadata]
Title:Youkai no Yama ~ Mysterious Mountain
TitleUnicode:Youkai no Yama ~ Mysterious Mountain
Artist:Demetori
ArtistUnicode:Demetori
Creator:Stoof
Version:Extra Stage
Source:東方Project
Tags:
BeatmapID:1332071
BeatmapSetID:631016

[Difficulty]
HPDrainRate:6
CircleSize:4
OverallDifficulty:9
ApproachRate:9.5
SliderMultiplier:1.8
SliderTickRate:2

[Events]
//Background and Video events
0,0,"momiji.png",0,0
//Break Periods
//Storyboard Layer 0 (Background)
//Storyboard Layer 1 (Fail)
//Storyboard Layer 2 (Pass)
//Storyboard Layer 3 (Foreground)
//Storyboard Layer 4 (Overlay)
//Storyboard Sound Samples

[TimingPoints]
575,324.324324324324,4,2,0,70,1,0
3007,-100,4,2,0,5,0,0
3169,-100,4,2,0,70,0,0
6250,-200,4,2,0,70,0,0
6737,-166.666666666667,4,2,0,70,0,0
10466,-71.4285714285714,4,2,0,70,0,0
11439,-90.9090909090909,4,2,0,70,0,0
20520,-76.9230769230769,4,2,0,70,0,0
21818,-90.9090909090909,4,2,0,70,0,0
29602,-76.9230769230769,4,2,0,70,0,0
31710,-125,4,2,0,70,0,0
32683,-166.666666666667,4,2,0,70,0,0
34791,-142.857142857143,4,2,0,70,0,0
35277,-166.666666666667,4,2,0,70,0,0
36250,-100,4,2,0,70,0,0
37547,-83.3333333333333,4,2,0,70,0,0
42412,-100,4,2,0,70,0,0
42737,-83.3333333333333,4,2,0,70,0,0
45007,-100,4,2,0,70,0,0
45331,-83.3333333333333,4,2,0,70,0,0
48899,-100,4,2,0,70,0,0
50520,-83.3333333333333,4,2,0,70,0,0
51493,-166.666666666667,4,2,0,70,0,0
52791,-100,4,2,0,70,0,0
53115,-76.9230769230769,4,2,0,70,0,0
53602,-83.3333333333333,4,2,0,70,0,0
54412,-80,4,2,0,70,0,0
54899,-86.9565217391304,4,2,0,70,0,0
55710,-83.3333333333333,4,2,0,70,0,0
57007,-83.3333333333333,4,3,0,70,0,0
58304,-166.666666666667,4,2,0,70,0,0
66412,-125,4,3,0,70,0,0
67385,-66.6666666666667,4,2,0,70,0,0
68034,-83.3333333333333,4,2,0,70,0,0
68683,-83.3333333333333,4,2,0,70,0,0
75656,-125,4,2,0,70,0,0
76466,-76.9230769230769,4,2,0,70,0,0
78412,-166.666666666667,4,2,0,45,0,0
79061,-76.9230769230769,4,2,0,70,0,1
86845,-83.3333333333333,4,2,0,70,0,1
88791,-76.9230769230769,4,3,0,70,0,1
89115,-71.4285714285714,4,3,0,70,0,1
89439,-76.9230769230769,4,2,0,70,0,1
93818,-76.9230769230769,4,2,0,70,0,1
98196,-71.4285714285714,4,2,0,70,0,1
99169,-76.9230769230769,4,3,0,70,0,1
99493,-90.9090909090909,4,3,0,70,0,1
99818,-71.4285714285714,4,2,0,70,0,1
103710,-83.3333333333333,4,3,0,70,0,1
104845,-83.3333333333333,4,2,0,70,0,0
123007,-76.9230769230769,4,2,0,70,0,0
124466,-76.9230769230769,4,3,0,70,0,0
125115,-90.9090909090909,4,3,0,70,0,0
125764,-76.9230769230769,4,2,0,70,0,0
130629,-125,4,2,0,70,0,0
130953,-76.9230769230769,4,2,0,70,0,0
133223,-125,4,2,0,70,0,0
133547,-76.9230769230769,4,2,0,70,0,0
135818,-86.9565217391304,4,2,0,70,0,0
136142,-76.9230769230769,4,2,0,70,0,0
137115,-125,4,2,0,70,0,0
138737,-76.9230769230769,4,2,0,70,0,0
139710,-166.666666666667,4,2,0,70,0,0
140520,-200,4,2,0,70,0,0
141331,-66.6666666666667,4,2,0,70,0,0
141818,-71.4285714285714,4,2,0,70,0,0
142629,-76.9230769230769,4,2,0,70,0,0
143926,-66.6666666666667,4,2,0,70,0,0
145223,-76.9230769230769,4,3,0,70,0,0
146520,-125,4,2,0,70,0,0
151629,-125,4,2,0,5,0,0
151710,-125,4,2,0,70,0,0
154223,-125,4,2,0,5,0,0
154304,-125,4,2,0,70,0,0
154791,-90.9090909090909,4,2,0,70,0,0
156899,-83.3333333333333,4,2,0,70,0,0
162088,-76.9230769230769,4,2,0,70,0,0
163872,-166.666666666667,4,2,0,70,0,0
164683,-76.9230769230769,4,2,0,70,0,0
166791,-66.6666666666667,4,2,0,70,0,0
167277,-76.9230769230769,4,2,0,70,0,1
175061,-83.3333333333333,4,2,0,70,0,1
177007,-76.9230769230769,4,3,0,70,0,1
177331,-71.4285714285714,4,3,0,70,0,1
177656,-76.9230769230769,4,2,0,70,0,1
182034,-71.4285714285714,4,2,0,70,0,1
182845,-76.9230769230769,4,2,0,70,0,1
186412,-71.4285714285714,4,2,0,70,0,1
186737,-71.4285714285714,4,3,0,70,0,1
188034,-71.4285714285714,4,2,0,70,0,1
192412,-71.4285714285714,4,2,0,70,0,0
193061,-83.3333333333333,4,2,0,70,0,0
194358,-76.9230769230769,4,2,0,70,0,0
198737,-90.9090909090909,4,2,0,70,0,0
200845,-76.9230769230769,4,2,0,70,0,0
210412,-71.4285714285714,4,2,0,70,0,0
212034,-83.3333333333333,4,2,0,70,0,0
212520,-71.4285714285714,4,2,0,70,0,0
213007,-71.4285714285714,4,3,0,70,0,0
213493,-90.9090909090909,4,3,0,70,0,0
213818,-66.6666666666667,4,2,0,70,0,0
214304,-71.4285714285714,4,2,0,70,0,0
215926,-83.3333333333333,4,2,0,70,0,0
219007,-76.9230769230769,4,2,0,70,0,0
222899,-66.6666666666667,4,2,0,70,0,0
224196,-66.6666666666667,4,2,0,70,0,1
226791,-71.4285714285714,4,2,0,70,0,1
227764,-83.3333333333333,4,2,0,70,0,1
228088,-90.9090909090909,4,2,0,70,0,1
228412,-100,4,2,0,70,0,1
229061,-71.4285714285714,4,2,0,70,0,1
234574,-90.9090909090909,4,2,0,70,0,1
235061,-125,4,2,0,70,0,1
237331,-125,4,2,0,70,0,0
239926,-100,4,3,0,70,0,0
242845,-100,4,2,0,70,0,0
245115,-90.9090909090909,4,2,0,70,0,0
246737,-142.857142857143,4,2,0,70,0,0
247710,-76.9230769230769,4,2,0,70,0,1
256791,-76.9230769230769,4,3,0,70,0,0
258088,-76.9230769230769,4,2,0,70,0,1
262466,-66.6666666666667,4,2,0,70,0,1
263277,-76.9230769230769,4,2,0,70,0,1
265872,-71.4285714285714,4,2,0,70,0,1
267169,-71.4285714285714,4,3,0,70,0,1
268466,-66.6666666666667,4,2,0,70,0,1
277547,-125,4,2,0,70,0,1
278683,-90.9090909090909,4,2,0,70,0,0
287764,-83.3333333333333,4,2,0,70,0,0
289061,-90.9090909090909,4,2,0,70,0,0
292953,-76.9230769230769,4,2,0,70,0,0
294250,-90.9090909090909,4,2,0,70,0,0
296845,-100,4,2,0,40,0,0
300899,379.746835443038,4,2,0,40,1,0
301278,422.535211267606,4,2,0,40,1,0
301700,447.761194029851,4,2,0,40,1,0
302147,500,4,2,0,40,1,0

[Colours]
Combo1 : 255,255,255
Combo2 : 255,177,100
Combo3 : 255,85,85

[HitObjects]
42,114,575,5,8,0:0:0:0:
212,173,737,1,0,0:0:0:0:
100,32,899,1,0,0:0:0:0:
152,250,1061,1,6,0:0:0:0:
256,192,1223,12,0,3007,0:0:0:0:
274,324,3169,5,8,0:0:0:0:
338,155,3331,1,0,0:0:0:0:
449,296,3493,1,0,0:0:0:0:
233,227,3656,1,6,0:0:0:0:
233,227,4142,5,0,0:0:0:0:
232,241,4223,1,0,0:0:0:0:
231,255,4304,1,0,0:0:0:0:
229,269,4385,1,0,0:0:0:0:
227,283,4466,2,0,L|223:335,1,45,8|0,0:0|0:0,0:0:0:0:
144,198,4629,2,0,P|176:159|226:136,1,90,4|0,0:0|0:0,0:0:0:0:
367,137,4953,6,0,P|267:134|178:77,1,180,6|8,0:0|3:0,0:0:0:0:
70,23,5602,5,0,3:0:0:0:
91,101,5764,1,8,3:0:0:0:
70,179,5926,1,0,3:0:0:0:
91,257,6088,1,8,3:0:0:0:
34,349,6250,6,0,L|125:346,1,90,6|0,0:0|0:0,0:0:0:0:
341,264,6737,2,0,L|234:259,1,107.999996704102,6|0,0:0|0:0,0:0:0:0:
374,167,7385,2,0,L|267:162,1,107.999996704102,6|0,0:0|0:0,0:0:0:0:
407,70,8034,2,0,L|305:64,1,80.9999975280763,6|0,0:0|3:0,0:0:0:0:
302,65,8358,5,0,0:0:0:0:
382,239,8520,1,0,3:0:0:0:
477,83,8683,1,0,3:0:0:0:
274,197,8845,6,0,P|212:208|139:169,1,134.999995880127,8|0,0:0|3:0,0:0:0:0:
134,168,9331,1,0,3:0:0:0:
87,41,9493,1,0,3:0:0:0:
61,233,9656,1,0,3:0:0:0:
87,25,9818,1,0,3:0:0:0:
135,298,9980,1,0,3:0:0:0:
87,9,10142,1,0,3:0:0:0:
191,189,10304,5,0,0:0:0:0:
251,204,10385,1,0,0:0:0:0:
308,189,10466,2,0,P|339:185|374:191,1,62.9999980773926,8|0,0:0|0:0,0:0:0:0:
495,272,10629,2,0,P|439:293|373:283,1,125.999996154785,8|0,0:0|0:0,0:0:0:0:
288,37,10953,5,8,0:0:0:0:
271,344,11115,1,8,0:0:0:0:
46,130,11439,6,0,B|70:123|84:107|84:107|105:124|118:149|118:149|132:131|155:125|155:125|187:140|225:122,1,198.000006042481,2|0,0:0|0:0,0:0:0:0:
381,32,11926,2,0,P|397:87|400:132,1,99.0000030212403,8|0,0:0|0:0,0:0:0:0:
393,237,12250,1,0,0:0:0:0:
186,204,12412,2,0,B|241:201|241:201|305:214,1,99.0000030212403,0|8,0:0|0:0,0:0:0:0:
127,303,12737,6,0,B|127:241|104:207|104:207|125:162|119:107,1,198.000006042481
287,38,13223,2,0,P|297:92|294:155,1,99.0000030212403,8|0,0:0|0:0,0:0:0:0:
284,209,13466,1,0,0:0:0:0:
284,209,13547,1,0,0:0:0:0:
398,305,13710,2,0,P|446:313|494:301,1,99.0000030212403,0|8,0:0|0:0,0:0:0:0:
182,61,14034,6,0,P|104:57|52:160,1,198.000006042481
148,314,14520,2,0,P|149:268|144:206,1,99.0000030212403,8|0,0:0|0:0,0:0:0:0:
139,140,14764,1,0,0:0:0:0:
139,140,14845,1,0,0:0:0:0:
264,293,15007,1,0,0:0:0:0:
133,120,15169,1,8,0:0:0:0:
388,289,15331,6,0,P|387:183|366:88,1,198.000006042481
209,207,15818,2,0,P|283:210|325:197,1,99.0000030212403,8|0,0:0|0:0,0:0:0:0:
211,53,16142,1,0,0:0:0:0:
73,195,16304,2,0,L|91:312,1,99.0000030212403,0|8,0:0|0:0,0:0:0:0:
354,317,16629,6,0,B|330:310|316:294|316:294|295:311|282:336|282:336|268:318|245:312|245:312|213:327|175:309,1,198.000006042481,2|0,0:0|0:0,0:0:0:0:
82,183,17115,2,0,P|138:174|197:184,1,99.0000030212403,8|0,0:0|0:0,0:0:0:0:
292,218,17439,1,0,0:0:0:0:
344,47,17602,2,0,P|288:38|229:48,1,99.0000030212403,0|8,0:0|0:0,0:0:0:0:
420,301,17926,6,0,B|440:205|440:205|424:106,1,198.000006042481
239,115,18412,2,0,L|227:216,1,99.0000030212403,8|0,0:0|0:0,0:0:0:0:
218,287,18656,1,0,0:0:0:0:
218,287,18737,1,0,0:0:0:0:
93,131,18899,2,0,B|86:81|86:81|93:34,1,99.0000030212403,0|8,0:0|0:0,0:0:0:0:
26,219,19223,6,0,P|50:308|146:315,1,198.000006042481
226,141,19710,2,0,P|174:154|135:198,1,99.0000030212403,8|0,0:0|0:0,0:0:0:0:
102,247,19953,1,0,0:0:0:0:
102,247,20034,1,0,0:0:0:0:
275,342,20196,2,0,L|391:332,1,99.0000030212403,0|8,0:0|0:0,0:0:0:0:
511,75,20520,6,0,B|464:78|424:101|424:101|360:77|360:77|329:106|271:104,1,233.999989288331,4|0,0:0|0:0,0:0:0:0:
117,34,21007,2,0,P|118:94|151:155,1,116.999994644165,12|0,0:0|0:0,0:0:0:0:
198,208,21250,1,0,3:0:0:0:
198,208,21331,2,0,P|183:240|177:269,1,58.4999973220826,0|0,3:0|3:0,3:0:0:0:
301,339,21493,2,0,P|316:307|322:278,1,58.4999973220826,0|0,3:0|3:0,3:0:0:0:
246,130,21656,1,8,3:0:0:0:
448,326,21818,6,0,B|430:262|451:230|451:230|413:190|417:135,1,198.000006042481,6|0,0:0|0:0,0:0:0:0:
294,207,22304,2,0,P|240:216|185:202,1,99.0000030212403,8|0,0:0|0:0,0:0:0:0:
96,164,22629,1,0,0:0:0:0:
198,333,22791,2,0,L|340:320,1,99.0000030212403,0|8,0:0|0:0,0:0:0:0:
344,81,23115,6,0,B|302:59|249:79|249:79|198:100|144:81,1,198.000006042481
25,21,23602,2,0,P|18:87|31:135,1,99.0000030212403,8|0,0:0|0:0,0:0:0:0:
58,189,23845,1,0,0:0:0:0:
58,189,23926,1,0,0:0:0:0:
239,251,24088,2,0,B|190:269|190:269|142:260,1,99.0000030212403,0|8,0:0|0:0,0:0:0:0:
321,153,24412,6,0,P|322:245|340:360,1,198.000006042481
471,229,24899,2,0,P|470:177|461:125,1,99.0000030212403,8|0,0:0|0:0,0:0:0:0:
437,60,25142,1,0,0:0:0:0:
437,60,25223,1,0,0:0:0:0:
247,87,25385,1,0,0:0:0:0:
449,47,25547,1,8,0:0:0:0:
261,213,25710,6,0,P|171:241|73:198,1,198.000006042481
128,11,26196,2,0,P|129:69|124:114,1,99.0000030212403,8|0,0:0|0:0,0:0:0:0:
84,343,26520,5,4,0:0:0:0:
41,99,26683,1,4,0:0:0:0:
7,295,26845,1,8,0:0:0:0:
226,217,27007,6,0,B|234:118|234:118|213:22,1,198.000006042481,4|0,0:0|0:0,0:0:0:0:
146,258,27493,2,0,L|164:387,1,99.0000030212403,8|0,0:0|0:0,0:0:0:0:
302,273,27818,1,0,0:0:0:0:
438,185,27980,1,0,0:0:0:0:
217,159,28142,1,8,0:0:0:0:
361,341,28304,6,0,B|387:287|379:244|379:244|346:201|365:145,1,198.000006042481
472,25,28791,2,0,P|421:22|365:41,1,99.0000030212403,8|0,0:0|0:0,0:0:0:0:
317,80,29034,1,0,0:0:0:0:
317,80,29115,1,4,0:0:0:0:
496,195,29277,2,0,B|501:145|501:145|487:89,1,99.0000030212403,4|8,0:0|0:0,0:0:0:0:
256,285,29602,6,0,P|156:345|55:280,1,233.999989288331,4|0,0:0|0:0,0:0:0:0:
94,37,30088,1,8,0:0:0:0:
157,230,30250,1,0,0:0:0:0:
314,75,30412,5,0,3:0:0:0:
268,94,30493,1,0,3:0:0:0:
237,130,30574,2,0,P|227:159|226:188,1,58.4999973220826,0|0,3:0|3:0,3:0:0:0:
275,330,30737,2,0,P|276:272|266:187,1,116.999994644165,10|0,0:0|0:0,0:0:0:0:
239,11,31061,5,8,0:0:0:0:
405,210,31223,1,8,0:0:0:0:
229,0,31385,1,8,0:0:0:0:
220,205,31710,6,0,L|225:234,6,24,0|0|0|0|0|0|0,3:0|3:0|3:0|3:0|3:0|3:0|3:0,3:0:0:0:
216,345,32196,6,0,P|204:263|221:204,1,144,6|0,0:0|0:0,0:0:0:0:
464,272,32683,6,0,L|338:281,1,107.999996704102,0|8,0:0|0:0,0:0:0:0:
108,293,33331,1,0,0:0:0:0:
220,205,33493,5,0,3:0:0:0:
220,205,33574,1,0,3:0:0:0:
220,205,33656,1,0,3:0:0:0:
326,224,33980,1,0,0:0:0:0:
398,103,34304,1,8,0:0:0:0:
504,122,34629,1,0,0:0:0:0:
280,22,34791,6,0,P|294:83|294:154,1,125.999996154785,6|0,0:0|0:0,0:0:0:0:
276,243,35277,1,0,0:0:0:0:
173,12,35602,1,8,0:0:0:0:
77,187,35926,5,0,3:0:0:0:
63,209,36007,1,0,3:0:0:0:
54,234,36088,1,0,3:0:0:0:
50,262,36169,1,0,3:0:0:0:
53,289,36250,1,8,3:0:0:0:
199,285,36412,1,8,3:0:0:0:
62,309,36574,1,0,3:0:0:0:
209,269,36737,2,0,P|299:260|391:283,1,180,8|0,3:0|3:0,3:0:0:0:
512,229,37223,2,0,P|463:223|416:201,1,90,8|0,3:0|3:0,3:0:0:0:
447,54,37547,6,0,L|209:67,1,215.999993408203,2|0,0:0|0:0,0:0:0:0:
31,151,38034,2,0,L|269:164,1,215.999993408203,2|0,0:0|0:0,0:0:0:0:
408,171,38520,1,8,0:0:0:0:
406,194,39169,1,8,0:0:0:0:
404,217,39818,1,8,0:0:0:0:
65,330,40142,6,0,L|303:317,1,215.999993408203,2|8,0:0|0:0,0:0:0:0:
481,233,40629,2,0,L|243:220,1,215.999993408203,2|0,0:0|0:0,0:0:0:0:
104,212,41115,1,8,0:0:0:0:
106,189,41764,1,8,0:0:0:0:
108,166,42250,1,0,0:0:0:0:
234,69,42412,2,0,L|240:175,1,90,8|0,0:0|0:0,0:0:0:0:
465,360,42737,6,0,L|452:122,1,215.999993408203,2|8,0:0|0:0,0:0:0:0:
343,23,43224,2,0,L|330:261,1,215.999993408203,2|0,0:0|0:0,0:0:0:0:
325,367,43710,1,8,0:0:0:0:
302,365,44359,1,8,0:0:0:0:
279,363,44845,1,0,0:0:0:0:
185,235,45007,2,0,L|180:145,1,90,8|0,0:0|0:0,0:0:0:0:
47,24,45331,6,0,L|60:262,1,215.999993408203,2|8,0:0|0:0,0:0:0:0:
169,361,45818,2,0,L|182:123,1,215.999993408203,2|0,0:0|0:0,0:0:0:0:
187,17,46304,1,8,0:0:0:0:
210,19,46953,1,8,0:0:0:0:
334,84,47115,1,0,0:0:0:0:
334,84,47196,1,0,0:0:0:0:
334,83,47277,2,0,L|388:88,1,53.9999983520508
447,180,47439,2,0,L|394:185,1,53.9999983520508
323,257,47602,2,0,L|215:269,1,107.999996704102,8|0,0:0|0:0,0:0:0:0:
14,145,47926,6,0,P|114:165|128:267,1,215.999993408203,2|8,0:0|0:0,0:0:0:0:
158,351,48413,2,0,P|58:331|44:229,1,215.999993408203,2|0,0:0|0:0,0:0:0:0:
213,25,48899,1,8,0:0:0:0:
236,27,49547,1,8,0:0:0:0:
259,29,50034,1,0,0:0:0:0:
351,159,50196,2,0,P|356:113|350:64,1,90,8|0,0:0|0:0,0:0:0:0:
512,164,50520,6,0,P|492:264|390:278,1,215.999993408203,2|8,0:0|0:0,0:0:0:0:
306,308,51007,2,0,P|326:208|428:194,1,215.999993408203,2|0,0:0|0:0,0:0:0:0:
231,308,51493,6,2,B|195:307|173:285|173:285|139:305|125:331|125:331|99:327|80:306|80:306|42:336|-1:316,1,269.999991760254,10|0,0:0|0:0,0:0:0:0:
93,182,52629,1,0,0:0:0:0:
179,158,52791,2,0,P|228:161|277:182,1,90,8|0,0:0|0:0,0:0:0:0:
397,332,53115,6,0,B|417:248|417:248|406:184|406:184|427:81,1,233.999989288331,2|8,0:0|0:0,0:0:0:0:
317,249,53602,2,0,P|229:260|180:157,1,215.999993408203,2|0,0:0|0:0,0:0:0:0:
68,244,54088,2,0,P|87:288|95:349,1,107.999996704102,8|0,0:0|0:0,0:0:0:0:
36,80,54412,6,0,B|106:89|106:89|178:69|178:69|268:81,1,225,2|8,0:0|0:0,0:0:0:0:
345,192,54899,2,0,P|294:186|240:204,1,103.500001974106,2|0,0:0|0:0,0:0:0:0:
152,299,55223,1,0,0:0:0:0:
117,115,55385,2,0,P|135:62|183:13,1,103.500001974106,8|0,0:0|0:0,0:0:0:0:
460,65,55710,6,0,B|467:142|467:142|443:230,1,161.999995056153,2|0,0:0|0:0,0:0:0:0:
416,299,56034,1,8,0:0:0:0:
267,360,56196,6,0,B|260:283|260:283|284:195,1,161.999995056153,2|0,0:0|0:0,0:0:0:0:
311,126,56520,1,8,0:0:0:0:
183,243,56683,6,0,B|132:266|132:266|70:257,1,107.999996704102,2|0,0:0|0:0,0:0:0:0:
3,237,56926,1,0,0:0:0:0:
3,237,57007,5,8,0:0:0:0:
55,27,57169,1,8,0:0:0:0:
226,167,57331,2,0,L|163:153,1,53.9999983520508
14,123,57493,1,0,0:0:0:0:
14,123,57574,1,0,0:0:0:0:
14,123,57656,1,8,0:0:0:0:
31,338,57818,1,8,0:0:0:0:
101,203,57980,1,8,0:0:0:0:
139,303,58142,1,8,0:0:0:0:
241,153,58304,6,0,P|253:101|246:40,1,107.999996704102,4|4,0:0|0:0,0:0:0:0:
379,227,58953,2,0,L|383:181,1,26.9999991760254,8|0,0:0|0:0,0:0:0:0:
375,316,59115,1,0,0:0:0:0:
375,316,59196,1,0,0:0:0:0:
375,316,59277,2,0,P|320:330|255:321,1,107.999996704102,4|0,0:0|0:0,0:0:0:0:
83,236,59764,1,0,0:0:0:0:
83,236,59845,1,0,0:0:0:0:
83,236,59926,2,0,P|138:222|203:231,1,107.999996704102,4|8,0:0|0:0,0:0:0:0:
376,158,60412,1,0,0:0:0:0:
376,158,60493,1,0,0:0:0:0:
376,158,60574,1,4,0:0:0:0:
310,344,60737,1,8,0:0:0:0:
270,66,60899,5,4,0:0:0:0:
89,79,61061,1,0,0:0:0:0:
89,79,61142,1,0,0:0:0:0:
89,79,61223,2,0,P|75:134|84:199,1,107.999996704102,4|8,0:0|0:0,0:0:0:0:
196,316,61710,1,0,0:0:0:0:
196,316,61791,1,0,0:0:0:0:
196,316,61872,2,0,P|210:261|201:196,1,107.999996704102,4|0,0:0|0:0,0:0:0:0:
337,87,62358,1,0,0:0:0:0:
337,87,62439,1,0,0:0:0:0:
337,87,62520,2,0,P|323:142|332:207,1,107.999996704102,4|8,0:0|0:0,0:0:0:0:
444,324,63007,1,0,0:0:0:0:
444,324,63088,1,0,0:0:0:0:
444,324,63169,2,0,P|457:275|450:224,1,80.9999975280763,4|0,0:0|0:0,0:0:0:0:
441,173,63493,5,4,0:0:0:0:
309,39,63818,2,0,P|260:64|193:54,1,107.999996704102,4|8,0:0|0:0,0:0:0:0:
96,155,64304,1,0,0:0:0:0:
96,155,64385,1,0,0:0:0:0:
96,155,64466,2,0,P|145:180|212:170,1,107.999996704102,4|0,0:0|0:0,0:0:0:0:
358,261,64953,1,0,0:0:0:0:
358,261,65034,1,0,0:0:0:0:
358,261,65115,2,0,P|309:286|242:276,1,107.999996704102,4|8,0:0|0:0,0:0:0:0:
77,263,65602,1,0,0:0:0:0:
75,284,65683,1,0,0:0:0:0:
73,305,65764,1,4,0:0:0:0:
163,129,65926,1,8,0:0:0:0:
182,362,66088,5,4,0:0:0:0:
51,180,66412,2,0,L|64:265,1,72
177,116,66737,2,0,L|182:140,3,24,0|0|0|0,3:0|3:0|3:0|3:0,3:0:0:0:
164,40,67061,1,0,0:0:0:0:
197,218,67223,1,0,0:0:0:0:
414,29,67385,6,0,P|344:14|264:40,1,135.000005149842,6|0,0:0|0:0,0:0:0:0:
162,151,67710,2,0,P|232:166|312:140,1,135.000005149842,6|0,0:0|0:0,0:0:0:0:
493,272,68034,2,0,L|513:204,1,53.9999983520508,2|0,0:0|0:0,0:0:0:0:
415,164,68196,2,0,L|395:232,1,53.9999983520508,2|0,0:0|0:0,0:0:0:0:
405,336,68358,2,0,L|425:268,1,53.9999983520508,2|0,0:0|0:0,0:0:0:0:
327,228,68520,2,0,L|307:296,1,53.9999983520508,2|0,0:0|0:0,0:0:0:0:
234,327,68683,6,0,P|146:328|101:199,1,215.999993408203,6|8,0:0|0:0,0:0:0:0:
194,29,69169,2,0,B|143:137|245:137|182:246,1,215.999993408203
42,140,69656,2,0,P|34:88|45:21,1,107.999996704102,8|0,0:0|0:0,0:0:0:0:
328,58,69980,5,0,0:0:0:0:
427,237,70142,1,0,0:0:0:0:
462,16,70304,1,8,0:0:0:0:
309,252,70466,2,0,P|299:313|277:358,1,107.999996704102
105,234,70791,1,0,0:0:0:0:
105,234,70872,1,0,0:0:0:0:
105,234,70953,2,0,L|164:230,1,53.9999983520508,8|0,0:0|0:0,0:0:0:0:
268,116,71115,2,0,L|209:112,1,53.9999983520508
59,38,71277,6,0,P|97:132|203:130,1,215.999993408203,0|8,0:0|0:0,0:0:0:0:
331,15,71764,2,0,P|379:107|364:217,1,215.999993408203
248,340,72250,2,0,P|231:292|232:227,1,107.999996704102,8|0,0:0|0:0,0:0:0:0:
191,34,72574,6,0,P|89:30|45:136,1,215.999993408203,0|8,0:0|0:0,0:0:0:0:
141,314,73061,2,0,B|90:206|192:206|129:97,1,215.999993408203
264,13,73547,2,0,P|316:2|371:19,1,107.999996704102,8|0,0:0|0:0,0:0:0:0:
463,188,73872,6,0,P|369:265|289:232,1,215.999993408203,4|8,0:0|0:0,0:0:0:0:
209,99,74358,2,0,P|109:71|37:145,1,215.999993408203
125,329,74845,2,0,P|117:273|131:221,1,107.999996704102,8|0,0:0|0:0,0:0:0:0:
222,80,75169,5,0,0:0:0:0:
289,250,75331,1,0,0:0:0:0:
340,20,75493,1,8,0:0:0:0:
437,256,75656,6,0,L|445:373,1,108,4|0,0:0|0:0,0:0:0:0:
500,189,75980,1,0,0:0:0:0:
500,189,76061,1,0,0:0:0:0:
500,189,76142,2,0,L|492:137,1,36,4|0,0:0|0:0,0:0:0:0:
486,82,76304,2,0,L|478:30,1,36
349,241,76466,6,0,P|264:287|168:203,1,233.999989288331,14|0,0:0|0:0,0:0:0:0:
70,92,76953,2,0,B|184:23|185:146|314:74,1,233.999989288331,2|0,0:0|0:0,0:0:0:0:
422,35,77439,2,0,P|434:95|426:153,1,116.999994644165,2|0,0:0|0:0,0:0:0:0:
120,290,77764,5,8,0:0:0:0:
237,13,77926,1,8,0:0:0:0:
324,301,78088,1,8,0:0:0:0:
238,161,78412,5,0,0:0:0:0:
222,247,78574,2,0,P|218:302|227:354,1,107.999996704102
421,111,79061,6,0,P|339:35|221:62,1,233.999989288331,6|8,0:0|0:0,0:0:0:0:
54,239,79547,1,0,0:0:0:0:
100,247,79629,1,0,0:0:0:0:
146,239,79710,1,0,0:0:0:0:
254,198,79872,2,0,P|313:188|373:205,1,116.999994644165,0|8,0:0|0:0,0:0:0:0:
467,361,80196,5,0,0:0:0:0:
476,245,80358,2,0,B|487:126|487:126|469:13,1,233.999989288331,0|8,0:0|0:0,0:0:0:0:
294,185,80845,1,0,0:0:0:0:
241,200,80926,1,0,0:0:0:0:
187,191,81007,1,0,0:0:0:0:
61,52,81169,1,0,0:0:0:0:
95,275,81331,2,0,L|107:342,3,38.9999982147218,8|0|0|0,0:0|0:0|0:3|0:0,0:0:0:0:
280,59,81656,6,0,P|353:51|371:143,1,175.499991966248
492,125,81980,2,0,L|373:136,1,116.999994644165,8|0,0:0|0:0,0:0:0:0:
473,271,82304,6,0,P|400:263|382:355,1,175.499991966248
261,337,82628,2,0,L|380:348,1,116.999994644165,8|0,0:0|0:0,0:0:0:0:
234,107,82953,6,0,P|126:116|96:228,1,233.999989288331,0|8,0:0|0:0,0:0:0:0:
377,347,83439,1,0,0:0:0:0:
344,246,83602,2,0,B|289:133|394:133|343:19,1,233.999989288331,0|8,0:0|0:0,0:0:0:0:
103,142,84088,5,0,0:0:0:0:
90,198,84169,1,0,0:0:0:0:
95,256,84250,2,0,P|163:346|285:327,1,233.999989288331,4|8,0:0|0:0,0:0:0:0:
429,254,84737,2,0,P|374:263|311:222,1,116.999994644165
190,157,85061,2,0,P|245:166|308:125,1,116.999994644165,0|8,0:0|0:0,0:0:0:0:
369,60,85385,1,0,0:0:0:0:
159,53,85547,6,0,P|95:25|54:105,1,175.499991966248
48,216,85872,2,0,P|63:154|48:91,1,116.999994644165,8|0,0:0|0:0,0:0:0:0:
170,188,86196,6,0,P|199:262|275:238,1,175.499991966248
388,243,86521,2,0,P|326:228|263:243,1,116.999994644165,8|0,0:0|0:0,0:0:0:0:
58,283,86845,6,0,P|96:348|179:347,2,161.999995056153,6|0|4,0:0|0:0|0:0,0:0:0:0:
118,148,87493,1,0,0:0:0:0:
157,130,87574,1,0,0:0:0:0:
200,131,87656,2,0,P|228:133|259:145,1,53.9999983520508
356,195,87818,1,12,0:0:0:0:
403,202,87899,1,0,0:0:0:0:
448,185,87981,2,0,P|474:175|501:156,1,53.9999983520508
392,48,88142,6,0,P|369:36|339:34,3,53.9999983520508,4|0|0|0,0:0|0:0|0:0|0:0,0:0:0:0:
240,29,88466,2,0,P|214:32|188:47,3,53.9999983520508,4|0|0|0,0:0|0:0|0:0|0:0,0:0:0:0:
117,162,88791,5,2,0:0:0:0:
144,212,88872,1,0,0:0:0:0:
195,240,88953,1,0,0:0:0:0:
253,237,89034,1,0,0:0:0:0:
300,203,89115,1,2,0:0:0:0:
347,163,89196,1,0,0:0:0:0:
409,158,89277,1,0,0:0:0:0:
462,190,89358,1,0,0:0:0:0:
486,243,89439,6,0,P|421:332|305:305,1,233.999989288331,6|8,0:0|0:0,0:0:0:0:
190,105,89926,1,0,0:0:0:0:
136,83,90007,1,0,0:0:0:0:
80,100,90088,1,0,0:0:0:0:
12,206,90250,2,0,P|9:273|27:337,1,116.999994644165,0|8,0:0|0:0,0:0:0:0:
184,205,90574,5,0,0:0:0:0:
253,311,90737,2,0,P|315:352|453:294,1,233.999989288331,0|8,0:0|0:0,0:0:0:0:
404,84,91223,1,0,0:0:0:0:
352,93,91304,1,0,0:0:0:0:
312,127,91385,1,0,0:0:0:0:
237,288,91547,1,0,0:0:0:0:
195,52,91710,2,0,L|185:0,3,38.9999982147218,8|0|0|0,0:0|0:0|0:0|0:0,0:0:0:0:
33,295,92034,6,0,P|97:323|138:243,1,175.499991966248
144,132,92359,2,0,P|129:194|144:257,1,116.999994644165,8|0,0:0|0:0,0:0:0:0:
275,333,92683,6,0,P|247:269|327:228,1,175.499991966248
438,222,93008,2,0,P|376:237|313:222,1,116.999994644165,8|0,0:0|0:0,0:0:0:0:
243,61,93331,5,0,0:0:0:0:
173,233,93493,1,0,0:0:0:0:
118,15,93656,1,8,0:0:0:0:
36,315,93818,6,2,B|81:323|119:305|119:305|161:320|199:348|199:348|227:346|258:352,1,233.999989288331,6|0,0:0|0:0,0:0:0:0:
423,247,94304,2,2,P|379:210|317:208,1,116.999994644165,6|0,0:0|0:0,0:0:0:0:
342,299,94547,1,0,0:0:0:0:
342,299,94629,6,2,P|387:192|366:79,1,233.999989288331,6|8,0:0|0:0,0:0:0:0:
288,0,95115,2,0,P|273:55|283:114,1,116.999994644165
178,216,95439,2,0,P|193:161|183:102,1,116.999994644165,0|8,0:0|0:0,0:0:0:0:
150,14,95764,1,0,0:0:0:0:
94,234,95926,6,0,P|174:304|234:280,1,175.499991966248
340,287,96250,2,0,P|283:270|221:290,1,116.999994644165,8|0,0:0|0:0,0:0:0:0:
445,165,96574,6,0,P|337:167|307:110,1,175.499991966248
196,99,96898,2,0,P|256:95|310:119,1,116.999994644165,8|0,0:0|0:0,0:0:0:0:
378,325,97223,6,10,P|461:327|511:248,2,175.499991966248,6|0|4,0:0|0:0|0:0,0:0:0:0:
289,237,97872,1,0,0:0:0:0:
260,229,97953,1,0,0:0:0:0:
230,230,98034,1,0,0:0:0:0:
202,240,98115,1,0,0:0:0:0:
153,265,98196,1,12,0:0:0:0:
115,271,98277,1,0,0:0:0:0:
77,265,98358,1,0,0:0:0:0:
43,246,98439,1,0,0:0:0:0:
5,185,98520,6,0,P|15:153|41:122,3,62.9999980773926,6|0|0|0,0:0|0:0|0:0|0:0,0:0:0:0:
113,67,98845,2,0,P|123:99|149:130,3,62.9999980773926,14|0|0|0,0:0|0:0|0:0|0:0,0:0:0:0:
251,2,99169,1,0,0:0:0:0:
285,48,99250,1,0,0:0:0:0:
298,104,99331,1,0,0:0:0:0:
287,161,99412,1,0,0:0:0:0:
254,209,99493,1,8,0:0:0:0:
232,252,99574,1,0,0:0:0:0:
232,301,99655,1,0,0:0:0:0:
255,345,99736,1,0,0:0:0:0:
295,373,99818,6,0,P|360:380|413:343,1,125.999996154785,14|0,0:0|0:0,0:0:0:0:
184,162,100142,2,0,P|119:155|66:192,1,125.999996154785,8|0,0:0|0:0,0:0:0:0:
320,350,100467,2,0,P|391:345|442:294,1,125.999996154785,8|0,0:0|0:0,0:0:0:0:
159,142,100791,2,0,P|87:146|36:197,1,125.999996154785,10|0,0:0|0:0,0:0:0:0:
385,141,101115,6,0,P|392:83|355:29,1,125.999996154785,14|0,0:0|0:0,0:0:0:0:
173,241,101439,2,0,P|167:299|206:351,1,125.999996154785,8|2,0:0|0:0,0:0:0:0:
361,119,101764,2,0,P|357:55|305:9,1,125.999996154785,8|0,0:0|0:0,0:0:0:0:
154,263,102088,2,0,P|157:328|208:374,1,125.999996154785,14|0,0:0|0:0,0:0:0:0:
400,200,102412,5,14,0:0:0:0:
134,148,102574,1,0,0:0:0:0:
412,203,102737,1,8,0:0:0:0:
119,145,102899,1,0,0:0:0:0:
396,123,103061,5,8,0:0:0:0:
118,231,103223,1,0,0:0:0:0:
411,117,103385,1,8,0:0:0:0:
105,236,103547,1,0,0:0:0:0:
292,103,103710,6,0,L|299:23,2,71.9999978027344
208,203,104034,2,0,L|201:123,2,71.9999978027344
292,302,104358,1,0,0:0:0:0:
362,318,104466,1,0,0:0:0:0:
428,289,104574,1,0,0:0:0:0:
466,227,104682,1,8,0:0:0:0:
441,57,104845,6,0,B|340:120|340:4|217:75,1,215.999993408203,4|0,0:0|0:0,0:0:0:0:
12,162,105331,2,0,P|66:150|153:168,1,107.999996704102,8|0,0:0|0:0,0:0:0:0:
213,281,105656,2,0,P|158:292|86:286,1,107.999996704102
0,149,105980,1,8,0:0:0:0:
226,357,106142,6,0,P|296:369|364:254,1,215.999993408203
305,121,106629,2,0,P|251:109|164:127,1,107.999996704102,8|0,0:0|0:0,0:0:0:0:
104,240,106954,2,0,P|159:251|231:245,1,107.999996704102
317,108,107278,1,8,0:0:0:0:
149,331,107439,6,0,P|47:340|5:237,1,215.999993408203
69,47,107926,2,0,P|82:99|82:153,1,107.999996704102,8|0,0:0|0:0,0:0:0:0:
198,246,108250,2,0,P|194:192|203:139,1,107.999996704102
243,12,108574,1,8,0:0:0:0:
360,265,108737,6,0,B|288:272|236:325|236:325|196:337|154:318,1,215.999993408203
25,246,109223,2,0,P|66:208|138:189,1,107.999996704102,8|0,0:0|0:0,0:0:0:0:
263,151,109547,2,0,P|212:132|173:95,1,107.999996704102
20,13,109872,1,8,0:0:0:0:
183,252,110034,6,0,P|271:308|371:271,1,215.999993408203
407,15,110520,2,0,P|374:71|357:136,1,107.999996704102,8|0,0:0|0:0,0:0:0:0:
284,208,110845,2,0,P|266:157|238:111,1,107.999996704102
141,3,111169,1,8,0:0:0:0:
13,271,111331,6,0,P|107:313|191:253,1,215.999993408203
416,154,111818,2,0,P|361:164|302:143,1,107.999996704102,8|0,0:0|0:0,0:0:0:0:
209,86,112142,1,0,0:0:0:0:
298,261,112304,2,0,P|301:320|316:372,1,107.999996704102,0|8,0:0|0:0,0:0:0:0:
382,64,112629,6,0,P|295:15|199:75,1,215.999993408203
63,223,113115,2,0,P|114:225|169:203,1,107.999996704102,8|0,0:0|0:0,0:0:0:0:
294,111,113439,1,0,0:0:0:0:
180,312,113602,1,0,0:0:0:0:
180,312,113683,1,0,0:0:0:0:
180,312,113764,1,8,0:0:0:0:
484,331,113926,6,0,B|474:276|493:238|493:238|464:219|464:219|485:183|466:125,1,215.999993408203,6|0,0:0|0:0,0:0:0:0:
260,258,114412,2,0,P|308:290|362:288,1,107.999996704102,12|0,0:0|0:0,0:0:0:0:
326,102,114737,1,8,0:0:0:0:
164,275,114899,1,0,0:0:0:0:
337,107,115061,1,8,0:0:0:0:
212,357,115223,6,0,P|118:363|74:255,1,215.999993408203,6|0,0:0|0:0,0:0:0:0:
183,57,115710,2,0,P|195:112|186:179,1,107.999996704102,8|0,0:0|0:0,0:0:0:0:
164,275,116034,1,0,0:0:0:0:
73,22,116196,1,0,0:0:0:0:
255,98,116358,1,8,0:0:0:0:
160,296,116520,6,0,P|263:321|360:267,1,215.999993408203
461,83,117007,2,0,P|409:74|357:91,1,107.999996704102,8|0,0:0|0:0,0:0:0:0:
251,159,117332,1,0,0:0:0:0:
459,237,117494,1,0,0:0:0:0:
283,31,117656,1,8,0:0:0:0:
224,286,117818,6,0,P|121:308|35:246,1,215.999993408203
12,49,118304,2,0,P|63:63|106:102,1,107.999996704102,8|0,0:0|0:0,0:0:0:0:
175,216,118629,1,0,0:0:0:0:
122,8,118791,1,0,0:0:0:0:
20,263,118953,1,8,0:0:0:0:
256,51,119115,6,0,P|342:27|406:128,1,215.999993408203
262,337,119602,2,0,P|257:285|269:227,1,107.999996704102,8|0,0:0|0:0,0:0:0:0:
318,111,119926,1,0,0:0:0:0:
367,331,120088,1,0,0:0:0:0:
417,69,120250,1,8,0:0:0:0:
159,271,120412,6,0,P|48:265|13:161,1,215.999993408203,6|0,0:0|0:0,0:0:0:0:
135,11,120899,2,0,P|174:42|209:106,1,107.999996704102,8|0,0:0|0:0,0:0:0:0:
234,234,121223,1,0,0:0:0:0:
312,37,121385,1,0,0:0:0:0:
81,126,121547,1,8,0:0:0:0:
386,12,121710,6,0,P|408:118|418:249,1,215.999993408203
235,342,122196,2,0,P|239:291|248:230,1,107.999996704102,8|0,0:0|0:0,0:0:0:0:
274,107,122520,1,0,0:0:0:0:
53,193,122683,1,0,0:0:0:0:
263,250,122845,1,8,0:0:0:0:
110,21,123007,6,0,B|194:13|194:13|252:36|252:36|360:24,1,233.999989288331,6|0,0:0|0:0,0:0:0:0:
468,62,123493,1,12,0:0:0:0:
242,133,123656,1,0,0:0:0:0:
485,79,123818,1,4,0:0:0:0:
235,157,123981,1,0,0:0:0:0:
501,95,124142,2,0,B|511:158|511:158|500:214,1,116.999994644165,12|0,0:0|0:0,0:0:0:0:
142,338,124466,6,0,P|102:342|57:335,2,77.9999964294435
104,243,124791,2,0,P|67:226|31:197,2,77.9999964294435
113,135,125115,1,0,0:0:0:0:
154,84,125223,1,0,0:0:0:0:
216,64,125331,1,0,0:0:0:0:
279,81,125439,1,0,0:0:0:0:
334,115,125547,1,0,0:0:0:0:
398,109,125655,1,0,0:0:0:0:
455,34,125764,6,0,L|442:287,1,233.999989288331,4|8,0:0|0:0,0:0:0:0:
282,358,126250,2,0,L|269:105,1,233.999989288331,4|0,0:0|0:0,0:0:0:0:
263,13,126737,5,8,0:0:0:0:
165,27,127223,1,0,0:0:0:0:
165,27,127385,1,8,0:0:0:0:
67,41,127872,1,0,0:0:0:0:
67,41,128034,1,8,0:0:0:0:
24,210,128358,6,0,P|119:268|220:207,1,233.999989288331,4|8,0:0|0:0,0:0:0:0:
169,120,128845,2,0,P|114:217|173:312,1,233.999989288331,4|0,0:0|0:0,0:0:0:0:
270,330,129331,5,8,0:0:0:0:
368,316,129818,1,0,0:0:0:0:
368,316,129980,1,8,0:0:0:0:
466,302,130304,1,0,0:0:0:0:
474,206,130466,1,0,0:0:0:0:
474,206,130629,2,0,L|481:122,1,72,8|0,0:0|0:0,0:0:0:0:
285,1,130953,6,0,B|311:115|311:115|274:246,1,233.999989288331,4|8,0:0|0:0,0:0:0:0:
187,349,131439,2,0,B|161:235|161:235|198:104,1,233.999989288331,4|0,0:0|0:0,0:0:0:0:
219,27,131926,5,8,0:0:0:0:
323,38,132412,1,0,0:0:0:0:
323,38,132574,1,8,0:0:0:0:
427,49,133061,1,0,0:0:0:0:
427,49,133223,2,0,L|506:54,1,72
365,262,133547,6,0,P|251:285|118:263,1,233.999989288331,4|8,0:0|0:0,0:0:0:0:
25,151,134034,2,0,P|139:128|272:150,1,233.999989288331,4|8,0:0|0:0,0:0:0:0:
357,170,134520,5,8,0:0:0:0:
461,158,135007,1,0,0:0:0:0:
461,158,135169,1,8,0:0:0:0:
273,109,135331,5,0,0:0:0:0:
273,109,135412,1,0,0:0:0:0:
273,109,135493,2,0,L|262:46,1,58.4999973220826,4|0,0:0|0:0,0:0:0:0:
176,192,135656,2,0,L|186:134,1,58.4999973220826,4|0,0:0|0:0,0:0:0:0:
287,250,135818,2,0,L|277:195,1,51.7500009870529,8|0,0:0|0:0,0:0:0:0:
196,325,135980,2,0,L|206:269,1,51.7500009870529,4|0,0:0|0:0,0:0:0:0:
468,283,136142,6,0,P|350:322|287:243,1,233.999989288331,4|8,0:0|0:0,0:0:0:0:
342,167,136629,2,0,P|381:285|302:348,1,233.999989288331,4|0,0:0|0:0,0:0:0:0:
192,302,137115,6,0,P|153:293|113:302,1,72,8|0,0:0|0:0,0:0:0:0:
52,336,137439,1,0,0:0:0:0:
66,224,137602,2,0,L|76:143,1,72,0|8,0:0|0:0,0:0:0:0:
150,130,137926,2,0,L|140:211,1,72
209,241,138250,2,0,L|219:160,1,72,0|8,0:0|0:0,0:0:0:0:
228,91,138574,1,0,0:0:0:0:
306,227,138737,6,0,P|401:281|497:201,1,233.999989288331,4|8,0:0|0:0,0:0:0:0:
396,164,139223,2,0,B|276:102|276:211|157:146,1,233.999989288331,4|0,0:0|0:0,0:0:0:0:
43,275,139710,6,0,P|114:303|199:282,1,161.999995056153,8|0,0:0|0:0,0:0:0:0:
265,244,140358,1,8,0:0:0:0:
63,175,140520,6,0,B|52:130|52:130|58:81,1,90,4|0,0:0|0:0,0:0:0:0:
131,216,141007,2,0,P|125:246|115:271,1,45,8|0,0:0|0:0,0:0:0:0:
32,326,141331,6,0,P|31:190|42:57,1,270.000010299683,6|8,0:0|0:0,0:0:0:0:
194,191,141818,6,0,P|235:291|316:220,1,251.999992309571,2|0,0:0|0:0,0:0:0:0:
441,108,142304,2,0,P|447:174|443:238,1,125.999996154785,0|8,0:0|0:0,0:0:0:0:
250,226,142629,6,0,P|256:113|156:40,1,233.999989288331,2|8,0:0|0:0,0:0:0:0:
10,211,143115,2,0,P|81:298|193:292,1,233.999989288331,2|8,0:0|0:0,0:0:0:0:
373,243,143602,2,0,P|324:217|249:211,1,116.999994644165,2|0,0:0|0:0,0:0:0:0:
62,42,143926,6,0,P|174:28|285:45,1,202.500007724762,6|0,0:0|0:0,0:0:0:0:
296,52,144250,1,8,0:0:0:0:
89,146,144412,2,0,P|201:141|310:168,1,202.500007724762,6|0,0:0|0:0,0:0:0:0:
321,176,144736,1,0,0:0:0:0:
106,251,144899,2,0,P|218:256|325:292,1,202.500007724762,6|0,0:0|0:0,0:0:0:0:
360,331,145223,6,0,P|396:342|450:340,2,77.9999964294435,0|0|0,3:0|3:0|3:0,3:0:0:0:
419,238,145547,2,0,P|456:236|506:210,2,77.9999964294435,0|0|0,3:0|3:0|3:0,3:0:0:0:
413,117,145872,1,0,3:0:0:0:
361,99,145980,1,0,3:0:0:0:
306,96,146088,1,0,3:0:0:0:
253,115,146196,1,0,3:0:0:0:
204,140,146304,1,0,3:0:0:0:
149,139,146412,1,0,3:0:0:0:
100,118,146520,6,0,P|46:74|40:1,1,144,8|4,0:0|0:0,0:0:0:0:
20,203,147169,2,0,L|120:210,1,72,8|0,0:0|0:0,0:0:0:0:
163,290,147412,1,0,0:0:0:0:
163,290,147493,2,0,L|12:307,1,144,4|8,0:0|0:0,0:0:0:0:
301,343,147980,1,0,0:0:0:0:
301,343,148061,1,0,0:0:0:0:
301,343,148142,2,0,L|452:351,1,144,4|8,0:0|0:0,0:0:0:0:
286,232,148629,1,0,0:0:0:0:
286,232,148710,1,0,0:0:0:0:
286,232,148791,2,0,L|156:237,1,108,4|0,0:0|0:0,0:0:0:0:
71,259,149115,6,0,L|201:264,1,108,8|0,0:0|0:0,0:0:0:0:
272,149,149439,2,0,L|128:155,1,144,4|8,0:0|0:0,0:0:0:0:
44,71,149926,1,0,0:0:0:0:
44,71,150007,1,0,0:0:0:0:
44,71,150088,2,0,L|187:77,1,144,4|8,0:0|0:0,0:0:0:0:
418,53,150574,1,0,0:0:0:0:
418,53,150655,1,0,0:0:0:0:
418,53,150736,2,0,L|274:46,1,144,4|8,0:0|0:0,0:0:0:0:
354,146,151223,1,0,0:0:0:0:
354,146,151304,1,0,0:0:0:0:
354,146,151385,2,0,L|493:152,1,108,4|0,0:0|0:0,0:0:0:0:
479,152,151710,5,8,0:0:0:0:
233,329,152034,2,0,B|161:342|161:342|90:327,1,144,4|8,0:0|0:0,0:0:0:0:
18,242,152520,1,0,0:0:0:0:
18,242,152602,1,0,0:0:0:0:
18,242,152683,2,0,B|90:229|90:229|161:244,1,144,4|8,0:0|0:0,0:0:0:0:
233,155,153169,1,0,0:0:0:0:
233,155,153251,1,0,0:0:0:0:
233,155,153332,2,0,B|161:168|161:168|90:153,1,144,4|8,0:0|0:0,0:0:0:0:
18,68,153818,1,0,0:0:0:0:
18,68,153900,1,0,0:0:0:0:
18,68,153981,2,0,B|90:55|90:55|156:68,1,108,4|0,0:0|0:0,0:0:0:0:
158,70,154304,5,12,0:0:0:0:
273,320,154629,1,0,0:0:0:0:
277,214,154791,2,0,L|284:8,1,198.000006042481,4|0,0:0|0:0,0:0:0:0:
95,192,155277,2,0,L|91:313,1,99.0000030212403,4|0,0:0|0:0,0:0:0:0:
92,368,155520,1,0,0:0:0:0:
92,368,155602,1,8,0:0:0:0:
247,328,155764,2,0,P|296:341|342:330,2,99.0000030212403,4|0|0,0:0|0:0|0:0,0:0:0:0:
169,177,156250,1,4,0:0:0:0:
214,159,156331,1,0,0:0:0:0:
264,159,156412,1,0,0:0:0:0:
310,175,156493,1,0,0:0:0:0:
349,206,156574,1,0,0:0:0:0:
401,228,156656,1,0,0:0:0:0:
456,213,156737,1,0,0:0:0:0:
490,168,156818,1,0,0:0:0:0:
490,111,156899,6,0,P|425:32|323:54,1,215.999993408203,6|8,0:0|0:0,0:0:0:0:
240,230,157385,2,0,P|128:235|77:151,1,215.999993408203
174,2,157872,2,0,P|198:49|196:107,1,107.999996704102,8|0,0:0|0:0,0:0:0:0:
139,240,158196,5,0,0:0:0:0:
74,67,158358,1,0,0:0:0:0:
27,297,158520,1,8,0:0:0:0:
197,103,158683,2,0,P|246:83|303:88,1,107.999996704102
424,221,159007,1,0,0:0:0:0:
424,221,159088,1,0,0:0:0:0:
424,221,159169,2,0,P|397:229|352:229,1,53.9999983520508,8|0,0:0|0:0,0:0:0:0:
263,185,159331,2,0,P|236:187|210:194,1,53.9999983520508
137,315,159493,6,0,P|75:324|38:176,1,215.999993408203,0|8,0:0|0:0,0:0:0:0:
145,98,159980,2,0,B|250:32|250:140|378:83,1,215.999993408203
482,277,160466,2,0,P|438:307|381:303,1,107.999996704102,8|0,0:0|0:0,0:0:0:0:
267,192,160791,6,0,P|165:184|114:272,1,215.999993408203,0|8,0:0|0:0,0:0:0:0:
407,228,161277,2,0,P|432:124|410:12,1,215.999993408203
261,213,161764,2,0,P|253:265|260:330,1,107.999996704102,8|0,0:0|0:0,0:0:0:0:
334,95,162088,6,0,P|249:22|141:60,1,233.999989288331,4|8,0:0|0:0,0:0:0:0:
38,236,162574,2,0,B|147:173|147:288|274:204,1,233.999989288331
384,152,163061,2,0,P|437:133|496:144,1,116.999994644165,8|0,0:0|0:0,0:0:0:0:
432,285,163385,5,0,0:0:0:0:
343,77,163547,1,0,0:0:0:0:
307,323,163710,1,8,0:0:0:0:
227,121,163872,6,0,L|222:36,1,80.9999975280763,4|0,0:0|0:0,0:0:0:0:
156,159,164196,1,0,0:0:0:0:
156,159,164277,1,0,0:0:0:0:
156,159,164358,2,0,L|160:210,1,26.9999991760254,4|0,0:0|0:0,0:0:0:0:
163,256,164520,2,0,L|167:307,1,26.9999991760254
307,323,164683,6,0,P|427:331|463:236,1,233.999989288331,6|0,0:0|0:0,0:0:0:0:
375,69,165169,2,0,B|266:7|266:144|133:68,1,233.999989288331,2|0,0:0|0:0,0:0:0:0:
41,214,165656,2,0,P|93:237|171:214,1,116.999994644165,10|0,0:0|0:0,0:0:0:0:
396,27,165980,5,10,0:0:0:0:
284,305,166142,1,10,0:0:0:0:
174,27,166304,1,10,0:0:0:0:
273,226,166791,5,0,0:0:0:0:
273,226,166872,1,0,0:0:0:0:
273,226,166953,2,0,P|236:159|278:223,1,202.500007724762,12|0,0:0|0:0,0:0:0:0:
256,192,167277,6,0,B|175:219|88:194|88:194|123:190|154:168,1,233.999989288331,4|8,0:0|0:0,0:0:0:0:
328,59,167764,1,0,0:0:0:0:
335,103,167845,1,0,0:0:0:0:
343,147,167926,1,0,0:0:0:0:
415,331,168088,2,0,L|428:198,1,116.999994644165,0|8,0:0|0:0,0:0:0:0:
442,65,168412,1,0,0:0:0:0:
304,322,168574,6,0,P|203:346|114:257,1,233.999989288331,0|8,0:0|0:0,0:0:0:0:
78,131,169061,1,0,0:0:0:0:
85,78,169142,1,0,0:0:0:0:
95,28,169223,1,0,0:0:0:0:
240,151,169385,1,0,0:0:0:0:
41,198,169547,2,0,L|-15:212,3,38.9999982147218,8|0|0|0,0:0|0:0|0:0|0:0,0:0:0:0:
208,318,169872,6,0,P|281:326|299:234,1,175.499991966248
420,252,170196,2,0,L|301:241,1,116.999994644165,8|0,0:0|0:0,0:0:0:0:
446,132,170520,6,0,P|373:140|355:48,1,175.499991966248
234,66,170844,2,0,L|353:55,1,116.999994644165,8|0,0:0|0:0,0:0:0:0:
303,241,171169,6,0,P|212:268|137:167,1,233.999989288331,0|8,0:0|0:0,0:0:0:0:
77,25,171656,1,0,0:0:0:0:
32,129,171818,2,0,B|-24:243|84:243|26:373,1,233.999989288331,0|8,0:0|0:0,0:0:0:0:
252,338,172304,5,0,0:0:0:0:
303,346,172385,1,0,0:0:0:0:
353,330,172466,2,0,P|423:242|389:127,1,233.999989288331,4|8,0:0|0:0,0:0:0:0:
290,30,172953,2,0,P|274:86|278:157,1,116.999994644165
167,278,173277,2,0,P|183:222|179:151,1,116.999994644165,0|8,0:0|0:0,0:0:0:0:
159,56,173602,1,0,0:0:0:0:
341,199,173764,6,0,P|430:202|458:116,1,175.499991966248
382,127,174088,2,0,B|321:115|321:115|271:146,1,116.999994644165,8|0,0:0|0:0,0:0:0:0:
183,251,174412,6,0,P|272:248|300:334,1,175.499991966248
224,323,174736,2,0,B|163:335|163:335|113:303,1,116.999994644165,8|0,0:0|0:0,0:0:0:0:
41,179,175061,6,0,B|26:92|43:18,2,161.999995056153,4|0|4,0:0|0:0|0:0,0:0:0:0:
142,271,175710,1,0,0:0:0:0:
181,289,175791,1,0,0:0:0:0:
224,288,175873,2,0,P|252:286|283:274,1,53.9999983520508
369,210,176035,1,12,0:0:0:0:
416,203,176116,1,0,0:0:0:0:
461,220,176196,2,0,P|487:230|513:248,1,53.9999983520508
412,354,176358,6,0,P|388:366|352:366,3,53.9999983520508,10|0|0|0,0:0|0:0|0:0|0:0,0:0:0:0:
265,268,176683,2,0,P|237:257|205:256,3,53.9999983520508,14|0|0|0,0:0|0:0|0:0|0:0,0:0:0:0:
100,344,177007,5,8,0:0:0:0:
60,301,177088,1,0,0:0:0:0:
43,246,177169,1,8,0:0:0:0:
53,188,177250,1,0,0:0:0:0:
87,142,177331,5,8,0:0:0:0:
124,93,177412,1,8,0:0:0:0:
109,35,177493,1,8,0:0:0:0:
53,11,177574,1,0,0:0:0:0:
0,42,177656,6,0,P|57:134|159:99,1,233.999989288331,6|8,0:0|0:0,0:0:0:0:
279,21,178142,1,0,0:0:0:0:
330,7,178223,1,0,0:0:0:0:
381,22,178304,1,0,0:0:0:0:
455,108,178466,2,0,P|463:169|442:224,1,116.999994644165,0|8,0:0|0:0,0:0:0:0:
486,310,178791,1,0,0:0:0:0:
353,260,178953,6,0,P|264:328|157:289,1,233.999989288331,0|8,0:0|0:0,0:0:0:0:
64,101,179439,1,0,0:0:0:0:
107,100,179520,1,0,0:0:0:0:
151,122,179602,1,0,0:0:0:0:
248,232,179764,1,0,0:0:0:0:
291,44,179926,2,0,L|303:-11,3,38.9999982147218,8|0|0|0,0:0|0:0|0:0|0:0,0:0:0:0:
134,138,180250,6,0,P|61:130|43:222,1,175.499991966248
25,327,180574,2,0,P|42:276|36:208,1,116.999994644165,8|0,0:0|0:0,0:0:0:0:
184,283,180899,6,0,P|207:352|298:329,1,175.499991966248
401,301,181223,2,0,P|347:307|288:341,1,116.999994644165,8|0,0:0|0:0,0:0:0:0:
379,184,181547,6,0,P|431:165|500:177,2,116.999994644165,0|0|8,0:0|0:0|0:0,0:0:0:0:
234,325,182034,6,0,P|125:329|99:195,1,251.999992309571,4|0,0:0|0:0,0:0:0:0:
147,24,182520,2,0,P|175:85|137:152,1,125.999996154785,12|0,0:0|0:0,0:0:0:0:
95,87,182764,1,0,0:0:0:0:
95,87,182845,6,0,P|210:71|285:169,1,233.999989288331,6|8,0:0|0:0,0:0:0:0:
385,312,183331,2,0,P|369:251|381:191,1,116.999994644165
463,93,183656,2,0,P|479:154|467:214,1,116.999994644165,0|8,0:0|0:0,0:0:0:0:
370,40,183980,1,0,0:0:0:0:
276,254,184142,6,0,P|199:267|143:189,1,175.499991966248
140,85,184466,2,0,P|156:146|135:211,1,116.999994644165,8|0,0:0|0:0,0:0:0:0:
256,154,184791,6,0,P|333:141|389:219,1,175.499991966248
392,323,185115,2,0,P|376:262|397:197,1,116.999994644165,8|0,0:0|0:0,0:0:0:0:
447,52,185439,6,0,P|363:28|276:46,2,175.499991966248,6|0|6,0:0|0:0|0:0,0:0:0:0:
490,220,186088,1,0,0:0:0:0:
457,229,186169,1,0,0:0:0:0:
422,229,186250,1,0,0:0:0:0:
387,222,186331,1,0,0:0:0:0:
334,196,186412,1,12,0:0:0:0:
296,181,186493,1,0,0:0:0:0:
254,180,186574,1,0,0:0:0:0:
214,192,186655,1,0,0:0:0:0:
156,231,186737,6,0,L|51:242,1,62.9999980773926,12|0,0:0|0:0,0:0:0:0:
234,48,186899,1,0,0:0:0:0:
234,48,186980,1,0,0:0:0:0:
234,48,187061,1,8,0:0:0:0:
369,301,187223,6,0,L|474:312,1,62.9999980773926,12|0,0:0|0:0,0:0:0:0:
291,118,187385,1,0,0:0:0:0:
291,118,187466,1,0,0:0:0:0:
291,118,187547,1,8,0:0:0:0:
184,333,187710,6,0,P|187:299|178:265,1,62.9999980773926,8|0,0:0|0:0,0:0:0:0:
92,120,187872,1,0,0:0:0:0:
75,174,187953,1,0,0:0:0:0:
86,229,188034,6,0,P|99:285|80:366,1,125.999996154785,14|0,0:0|0:0,0:0:0:0:
353,164,188358,2,0,P|354:221|394:294,1,125.999996154785,8|0,0:0|0:0,0:0:0:0:
63,250,188683,2,0,P|66:309|32:387,1,125.999996154785,8|0,0:0|0:0,0:0:0:0:
374,142,189007,2,0,P|386:199|439:267,1,125.999996154785,14|0,0:0|0:0,0:0:0:0:
109,97,189331,6,0,P|79:146|8:190,1,125.999996154785,14|0,0:0|0:0,0:0:0:0:
344,240,189655,2,0,P|305:282|281:362,1,125.999996154785,8|2,0:0|0:0,0:0:0:0:
78,96,189980,2,0,P|38:140|-40:172,1,125.999996154785,8|0,0:0|0:0,0:0:0:0:
374,240,190304,2,0,P|342:289|332:374,1,125.999996154785,14|0,0:0|0:0,0:0:0:0:
182,44,190629,5,14,0:0:0:0:
234,310,190791,1,0,0:0:0:0:
166,37,190953,1,8,0:0:0:0:
248,322,191115,1,0,0:0:0:0:
267,26,191277,5,14,0:0:0:0:
149,328,191439,1,0,0:0:0:0:
289,16,191602,1,8,0:0:0:0:
130,335,191764,1,0,0:0:0:0:
53,134,191926,5,8,0:0:0:0:
373,195,192088,1,8,0:0:0:0:
61,157,192250,1,8,0:0:0:0:
367,175,192412,1,8,0:0:0:0:
2,224,193061,6,0,P|88:282|181:238,1,215.999993408203,2|0,0:0|0:0,0:0:0:0:
275,66,193547,2,0,P|272:120|293:178,1,107.999996704102,8|0,0:0|0:0,0:0:0:0:
432,215,193872,2,0,P|435:161|414:103,1,107.999996704102
296,263,194196,1,8,0:0:0:0:
492,35,194358,6,0,B|379:-14|379:87|264:32,1,233.999989288331
139,8,194845,2,0,P|81:3|26:29,1,116.999994644165,8|0,0:0|0:0,0:0:0:0:
58,140,195169,5,0,0:0:0:0:
79,198,195277,1,0,0:0:0:0:
62,258,195385,1,0,0:0:0:0:
78,317,195493,2,0,P|108:339|150:347,1,58.4999973220826,8|0,0:0|0:0,0:0:0:0:
417,188,195656,6,0,P|382:139|271:153,1,175.499991966248
261,191,195980,1,0,0:0:0:0:
221,218,196061,1,0,0:0:0:0:
174,227,196142,1,8,0:0:0:0:
126,216,196223,1,0,0:0:0:0:
87,188,196304,2,0,P|68:167|57:139,1,58.4999973220826
188,65,196466,2,0,L|174:140,1,58.4999973220826
141,307,196629,2,0,L|2:319,1,116.999994644165,0|8,0:0|0:0,0:0:0:0:
309,324,196953,6,0,P|387:350|472:322,1,175.499991966248,2|0,0:0|0:0,0:0:0:0:
506,214,197277,2,0,L|496:149,1,58.4999973220826
407,70,197439,2,0,L|397:135,1,58.4999973220826,8|0,0:0|0:0,0:0:0:0:
304,212,197602,2,0,L|294:147,1,58.4999973220826
195,80,197764,2,0,L|175:201,1,116.999994644165
152,345,198088,1,8,0:0:0:0:
40,159,198250,5,0,0:0:0:0:
40,159,198331,1,0,0:0:0:0:
40,159,198412,1,0,0:0:0:0:
126,6,198574,1,0,0:0:0:0:
184,261,198737,5,8,0:0:0:0:
164,265,198845,2,0,L|96:275,1,66.0000020141602
319,202,199061,1,0,0:0:0:0:
339,206,199169,2,0,L|407:216,1,66.0000020141602
196,118,199385,1,8,0:0:0:0:
176,122,199493,2,0,L|108:132,1,66.0000020141602
340,13,199710,5,0,0:0:0:0:
343,38,199818,2,0,L|351:121,1,66.0000020141602
195,135,200034,1,8,0:0:0:0:
192,160,200142,2,0,L|184:243,1,66.0000020141602
376,332,200358,5,0,0:0:0:0:
286,154,200520,1,0,0:0:0:0:
239,371,200683,1,8,0:0:0:0:
431,234,200845,2,0,B|448:158|448:158|422:85|422:85|440:3,1,233.999989288331
293,279,201331,1,8,0:0:0:0:
293,279,201493,2,0,P|179:268|143:165,1,233.999989288331
69,345,201980,5,8,0:0:0:0:
46,199,202142,2,0,B|28:102|45:15|45:15|63:37|82:71,1,233.999989288331,6|0,0:0|0:0,0:0:0:0:
272,253,202629,2,0,P|212:246|176:193,1,116.999994644165,12|0,0:0|0:0,0:0:0:0:
72,55,202953,2,0,L|57:8,3,38.9999982147218,4|0|0|0,0:0|0:0|0:0|0:0,0:0:0:0:
146,294,203277,1,8,0:0:0:0:
191,87,203439,6,0,B|301:10|301:134|435:62,1,233.999989288331,6|0,0:0|0:0,0:0:0:0:
463,211,203926,2,0,L|452:336,1,116.999994644165,8|0,0:0|0:0,0:0:0:0:
296,296,204250,2,0,L|285:171,1,116.999994644165
267,18,204574,1,8,0:0:0:0:
133,262,204737,6,0,B|107:304|107:304|71:213|101:121,1,233.999989288331
260,184,205223,2,0,P|315:199|375:188,1,116.999994644165,8|0,0:0|0:0,0:0:0:0:
424,48,205547,2,0,P|369:33|309:44,1,116.999994644165
167,214,205872,1,8,0:0:0:0:
124,2,206034,1,0,0:0:0:0:
14,148,206196,5,0,0:0:0:0:
273,104,206358,1,0,0:0:0:0:
0,138,206520,1,8,0:0:0:0:
283,114,206682,1,0,0:0:0:0:
44,55,206845,5,0,0:0:0:0:
248,199,207007,1,0,0:0:0:0:
41,37,207169,1,8,0:0:0:0:
251,215,207331,1,0,0:0:0:0:
231,32,207493,5,0,0:0:0:0:
43,222,207656,1,0,0:0:0:0:
225,16,207818,1,8,0:0:0:0:
37,242,207981,1,0,0:0:0:0:
296,90,208142,5,0,0:0:0:0:
296,90,208223,1,0,0:0:0:0:
296,90,208304,2,0,P|333:88|373:94,1,58.4999973220826,4|0,0:0|0:0,0:0:0:0:
434,237,208466,2,0,P|397:239|357:233,1,58.4999973220826,8|0,0:0|0:0,0:0:0:0:
274,347,208629,6,0,P|161:362|94:260,1,233.999989288331,6|0,0:0|0:0,0:0:0:0:
145,150,209115,2,0,P|155:92|143:35,1,116.999994644165,8|0,0:0|0:0,0:0:0:0:
30,137,209439,5,0,0:0:0:0:
30,137,209520,1,0,0:0:0:0:
30,137,209602,1,0,0:0:0:0:
30,137,209683,1,0,0:0:0:0:
30,137,209764,1,8,0:0:0:0:
71,113,209845,1,0,0:0:0:0:
120,110,209926,1,0,0:0:0:0:
164,129,210007,1,0,0:0:0:0:
195,166,210088,5,0,0:0:0:0:
233,210,210169,1,0,0:0:0:0:
288,227,210250,1,0,0:0:0:0:
343,211,210331,1,0,0:0:0:0:
383,175,210412,1,8,0:0:0:0:
440,154,210493,1,0,0:0:0:0:
496,181,210574,1,0,0:0:0:0:
512,239,210655,1,0,0:0:0:0:
488,294,210736,5,0,0:0:0:0:
440,309,210817,1,0,0:0:0:0:
390,298,210899,2,0,P|330:292|258:315,1,125.999996154785,2|8,0:0|0:0,0:0:0:0:
64,154,211223,6,0,P|164:154|105:54,1,251.999992309571,6|0,0:0|0:0,0:0:0:0:
29,306,211710,2,0,P|86:320|164:295,1,125.999996154785,8|0,0:0|0:0,0:0:0:0:
223,219,212034,2,0,L|342:232,1,107.999996704102,2|0,0:0|0:0,0:0:0:0:
361,251,212277,2,0,L|480:264,1,107.999996704102,2|0,0:0|0:0,0:0:0:0:
503,194,212520,6,0,B|510:130|510:130|494:67,1,125.999996154785,6|0,0:0|0:0,0:0:0:0:
356,150,212845,1,2,0:0:0:0:
181,49,213007,6,0,P|146:47|110:59,1,62.9999980773926,14|0,0:0|0:0,0:0:0:0:
33,178,213169,1,0,0:0:0:0:
15,237,213250,1,0,0:0:0:0:
36,295,213331,1,2,0:0:0:0:
89,327,213412,1,0,0:0:0:0:
151,320,213493,1,0,0:0:0:0:
194,297,213574,1,0,0:0:0:0:
243,290,213655,1,8,0:0:0:0:
291,299,213736,1,0,0:0:0:0:
334,324,213818,6,0,P|479:282|442:182,1,270.000010299683,6|0,0:0|0:0,0:0:0:0:
280,171,214304,2,0,B|252:229|252:229|242:296,1,125.999996154785,8|0,0:0|0:0,0:0:0:0:
418,125,214629,2,0,B|396:64|396:64|356:9,1,125.999996154785
167,101,214953,5,8,0:0:0:0:
113,113,215034,1,0,0:0:0:0:
60,101,215115,2,0,B|45:81|41:54|41:54|9:160|45:257,1,251.999992309571,2|0,0:0|0:0,0:0:0:0:
93,323,215520,1,0,0:0:0:0:
93,323,215602,2,0,P|129:330|168:323,1,62.9999980773926,8|0,0:0|0:0,0:0:0:0:
285,222,215764,2,0,P|249:215|210:222,1,62.9999980773926
415,317,215926,1,2,0:0:0:0:
433,266,216007,1,0,0:0:0:0:
441,213,216088,1,2,0:0:0:0:
435,159,216169,1,0,0:0:0:0:
418,108,216250,2,0,P|404:79|386:58,1,53.9999983520508,8|0,0:0|0:0,0:0:0:0:
190,119,216412,6,0,P|107:124|102:3,2,215.999993408203,2|2|2,0:0|0:0|0:0,0:0:0:0:
344,194,217223,2,0,L|236:205,1,107.999996704102,2|0,0:0|0:0,0:0:0:0:
214,228,217466,2,0,L|106:239,1,107.999996704102,2|0,0:0|0:0,0:0:0:0:
85,261,217710,2,0,P|100:320|235:329,1,215.999993408203,2|0,0:0|0:0,0:0:0:0:
295,283,218115,1,0,0:0:0:0:
295,283,218196,2,0,P|344:269|406:283,1,107.999996704102,10|0,0:0|0:0,0:0:0:0:
473,250,218520,2,0,L|482:360,2,107.999996704102,2|0|8,0:0|0:0|0:0,0:0:0:0:
448,103,219007,6,0,P|397:189|285:138,1,233.999989288331,6|0,0:0|0:0,0:0:0:0:
217,43,219493,1,8,0:0:0:0:
240,247,219656,1,0,0:0:0:0:
203,49,219818,1,0,0:0:0:0:
263,242,219981,1,0,0:0:0:0:
336,137,220142,5,8,0:0:0:0:
132,160,220305,1,0,0:0:0:0:
330,123,220467,1,0,0:0:0:0:
134,181,220630,1,0,0:0:0:0:
259,45,220791,5,8,0:0:0:0:
226,277,220953,1,0,0:0:0:0:
154,81,221115,5,0,0:0:0:0:
327,241,221277,1,0,0:0:0:0:
363,9,221439,1,8,0:0:0:0:
232,187,221602,6,0,B|180:201|133:181|133:181|109:202|109:202|57:184|5:201,1,233.999989288331,4|0,0:0|0:0,0:0:0:0:
9,199,222088,1,8,0:0:0:0:
298,311,222250,6,0,B|250:295|198:313|198:313|174:292|174:292|127:312|75:298,1,233.999989288331,4|0,0:0|0:0,0:0:0:0:
75,298,222737,1,8,0:0:0:0:
361,380,222899,6,0,P|394:295|261:223,1,270.000010299683,6|0,0:0|0:0,0:0:0:0:
332,64,223385,2,0,B|400:76|400:76|467:65,1,135.000005149842,10|0,3:0|3:0,3:0:0:0:
465,65,223629,1,0,3:0:0:0:
465,65,223710,1,0,3:0:0:0:
212,120,223872,2,0,P|148:140|84:120,1,135.000005149842,0|8,3:0|3:0,3:0:0:0:
18,301,224196,6,0,P|96:216|215:286,1,270.000010299683,2|0,0:0|0:0,0:0:0:0:
261,349,224602,1,0,0:0:0:0:
261,349,224683,2,0,P|334:356|380:320,1,135.000005149842,10|0,0:0|0:0,0:0:0:0:
459,279,224926,1,0,0:0:0:0:
459,279,225007,2,0,P|386:286|340:250,1,135.000005149842,2|0,0:0|0:0,0:0:0:0:
260,215,225250,1,0,0:0:0:0:
260,215,225331,2,0,P|333:222|379:186,1,135.000005149842,10|0,0:0|0:0,0:0:0:0:
492,102,225574,5,0,0:0:0:0:
492,102,225656,2,0,P|455:108|415:103,1,67.5000025749208,2|0,0:0|0:0,0:0:0:0:
315,134,225818,1,0,0:0:0:0:
261,124,225899,1,0,0:0:0:0:
207,133,225980,2,0,P|172:139|137:134,1,67.5000025749208,10|0,0:0|0:0,0:0:0:0:
35,60,226142,5,0,0:0:0:0:
35,60,226223,1,0,0:0:0:0:
35,60,226304,2,0,P|98:33|167:61,1,135.000005149842,2|0,0:0|0:0,0:0:0:0:
73,146,226547,1,0,0:0:0:0:
73,146,226629,2,0,P|33:142|-6:157,1,67.5000025749208,10|0,0:0|0:0,0:0:0:0:
8,240,226791,5,4,0:0:0:0:
22,300,226872,1,0,0:0:0:0:
66,344,226953,1,2,0:0:0:0:
126,359,227034,1,0,0:0:0:0:
185,339,227115,1,0,0:0:0:0:
226,292,227196,1,0,0:0:0:0:
285,256,227277,5,10,0:0:0:0:
303,253,227358,1,0,0:0:0:0:
371,265,227439,1,2,0:0:0:0:
389,268,227520,1,0,0:0:0:0:
452,239,227602,1,2,0:0:0:0:
470,236,227683,1,0,0:0:0:0:
503,173,227764,5,0,0:0:0:0:
490,121,227845,1,0,0:0:0:0:
452,84,227926,1,8,0:0:0:0:
400,73,228007,1,0,0:0:0:0:
350,91,228088,5,4,0:0:0:0:
308,118,228169,1,0,0:0:0:0:
260,128,228250,1,0,0:0:0:0:
212,122,228331,1,0,0:0:0:0:
168,99,228412,1,0,0:0:0:0:
124,93,228493,1,0,0:0:0:0:
82,108,228574,5,10,0:0:0:0:
53,142,228655,1,0,0:0:0:0:
43,185,228737,2,0,P|41:212|48:244,1,45,2|0,0:0|0:0,0:0:0:0:
55,300,228899,2,0,P|57:326|50:358,1,45,2|0,0:0|0:0,0:0:0:0:
158,332,229061,2,0,B|167:268|159:206,1,125.999996154785,2|8,0:0|0:0,0:0:0:0:
286,350,229385,6,0,P|370:344|378:253,1,188.999994232178,6|0,0:0|0:0,0:0:0:0:
302,233,229710,2,0,P|268:235|237:228,1,62.9999980773926,8|0,0:0|0:0,0:0:0:0:
228,87,229872,2,0,P|259:84|290:90,1,62.9999980773926,2|0,0:0|0:0,0:0:0:0:
229,248,230034,2,0,P|192:240|161:224,1,62.9999980773926
301,72,230196,2,0,P|337:79|368:95,1,62.9999980773926,2|0,0:0|0:0,0:0:0:0:
163,268,230358,2,0,P|129:251|103:227,1,62.9999980773926,8|0,0:0|0:0,0:0:0:0:
375,76,230521,2,0,P|407:92|433:115,1,62.9999980773926,2|0,0:0|0:0,0:0:0:0:
288,304,230683,6,0,P|280:339|259:374,1,62.9999980773926
130,199,230845,2,0,P|95:191|60:170,1,62.9999980773926
255,69,231007,2,0,P|263:34|284:-1,1,62.9999980773926
413,174,231169,2,0,P|448:182|483:203,1,62.9999980773926
143,110,231331,6,0,P|153:85|165:67,3,41.9999987182618,0|0|0|8,3:0|3:0|3:0|3:0,3:0:0:0:
369,274,231656,2,0,P|359:299|347:317,3,41.9999987182618,0|0|0|8,3:0|3:0|3:0|3:0,3:0:0:0:
151,315,231980,6,0,P|31:290|70:199,1,251.999992309571,6|0,0:0|0:0,0:0:0:0:
257,103,232466,1,8,0:0:0:0:
361,315,232629,2,0,P|481:290|442:199,1,251.999992309571,6|0,0:0|0:0,0:0:0:0:
257,85,233115,1,8,0:0:0:0:
31,82,233277,6,0,B|70:139|65:204|65:204|93:260|154:302,1,251.999992309571,6|0,0:0|0:0,0:0:0:0:
256,64,233764,1,8,0:0:0:0:
481,82,233926,2,0,B|442:139|447:204|447:204|419:260|358:302,1,251.999992309571,6|0,0:0|0:0,0:0:0:0:
256,47,234412,1,8,0:0:0:0:
205,204,234574,6,0,P|273:241|278:147,1,198.000006042481,6|0,0:0|0:0,0:0:0:0:
258,342,235061,2,0,P|190:362|119:347,1,144,8|0,0:0|0:0,0:0:0:0:
42,297,235547,1,0,0:0:0:0:
89,163,235710,5,8,0:0:0:0:
23,84,235872,2,0,L|193:54,1,144
257,45,236358,1,8,0:0:0:0:
186,226,236520,5,0,0:0:0:0:
186,226,236602,1,0,0:0:0:0:
186,226,236683,2,0,L|180:327,2,96,8|8|8,0:0|0:0|0:0,0:0:0:0:
276,366,237331,5,4,0:0:0:0:
276,366,238629,5,12,0:0:0:0:
85,147,239926,6,0,L|11:156,2,60,6|0|0,0:0|0:0|0:0,0:0:0:0:
114,242,240250,2,0,L|52:269,2,60,8|0|0,0:0|0:0|0:0,0:0:0:0:
152,334,240574,1,0,0:0:0:0:
211,355,240682,1,0,0:0:0:0:
273,344,240790,1,0,0:0:0:0:
322,304,240898,1,8,0:0:0:0:
343,244,241006,1,0,0:0:0:0:
332,182,241114,1,0,0:0:0:0:
290,134,241223,6,0,L|308:96,2,30,8|0|0,0:0|0:0|0:0,0:0:0:0:
204,162,241439,2,0,L|190:196,2,30,8|0|0,0:0|0:0|0:0,0:0:0:0:
143,94,241656,2,0,L|157:60,2,30,8|0|0,0:0|0:0|0:0,0:0:0:0:
66,143,241872,5,8,0:0:0:0:
40,208,241980,1,8,0:0:0:0:
57,277,242088,1,8,0:0:0:0:
111,323,242196,1,8,0:0:0:0:
181,330,242304,1,8,0:0:0:0:
242,294,242412,1,8,0:0:0:0:
470,45,242845,6,0,L|276:51,1,180,2|0,0:0|0:0,0:0:0:0:
282,141,243493,2,0,L|462:136,1,180,2|0,0:0|0:0,0:0:0:0:
454,227,244142,2,0,L|260:233,1,180,2|0,0:0|0:0,0:0:0:0:
265,322,244791,1,2,0:0:0:0:
71,213,244953,5,0,0:0:0:0:
71,213,245034,1,0,0:0:0:0:
71,213,245115,2,0,L|83:59,2,148.50000453186,14|0|14,0:0|0:0|0:0,0:0:0:0:
178,317,245764,1,0,0:0:0:0:
181,272,245845,1,0,0:0:0:0:
185,228,245926,2,0,L|189:168,1,49.5000015106202
337,46,246088,1,12,0:0:0:0:
333,95,246169,1,0,0:0:0:0:
329,143,246250,2,0,L|324:209,1,49.5000015106202
311,340,246412,5,10,0:0:0:0:
167,25,246574,1,10,0:0:0:0:
126,254,246737,6,0,P|155:237|176:202,1,62.9999980773926
25,164,247061,2,0,P|25:197|45:233,1,62.9999980773926
154,123,247385,2,0,P|124:106|83:105,1,62.9999980773926
123,344,247710,6,0,B|172:340|200:314|200:314|246:320|288:341|288:341|311:321|352:308,1,233.999989288331,2|8,0:0|0:0,0:0:0:0:
469,119,248196,1,0,0:0:0:0:
411,109,248277,1,0,0:0:0:0:
358,134,248358,1,0,0:0:0:0:
455,341,248520,2,0,P|463:282|455:223,1,116.999994644165,0|8,0:0|0:0,0:0:0:0:
418,81,248845,5,0,0:0:0:0:
309,14,249007,2,0,P|199:6|114:91,1,233.999989288331,0|8,0:0|0:0,0:0:0:0:
120,268,249493,5,0,0:0:0:0:
172,269,249574,1,0,0:0:0:0:
220,247,249656,1,0,0:0:0:0:
364,121,249818,1,0,0:0:0:0:
283,330,249980,2,0,L|261:388,3,38.9999982147218,8|0|0|0,0:0|0:0|0:0|0:0,0:0:0:0:
37,232,250304,6,0,P|17:312|88:347,1,175.499991966248
201,350,250629,2,0,P|144:334|81:350,1,116.999994644165,8|0,0:0|0:0,0:0:0:0:
277,276,250953,6,0,P|297:196|226:161,1,175.499991966248
113,158,251278,2,0,P|170:174|233:158,1,116.999994644165,8|0,0:0|0:0,0:0:0:0:
355,47,251602,6,0,P|411:35|467:51,2,116.999994644165,0|0|8,0:0|0:0|0:0,0:0:0:0:
225,162,252088,2,0,L|210:292,1,116.999994644165,2|0,0:0|0:0,0:0:0:0:
83,116,252412,2,0,L|68:-14,1,116.999994644165,2|8,0:0|0:0,0:0:0:0:
211,278,252737,5,0,0:0:0:0:
259,297,252818,1,0,0:0:0:0:
310,288,252899,2,0,P|405:229|414:111,1,233.999989288331,2|8,0:0|0:0,0:0:0:0:
309,30,253385,2,0,P|251:20|189:38,1,116.999994644165
89,129,253710,2,0,P|147:119|209:137,1,116.999994644165,0|8,0:0|0:0,0:0:0:0:
288,193,254034,1,0,0:0:0:0:
37,272,254196,6,0,P|80:334|174:319,1,175.499991966248
281,317,254520,2,0,P|228:303|167:325,1,116.999994644165,8|0,0:0|0:0,0:0:0:0:
145,154,254845,2,0,P|145:78|230:36,1,175.499991966248
339,34,255169,2,0,P|278:48|215:29,1,116.999994644165,8|0,0:0|0:0,0:0:0:0:
37,272,255493,6,0,P|92:341|183:321,2,175.499991966248,6|0|4,0:0|0:0|0:0,0:0:0:0:
146,209,256142,1,0,0:0:0:0:
190,192,256223,1,0,0:0:0:0:
239,196,256304,1,0,0:0:0:0:
279,222,256385,1,0,0:0:0:0:
304,264,256466,2,0,P|312:294|308:334,1,58.4999973220826,12|0,0:0|0:0,0:0:0:0:
391,187,256629,2,0,P|382:156|386:116,1,58.4999973220826
432,36,256791,6,0,L|509:19,2,77.9999964294435,4|0|0,0:0|0:0|0:0,0:0:0:0:
334,58,257115,2,0,L|257:75,2,77.9999964294435
121,108,257439,1,0,0:0:0:0:
81,174,257547,1,0,0:0:0:0:
83,250,257655,1,0,0:0:0:0:
127,314,257763,1,0,0:0:0:0:
197,344,257871,1,0,0:0:0:0:
273,331,257979,1,0,0:0:0:0:
330,280,258088,6,0,P|435:262|495:363,1,233.999989288331,6|8,0:0|0:0,0:0:0:0:
208,211,258574,1,0,0:0:0:0:
224,154,258656,1,0,0:0:0:0:
209,97,258737,1,0,0:0:0:0:
14,178,258899,2,0,P|6:238|18:293,1,116.999994644165,0|8,0:0|0:0,0:0:0:0:
109,365,259223,1,0,0:0:0:0:
330,280,259385,6,0,B|349:201|349:201|336:125|336:125|356:48,1,233.999989288331,0|8,0:0|0:0,0:0:0:0:
456,213,259872,1,0,0:0:0:0:
451,265,259953,1,0,0:0:0:0:
444,317,260034,1,0,0:0:0:0:
243,197,260196,1,0,0:0:0:0:
297,358,260358,2,0,P|318:368|344:371,3,38.9999982147218,8|0|0|0,0:0|0:0|0:0|0:0,0:0:0:0:
271,115,260683,6,0,P|184:132|157:211,1,175.499991966248
147,317,261007,2,0,P|167:253|153:199,1,116.999994644165,8|0,0:0|0:0,0:0:0:0:
307,259,261331,6,0,P|394:242|421:163,1,175.499991966248
430,56,261656,2,0,P|410:120|424:174,1,116.999994644165,8|0,0:0|0:0,0:0:0:0:
499,253,261980,1,0,0:0:0:0:
333,38,262142,1,0,0:0:0:0:
287,28,262223,1,0,0:0:0:0:
241,36,262304,1,8,0:0:0:0:
178,260,262466,6,0,P|44:227|68:118,1,270.000010299683,6|0,0:0|0:0,0:0:0:0:
207,177,262872,1,0,0:0:0:0:
207,177,262953,2,0,P|263:226|259:292,1,135.000005149842,4|0,0:0|0:0,0:0:0:0:
153,103,263277,6,0,B|238:83|238:83|301:103|301:103|395:82,1,233.999989288331,6|8,0:0|0:0,0:0:0:0:
511,154,263764,2,0,L|381:182,1,116.999994644165
339,283,264088,2,0,L|469:255,1,116.999994644165,0|8,0:0|0:0,0:0:0:0:
512,333,264412,1,0,0:0:0:0:
275,349,264574,6,0,P|196:371|126:307,1,175.499991966248
117,219,264899,2,0,B|175:229|175:229|214:275,1,116.999994644165,8|0,0:0|0:0,0:0:0:0:
301,173,265223,6,0,P|279:94|343:24,1,175.499991966248
431,15,265547,2,0,B|421:73|421:73|375:112,1,116.999994644165,8|0,0:0|0:0,0:0:0:0:
81,190,265872,6,0,B|64:98|64:98|74:3,2,188.999994232178,6|0|4,0:0|0:0|0:0,0:0:0:0:
158,289,266520,1,0,0:0:0:0:
199,257,266601,1,0,0:0:0:0:
250,246,266682,1,0,0:0:0:0:
301,257,266763,1,0,0:0:0:0:
342,288,266845,2,0,P|362:320|368:354,1,62.9999980773926,12|0,0:0|0:0,0:0:0:0:
440,219,267007,2,0,P|460:187|466:153,1,62.9999980773926
372,79,267169,5,8,0:0:0:0:
309,82,267250,1,0,0:0:0:0:
246,85,267331,1,0,0:0:0:0:
183,89,267412,1,0,0:0:0:0:
120,92,267493,1,8,0:0:0:0:
39,334,267656,5,8,0:0:0:0:
101,331,267737,1,0,0:0:0:0:
164,328,267818,1,0,0:0:0:0:
227,324,267899,1,0,0:0:0:0:
290,321,267980,1,8,0:0:0:0:
370,55,268142,1,12,0:0:0:0:
407,252,268304,1,0,0:0:0:0:
92,214,268466,6,0,P|77:145|86:78,1,135.000005149842,14|0,0:0|0:0,0:0:0:0:
415,110,268791,2,0,P|430:179|421:246,1,135.000005149842,8|0,0:0|0:0,0:0:0:0:
63,190,269115,2,0,P|59:119|80:54,1,135.000005149842,8|0,0:0|0:0,0:0:0:0:
444,134,269440,2,0,P|448:205|427:270,1,135.000005149842,10|0,0:0|0:0,0:0:0:0:
198,21,269764,6,0,P|264:13|330:28,1,135.000005149842,10|0,0:0|0:0,0:0:0:0:
314,363,270088,2,0,P|248:371|182:356,1,135.000005149842,8|2,0:0|0:0,0:0:0:0:
165,17,270412,2,0,P|229:-2|296:1,1,135.000005149842,8|0,0:0|0:0,0:0:0:0:
347,367,270736,2,0,P|282:386|215:382,1,135.000005149842,10|0,0:0|0:0,0:0:0:0:
70,97,271061,6,0,P|60:163|77:231,1,135.000005149842,14|0,0:0|0:0,0:0:0:0:
436,228,271385,2,0,P|451:163|442:97,1,135.000005149842,8|0,0:0|0:0,0:0:0:0:
50,71,271710,2,0,P|25:143|31:224,1,135.000005149842,8|0,0:0|0:0,0:0:0:0:
447,254,272034,2,0,P|469:191|470:124,1,135.000005149842,8|0,0:0|0:0,0:0:0:0:
136,19,272358,6,0,P|201:9|262:36,1,135.000005149842,10|0,0:0|0:0,0:0:0:0:
376,365,272683,2,0,P|310:374|249:347,1,135.000005149842,8|0,0:0|0:0,0:0:0:0:
388,43,273007,5,10,3:0:0:0:
411,81,273088,1,0,3:0:0:0:
419,125,273169,1,0,3:0:0:0:
411,170,273250,1,0,3:0:0:0:
389,209,273331,1,12,3:0:0:0:
150,215,273493,5,0,3:0:0:0:
137,154,273574,1,0,3:0:0:0:
125,93,273656,1,14,3:0:0:0:
12,263,273818,1,0,0:0:0:0:
195,7,273980,1,8,0:0:0:0:
220,320,274142,1,0,0:0:0:0:
24,74,274304,5,10,0:0:0:0:
237,342,274466,1,0,0:0:0:0:
216,14,274629,1,10,0:0:0:0:
3,282,274791,1,0,0:0:0:0:
364,156,274953,5,10,0:0:0:0:
135,195,275115,1,0,0:0:0:0:
387,125,275277,1,10,0:0:0:0:
88,260,275439,2,0,P|55:206|81:134,1,135.000005149842,0|10,0:0|0:0,0:0:0:0:
461,49,275764,1,0,0:0:0:0:
472,108,275845,1,0,0:0:0:0:
464,168,275926,2,0,P|453:235|466:310,1,135.000005149842,6|0,0:0|0:0,0:0:0:0:
35,66,276250,5,6,0:0:0:0:
87,55,276331,1,0,0:0:0:0:
140,63,276412,2,0,P|179:70|216:65,1,67.5000025749208
257,261,276574,1,6,0:0:0:0:
205,272,276655,1,0,0:0:0:0:
152,264,276736,2,0,P|113:257|76:262,1,67.5000025749208
206,67,276899,1,6,0:0:0:0:
258,56,276980,1,0,0:0:0:0:
311,64,277061,2,0,P|350:71|387:66,1,67.5000025749208
428,262,277223,1,6,0:0:0:0:
376,273,277304,1,0,0:0:0:0:
323,265,277385,2,0,P|284:258|247:263,1,67.5000025749208
377,68,277547,6,0,P|425:160|313:167,1,252,6|0,0:0|0:0,0:0:0:0:
260,115,278196,2,0,P|226:103|186:103,2,72
453,308,278683,6,0,B|362:348|362:267|253:321,1,198.000006042481,2|0,0:0|0:0,0:0:0:0:
74,269,279169,2,0,P|123:269|167:249,1,99.0000030212403,8|0,0:0|0:0,0:0:0:0:
272,170,279493,2,0,P|222:170|178:150,1,99.0000030212403
99,84,279818,1,8,0:0:0:0:
253,265,279980,6,0,P|330:321|422:288,1,198.000006042481
422,120,280466,2,0,P|394:162|383:213,1,99.0000030212403,8|0,0:0|0:0,0:0:0:0:
302,101,280791,2,0,P|330:59|341:8,1,99.0000030212403
231,0,281115,1,8,0:0:0:0:
80,144,281277,6,0,P|76:243|102:340,1,198.000006042481
227,377,281764,2,0,P|230:333|217:274,1,99.0000030212403,8|0,0:0|0:0,0:0:0:0:
321,155,282088,2,0,P|317:198|330:257,1,99.0000030212403
368,352,282412,1,8,0:0:0:0:
471,135,282574,6,0,P|376:40|328:65,1,198.000006042481,6|0,0:0|0:0,0:0:0:0:
254,130,283061,2,0,P|201:144|154:134,1,99.0000030212403,8|0,0:0|0:0,0:0:0:0:
65,79,283385,1,0,0:0:0:0:
80,226,283547,2,0,L|92:334,1,99.0000030212403,0|8,0:0|0:0,0:0:0:0:
274,152,283872,6,0,P|334:224|425:201,1,198.000006042481,6|0,0:0|0:0,0:0:0:0:
506,82,284358,2,0,P|459:79|412:105,1,99.0000030212403,8|0,0:0|0:0,0:0:0:0:
272,39,284683,2,0,P|320:41|363:18,1,99.0000030212403
180,107,285007,1,8,0:0:0:0:
345,256,285169,6,0,P|273:318|176:293,1,198.000006042481
52,233,285656,2,0,P|92:207|143:204,1,99.0000030212403,8|0,0:0|0:0,0:0:0:0:
267,141,285980,2,0,P|218:138|176:111,1,99.0000030212403
112,36,286304,1,8,0:0:0:0:
368,98,286466,6,0,P|386:195|372:300,1,198.000006042481,6|0,0:0|0:0,0:0:0:0:
274,374,286953,2,0,P|268:320|275:255,1,99.0000030212403,8|0,0:0|0:0,0:0:0:0:
168,152,287277,2,0,P|171:201|165:251,1,99.0000030212403
142,356,287602,1,8,0:0:0:0:
61,78,287764,6,0,L|174:61,1,107.999996704102,6|0,0:0|0:0,0:0:0:0:
328,44,288088,1,0,0:0:0:0:
264,306,288250,1,8,0:0:0:0:
485,148,288412,6,0,L|372:131,1,107.999996704102,6|0,0:0|0:0,0:0:0:0:
218,114,288736,1,0,0:0:0:0:
282,376,288898,1,8,0:0:0:0:
128,98,289061,6,0,P|186:26|282:49,1,198.000006042481,4|0,0:0|0:0,0:0:0:0:
360,144,289547,2,0,P|366:196|359:241,1,99.0000030212403,8|0,0:0|0:0,0:0:0:0:
461,332,289872,2,0,P|455:280|462:235,1,99.0000030212403
490,136,290196,1,8,0:0:0:0:
276,315,290358,6,0,P|183:327|125:247,1,198.000006042481
159,43,290845,2,0,P|173:91|165:143,1,99.0000030212403,8|0,0:0|0:0,0:0:0:0:
277,201,291169,2,0,P|263:153|271:101,1,99.0000030212403
295,19,291493,1,8,0:0:0:0:
451,279,291656,6,0,P|374:333|281:305,1,198.000006042481
193,251,292142,2,0,P|145:240|93:250,1,99.0000030212403,8|0,0:0|0:0,0:0:0:0:
16,146,292466,2,0,P|64:157|116:147,1,99.0000030212403
199,104,292791,1,8,0:0:0:0:
376,282,292953,6,0,L|251:301,1,116.999994644165,6|0,0:0|0:0,0:0:0:0:
191,86,293277,2,0,L|316:67,1,116.999994644165,6|0,0:0|0:0,0:0:0:0:
394,310,293602,2,0,L|269:329,1,116.999994644165,6|0,0:0|0:0,0:0:0:0:
115,68,293926,1,4,0:0:0:0:
77,310,294088,1,8,0:0:0:0:
239,25,294250,6,0,P|329:2|409:67,1,198.000006042481,6|0,0:0|0:0,0:0:0:0:
500,171,294737,2,0,P|491:120|501:65,1,99.0000030212403,8|0,0:0|0:0,0:0:0:0:
400,198,295061,2,0,P|409:249|399:304,1,99.0000030212403
466,376,295385,1,8,0:0:0:0:
190,353,295547,6,0,P|162:259|174:153,1,198.000006042481
305,63,296034,2,0,P|313:114|303:175,1,99.0000030212403,8|0,0:0|0:0,0:0:0:0:
17,112,296358,5,8,0:0:0:0:
228,80,296520,1,0,0:0:0:0:
5,107,296683,1,8,0:0:0:0:
193,170,296845,5,4,0:0:0:0:
256,192,296926,12,0,302147,0:0:0:0:
