osu file format v14

[General]
AudioFilename: audio.mp3
AudioLeadIn: 0
PreviewTime: 78437
Countdown: 0
SampleSet: Normal
StackLeniency: 0.7
Mode: 1
LetterboxInBreaks: 0
WidescreenStoryboard: 0

[Editor]
Bookmarks: 11464,29626,37572,84275,89464,125788,146545,156923
DistanceSpacing: 0.4
BeatDivisor: 4
GridSize: 16
TimelineZoom: 3.350008

[Metadata]
Title:Youkai no Yama ~ Mysterious Mountain
TitleUnicode:妖怪の山 ~ Mysterious Mountain
Artist:Demetori
ArtistUnicode:Demetori
Creator:Deif
Version:Raiden's Inner Oni
Source:東方風神録 ~ Mountain of Faith.
Tags:Touhou Project 闡提宗祀 Sendaisoushi Offering to The Sukhavati 射命丸文 Aya Shameimaru comiket75 Raiden
BeatmapID:1141715
BeatmapSetID:538881

[Difficulty]
HPDrainRate:5
CircleSize:2
OverallDifficulty:6.5
ApproachRate:10
SliderMultiplier:1.4
SliderTickRate:1

[Events]
//Background and Video events
0,0,"BG.jpg",0,-130
//Break Periods
//Storyboard Layer 0 (Background)
//Storyboard Layer 1 (Fail)
//Storyboard Layer 2 (Pass)
//Storyboard Layer 3 (Foreground)
//Storyboard Sound Samples

[TimingPoints]
-49,324.324324324324,4,1,0,80,1,0
599,-105.263157894737,4,1,0,80,0,0
11302,-100,4,1,0,90,0,0
58086,-105.263157894737,4,1,0,80,0,0
58248,-111.111111111111,4,1,0,80,0,0
68005,-106.382978723404,4,1,0,80,0,0
68113,-105.263157894737,4,1,0,80,0,0
68221,-104.166666666667,4,1,0,80,0,0
68329,-103.092783505155,4,1,0,80,0,0
68437,-102.040816326531,4,1,0,80,0,0
68545,-101.010101010101,4,1,0,80,0,0
68653,-100,4,1,0,80,0,0
79086,-90.9090909090909,4,1,0,100,0,1
99842,-90.9090909090909,4,1,0,100,0,0
104869,-100,4,1,0,90,0,0
146950,-111.111111111111,4,1,0,80,0,0
156072,-109.89010989011,4,1,0,80,0,0
156234,-108.695652173913,4,1,0,81,0,0
156315,-107.52688172043,4,1,0,82,0,0
156396,-106.382978723404,4,1,0,83,0,0
156478,-105.263157894737,4,1,0,84,0,0
156559,-104.166666666667,4,1,0,85,0,0
156640,-103.092783505155,4,1,0,86,0,0
156721,-102.040816326531,4,1,0,87,0,0
156802,-101.010101010101,4,1,0,88,0,0
156883,-100,4,1,0,90,0,0
167302,-90.9090909090909,4,1,0,100,0,1
188059,-90.9090909090909,4,1,0,100,0,0
193005,-100,4,1,0,90,0,0
247734,-90.9090909090909,4,1,0,100,0,1
268491,-90.9090909090909,4,1,0,100,0,0
278140,-100,4,1,0,85,0,0
297275,-105.263157894737,4,1,0,70,0,0
297599,-111.111111111111,4,1,0,65,0,0
297923,-117.647058823529,4,1,0,60,0,0
298248,-125,4,1,0,55,0,0
298572,-133.333333333333,4,1,0,50,0,0
298896,-142.857142857143,4,1,0,45,0,0
299221,-153.846153846154,4,1,0,40,0,0
299869,-166.666666666667,4,1,0,35,0,0
300194,-181.818181818182,4,1,0,30,0,0
300518,-200,4,1,0,25,0,0
300923,352.941176470588,4,1,0,25,1,8
300923,-200,4,1,0,25,0,0
301275,444.444444444444,4,1,0,25,1,0
301275,-166.666666666667,4,1,0,25,0,0
302163,-166.666666666667,4,3,0,25,0,0
303052,-166.666666666667,4,3,0,25,0,0
304830,-166.666666666667,4,3,0,20,0,0
306608,-166.666666666667,4,3,0,15,0,0
308386,-166.666666666667,4,3,0,10,0,0
310163,-166.666666666667,4,3,0,5,0,0

[HitObjects]
400,272,599,5,8,0:0:0:0:
128,128,761,1,0,0:0:0:0:
128,128,923,1,0,0:0:0:0:
320,128,1086,1,12,0:0:0:0:
176,112,3194,1,0,0:0:0:0:
352,256,3356,1,8,0:0:0:0:
352,256,3518,1,8,0:0:0:0:
160,288,3680,1,4,0:0:0:0:
128,128,4167,1,0,0:0:0:0:
128,128,4248,1,0,0:0:0:0:
128,128,4329,1,0,0:0:0:0:
128,128,4410,1,0,0:0:0:0:
384,288,4491,1,8,0:0:0:0:
144,96,4653,1,0,0:0:0:0:
352,288,4815,1,8,0:0:0:0:
112,112,4978,1,4,0:0:0:0:
96,96,5302,1,0,0:0:0:0:
96,96,5383,1,0,0:0:0:0:
96,96,5464,1,0,0:0:0:0:
416,224,5626,1,8,0:0:0:0:
112,112,5788,1,0,0:0:0:0:
112,112,5950,1,0,0:0:0:0:
416,224,6113,1,8,0:0:0:0:
128,96,6275,1,4,0:0:0:0:
96,112,6761,5,0,0:0:0:0:
96,112,7410,1,0,0:0:0:0:
176,96,8059,1,0,0:0:0:0:
144,176,8383,1,0,0:0:0:0:
144,176,8545,1,0,0:0:0:0:
144,176,8707,1,0,0:0:0:0:
416,144,8869,1,12,0:0:0:0:
144,112,9356,1,0,0:0:0:0:
144,112,9518,1,0,0:0:0:0:
432,352,9680,1,8,0:0:0:0:
432,352,9842,1,8,0:0:0:0:
432,352,10005,1,8,0:0:0:0:
416,288,10167,1,8,0:0:0:0:
176,112,10248,1,0,0:0:0:0:
176,112,10329,1,0,0:0:0:0:
176,112,10410,1,0,0:0:0:0:
368,304,10491,1,8,0:0:0:0:
400,320,10653,1,8,0:0:0:0:
416,320,10978,1,8,0:0:0:0:
416,320,11140,1,8,0:0:0:0:
416,80,11464,5,4,0:0:0:0:
112,80,11788,1,0,0:0:0:0:
384,288,11950,1,8,0:0:0:0:
416,336,12113,1,8,0:0:0:0:
384,320,12194,1,8,0:0:0:0:
160,144,12275,1,0,0:0:0:0:
160,144,12437,1,0,0:0:0:0:
416,336,12599,1,8,0:0:0:0:
144,112,12761,1,0,0:0:0:0:
144,112,13086,1,0,0:0:0:0:
352,240,13248,1,8,0:0:0:0:
148,103,13410,1,0,0:0:0:0:
160,144,13572,1,0,0:0:0:0:
323,246,13653,1,8,0:0:0:0:
148,103,13734,1,0,0:0:0:0:
160,144,13815,1,0,0:0:0:0:
400,320,13896,1,8,0:0:0:0:
304,256,14059,1,8,0:0:0:0:
176,144,14383,1,0,0:0:0:0:
336,272,14545,1,8,0:0:0:0:
176,160,14707,1,0,0:0:0:0:
375,252,14869,1,8,0:0:0:0:
344,263,14950,1,8,0:0:0:0:
176,160,15032,1,0,0:0:0:0:
352,304,15194,1,8,0:0:0:0:
128,144,15356,1,0,0:0:0:0:
128,64,15680,1,0,0:0:0:0:
352,288,15842,1,8,0:0:0:0:
128,96,16005,1,0,0:0:0:0:
170,117,16086,1,0,0:0:0:0:
416,288,16167,1,8,0:0:0:0:
391,296,16248,1,8,0:0:0:0:
160,112,16329,1,0,0:0:0:0:
336,256,16491,1,8,0:0:0:0:
144,112,16653,1,0,0:0:0:0:
152,136,16978,1,0,0:0:0:0:
426,324,17140,1,8,0:0:0:0:
298,239,17302,1,8,0:0:0:0:
352,224,17383,1,8,0:0:0:0:
158,161,17464,1,0,0:0:0:0:
207,136,17545,1,0,0:0:0:0:
158,161,17626,1,0,0:0:0:0:
154,108,17788,1,0,0:0:0:0:
430,297,17950,1,8,0:0:0:0:
152,136,18275,1,0,0:0:0:0:
426,324,18437,1,8,0:0:0:0:
298,239,18599,1,8,0:0:0:0:
219,123,18680,1,0,0:0:0:0:
409,332,18761,1,8,0:0:0:0:
458,307,18842,1,8,0:0:0:0:
158,161,18923,1,0,0:0:0:0:
430,297,19085,1,8,0:0:0:0:
430,297,19247,1,8,0:0:0:0:
152,136,19572,1,0,0:0:0:0:
426,324,19734,1,8,0:0:0:0:
298,239,19896,1,8,0:0:0:0:
435,320,19978,1,8,0:0:0:0:
374,358,20058,1,8,0:0:0:0:
423,333,20140,1,8,0:0:0:0:
158,161,20220,1,0,0:0:0:0:
430,297,20382,1,8,0:0:0:0:
130,308,20544,5,4,0:0:0:0:
81,123,20869,1,0,0:0:0:0:
358,138,21032,1,12,0:0:0:0:
148,110,21194,1,0,0:0:0:0:
148,110,21248,1,0,0:0:0:0:
148,110,21302,1,0,0:0:0:0:
340,284,21356,1,8,0:0:0:0:
148,110,21518,1,0,0:0:0:0:
325,265,21680,1,8,0:0:0:0:
416,80,21842,5,4,0:0:0:0:
112,80,22166,1,0,0:0:0:0:
384,288,22328,1,8,0:0:0:0:
109,120,22491,1,0,0:0:0:0:
384,320,22572,1,8,0:0:0:0:
160,144,22653,1,0,0:0:0:0:
160,144,22815,1,0,0:0:0:0:
416,336,22977,1,8,0:0:0:0:
144,112,23139,1,0,0:0:0:0:
144,112,23464,1,0,0:0:0:0:
352,240,23626,1,8,0:0:0:0:
148,103,23788,1,0,0:0:0:0:
160,144,23950,1,0,0:0:0:0:
323,246,24031,1,8,0:0:0:0:
148,103,24112,1,0,0:0:0:0:
160,144,24193,1,0,0:0:0:0:
400,320,24274,1,8,0:0:0:0:
304,256,24437,1,8,0:0:0:0:
176,144,24761,1,0,0:0:0:0:
336,272,24923,1,8,0:0:0:0:
176,160,25085,1,0,0:0:0:0:
375,252,25247,1,8,0:0:0:0:
176,160,25328,1,0,0:0:0:0:
344,263,25410,1,8,0:0:0:0:
352,304,25572,1,8,0:0:0:0:
128,144,25734,1,0,0:0:0:0:
128,64,26058,1,0,0:0:0:0:
352,288,26220,1,8,0:0:0:0:
128,96,26383,1,0,0:0:0:0:
170,117,26464,1,0,0:0:0:0:
416,288,26545,1,8,0:0:0:0:
160,112,26626,5,0,0:0:0:0:
391,296,26707,1,8,0:0:0:0:
336,256,26869,1,8,0:0:0:0:
123,230,27032,5,4,0:0:0:0:
128,64,27356,1,0,0:0:0:0:
352,288,27518,1,8,0:0:0:0:
128,96,27681,1,0,0:0:0:0:
170,117,27762,1,0,0:0:0:0:
416,288,27843,1,8,0:0:0:0:
391,296,28005,1,8,0:0:0:0:
336,256,28167,1,8,0:0:0:0:
123,230,28330,5,0,0:0:0:0:
128,64,28653,1,0,0:0:0:0:
352,288,28815,1,8,0:0:0:0:
416,288,28978,1,8,0:0:0:0:
356,309,29059,1,8,0:0:0:0:
128,96,29140,1,0,0:0:0:0:
160,112,29221,5,0,0:0:0:0:
391,296,29302,1,8,0:0:0:0:
123,230,29464,1,0,0:0:0:0:
336,256,29626,5,12,0:0:0:0:
126,107,29950,1,0,0:0:0:0:
342,250,30113,1,8,0:0:0:0:
151,137,30275,1,0,0:0:0:0:
409,306,30437,1,8,0:0:0:0:
409,306,30518,1,8,0:0:0:0:
74,107,30599,1,0,0:0:0:0:
396,272,30761,1,12,0:0:0:0:
125,118,30923,1,0,0:0:0:0:
383,161,31086,1,12,0:0:0:0:
383,161,31248,1,12,0:0:0:0:
383,161,31410,1,12,0:0:0:0:
391,278,31734,1,8,0:0:0:0:
391,278,31815,1,8,0:0:0:0:
391,278,31896,1,8,0:0:0:0:
287,244,31950,1,8,0:0:0:0:
391,278,32005,1,8,0:0:0:0:
149,115,32059,1,0,0:0:0:0:
390,319,32221,5,12,0:0:0:0:
190,145,32707,1,0,0:0:0:0:
413,337,33032,1,8,0:0:0:0:
149,120,33356,1,0,0:0:0:0:
351,293,33518,1,8,0:0:0:0:
351,293,33599,1,8,0:0:0:0:
114,123,33680,1,0,0:0:0:0:
114,123,34005,1,0,0:0:0:0:
375,300,34329,1,8,0:0:0:0:
94,130,34653,1,0,0:0:0:0:
408,157,34815,1,12,0:0:0:0:
161,102,35302,1,0,0:0:0:0:
421,319,35626,1,8,0:0:0:0:
146,115,35950,1,0,0:0:0:0:
146,115,36005,1,0,0:0:0:0:
146,115,36059,1,0,0:0:0:0:
397,295,36113,1,8,0:0:0:0:
393,313,36194,1,8,0:0:0:0:
371,316,36275,1,8,0:0:0:0:
397,295,36437,1,8,0:0:0:0:
132,102,36599,1,0,0:0:0:0:
132,101,36761,1,0,0:0:0:0:
132,102,37086,1,0,0:0:0:0:
132,102,37248,1,0,0:0:0:0:
414,315,37410,1,8,0:0:0:0:
144,272,37572,5,4,0:0:0:0:
400,288,37897,1,8,0:0:0:0:
112,112,38059,1,4,0:0:0:0:
160,144,38383,1,0,0:0:0:0:
208,144,38464,1,0,0:0:0:0:
352,304,38545,1,8,0:0:0:0:
400,336,38707,1,8,0:0:0:0:
192,160,38870,1,0,0:0:0:0:
400,320,39032,1,8,0:0:0:0:
464,368,39356,1,8,0:0:0:0:
192,144,39518,1,0,0:0:0:0:
448,368,39680,1,8,0:0:0:0:
208,160,39762,1,0,0:0:0:0:
320,288,39843,1,8,0:0:0:0:
464,352,40005,1,8,0:0:0:0:
112,288,40167,1,4,0:0:0:0:
416,368,40491,1,8,0:0:0:0:
112,288,40653,1,4,0:0:0:0:
160,144,40978,1,0,0:0:0:0:
352,304,41140,1,8,0:0:0:0:
352,304,41302,1,8,0:0:0:0:
176,144,41464,1,0,0:0:0:0:
176,112,41626,1,0,0:0:0:0:
176,112,41707,1,0,0:0:0:0:
336,288,41789,1,8,0:0:0:0:
128,128,41951,1,0,0:0:0:0:
128,112,42113,1,0,0:0:0:0:
128,112,42194,1,0,0:0:0:0:
160,128,42275,1,0,0:0:0:0:
400,320,42437,1,8,0:0:0:0:
400,304,42599,1,8,0:0:0:0:
112,112,42762,5,4,0:0:0:0:
368,288,43086,1,8,0:0:0:0:
112,128,43248,1,4,0:0:0:0:
176,144,43572,1,0,0:0:0:0:
416,320,43734,1,8,0:0:0:0:
432,336,43897,1,8,0:0:0:0:
432,336,43978,1,8,0:0:0:0:
128,112,44059,1,0,0:0:0:0:
128,128,44221,1,0,0:0:0:0:
336,304,44383,1,8,0:0:0:0:
128,112,44545,1,0,0:0:0:0:
128,112,44870,1,0,0:0:0:0:
192,192,44951,1,0,0:0:0:0:
384,256,45032,1,8,0:0:0:0:
160,128,45194,1,0,0:0:0:0:
144,256,45356,5,4,0:0:0:0:
304,240,45680,1,8,0:0:0:0:
144,256,45843,1,4,0:0:0:0:
160,160,46167,1,0,0:0:0:0:
416,304,46329,1,8,0:0:0:0:
160,80,46491,1,0,0:0:0:0:
144,96,46572,1,0,0:0:0:0:
160,96,46653,1,0,0:0:0:0:
144,64,46816,1,0,0:0:0:0:
368,304,46978,1,8,0:0:0:0:
160,112,47140,1,0,0:0:0:0:
338,258,47221,1,8,0:0:0:0:
191,136,47302,1,0,0:0:0:0:
170,143,47464,1,0,0:0:0:0:
321,275,47626,1,8,0:0:0:0:
166,157,47789,1,0,0:0:0:0:
136,295,47951,5,4,0:0:0:0:
381,271,48275,1,8,0:0:0:0:
181,289,48437,1,4,0:0:0:0:
185,162,48762,1,0,0:0:0:0:
357,292,48924,1,8,0:0:0:0:
352,316,49086,1,8,0:0:0:0:
135,140,49167,1,0,0:0:0:0:
142,152,49248,1,0,0:0:0:0:
461,345,49410,1,8,0:0:0:0:
449,317,49572,1,8,0:0:0:0:
186,156,49734,1,0,0:0:0:0:
186,156,50059,1,0,0:0:0:0:
391,282,50221,1,8,0:0:0:0:
147,133,50383,1,0,0:0:0:0:
128,330,50545,5,4,0:0:0:0:
427,308,50870,1,8,0:0:0:0:
128,330,51032,1,4,0:0:0:0:
141,113,51356,1,0,0:0:0:0:
334,305,51518,1,8,0:0:0:0:
151,124,51680,1,0,0:0:0:0:
151,124,51762,1,0,0:0:0:0:
151,124,51843,1,0,0:0:0:0:
152,123,52005,1,0,0:0:0:0:
443,302,52167,1,8,0:0:0:0:
137,98,52329,1,0,0:0:0:0:
158,107,52653,1,0,0:0:0:0:
165,98,52734,1,0,0:0:0:0:
379,284,52816,1,8,0:0:0:0:
379,284,52978,1,8,0:0:0:0:
164,100,53140,5,4,0:0:0:0:
409,269,53464,1,8,0:0:0:0:
155,247,53626,1,4,0:0:0:0:
146,114,53951,1,0,0:0:0:0:
417,313,54113,1,8,0:0:0:0:
333,237,54275,1,8,0:0:0:0:
398,250,54356,1,8,0:0:0:0:
145,108,54437,1,0,0:0:0:0:
170,140,54599,1,0,0:0:0:0:
463,313,54762,1,8,0:0:0:0:
166,133,54923,1,0,0:0:0:0:
189,137,55248,1,0,0:0:0:0:
141,133,55329,1,0,0:0:0:0:
416,304,55410,1,8,0:0:0:0:
152,113,55572,1,0,0:0:0:0:
131,273,55734,5,4,0:0:0:0:
395,316,56059,1,8,0:0:0:0:
131,273,56221,1,4,0:0:0:0:
149,144,56545,1,0,0:0:0:0:
403,136,56707,1,12,0:0:0:0:
146,117,56950,1,0,0:0:0:0:
361,281,57032,1,8,0:0:0:0:
349,303,57194,1,8,0:0:0:0:
185,149,57356,1,0,0:0:0:0:
149,99,57518,1,0,0:0:0:0:
369,298,57599,1,8,0:0:0:0:
174,119,57680,1,0,0:0:0:0:
158,117,57842,1,0,0:0:0:0:
377,311,58005,1,8,0:0:0:0:
121,121,58167,1,0,0:0:0:0:
165,100,58329,5,4,0:0:0:0:
166,136,58816,1,0,0:0:0:0:
343,288,58978,1,8,0:0:0:0:
152,121,59140,1,0,0:0:0:0:
152,121,59221,1,0,0:0:0:0:
129,117,59302,1,0,0:0:0:0:
129,117,59626,1,0,0:0:0:0:
154,112,59789,1,0,0:0:0:0:
154,112,59870,1,0,0:0:0:0:
447,306,59951,1,8,0:0:0:0:
175,116,60113,1,0,0:0:0:0:
395,299,60437,1,8,0:0:0:0:
395,299,60518,1,8,0:0:0:0:
92,31,60599,1,0,0:0:0:0:
367,277,60762,1,8,0:0:0:0:
182,254,60924,5,4,0:0:0:0:
187,159,61248,1,0,0:0:0:0:
416,317,61410,1,8,0:0:0:0:
172,148,61734,1,0,0:0:0:0:
172,148,61816,1,0,0:0:0:0:
172,148,61897,1,0,0:0:0:0:
426,338,62059,1,8,0:0:0:0:
163,143,62221,1,0,0:0:0:0:
146,102,62383,1,0,0:0:0:0:
146,102,62464,1,0,0:0:0:0:
146,102,62545,1,0,0:0:0:0:
408,349,62707,1,8,0:0:0:0:
155,126,63032,1,0,0:0:0:0:
155,126,63113,1,0,0:0:0:0:
155,126,63194,1,0,0:0:0:0:
153,279,63518,1,4,0:0:0:0:
157,121,64005,1,0,0:0:0:0:
317,242,64167,1,8,0:0:0:0:
157,121,64329,1,0,0:0:0:0:
157,121,64410,1,0,0:0:0:0:
157,121,64491,1,0,0:0:0:0:
123,102,64816,5,8,0:0:0:0:
150,104,64978,1,0,0:0:0:0:
150,104,65059,1,0,0:0:0:0:
150,104,65140,1,0,0:0:0:0:
361,257,65302,1,8,0:0:0:0:
384,272,65464,1,8,0:0:0:0:
149,126,65626,1,0,0:0:0:0:
149,126,65707,1,0,0:0:0:0:
149,126,65789,1,0,0:0:0:0:
400,304,65950,1,8,0:0:0:0:
382,284,66113,5,12,0:0:0:0:
166,136,66437,1,0,0:0:0:0:
355,276,66599,1,12,0:0:0:0:
166,136,66761,1,0,0:0:0:0:
166,136,66842,1,0,0:0:0:0:
166,136,66924,1,0,0:0:0:0:
166,127,67086,1,0,0:0:0:0:
166,127,67248,1,0,0:0:0:0:
343,148,67410,5,12,0:0:0:0:
404,142,67734,1,12,0:0:0:0:
166,148,68059,1,0,0:0:0:0:
332,273,68167,1,8,0:0:0:0:
332,273,68275,1,8,0:0:0:0:
125,79,68383,1,0,0:0:0:0:
347,313,68491,1,8,0:0:0:0:
347,313,68599,1,8,0:0:0:0:
124,240,68707,5,4,0:0:0:0:
381,283,69032,1,8,0:0:0:0:
153,126,69194,1,0,0:0:0:0:
159,153,69518,1,0,0:0:0:0:
416,288,69680,1,8,0:0:0:0:
154,140,70005,1,0,0:0:0:0:
154,140,70167,1,0,0:0:0:0:
386,323,70329,1,8,0:0:0:0:
130,117,70491,1,0,0:0:0:0:
398,306,70816,1,8,0:0:0:0:
399,304,70897,1,8,0:0:0:0:
223,157,70978,1,0,0:0:0:0:
380,312,71140,1,8,0:0:0:0:
180,127,71302,1,0,0:0:0:0:
359,293,71626,1,8,0:0:0:0:
159,129,71789,1,0,0:0:0:0:
148,125,71951,1,0,0:0:0:0:
146,124,72032,1,0,0:0:0:0:
164,138,72113,1,0,0:0:0:0:
396,284,72275,1,8,0:0:0:0:
177,126,72599,1,0,0:0:0:0:
125,98,72761,1,0,0:0:0:0:
381,266,72924,1,8,0:0:0:0:
98,127,73086,1,0,0:0:0:0:
134,128,73248,1,0,0:0:0:0:
134,128,73329,1,0,0:0:0:0:
134,128,73410,1,0,0:0:0:0:
134,128,73491,1,0,0:0:0:0:
328,258,73572,1,8,0:0:0:0:
358,296,73734,1,8,0:0:0:0:
121,298,73897,5,4,0:0:0:0:
369,316,74221,1,8,0:0:0:0:
169,153,74383,1,0,0:0:0:0:
146,142,74707,1,0,0:0:0:0:
390,322,74870,1,8,0:0:0:0:
121,118,75032,1,0,0:0:0:0:
159,127,75113,1,0,0:0:0:0:
164,119,75194,1,0,0:0:0:0:
373,301,75356,1,8,0:0:0:0:
373,301,75518,1,8,0:0:0:0:
89,328,75680,5,4,0:0:0:0:
342,289,76005,1,8,0:0:0:0:
90,78,76167,1,4,0:0:0:0:
182,119,76329,1,0,0:0:0:0:
364,147,76491,1,12,0:0:0:0:
126,84,76653,1,0,0:0:0:0:
126,84,76734,1,0,0:0:0:0:
126,84,76816,1,0,0:0:0:0:
401,288,76978,1,8,0:0:0:0:
126,84,77140,1,0,0:0:0:0:
126,84,77221,1,0,0:0:0:0:
126,84,77302,1,0,0:0:0:0:
401,288,77464,5,8,0:0:0:0:
126,84,77626,1,0,0:0:0:0:
400,112,77789,5,12,0:0:0:0:
400,112,77951,1,12,0:0:0:0:
345,126,78113,1,12,0:0:0:0:
420,287,78437,5,8,0:0:0:0:
420,287,78599,1,8,0:0:0:0:
420,287,78923,5,8,0:0:0:0:
141,308,79086,5,4,0:0:0:0:
205,183,79329,1,0,0:0:0:0:
393,333,79410,1,8,0:0:0:0:
123,162,79572,1,0,0:0:0:0:
164,151,79653,1,0,0:0:0:0:
440,349,79734,1,8,0:0:0:0:
368,304,79896,1,8,0:0:0:0:
112,128,79978,1,0,0:0:0:0:
160,144,80140,1,0,0:0:0:0:
368,288,80221,1,8,0:0:0:0:
164,151,80383,1,0,0:0:0:0:
164,151,80626,1,0,0:0:0:0:
398,327,80707,1,8,0:0:0:0:
186,183,80869,1,0,0:0:0:0:
394,356,80950,1,8,0:0:0:0:
396,357,81032,1,8,0:0:0:0:
149,141,81194,1,0,0:0:0:0:
342,293,81356,1,8,0:0:0:0:
186,145,81437,1,0,0:0:0:0:
371,316,81518,1,8,0:0:0:0:
371,314,81599,1,8,0:0:0:0:
185,89,81680,1,0,0:0:0:0:
150,90,81923,1,0,0:0:0:0:
452,352,82005,1,8,0:0:0:0:
443,324,82167,1,8,0:0:0:0:
416,288,82248,1,8,0:0:0:0:
154,124,82329,1,0,0:0:0:0:
144,112,82491,1,0,0:0:0:0:
457,332,82572,1,8,0:0:0:0:
121,114,82653,1,0,0:0:0:0:
401,319,82815,1,8,0:0:0:0:
79,108,82978,1,0,0:0:0:0:
88,148,83140,1,0,0:0:0:0:
88,148,83221,1,0,0:0:0:0:
401,303,83302,1,8,0:0:0:0:
161,97,83464,1,0,0:0:0:0:
152,117,83788,1,0,0:0:0:0:
426,273,83950,1,8,0:0:0:0:
136,107,84113,1,0,0:0:0:0:
137,107,84194,1,0,0:0:0:0:
511,319,84275,1,8,0:0:0:0:
164,115,84518,1,0,0:0:0:0:
463,328,84599,1,8,0:0:0:0:
136,127,84761,1,0,0:0:0:0:
90,148,84842,1,0,0:0:0:0:
90,148,84923,1,0,0:0:0:0:
130,127,85086,1,0,0:0:0:0:
436,309,85167,1,8,0:0:0:0:
142,128,85248,1,0,0:0:0:0:
411,275,85410,1,8,0:0:0:0:
202,150,85572,5,0,0:0:0:0:
417,308,85734,1,8,0:0:0:0:
110,120,85815,1,0,0:0:0:0:
110,120,85978,1,0,0:0:0:0:
417,308,86059,1,8,0:0:0:0:
161,148,86221,1,0,0:0:0:0:
110,120,86383,1,0,0:0:0:0:
395,274,86464,1,8,0:0:0:0:
110,120,86626,1,0,0:0:0:0:
336,256,86707,1,8,0:0:0:0:
361,276,86869,1,8,0:0:0:0:
110,120,87032,1,0,0:0:0:0:
372,292,87113,1,8,0:0:0:0:
336,256,87275,1,8,0:0:0:0:
365,248,87356,1,8,0:0:0:0:
410,301,87518,1,8,0:0:0:0:
104,47,87599,1,0,0:0:0:0:
361,287,87680,1,8,0:0:0:0:
361,287,87761,1,8,0:0:0:0:
97,121,87842,1,0,0:0:0:0:
391,333,87923,1,8,0:0:0:0:
162,139,88005,1,0,0:0:0:0:
162,139,88086,1,0,0:0:0:0:
382,283,88167,5,8,0:0:0:0:
176,160,88329,1,0,0:0:0:0:
176,160,88410,1,0,0:0:0:0:
400,304,88491,1,8,0:0:0:0:
160,160,88653,1,0,0:0:0:0:
160,160,88734,1,0,0:0:0:0:
400,304,88815,1,8,0:0:0:0:
208,144,88978,1,0,0:0:0:0:
208,144,89059,1,0,0:0:0:0:
416,336,89140,1,8,0:0:0:0:
384,304,89221,1,8,0:0:0:0:
160,112,89302,1,0,0:0:0:0:
160,112,89383,1,0,0:0:0:0:
384,320,89464,5,12,0:0:0:0:
176,128,89707,1,0,0:0:0:0:
368,304,89788,1,8,0:0:0:0:
176,128,89950,1,0,0:0:0:0:
352,288,90032,1,8,0:0:0:0:
352,288,90113,1,8,0:0:0:0:
144,128,90275,1,0,0:0:0:0:
384,304,90356,1,8,0:0:0:0:
304,288,90518,1,8,0:0:0:0:
384,304,90599,1,8,0:0:0:0:
128,144,90761,1,0,0:0:0:0:
144,128,91005,1,0,0:0:0:0:
416,272,91086,1,8,0:0:0:0:
144,128,91248,1,0,0:0:0:0:
400,304,91329,1,8,0:0:0:0:
400,304,91410,1,8,0:0:0:0:
400,304,91572,1,8,0:0:0:0:
368,272,91653,1,8,0:0:0:0:
144,112,91734,1,0,0:0:0:0:
384,304,91896,1,8,0:0:0:0:
160,144,92059,1,0,0:0:0:0:
192,144,92221,1,0,0:0:0:0:
448,352,92302,1,8,0:0:0:0:
192,112,92464,1,0,0:0:0:0:
400,320,92545,1,8,0:0:0:0:
176,144,92707,1,0,0:0:0:0:
352,272,92869,1,8,0:0:0:0:
176,128,92950,1,0,0:0:0:0:
400,304,93113,1,8,0:0:0:0:
416,336,93194,1,8,0:0:0:0:
176,144,93356,5,0,0:0:0:0:
160,128,93518,1,0,0:0:0:0:
224,192,93599,1,0,0:0:0:0:
400,112,93680,1,8,0:0:0:0:
144,304,93842,1,4,0:0:0:0:
384,240,94167,1,8,0:0:0:0:
384,240,94329,1,8,0:0:0:0:
208,160,94491,1,0,0:0:0:0:
304,272,94572,1,8,0:0:0:0:
304,272,94653,1,8,0:0:0:0:
416,320,94978,1,8,0:0:0:0:
176,128,95140,1,0,0:0:0:0:
176,144,95221,1,0,0:0:0:0:
176,128,95302,1,0,0:0:0:0:
384,304,95464,1,8,0:0:0:0:
176,144,95626,1,0,0:0:0:0:
160,176,95707,1,0,0:0:0:0:
384,304,95788,1,8,0:0:0:0:
128,80,95950,1,0,0:0:0:0:
160,176,96113,1,0,0:0:0:0:
416,320,96194,1,8,0:0:0:0:
384,272,96356,1,8,0:0:0:0:
160,144,96437,1,0,0:0:0:0:
160,144,96599,1,0,0:0:0:0:
192,160,96761,1,0,0:0:0:0:
368,304,96842,1,8,0:0:0:0:
304,256,97005,1,8,0:0:0:0:
32,96,97086,1,0,0:0:0:0:
128,96,97248,5,4,0:0:0:0:
464,304,97410,1,8,0:0:0:0:
176,96,97491,1,0,0:0:0:0:
144,256,97734,1,4,0:0:0:0:
400,320,97896,1,8,0:0:0:0:
400,304,97978,1,8,0:0:0:0:
448,352,98059,1,8,0:0:0:0:
448,352,98140,1,8,0:0:0:0:
144,128,98221,1,0,0:0:0:0:
352,288,98302,1,8,0:0:0:0:
144,112,98383,1,0,0:0:0:0:
144,112,98464,1,0,0:0:0:0:
384,288,98545,1,8,0:0:0:0:
112,128,98707,1,0,0:0:0:0:
112,128,98788,1,0,0:0:0:0:
368,272,98869,1,8,0:0:0:0:
128,112,99032,1,0,0:0:0:0:
128,112,99113,1,0,0:0:0:0:
336,240,99194,1,8,0:0:0:0:
352,272,99275,1,8,0:0:0:0:
112,112,99356,1,0,0:0:0:0:
112,112,99437,1,0,0:0:0:0:
336,256,99518,1,8,0:0:0:0:
304,240,99599,1,8,0:0:0:0:
48,112,99680,1,0,0:0:0:0:
96,128,99761,1,0,0:0:0:0:
448,176,99842,5,12,0:0:0:0:
128,112,100005,1,0,0:0:0:0:
128,112,100086,1,0,0:0:0:0:
432,288,100167,1,8,0:0:0:0:
128,112,100329,1,0,0:0:0:0:
432,288,100491,1,8,0:0:0:0:
160,128,100653,1,0,0:0:0:0:
160,128,100734,1,0,0:0:0:0:
432,288,100815,1,8,0:0:0:0:
160,128,100978,1,0,0:0:0:0:
432,288,101140,5,8,0:0:0:0:
160,128,101302,1,0,0:0:0:0:
160,128,101383,1,0,0:0:0:0:
432,288,101464,1,8,0:0:0:0:
160,128,101626,1,0,0:0:0:0:
432,288,101788,1,8,0:0:0:0:
160,128,101950,1,0,0:0:0:0:
160,128,102032,1,0,0:0:0:0:
432,288,102113,1,8,0:0:0:0:
160,128,102275,1,0,0:0:0:0:
160,128,102356,1,0,0:0:0:0:
432,288,102437,1,8,0:0:0:0:
160,128,102599,1,0,0:0:0:0:
160,128,102680,1,0,0:0:0:0:
384,256,102761,1,8,0:0:0:0:
368,256,102842,1,8,0:0:0:0:
160,128,102923,1,0,0:0:0:0:
160,128,103005,1,0,0:0:0:0:
384,256,103086,1,8,0:0:0:0:
160,128,103248,1,0,0:0:0:0:
160,128,103329,1,0,0:0:0:0:
384,256,103410,1,8,0:0:0:0:
160,128,103572,1,0,0:0:0:0:
464,240,103734,1,8,0:0:0:0:
464,240,103788,1,8,0:0:0:0:
464,240,103842,1,8,0:0:0:0:
368,256,103950,1,8,0:0:0:0:
176,96,104059,1,0,0:0:0:0:
160,112,104167,1,0,0:0:0:0:
160,112,104275,1,0,0:0:0:0:
416,288,104383,1,8,0:0:0:0:
416,288,104491,1,8,0:0:0:0:
400,256,104599,1,8,0:0:0:0:
160,96,104707,1,0,0:0:0:0:
128,272,104869,5,4,0:0:0:0:
112,80,105194,1,0,0:0:0:0:
384,288,105356,1,8,0:0:0:0:
416,336,105519,1,8,0:0:0:0:
160,144,105600,1,0,0:0:0:0:
384,320,105681,1,8,0:0:0:0:
416,320,105761,1,8,0:0:0:0:
160,144,105843,1,0,0:0:0:0:
416,336,106005,1,8,0:0:0:0:
144,112,106167,1,0,0:0:0:0:
144,112,106492,1,0,0:0:0:0:
352,240,106654,1,8,0:0:0:0:
148,103,106816,1,0,0:0:0:0:
368,240,106978,1,8,0:0:0:0:
323,246,107059,1,8,0:0:0:0:
148,103,107140,1,0,0:0:0:0:
160,144,107221,1,0,0:0:0:0:
400,320,107302,1,8,0:0:0:0:
224,128,107465,1,0,0:0:0:0:
176,144,107789,1,0,0:0:0:0:
336,272,107951,1,8,0:0:0:0:
176,160,108113,1,0,0:0:0:0:
375,252,108275,1,8,0:0:0:0:
344,263,108356,1,8,0:0:0:0:
176,160,108438,1,0,0:0:0:0:
128,144,108600,1,0,0:0:0:0:
352,304,108762,1,8,0:0:0:0:
128,64,109086,1,0,0:0:0:0:
352,288,109248,1,8,0:0:0:0:
128,96,109411,1,0,0:0:0:0:
170,117,109492,1,0,0:0:0:0:
416,288,109573,1,8,0:0:0:0:
391,296,109654,1,8,0:0:0:0:
160,112,109735,1,0,0:0:0:0:
144,112,109897,1,0,0:0:0:0:
336,256,110059,1,8,0:0:0:0:
152,136,110384,1,0,0:0:0:0:
426,324,110546,1,8,0:0:0:0:
158,161,110708,1,0,0:0:0:0:
298,239,110870,1,8,0:0:0:0:
207,136,110951,1,0,0:0:0:0:
176,128,111032,1,0,0:0:0:0:
158,161,111194,1,0,0:0:0:0:
304,320,111356,1,8,0:0:0:0:
152,136,111681,1,0,0:0:0:0:
426,324,111843,1,8,0:0:0:0:
298,239,112005,1,8,0:0:0:0:
219,123,112086,1,0,0:0:0:0:
409,332,112167,1,8,0:0:0:0:
158,161,112248,1,0,0:0:0:0:
458,307,112329,1,8,0:0:0:0:
430,297,112491,1,8,0:0:0:0:
160,96,112653,5,0,0:0:0:0:
152,136,112978,1,0,0:0:0:0:
426,324,113140,1,8,0:0:0:0:
298,239,113302,1,8,0:0:0:0:
435,320,113384,1,8,0:0:0:0:
374,358,113464,1,8,0:0:0:0:
352,304,113545,1,8,0:0:0:0:
158,161,113626,1,0,0:0:0:0:
176,112,113788,1,0,0:0:0:0:
368,112,113950,5,12,0:0:0:0:
81,123,114275,1,0,0:0:0:0:
358,138,114438,1,12,0:0:0:0:
148,110,114600,1,0,0:0:0:0:
112,96,114680,1,0,0:0:0:0:
340,284,114762,1,8,0:0:0:0:
288,256,114924,1,8,0:0:0:0:
325,265,115086,1,8,0:0:0:0:
416,80,115248,5,4,0:0:0:0:
112,80,115572,1,0,0:0:0:0:
384,288,115734,1,8,0:0:0:0:
109,120,115897,1,0,0:0:0:0:
384,320,115978,1,8,0:0:0:0:
352,304,116059,1,8,0:0:0:0:
160,144,116221,1,0,0:0:0:0:
416,336,116383,1,8,0:0:0:0:
144,112,116545,1,0,0:0:0:0:
144,112,116870,1,0,0:0:0:0:
352,240,117032,1,8,0:0:0:0:
148,103,117194,1,0,0:0:0:0:
400,304,117356,1,8,0:0:0:0:
400,304,117437,1,8,0:0:0:0:
148,103,117518,1,0,0:0:0:0:
160,144,117599,1,0,0:0:0:0:
400,320,117680,1,8,0:0:0:0:
144,128,117843,1,0,0:0:0:0:
112,80,118167,1,0,0:0:0:0:
384,288,118329,1,8,0:0:0:0:
416,336,118492,1,8,0:0:0:0:
384,304,118654,1,8,0:0:0:0:
384,320,118734,1,8,0:0:0:0:
160,144,118816,1,0,0:0:0:0:
144,112,118978,1,0,0:0:0:0:
416,336,119140,1,8,0:0:0:0:
144,112,119465,1,0,0:0:0:0:
352,240,119627,1,8,0:0:0:0:
400,288,119788,1,8,0:0:0:0:
176,128,119869,1,0,0:0:0:0:
384,288,119951,1,8,0:0:0:0:
384,288,120032,1,8,0:0:0:0:
160,144,120113,1,0,0:0:0:0:
400,304,120275,1,8,0:0:0:0:
400,320,120438,5,12,0:0:0:0:
176,144,120762,1,0,0:0:0:0:
336,272,120924,1,8,0:0:0:0:
176,160,121086,1,0,0:0:0:0:
375,252,121248,1,8,0:0:0:0:
344,263,121329,1,8,0:0:0:0:
176,160,121411,1,0,0:0:0:0:
128,144,121573,1,0,0:0:0:0:
352,304,121735,1,8,0:0:0:0:
128,64,122059,1,0,0:0:0:0:
352,288,122221,1,8,0:0:0:0:
128,96,122384,1,0,0:0:0:0:
170,117,122465,1,0,0:0:0:0:
416,288,122546,1,8,0:0:0:0:
391,296,122627,1,8,0:0:0:0:
160,112,122708,1,0,0:0:0:0:
144,112,122870,1,0,0:0:0:0:
336,256,123032,1,12,0:0:0:0:
152,136,123357,1,0,0:0:0:0:
426,324,123519,1,12,0:0:0:0:
176,128,123681,1,0,0:0:0:0:
304,320,123843,1,12,0:0:0:0:
158,161,124005,1,0,0:0:0:0:
430,297,124167,1,12,0:0:0:0:
158,161,124329,1,0,0:0:0:0:
368,288,124491,1,8,0:0:0:0:
368,288,124599,1,8,0:0:0:0:
368,288,124707,1,8,0:0:0:0:
160,128,124815,1,0,0:0:0:0:
144,128,124923,1,0,0:0:0:0:
144,128,125032,1,0,0:0:0:0:
384,320,125140,1,8,0:0:0:0:
144,112,125248,1,0,0:0:0:0:
192,128,125356,1,0,0:0:0:0:
352,288,125464,1,8,0:0:0:0:
192,144,125572,1,0,0:0:0:0:
192,144,125680,1,0,0:0:0:0:
144,272,125788,5,4,0:0:0:0:
400,288,126113,1,8,0:0:0:0:
112,112,126275,1,4,0:0:0:0:
160,144,126599,1,0,0:0:0:0:
208,144,126680,1,0,0:0:0:0:
352,304,126761,1,8,0:0:0:0:
400,336,126923,1,8,0:0:0:0:
192,160,127086,1,0,0:0:0:0:
400,320,127248,1,8,0:0:0:0:
464,368,127572,1,8,0:0:0:0:
192,144,127734,1,0,0:0:0:0:
448,368,127896,1,8,0:0:0:0:
208,160,127978,1,0,0:0:0:0:
320,288,128059,1,8,0:0:0:0:
464,352,128221,1,8,0:0:0:0:
112,288,128383,1,4,0:0:0:0:
416,368,128707,1,8,0:0:0:0:
112,288,128869,1,4,0:0:0:0:
160,144,129194,1,0,0:0:0:0:
352,304,129356,1,8,0:0:0:0:
352,304,129518,1,8,0:0:0:0:
176,144,129680,1,0,0:0:0:0:
176,112,129842,1,0,0:0:0:0:
176,112,129923,1,0,0:0:0:0:
336,288,130005,1,8,0:0:0:0:
128,128,130167,1,0,0:0:0:0:
128,112,130329,1,0,0:0:0:0:
128,112,130410,1,0,0:0:0:0:
160,128,130491,1,0,0:0:0:0:
400,320,130653,1,8,0:0:0:0:
400,304,130815,1,8,0:0:0:0:
112,112,130978,5,4,0:0:0:0:
368,288,131302,1,8,0:0:0:0:
112,128,131464,1,4,0:0:0:0:
176,144,131788,1,0,0:0:0:0:
416,320,131950,1,8,0:0:0:0:
432,336,132113,1,8,0:0:0:0:
432,336,132194,1,8,0:0:0:0:
128,112,132275,1,0,0:0:0:0:
128,128,132437,1,0,0:0:0:0:
336,304,132599,1,8,0:0:0:0:
128,112,132761,1,0,0:0:0:0:
128,112,133086,1,0,0:0:0:0:
192,192,133167,1,0,0:0:0:0:
384,256,133248,1,8,0:0:0:0:
160,128,133410,1,0,0:0:0:0:
144,256,133572,5,4,0:0:0:0:
304,240,133896,1,8,0:0:0:0:
144,256,134059,1,4,0:0:0:0:
160,160,134383,1,0,0:0:0:0:
416,304,134545,1,8,0:0:0:0:
160,80,134707,1,0,0:0:0:0:
144,96,134788,1,0,0:0:0:0:
160,96,134869,1,0,0:0:0:0:
144,64,135032,1,0,0:0:0:0:
368,304,135194,1,8,0:0:0:0:
160,112,135356,1,0,0:0:0:0:
338,258,135437,1,8,0:0:0:0:
191,136,135518,1,0,0:0:0:0:
170,143,135680,1,0,0:0:0:0:
321,275,135842,1,8,0:0:0:0:
166,157,136005,1,0,0:0:0:0:
136,295,136167,5,4,0:0:0:0:
381,271,136491,1,8,0:0:0:0:
181,289,136653,1,4,0:0:0:0:
185,162,136978,1,0,0:0:0:0:
357,292,137140,1,8,0:0:0:0:
352,316,137302,1,8,0:0:0:0:
135,140,137383,1,0,0:0:0:0:
142,152,137464,1,0,0:0:0:0:
461,345,137626,1,8,0:0:0:0:
449,317,137788,1,8,0:0:0:0:
186,156,137950,1,0,0:0:0:0:
186,156,138275,1,0,0:0:0:0:
391,282,138437,1,8,0:0:0:0:
147,133,138599,1,0,0:0:0:0:
128,330,138761,5,4,0:0:0:0:
427,308,139086,1,8,0:0:0:0:
128,330,139248,1,4,0:0:0:0:
141,113,139572,1,0,0:0:0:0:
334,305,139734,1,8,0:0:0:0:
151,124,139896,1,0,0:0:0:0:
151,124,139978,1,0,0:0:0:0:
151,124,140059,1,0,0:0:0:0:
152,123,140221,1,0,0:0:0:0:
443,302,140383,1,8,0:0:0:0:
137,98,140545,1,0,0:0:0:0:
158,107,140869,1,0,0:0:0:0:
165,98,140950,1,0,0:0:0:0:
379,284,141032,1,8,0:0:0:0:
379,284,141194,1,8,0:0:0:0:
164,100,141356,5,4,0:0:0:0:
409,269,141680,1,8,0:0:0:0:
155,247,141842,1,4,0:0:0:0:
146,114,142167,1,0,0:0:0:0:
417,313,142329,1,8,0:0:0:0:
333,237,142491,1,8,0:0:0:0:
398,250,142572,1,8,0:0:0:0:
145,108,142653,1,0,0:0:0:0:
170,140,142815,1,0,0:0:0:0:
463,313,142978,1,8,0:0:0:0:
416,304,143140,1,8,0:0:0:0:
128,96,143302,1,0,0:0:0:0:
189,137,143464,1,0,0:0:0:0:
141,133,143545,1,0,0:0:0:0:
416,304,143626,1,8,0:0:0:0:
152,113,143788,1,0,0:0:0:0:
131,273,143950,5,4,0:0:0:0:
395,316,144275,1,8,0:0:0:0:
131,273,144437,1,4,0:0:0:0:
149,144,144761,1,0,0:0:0:0:
404,137,144923,1,12,0:0:0:0:
146,117,145140,1,0,0:0:0:0:
361,281,145248,1,8,0:0:0:0:
131,133,145356,1,0,0:0:0:0:
131,133,145464,1,0,0:0:0:0:
386,330,145572,1,8,0:0:0:0:
149,99,145680,1,0,0:0:0:0:
174,119,145788,1,0,0:0:0:0:
369,298,145896,1,8,0:0:0:0:
158,117,146005,1,0,0:0:0:0:
369,298,146113,1,8,0:0:0:0:
342,252,146221,1,8,0:0:0:0:
116,129,146329,1,0,0:0:0:0:
338,277,146437,1,8,0:0:0:0:
165,100,146545,5,4,0:0:0:0:
166,136,147032,1,0,0:0:0:0:
343,288,147194,1,8,0:0:0:0:
152,121,147356,1,0,0:0:0:0:
152,121,147437,1,0,0:0:0:0:
129,117,147518,1,0,0:0:0:0:
129,117,147842,1,0,0:0:0:0:
154,112,148005,1,0,0:0:0:0:
154,112,148086,1,0,0:0:0:0:
447,306,148167,1,8,0:0:0:0:
175,116,148329,1,0,0:0:0:0:
395,299,148653,1,8,0:0:0:0:
395,299,148734,1,8,0:0:0:0:
92,31,148815,1,0,0:0:0:0:
367,277,148978,1,8,0:0:0:0:
182,254,149140,5,4,0:0:0:0:
187,159,149464,1,0,0:0:0:0:
416,317,149626,1,8,0:0:0:0:
172,148,149950,1,0,0:0:0:0:
172,148,150032,1,0,0:0:0:0:
172,148,150113,1,0,0:0:0:0:
426,338,150275,1,8,0:0:0:0:
163,143,150437,1,0,0:0:0:0:
146,102,150599,1,0,0:0:0:0:
146,102,150680,1,0,0:0:0:0:
146,102,150761,1,0,0:0:0:0:
408,349,150923,1,8,0:0:0:0:
155,126,151248,1,0,0:0:0:0:
155,126,151329,1,0,0:0:0:0:
155,126,151410,1,0,0:0:0:0:
153,279,151734,1,4,0:0:0:0:
157,121,152221,1,0,0:0:0:0:
317,242,152383,1,8,0:0:0:0:
157,121,152545,1,0,0:0:0:0:
157,121,152626,1,0,0:0:0:0:
157,121,152707,1,0,0:0:0:0:
352,288,153032,5,8,0:0:0:0:
150,104,153194,1,0,0:0:0:0:
150,104,153275,1,0,0:0:0:0:
150,104,153356,1,0,0:0:0:0:
361,257,153518,1,8,0:0:0:0:
352,304,153680,1,8,0:0:0:0:
149,126,153842,1,0,0:0:0:0:
149,126,153923,1,0,0:0:0:0:
149,126,154005,1,0,0:0:0:0:
352,304,154167,1,8,0:0:0:0:
382,284,154329,5,12,0:0:0:0:
166,136,154653,1,0,0:0:0:0:
355,276,154815,1,12,0:0:0:0:
166,136,155140,1,0,0:0:0:0:
355,276,155302,1,12,0:0:0:0:
282,251,155464,1,8,0:0:0:0:
139,99,155545,1,0,0:0:0:0:
340,246,155626,5,8,0:0:0:0:
362,237,155788,1,8,0:0:0:0:
362,237,156113,1,8,0:0:0:0:
129,118,156275,1,0,0:0:0:0:
135,122,156356,1,0,0:0:0:0:
354,278,156437,1,8,0:0:0:0:
156,134,156518,1,0,0:0:0:0:
364,291,156599,1,8,0:0:0:0:
364,288,156680,1,8,0:0:0:0:
366,262,156761,1,8,0:0:0:0:
366,262,156842,1,8,0:0:0:0:
124,240,156923,5,4,0:0:0:0:
381,283,157248,1,8,0:0:0:0:
153,126,157410,1,0,0:0:0:0:
159,153,157734,1,0,0:0:0:0:
416,288,157896,1,8,0:0:0:0:
154,140,158221,1,0,0:0:0:0:
154,140,158383,1,0,0:0:0:0:
386,323,158545,1,8,0:0:0:0:
130,117,158707,1,0,0:0:0:0:
398,306,159032,1,8,0:0:0:0:
399,304,159113,1,8,0:0:0:0:
223,157,159194,1,0,0:0:0:0:
380,312,159356,1,8,0:0:0:0:
180,127,159518,1,0,0:0:0:0:
359,293,159842,1,8,0:0:0:0:
159,129,160005,1,0,0:0:0:0:
148,125,160167,1,0,0:0:0:0:
146,124,160248,1,0,0:0:0:0:
164,138,160329,1,0,0:0:0:0:
396,284,160491,1,8,0:0:0:0:
177,126,160815,1,0,0:0:0:0:
125,98,161059,1,0,0:0:0:0:
381,266,161140,1,8,0:0:0:0:
98,127,161302,1,0,0:0:0:0:
134,128,161464,1,0,0:0:0:0:
134,128,161545,1,0,0:0:0:0:
134,128,161626,1,0,0:0:0:0:
134,128,161707,1,0,0:0:0:0:
328,258,161788,1,8,0:0:0:0:
358,296,161950,1,8,0:0:0:0:
121,298,162113,5,4,0:0:0:0:
369,316,162437,1,8,0:0:0:0:
169,153,162599,1,0,0:0:0:0:
146,142,162923,1,0,0:0:0:0:
390,322,163086,1,8,0:0:0:0:
121,118,163248,1,0,0:0:0:0:
159,127,163329,1,0,0:0:0:0:
164,119,163410,1,0,0:0:0:0:
373,301,163572,1,8,0:0:0:0:
373,301,163734,1,8,0:0:0:0:
89,328,163896,5,4,0:0:0:0:
342,289,164221,1,8,0:0:0:0:
90,78,164302,1,0,0:0:0:0:
90,78,164383,1,0,0:0:0:0:
182,119,164545,1,0,0:0:0:0:
364,147,164707,1,12,0:0:0:0:
126,84,164869,1,0,0:0:0:0:
126,84,164950,1,0,0:0:0:0:
126,84,165032,1,0,0:0:0:0:
401,288,165194,1,8,0:0:0:0:
126,84,165356,1,0,0:0:0:0:
126,84,165437,1,0,0:0:0:0:
126,84,165518,1,0,0:0:0:0:
401,288,165680,1,8,0:0:0:0:
126,84,165842,1,0,0:0:0:0:
400,112,166005,5,12,0:0:0:0:
400,112,166167,1,12,0:0:0:0:
400,112,166329,1,12,0:0:0:0:
400,304,166653,5,8,0:0:0:0:
124,83,166815,1,0,0:0:0:0:
144,128,166896,1,0,0:0:0:0:
400,304,166978,1,8,0:0:0:0:
384,320,167140,1,8,0:0:0:0:
141,308,167302,5,4,0:0:0:0:
205,183,167545,1,0,0:0:0:0:
393,333,167626,1,8,0:0:0:0:
123,162,167788,1,0,0:0:0:0:
164,151,167869,1,0,0:0:0:0:
440,349,167950,1,8,0:0:0:0:
368,304,168112,1,8,0:0:0:0:
112,128,168194,1,0,0:0:0:0:
160,144,168356,1,0,0:0:0:0:
368,288,168437,1,8,0:0:0:0:
384,304,168518,1,8,0:0:0:0:
164,151,168599,1,0,0:0:0:0:
164,151,168842,1,0,0:0:0:0:
398,327,168923,1,8,0:0:0:0:
186,183,169085,1,0,0:0:0:0:
394,356,169166,1,8,0:0:0:0:
396,357,169248,1,8,0:0:0:0:
149,141,169410,1,0,0:0:0:0:
342,293,169572,1,8,0:0:0:0:
186,145,169653,1,0,0:0:0:0:
371,316,169734,1,8,0:0:0:0:
371,314,169815,1,8,0:0:0:0:
185,89,169896,1,0,0:0:0:0:
185,89,170059,1,0,0:0:0:0:
150,90,170139,1,0,0:0:0:0:
452,352,170221,1,8,0:0:0:0:
443,324,170383,1,8,0:0:0:0:
154,124,170545,1,0,0:0:0:0:
185,89,170707,1,0,0:0:0:0:
457,332,170788,1,8,0:0:0:0:
121,114,170869,1,0,0:0:0:0:
401,319,171031,1,8,0:0:0:0:
79,108,171194,1,0,0:0:0:0:
88,148,171356,1,0,0:0:0:0:
401,303,171437,1,8,0:0:0:0:
88,148,171518,1,0,0:0:0:0:
416,304,171680,1,8,0:0:0:0:
152,117,172004,1,0,0:0:0:0:
426,273,172166,1,8,0:0:0:0:
136,107,172329,1,0,0:0:0:0:
137,107,172410,1,0,0:0:0:0:
511,319,172491,1,8,0:0:0:0:
164,115,172734,1,0,0:0:0:0:
463,328,172815,1,8,0:0:0:0:
136,127,172977,1,0,0:0:0:0:
90,148,173058,1,0,0:0:0:0:
90,148,173139,1,0,0:0:0:0:
130,127,173302,1,0,0:0:0:0:
436,309,173383,1,8,0:0:0:0:
142,128,173464,1,0,0:0:0:0:
176,160,173545,1,0,0:0:0:0:
411,275,173626,1,8,0:0:0:0:
202,150,173788,5,0,0:0:0:0:
417,308,173950,1,8,0:0:0:0:
110,120,174031,1,0,0:0:0:0:
110,120,174194,1,0,0:0:0:0:
417,308,174275,1,8,0:0:0:0:
161,148,174437,1,0,0:0:0:0:
110,120,174599,1,0,0:0:0:0:
395,274,174680,1,8,0:0:0:0:
110,120,174842,1,0,0:0:0:0:
336,256,174923,1,8,0:0:0:0:
361,276,175085,1,12,0:0:0:0:
110,120,175248,1,0,0:0:0:0:
372,292,175329,1,8,0:0:0:0:
336,256,175491,1,8,0:0:0:0:
365,248,175572,1,8,0:0:0:0:
410,301,175734,1,8,0:0:0:0:
104,47,175815,1,0,0:0:0:0:
361,287,175896,1,8,0:0:0:0:
361,287,175977,1,8,0:0:0:0:
97,121,176058,1,0,0:0:0:0:
391,333,176139,1,8,0:0:0:0:
162,139,176221,1,0,0:0:0:0:
162,139,176302,1,0,0:0:0:0:
382,283,176383,5,8,0:0:0:0:
176,160,176545,1,0,0:0:0:0:
176,160,176626,1,0,0:0:0:0:
400,304,176707,1,8,0:0:0:0:
160,160,176869,1,0,0:0:0:0:
160,160,176950,1,0,0:0:0:0:
400,304,177031,1,8,0:0:0:0:
208,144,177194,1,0,0:0:0:0:
208,144,177275,1,0,0:0:0:0:
416,336,177356,1,8,0:0:0:0:
384,304,177437,1,8,0:0:0:0:
160,112,177518,1,0,0:0:0:0:
160,112,177599,1,0,0:0:0:0:
384,320,177680,5,12,0:0:0:0:
176,128,177923,1,0,0:0:0:0:
368,304,178004,1,8,0:0:0:0:
176,128,178166,1,0,0:0:0:0:
352,288,178248,1,8,0:0:0:0:
352,288,178329,1,8,0:0:0:0:
144,128,178491,1,0,0:0:0:0:
384,304,178572,1,8,0:0:0:0:
144,128,178734,1,0,0:0:0:0:
384,304,178815,1,8,0:0:0:0:
128,144,178977,1,0,0:0:0:0:
176,96,179140,1,0,0:0:0:0:
144,128,179221,1,0,0:0:0:0:
416,272,179302,1,8,0:0:0:0:
144,128,179464,1,0,0:0:0:0:
400,304,179545,1,8,0:0:0:0:
400,304,179626,1,8,0:0:0:0:
400,304,179788,1,8,0:0:0:0:
368,272,179869,1,8,0:0:0:0:
144,112,179950,1,0,0:0:0:0:
160,112,180032,1,0,0:0:0:0:
384,304,180112,1,8,0:0:0:0:
160,144,180275,1,0,0:0:0:0:
192,144,180437,1,0,0:0:0:0:
448,352,180518,1,8,0:0:0:0:
192,112,180680,1,0,0:0:0:0:
400,320,180761,1,8,0:0:0:0:
176,144,180923,1,0,0:0:0:0:
352,272,181085,1,8,0:0:0:0:
176,128,181166,1,0,0:0:0:0:
400,304,181329,1,8,0:0:0:0:
416,336,181410,1,8,0:0:0:0:
176,144,181572,5,0,0:0:0:0:
192,128,181734,1,0,0:0:0:0:
224,192,181815,1,0,0:0:0:0:
400,112,181896,1,8,0:0:0:0:
144,304,182058,1,4,0:0:0:0:
384,240,182383,1,8,0:0:0:0:
384,240,182545,1,8,0:0:0:0:
208,160,182707,1,0,0:0:0:0:
304,272,182788,1,8,0:0:0:0:
304,272,182869,1,8,0:0:0:0:
416,320,183194,1,8,0:0:0:0:
176,128,183356,1,0,0:0:0:0:
176,144,183437,1,0,0:0:0:0:
176,128,183518,1,0,0:0:0:0:
384,304,183680,1,8,0:0:0:0:
368,320,183761,1,8,0:0:0:0:
176,96,183842,1,0,0:0:0:0:
160,176,183923,1,0,0:0:0:0:
384,304,184004,1,8,0:0:0:0:
128,80,184166,1,0,0:0:0:0:
160,176,184329,1,0,0:0:0:0:
416,320,184410,1,8,0:0:0:0:
384,272,184572,1,8,0:0:0:0:
160,144,184653,1,0,0:0:0:0:
160,144,184815,1,0,0:0:0:0:
192,160,184977,1,0,0:0:0:0:
368,304,185058,1,8,0:0:0:0:
304,256,185221,1,8,0:0:0:0:
32,96,185302,1,0,0:0:0:0:
128,96,185464,5,4,0:0:0:0:
464,304,185626,1,8,0:0:0:0:
176,96,185707,1,0,0:0:0:0:
144,256,185950,1,4,0:0:0:0:
400,320,186112,1,8,0:0:0:0:
400,304,186194,1,8,0:0:0:0:
448,352,186275,1,8,0:0:0:0:
448,352,186356,1,8,0:0:0:0:
144,128,186437,1,0,0:0:0:0:
352,288,186518,1,8,0:0:0:0:
144,112,186599,1,0,0:0:0:0:
384,288,186761,1,12,0:0:0:0:
112,128,186923,1,0,0:0:0:0:
112,128,187004,1,0,0:0:0:0:
0,48,187085,1,0,0:0:0:0:
352,128,187248,1,12,0:0:0:0:
336,240,187410,1,8,0:0:0:0:
352,272,187491,1,8,0:0:0:0:
112,112,187572,1,0,0:0:0:0:
336,256,187734,1,8,0:0:0:0:
48,112,187896,1,0,0:0:0:0:
144,128,187978,1,0,0:0:0:0:
448,176,188059,5,8,0:0:0:0:
128,112,188221,1,0,0:0:0:0:
128,112,188302,1,0,0:0:0:0:
432,288,188383,1,8,0:0:0:0:
128,112,188545,1,0,0:0:0:0:
432,288,188707,1,8,0:0:0:0:
160,128,188869,1,0,0:0:0:0:
160,128,188950,1,0,0:0:0:0:
432,288,189031,1,8,0:0:0:0:
160,128,189194,1,0,0:0:0:0:
432,288,189356,5,8,0:0:0:0:
160,128,189518,1,0,0:0:0:0:
160,128,189599,1,0,0:0:0:0:
432,288,189680,1,8,0:0:0:0:
160,128,189842,1,0,0:0:0:0:
432,288,190004,1,8,0:0:0:0:
160,128,190166,1,0,0:0:0:0:
160,128,190248,1,0,0:0:0:0:
432,288,190329,1,8,0:0:0:0:
160,128,190491,1,0,0:0:0:0:
160,128,190572,1,0,0:0:0:0:
432,288,190653,1,8,0:0:0:0:
160,128,190815,1,0,0:0:0:0:
160,128,190896,1,0,0:0:0:0:
384,256,190977,1,8,0:0:0:0:
368,256,191058,1,8,0:0:0:0:
160,128,191139,1,0,0:0:0:0:
160,128,191221,1,0,0:0:0:0:
384,256,191302,1,8,0:0:0:0:
160,128,191464,1,0,0:0:0:0:
160,128,191545,1,0,0:0:0:0:
384,256,191626,1,8,0:0:0:0:
160,96,191788,1,0,0:0:0:0:
368,128,191950,1,12,0:0:0:0:
368,128,192113,1,12,0:0:0:0:
368,128,192275,1,12,0:0:0:0:
368,128,192437,1,12,0:0:0:0:
128,256,193086,5,4,0:0:0:0:
175,82,193410,1,0,0:0:0:0:
351,290,193572,1,8,0:0:0:0:
146,111,193734,1,0,0:0:0:0:
146,111,193815,1,0,0:0:0:0:
146,111,193896,1,0,0:0:0:0:
146,111,194059,1,0,0:0:0:0:
356,249,194221,1,8,0:0:0:0:
128,109,194302,1,0,0:0:0:0:
360,273,194383,1,8,0:0:0:0:
156,106,194707,1,0,0:0:0:0:
128,128,194788,1,0,0:0:0:0:
336,225,194869,1,8,0:0:0:0:
383,283,195032,1,8,0:0:0:0:
336,288,195194,1,8,0:0:0:0:
345,278,195275,1,8,0:0:0:0:
182,131,195356,1,0,0:0:0:0:
326,239,195518,1,8,0:0:0:0:
150,86,195599,1,0,0:0:0:0:
352,288,195680,1,8,0:0:0:0:
144,112,195842,1,0,0:0:0:0:
368,272,195923,1,8,0:0:0:0:
168,127,196005,1,0,0:0:0:0:
168,127,196086,1,0,0:0:0:0:
336,259,196167,1,8,0:0:0:0:
194,154,196248,1,0,0:0:0:0:
352,272,196329,1,8,0:0:0:0:
352,272,196410,1,8,0:0:0:0:
194,154,196491,1,0,0:0:0:0:
208,128,196653,1,0,0:0:0:0:
375,313,196815,1,8,0:0:0:0:
171,122,196978,1,0,0:0:0:0:
180,119,197302,1,0,0:0:0:0:
406,304,197464,1,8,0:0:0:0:
206,180,197626,1,0,0:0:0:0:
360,339,197707,1,8,0:0:0:0:
111,86,197788,1,0,0:0:0:0:
156,93,197950,1,0,0:0:0:0:
385,257,198113,1,8,0:0:0:0:
170,100,198275,1,0,0:0:0:0:
134,102,198599,1,0,0:0:0:0:
365,248,198761,5,8,0:0:0:0:
361,236,198869,1,8,0:0:0:0:
135,102,198978,1,0,0:0:0:0:
365,283,199086,1,8,0:0:0:0:
152,62,199194,1,0,0:0:0:0:
146,55,199302,1,0,0:0:0:0:
326,214,199410,1,8,0:0:0:0:
161,72,199518,1,0,0:0:0:0:
131,92,199626,1,0,0:0:0:0:
386,261,199734,1,8,0:0:0:0:
346,265,199842,1,8,0:0:0:0:
159,84,199950,1,0,0:0:0:0:
380,267,200059,1,8,0:0:0:0:
380,267,200140,1,8,0:0:0:0:
215,110,200221,1,0,0:0:0:0:
160,52,200383,1,0,0:0:0:0:
400,288,200464,1,8,0:0:0:0:
161,108,200545,1,0,0:0:0:0:
178,72,200626,1,0,0:0:0:0:
402,273,200707,1,8,0:0:0:0:
177,73,200869,1,0,0:0:0:0:
179,69,201194,1,0,0:0:0:0:
403,260,201356,1,8,0:0:0:0:
351,268,201518,1,8,0:0:0:0:
165,82,201599,1,0,0:0:0:0:
165,82,201680,1,0,0:0:0:0:
165,82,201842,1,0,0:0:0:0:
391,282,202005,1,8,0:0:0:0:
177,270,202167,5,4,0:0:0:0:
160,100,202491,1,0,0:0:0:0:
394,289,202653,1,12,0:0:0:0:
154,139,202815,1,0,0:0:0:0:
400,299,202978,1,8,0:0:0:0:
394,298,203032,1,8,0:0:0:0:
394,298,203086,1,8,0:0:0:0:
201,140,203140,1,0,0:0:0:0:
154,139,203302,1,0,0:0:0:0:
127,248,203464,1,4,0:0:0:0:
145,223,203788,1,0,0:0:0:0:
381,265,203950,1,8,0:0:0:0:
164,98,204113,1,0,0:0:0:0:
164,98,204194,1,0,0:0:0:0:
164,98,204275,1,0,0:0:0:0:
164,98,204437,1,0,0:0:0:0:
365,231,204599,1,8,0:0:0:0:
176,122,204761,1,0,0:0:0:0:
167,121,205086,1,0,0:0:0:0:
314,244,205248,1,8,0:0:0:0:
314,244,205410,1,8,0:0:0:0:
314,244,205491,1,8,0:0:0:0:
176,104,205572,1,0,0:0:0:0:
164,113,205734,1,0,0:0:0:0:
333,245,205896,1,8,0:0:0:0:
400,288,206059,1,8,0:0:0:0:
144,80,206221,1,0,0:0:0:0:
164,113,206383,1,0,0:0:0:0:
144,80,206464,1,0,0:0:0:0:
333,245,206545,1,8,0:0:0:0:
181,136,206707,1,0,0:0:0:0:
93,71,206869,1,0,0:0:0:0:
145,188,207032,1,0,0:0:0:0:
145,188,207113,1,0,0:0:0:0:
334,289,207194,1,8,0:0:0:0:
106,113,207356,1,0,0:0:0:0:
368,304,207518,1,8,0:0:0:0:
171,153,207680,1,0,0:0:0:0:
128,112,207761,1,0,0:0:0:0:
419,341,207842,1,8,0:0:0:0:
394,323,208005,1,8,0:0:0:0:
394,323,208086,1,8,0:0:0:0:
176,161,208167,1,0,0:0:0:0:
144,80,208248,1,0,0:0:0:0:
362,308,208329,1,8,0:0:0:0:
173,163,208410,1,0,0:0:0:0:
291,259,208491,1,8,0:0:0:0:
124,243,208653,5,4,0:0:0:0:
131,117,208978,1,0,0:0:0:0:
396,319,209140,1,8,0:0:0:0:
121,152,209302,1,0,0:0:0:0:
121,152,209383,1,0,0:0:0:0:
122,152,209464,1,0,0:0:0:0:
114,127,209626,1,0,0:0:0:0:
411,322,209788,1,8,0:0:0:0:
136,141,209869,1,0,0:0:0:0:
380,310,209950,1,8,0:0:0:0:
382,319,210032,1,8,0:0:0:0:
146,135,210113,1,0,0:0:0:0:
146,135,210194,1,0,0:0:0:0:
356,293,210275,1,8,0:0:0:0:
139,112,210356,1,0,0:0:0:0:
424,304,210437,1,8,0:0:0:0:
454,328,210518,1,8,0:0:0:0:
131,115,210599,1,0,0:0:0:0:
131,115,210680,1,0,0:0:0:0:
386,267,210761,1,8,0:0:0:0:
146,135,210842,1,0,0:0:0:0:
409,311,210923,1,8,0:0:0:0:
118,90,211005,1,0,0:0:0:0:
425,318,211086,1,8,0:0:0:0:
144,289,211248,5,4,0:0:0:0:
197,172,211572,1,0,0:0:0:0:
400,313,211734,1,8,0:0:0:0:
156,112,211896,1,0,0:0:0:0:
156,112,211978,1,0,0:0:0:0:
156,112,212059,1,0,0:0:0:0:
176,116,212221,1,0,0:0:0:0:
176,116,212302,1,0,0:0:0:0:
441,328,212383,1,8,0:0:0:0:
211,124,212545,1,0,0:0:0:0:
168,96,212869,1,0,0:0:0:0:
396,151,213032,1,12,0:0:0:0:
247,125,213194,1,0,0:0:0:0:
244,124,213275,1,0,0:0:0:0:
371,300,213356,1,8,0:0:0:0:
371,300,213437,1,8,0:0:0:0:
371,300,213518,1,8,0:0:0:0:
371,300,213599,1,8,0:0:0:0:
199,141,213680,1,0,0:0:0:0:
145,245,213842,5,4,0:0:0:0:
141,133,214167,1,0,0:0:0:0:
391,265,214329,1,8,0:0:0:0:
119,108,214491,1,0,0:0:0:0:
219,160,214653,1,0,0:0:0:0:
192,144,214734,1,0,0:0:0:0:
350,286,214815,1,8,0:0:0:0:
366,299,214978,1,8,0:0:0:0:
171,121,215140,1,0,0:0:0:0:
172,89,215464,1,0,0:0:0:0:
172,89,215545,1,0,0:0:0:0:
359,286,215626,1,8,0:0:0:0:
390,318,215788,1,8,0:0:0:0:
177,136,215950,1,0,0:0:0:0:
177,136,216113,1,0,0:0:0:0:
421,313,216275,1,8,0:0:0:0:
172,127,216437,1,0,0:0:0:0:
176,144,216761,1,4,0:0:0:0:
352,272,217005,1,12,0:0:0:0:
336,272,217248,1,12,0:0:0:0:
400,283,217491,1,12,0:0:0:0:
210,142,217734,1,4,0:0:0:0:
399,291,218059,1,8,0:0:0:0:
185,122,218140,1,0,0:0:0:0:
363,258,218221,1,8,0:0:0:0:
201,128,218383,1,0,0:0:0:0:
365,269,218545,1,8,0:0:0:0:
146,79,218707,1,0,0:0:0:0:
139,101,218788,1,0,0:0:0:0:
346,231,218869,1,8,0:0:0:0:
158,273,219032,1,4,0:0:0:0:
151,139,219356,1,0,0:0:0:0:
391,320,219518,1,8,0:0:0:0:
381,278,219680,1,8,0:0:0:0:
385,310,219761,1,8,0:0:0:0:
156,107,219842,1,0,0:0:0:0:
156,107,220005,1,0,0:0:0:0:
411,293,220167,1,8,0:0:0:0:
133,123,220329,1,0,0:0:0:0:
156,107,220653,1,0,0:0:0:0:
476,344,220815,1,8,0:0:0:0:
406,292,220978,1,8,0:0:0:0:
406,292,221059,1,8,0:0:0:0:
159,119,221140,1,0,0:0:0:0:
156,117,221302,1,0,0:0:0:0:
402,258,221464,1,8,0:0:0:0:
159,119,221626,1,0,0:0:0:0:
131,131,221950,1,0,0:0:0:0:
356,272,222113,1,8,0:0:0:0:
163,96,222275,1,0,0:0:0:0:
393,304,222356,1,8,0:0:0:0:
181,144,222437,1,0,0:0:0:0:
181,144,222599,1,0,0:0:0:0:
401,323,222761,1,8,0:0:0:0:
127,237,222923,1,4,0:0:0:0:
172,177,223248,1,0,0:0:0:0:
418,292,223410,5,12,0:0:0:0:
145,133,223572,1,0,0:0:0:0:
145,133,223626,1,0,0:0:0:0:
145,133,223680,1,0,0:0:0:0:
145,133,223734,1,0,0:0:0:0:
154,142,223896,1,0,0:0:0:0:
367,298,224059,1,8,0:0:0:0:
107,263,224221,1,4,0:0:0:0:
379,322,224545,1,8,0:0:0:0:
135,93,224626,1,0,0:0:0:0:
378,319,224707,1,8,0:0:0:0:
386,301,224788,1,8,0:0:0:0:
132,108,224869,1,0,0:0:0:0:
146,126,224950,1,0,0:0:0:0:
363,243,225032,1,8,0:0:0:0:
157,109,225113,1,0,0:0:0:0:
361,252,225194,1,8,0:0:0:0:
361,252,225275,1,8,0:0:0:0:
326,277,225356,1,8,0:0:0:0:
335,288,225437,1,8,0:0:0:0:
122,103,225518,1,0,0:0:0:0:
122,103,225599,1,0,0:0:0:0:
351,270,225680,1,8,0:0:0:0:
275,243,225761,1,8,0:0:0:0:
95,143,225842,1,0,0:0:0:0:
136,142,225923,1,0,0:0:0:0:
271,306,226005,1,8,0:0:0:0:
155,132,226086,1,0,0:0:0:0:
325,274,226167,1,8,0:0:0:0:
325,274,226248,1,8,0:0:0:0:
158,147,226329,1,0,0:0:0:0:
170,126,226491,1,0,0:0:0:0:
170,126,226572,1,0,0:0:0:0:
331,296,226653,1,8,0:0:0:0:
169,105,226734,1,0,0:0:0:0:
380,289,226815,1,8,0:0:0:0:
380,289,226896,1,8,0:0:0:0:
118,90,226978,1,0,0:0:0:0:
401,288,227059,1,8,0:0:0:0:
92,69,227140,1,0,0:0:0:0:
100,73,227221,1,0,0:0:0:0:
377,256,227302,1,8,0:0:0:0:
92,147,227383,1,0,0:0:0:0:
385,281,227464,1,8,0:0:0:0:
151,139,227626,1,0,0:0:0:0:
378,278,227707,1,8,0:0:0:0:
151,139,227788,1,0,0:0:0:0:
151,139,227869,1,0,0:0:0:0:
391,285,227950,1,8,0:0:0:0:
122,268,228113,5,4,0:0:0:0:
361,267,228275,1,8,0:0:0:0:
376,293,228356,1,8,0:0:0:0:
179,132,228437,1,0,0:0:0:0:
174,131,228518,1,0,0:0:0:0:
410,310,228599,1,8,0:0:0:0:
134,97,228680,1,0,0:0:0:0:
316,231,228761,1,8,0:0:0:0:
378,268,228842,1,8,0:0:0:0:
134,97,228923,1,0,0:0:0:0:
179,132,229086,1,0,0:0:0:0:
368,241,229248,1,8,0:0:0:0:
144,237,229410,5,4,0:0:0:0:
117,86,229734,1,0,0:0:0:0:
117,86,229815,1,0,0:0:0:0:
456,304,229896,1,8,0:0:0:0:
188,115,229978,1,0,0:0:0:0:
423,295,230059,1,8,0:0:0:0:
423,295,230140,1,8,0:0:0:0:
423,295,230221,1,8,0:0:0:0:
131,109,230302,1,0,0:0:0:0:
396,255,230383,1,8,0:0:0:0:
170,103,230464,1,0,0:0:0:0:
396,255,230545,1,8,0:0:0:0:
380,263,230707,5,8,0:0:0:0:
380,263,230788,1,8,0:0:0:0:
156,91,230869,1,0,0:0:0:0:
126,158,230950,1,0,0:0:0:0:
316,226,231032,1,8,0:0:0:0:
382,273,231113,1,8,0:0:0:0:
383,273,231194,1,8,0:0:0:0:
383,273,231275,1,8,0:0:0:0:
152,106,231356,1,0,0:0:0:0:
106,92,231410,1,0,0:0:0:0:
147,152,231464,1,0,0:0:0:0:
290,205,231518,1,8,0:0:0:0:
161,103,231599,1,0,0:0:0:0:
173,133,231680,1,0,0:0:0:0:
93,67,231734,1,0,0:0:0:0:
93,67,231788,1,0,0:0:0:0:
305,212,231842,1,8,0:0:0:0:
143,238,232005,1,4,0:0:0:0:
148,132,232329,5,0,0:0:0:0:
313,231,232491,1,8,0:0:0:0:
133,242,232653,1,4,0:0:0:0:
148,132,232978,1,0,0:0:0:0:
380,296,233140,1,8,0:0:0:0:
494,321,233302,1,12,0:0:0:0:
367,239,233626,1,8,0:0:0:0:
367,239,233788,1,8,0:0:0:0:
148,251,233950,1,4,0:0:0:0:
336,280,234275,1,8,0:0:0:0:
130,105,234437,1,0,0:0:0:0:
148,251,234599,1,4,0:0:0:0:
130,105,234923,1,0,0:0:0:0:
320,246,235086,1,8,0:0:0:0:
143,117,235410,1,0,0:0:0:0:
143,117,235572,1,0,0:0:0:0:
324,269,235734,1,8,0:0:0:0:
141,126,235896,1,0,0:0:0:0:
181,135,236221,1,0,0:0:0:0:
386,273,236383,1,8,0:0:0:0:
373,274,236707,5,8,0:0:0:0:
86,105,236923,1,0,0:0:0:0:
158,133,237140,1,0,0:0:0:0:
330,259,237356,1,4,0:0:0:0:
136,273,238653,1,4,0:0:0:0:
144,268,239302,1,0,0:0:0:0:
144,103,239950,1,0,0:0:0:0:
351,223,240059,1,8,0:0:0:0:
351,223,240167,1,8,0:0:0:0:
351,223,240275,1,8,0:0:0:0:
111,124,240383,1,0,0:0:0:0:
111,124,240491,1,0,0:0:0:0:
159,150,240599,1,0,0:0:0:0:
353,252,240707,1,8,0:0:0:0:
347,250,240815,1,8,0:0:0:0:
150,97,240923,1,0,0:0:0:0:
398,244,241032,1,8,0:0:0:0:
353,252,241140,1,8,0:0:0:0:
181,116,241248,1,0,0:0:0:0:
156,119,241329,1,0,0:0:0:0:
81,127,241410,1,0,0:0:0:0:
156,119,241491,1,0,0:0:0:0:
347,250,241572,1,8,0:0:0:0:
353,252,241734,1,8,0:0:0:0:
202,122,241815,1,0,0:0:0:0:
370,255,241896,1,8,0:0:0:0:
370,255,242005,1,8,0:0:0:0:
370,255,242113,1,8,0:0:0:0:
370,255,242221,1,8,0:0:0:0:
370,255,242329,1,8,0:0:0:0:
370,255,242437,1,8,0:0:0:0:
126,122,242869,1,4,0:0:0:0:
126,122,243518,1,4,0:0:0:0:
73,127,244167,1,4,0:0:0:0:
73,127,244815,1,4,0:0:0:0:
377,300,245140,1,12,0:0:0:0:
141,127,245383,1,0,0:0:0:0:
389,287,245626,1,12,0:0:0:0:
366,273,245788,5,8,0:0:0:0:
144,133,245869,1,0,0:0:0:0:
346,252,245950,1,8,0:0:0:0:
361,296,246032,1,8,0:0:0:0:
136,97,246113,5,0,0:0:0:0:
354,261,246194,1,8,0:0:0:0:
131,54,246275,1,0,0:0:0:0:
353,293,246437,1,12,0:0:0:0:
353,293,246599,1,12,0:0:0:0:
353,293,246761,1,12,0:0:0:0:
384,320,247734,5,12,0:0:0:0:
176,128,247977,1,0,0:0:0:0:
368,304,248058,1,8,0:0:0:0:
176,128,248220,1,0,0:0:0:0:
352,288,248302,1,8,0:0:0:0:
352,288,248383,1,8,0:0:0:0:
144,128,248545,1,0,0:0:0:0:
384,304,248626,1,8,0:0:0:0:
96,128,248707,1,0,0:0:0:0:
384,304,248869,1,8,0:0:0:0:
128,144,249031,1,0,0:0:0:0:
128,128,249194,1,0,0:0:0:0:
144,128,249275,1,0,0:0:0:0:
416,272,249356,1,8,0:0:0:0:
144,128,249518,1,0,0:0:0:0:
400,304,249599,1,8,0:0:0:0:
400,304,249680,1,8,0:0:0:0:
160,80,249761,1,0,0:0:0:0:
400,304,249842,1,8,0:0:0:0:
368,272,249923,1,8,0:0:0:0:
144,112,250004,1,0,0:0:0:0:
384,304,250166,1,8,0:0:0:0:
160,144,250329,1,0,0:0:0:0:
192,144,250491,1,0,0:0:0:0:
448,352,250572,1,8,0:0:0:0:
192,112,250734,1,0,0:0:0:0:
400,320,250815,1,8,0:0:0:0:
368,288,250896,1,8,0:0:0:0:
176,144,250977,1,0,0:0:0:0:
352,272,251139,1,8,0:0:0:0:
176,128,251220,1,0,0:0:0:0:
400,304,251383,1,8,0:0:0:0:
416,336,251464,1,8,0:0:0:0:
352,256,251545,1,8,0:0:0:0:
176,144,251626,5,0,0:0:0:0:
144,112,251788,1,0,0:0:0:0:
224,192,251869,1,0,0:0:0:0:
400,112,251950,1,8,0:0:0:0:
144,304,252112,1,0,0:0:0:0:
384,240,252437,1,8,0:0:0:0:
384,240,252599,1,8,0:0:0:0:
208,160,252761,1,0,0:0:0:0:
304,272,252842,1,8,0:0:0:0:
304,272,252923,1,8,0:0:0:0:
416,320,253248,1,8,0:0:0:0:
176,128,253410,1,0,0:0:0:0:
176,144,253491,1,0,0:0:0:0:
176,128,253572,1,0,0:0:0:0:
384,304,253734,1,8,0:0:0:0:
128,96,253896,1,0,0:0:0:0:
160,176,253977,1,0,0:0:0:0:
384,304,254058,1,8,0:0:0:0:
128,80,254220,1,0,0:0:0:0:
160,176,254383,1,0,0:0:0:0:
416,320,254464,1,8,0:0:0:0:
384,272,254626,1,8,0:0:0:0:
160,144,254707,1,0,0:0:0:0:
160,144,254869,1,0,0:0:0:0:
192,160,255031,1,0,0:0:0:0:
368,304,255112,1,8,0:0:0:0:
304,256,255275,1,8,0:0:0:0:
32,96,255356,1,0,0:0:0:0:
128,96,255518,5,4,0:0:0:0:
464,304,255680,1,8,0:0:0:0:
176,96,255761,1,0,0:0:0:0:
144,256,256004,1,4,0:0:0:0:
400,320,256166,1,8,0:0:0:0:
400,304,256248,1,8,0:0:0:0:
448,352,256329,1,8,0:0:0:0:
448,352,256410,1,8,0:0:0:0:
144,128,256491,1,0,0:0:0:0:
352,288,256572,1,8,0:0:0:0:
144,112,256653,1,0,0:0:0:0:
144,112,256734,1,0,0:0:0:0:
384,288,256815,1,8,0:0:0:0:
164,131,256923,1,0,0:0:0:0:
164,131,257032,1,0,0:0:0:0:
359,268,257140,1,8,0:0:0:0:
160,126,257248,1,0,0:0:0:0:
351,235,257356,1,8,0:0:0:0:
353,239,257464,1,8,0:0:0:0:
136,137,257572,1,0,0:0:0:0:
145,148,257680,1,0,0:0:0:0:
145,148,257788,1,8,0:0:0:0:
346,248,257896,1,8,0:0:0:0:
117,296,258005,1,0,0:0:0:0:
341,248,258113,5,12,0:0:0:0:
176,128,258356,1,0,0:0:0:0:
368,304,258437,1,8,0:0:0:0:
176,128,258599,1,0,0:0:0:0:
352,288,258681,1,8,0:0:0:0:
352,288,258762,1,8,0:0:0:0:
144,128,258924,1,0,0:0:0:0:
384,304,259005,1,8,0:0:0:0:
160,80,259086,1,0,0:0:0:0:
384,304,259248,1,8,0:0:0:0:
128,144,259410,1,0,0:0:0:0:
160,80,259572,1,0,0:0:0:0:
144,128,259654,1,0,0:0:0:0:
416,272,259735,1,8,0:0:0:0:
144,128,259897,1,0,0:0:0:0:
400,304,259978,1,8,0:0:0:0:
400,304,260059,1,8,0:0:0:0:
400,304,260221,1,8,0:0:0:0:
368,272,260302,1,8,0:0:0:0:
144,112,260383,1,0,0:0:0:0:
160,80,260464,1,0,0:0:0:0:
384,304,260545,1,8,0:0:0:0:
160,144,260708,1,0,0:0:0:0:
192,144,260870,1,0,0:0:0:0:
448,352,260951,1,8,0:0:0:0:
192,112,261113,1,0,0:0:0:0:
400,320,261194,1,8,0:0:0:0:
368,240,261275,1,8,0:0:0:0:
176,144,261356,1,0,0:0:0:0:
352,272,261518,1,8,0:0:0:0:
176,128,261599,1,0,0:0:0:0:
400,304,261762,1,8,0:0:0:0:
416,336,261843,1,8,0:0:0:0:
416,304,261923,1,8,0:0:0:0:
176,144,262005,5,0,0:0:0:0:
176,112,262167,1,0,0:0:0:0:
224,192,262248,1,0,0:0:0:0:
400,112,262329,1,8,0:0:0:0:
144,304,262491,1,4,0:0:0:0:
384,240,262816,1,8,0:0:0:0:
384,240,262978,1,8,0:0:0:0:
208,160,263140,1,0,0:0:0:0:
304,272,263221,1,8,0:0:0:0:
304,272,263302,1,8,0:0:0:0:
416,320,263627,1,8,0:0:0:0:
176,128,263789,1,0,0:0:0:0:
176,144,263870,1,0,0:0:0:0:
176,128,263951,1,0,0:0:0:0:
144,112,264032,1,0,0:0:0:0:
384,304,264113,1,8,0:0:0:0:
144,96,264275,1,0,0:0:0:0:
160,176,264356,1,0,0:0:0:0:
384,304,264437,1,8,0:0:0:0:
128,80,264599,1,0,0:0:0:0:
160,176,264762,1,0,0:0:0:0:
416,320,264843,1,8,0:0:0:0:
384,272,265005,1,8,0:0:0:0:
160,144,265086,1,0,0:0:0:0:
160,144,265248,1,0,0:0:0:0:
192,160,265410,1,0,0:0:0:0:
368,304,265491,1,8,0:0:0:0:
304,256,265654,1,8,0:0:0:0:
32,96,265735,1,0,0:0:0:0:
128,96,265897,5,4,0:0:0:0:
464,304,266059,1,8,0:0:0:0:
176,96,266140,1,0,0:0:0:0:
144,256,266383,1,4,0:0:0:0:
400,320,266545,1,8,0:0:0:0:
400,304,266627,1,8,0:0:0:0:
448,352,266708,1,8,0:0:0:0:
448,352,266789,1,8,0:0:0:0:
144,128,266870,1,0,0:0:0:0:
352,288,266951,1,8,0:0:0:0:
144,112,267032,1,0,0:0:0:0:
144,112,267113,1,0,0:0:0:0:
384,288,267194,1,8,0:0:0:0:
386,287,267275,1,8,0:0:0:0:
155,122,267356,1,0,0:0:0:0:
152,122,267437,1,0,0:0:0:0:
152,122,267518,1,0,0:0:0:0:
152,122,267599,1,0,0:0:0:0:
391,275,267680,1,8,0:0:0:0:
391,275,267761,1,8,0:0:0:0:
163,133,267842,1,0,0:0:0:0:
163,133,267923,1,0,0:0:0:0:
163,133,268005,1,0,0:0:0:0:
163,133,268086,1,0,0:0:0:0:
355,263,268167,1,8,0:0:0:0:
157,131,268329,1,0,0:0:0:0:
365,63,268491,5,12,0:0:0:0:
128,112,268653,1,0,0:0:0:0:
128,112,268734,1,0,0:0:0:0:
432,288,268815,1,8,0:0:0:0:
128,112,268977,1,0,0:0:0:0:
432,288,269139,1,8,0:0:0:0:
160,128,269301,1,0,0:0:0:0:
160,128,269382,1,0,0:0:0:0:
432,288,269463,1,8,0:0:0:0:
160,128,269626,1,0,0:0:0:0:
432,288,269788,5,8,0:0:0:0:
160,128,269950,1,0,0:0:0:0:
160,128,270031,1,0,0:0:0:0:
432,288,270112,1,8,0:0:0:0:
160,128,270274,1,0,0:0:0:0:
432,288,270436,1,8,0:0:0:0:
160,128,270598,1,0,0:0:0:0:
160,128,270680,1,0,0:0:0:0:
432,288,270761,1,8,0:0:0:0:
160,128,270923,1,0,0:0:0:0:
432,288,271085,1,12,0:0:0:0:
160,128,271247,1,0,0:0:0:0:
160,128,271329,1,0,0:0:0:0:
384,256,271409,1,8,0:0:0:0:
160,128,271571,1,0,0:0:0:0:
384,256,271734,1,8,0:0:0:0:
160,128,271896,1,0,0:0:0:0:
160,128,271977,1,0,0:0:0:0:
384,256,272058,1,8,0:0:0:0:
160,128,272220,1,0,0:0:0:0:
368,251,272383,1,8,0:0:0:0:
128,112,272545,1,0,0:0:0:0:
128,112,272626,1,0,0:0:0:0:
432,288,272707,1,8,0:0:0:0:
128,112,272869,1,0,0:0:0:0:
432,288,273031,1,8,0:0:0:0:
407,268,273113,1,8,0:0:0:0:
160,128,273193,1,0,0:0:0:0:
411,134,273355,5,12,0:0:0:0:
160,128,273518,1,0,0:0:0:0:
390,61,273680,5,12,0:0:0:0:
128,112,273842,1,0,0:0:0:0:
128,112,273923,1,0,0:0:0:0:
432,288,274004,1,8,0:0:0:0:
128,112,274166,1,0,0:0:0:0:
141,108,274248,1,0,0:0:0:0:
432,288,274328,1,8,0:0:0:0:
160,128,274490,1,0,0:0:0:0:
160,128,274571,1,0,0:0:0:0:
432,288,274652,1,8,0:0:0:0:
160,128,274815,1,0,0:0:0:0:
141,108,274896,1,0,0:0:0:0:
432,288,274977,5,8,0:0:0:0:
160,128,275139,1,0,0:0:0:0:
160,128,275220,1,0,0:0:0:0:
432,288,275301,1,8,0:0:0:0:
160,128,275463,1,0,0:0:0:0:
141,108,275545,1,0,0:0:0:0:
432,288,275625,1,8,0:0:0:0:
160,128,275787,1,0,0:0:0:0:
432,288,275950,5,12,0:0:0:0:
160,128,276112,1,0,0:0:0:0:
160,128,276193,1,0,0:0:0:0:
432,288,276274,1,8,0:0:0:0:
206,153,276356,1,0,0:0:0:0:
160,128,276436,1,0,0:0:0:0:
160,128,276517,1,0,0:0:0:0:
384,256,276598,1,8,0:0:0:0:
368,256,276679,1,8,0:0:0:0:
160,128,276760,1,0,0:0:0:0:
160,128,276842,1,0,0:0:0:0:
384,256,276923,1,8,0:0:0:0:
171,112,277005,1,0,0:0:0:0:
160,128,277085,1,0,0:0:0:0:
160,128,277166,1,0,0:0:0:0:
384,256,277247,1,8,0:0:0:0:
390,279,277329,1,8,0:0:0:0:
160,128,277409,1,0,0:0:0:0:
160,128,277491,1,0,0:0:0:0:
306,272,277572,5,8,0:0:0:0:
131,138,278221,1,0,0:0:0:0:
131,138,278383,1,0,0:0:0:0:
131,138,278545,1,0,0:0:0:0:
416,80,278707,5,4,0:0:0:0:
112,80,279031,1,0,0:0:0:0:
384,288,279193,1,8,0:0:0:0:
416,336,279356,1,8,0:0:0:0:
384,320,279437,1,8,0:0:0:0:
160,144,279518,1,0,0:0:0:0:
160,144,279680,1,0,0:0:0:0:
416,336,279842,1,8,0:0:0:0:
144,112,280004,1,0,0:0:0:0:
144,112,280329,1,0,0:0:0:0:
352,240,280491,1,8,0:0:0:0:
148,103,280653,1,0,0:0:0:0:
160,144,280815,1,0,0:0:0:0:
304,272,280896,1,8,0:0:0:0:
148,103,280977,1,0,0:0:0:0:
160,144,281058,1,0,0:0:0:0:
400,320,281139,1,8,0:0:0:0:
304,256,281302,1,8,0:0:0:0:
176,144,281626,1,0,0:0:0:0:
336,272,281788,1,8,0:0:0:0:
176,160,281950,1,0,0:0:0:0:
375,252,282112,1,8,0:0:0:0:
344,263,282193,1,8,0:0:0:0:
176,160,282275,1,0,0:0:0:0:
352,304,282437,1,8,0:0:0:0:
128,144,282599,1,4,0:0:0:0:
128,64,282923,1,0,0:0:0:0:
352,288,283085,1,8,0:0:0:0:
128,96,283248,1,0,0:0:0:0:
170,117,283329,1,0,0:0:0:0:
416,288,283410,1,8,0:0:0:0:
320,304,283491,1,8,0:0:0:0:
160,112,283572,1,0,0:0:0:0:
336,256,283734,1,8,0:0:0:0:
144,112,283896,1,4,0:0:0:0:
152,136,284221,1,0,0:0:0:0:
426,324,284383,1,8,0:0:0:0:
298,239,284545,1,8,0:0:0:0:
352,224,284626,1,8,0:0:0:0:
158,161,284707,1,0,0:0:0:0:
158,161,284869,1,0,0:0:0:0:
430,297,285031,1,8,0:0:0:0:
154,108,285193,1,0,0:0:0:0:
152,136,285518,1,0,0:0:0:0:
426,324,285680,1,8,0:0:0:0:
298,239,285842,1,8,0:0:0:0:
219,123,285923,1,0,0:0:0:0:
409,332,286004,1,8,0:0:0:0:
458,307,286085,1,8,0:0:0:0:
158,161,286166,1,0,0:0:0:0:
430,297,286328,1,8,0:0:0:0:
195,241,286490,5,4,0:0:0:0:
152,136,286815,1,0,0:0:0:0:
426,324,286977,1,8,0:0:0:0:
298,239,287139,1,8,0:0:0:0:
435,320,287221,1,8,0:0:0:0:
374,358,287301,1,8,0:0:0:0:
423,333,287383,1,8,0:0:0:0:
158,161,287463,1,0,0:0:0:0:
430,297,287625,1,8,0:0:0:0:
130,308,287787,5,4,0:0:0:0:
81,123,288112,1,0,0:0:0:0:
358,138,288275,1,8,0:0:0:0:
123,373,288437,1,4,0:0:0:0:
340,284,288599,1,8,0:0:0:0:
360,268,288680,1,8,0:0:0:0:
148,110,288761,1,0,0:0:0:0:
325,265,288923,1,8,0:0:0:0:
416,80,289085,5,4,0:0:0:0:
112,80,289409,1,0,0:0:0:0:
384,288,289571,1,8,0:0:0:0:
109,120,289734,1,0,0:0:0:0:
160,144,289815,1,0,0:0:0:0:
384,320,289896,1,8,0:0:0:0:
320,256,289978,1,8,0:0:0:0:
160,144,290058,1,0,0:0:0:0:
416,336,290220,1,8,0:0:0:0:
144,112,290382,1,0,0:0:0:0:
144,112,290707,1,0,0:0:0:0:
352,240,290869,1,8,0:0:0:0:
148,103,291031,1,0,0:0:0:0:
160,144,291193,1,0,0:0:0:0:
323,246,291274,1,8,0:0:0:0:
148,103,291355,1,0,0:0:0:0:
160,144,291436,1,0,0:0:0:0:
400,320,291517,1,8,0:0:0:0:
304,256,291680,1,8,0:0:0:0:
176,144,292004,1,0,0:0:0:0:
336,272,292166,1,8,0:0:0:0:
176,160,292328,1,0,0:0:0:0:
160,128,292410,1,0,0:0:0:0:
375,252,292490,1,8,0:0:0:0:
176,160,292571,1,0,0:0:0:0:
344,263,292653,1,8,0:0:0:0:
352,304,292815,1,8,0:0:0:0:
128,144,292978,1,4,0:0:0:0:
128,64,293301,1,4,0:0:0:0:
352,288,293463,1,8,0:0:0:0:
128,96,293626,1,4,0:0:0:0:
416,288,293788,1,8,0:0:0:0:
160,112,293869,5,0,0:0:0:0:
391,296,293950,1,8,0:0:0:0:
336,256,294112,1,8,0:0:0:0:
123,230,294275,5,4,0:0:0:0:
128,64,294599,1,0,0:0:0:0:
352,288,294761,1,8,0:0:0:0:
128,96,294924,1,0,0:0:0:0:
170,117,295005,1,0,0:0:0:0:
416,288,295086,1,8,0:0:0:0:
391,296,295248,1,8,0:0:0:0:
336,256,295410,1,8,0:0:0:0:
123,230,295573,5,0,0:0:0:0:
128,64,295896,1,0,0:0:0:0:
352,288,296058,1,12,0:0:0:0:
128,96,296221,1,0,0:0:0:0:
416,288,296383,1,8,0:0:0:0:
151,102,296464,1,0,0:0:0:0:
391,296,296545,1,8,0:0:0:0:
123,230,296707,1,0,0:0:0:0:
336,256,296869,5,12,0:0:0:0:
346,292,297356,1,8,0:0:0:0:
138,104,297680,1,0,0:0:0:0:
347,310,298005,1,8,0:0:0:0:
136,129,298329,1,0,0:0:0:0:
340,285,298653,1,8,0:0:0:0:
155,112,298978,1,0,0:0:0:0:
341,257,299302,1,8,0:0:0:0:
356,279,299950,1,8,0:0:0:0:
106,62,300275,1,0,0:0:0:0:
281,203,300599,1,8,0:0:0:0:
328,250,301275,1,8,0:0:0:0:
136,141,301719,1,0,0:0:0:0:
256,192,302163,12,0,311941,0:0:0:0:
