osu file format v14

[General]
AudioFilename: audio.ogg
AudioLeadIn: 0
PreviewTime: 166558
Countdown: 0
SampleSet: Soft
StackLeniency: 0.2
Mode: 0
LetterboxInBreaks: 0
WidescreenStoryboard: 1

[Editor]
Bookmarks: 500,11365,21743,37473,47851,58230,68608,89365,104770,115149,125689,136068,146450,156828,177585,192990,203368,213747,224125,237260,247639,258017,268395,278612,288990,296774,302076
DistanceSpacing: 0.45
BeatDivisor: 4
GridSize: 32
TimelineZoom: 3

[Metadata]
Title:Youkai no Yama ~ Mysterious Mountain
TitleUnicode:妖怪の山 ~ Mysterious Mountain
Artist:Demetori
ArtistUnicode:Demetori
Creator:-Kemsyt
Version:Tengu's Unending Journalistic Ambition
Source:東方風神録 ~ Mountain of Faith.
Tags:touhou 東方project th10 aya shameimaru sendaisoushi 闡提宗祀 ~ offering to the sukhavati comiket 75 c75 徳南 tokunan 九宝時 kyuuhouji zun video game instrumental rock metal entry marathon 射命丸 文 mof
BeatmapID:3066546
BeatmapSetID:1495860

[Difficulty]
HPDrainRate:5.3
CircleSize:4.6
OverallDifficulty:9.1
ApproachRate:9.4
SliderMultiplier:1.7
SliderTickRate:1

[Events]
//Background and Video events
0,0,"bg.jpg",0,0
//Break Periods
//Storyboard Layer 0 (Background)
//Storyboard Layer 1 (Fail)
//Storyboard Layer 2 (Pass)
//Storyboard Layer 3 (Foreground)
//Storyboard Layer 4 (Overlay)
//Storyboard Sound Samples

[TimingPoints]
-148,324.324324324324,4,2,1,60,1,0
500,-200,4,2,1,60,0,0
662,-200,4,2,2,60,0,0
987,-200,4,2,1,60,0,0
1473,-200,4,2,1,60,0,0
1797,-200,4,2,1,40,0,0
2122,-200,4,2,1,60,0,0
2446,-200,4,2,1,40,0,0
2770,-200,4,2,1,60,0,0
3014,-200,4,2,1,5,0,0
3095,-200,4,2,2,60,0,0
3581,-100,4,2,1,60,0,0
3987,-100,4,2,1,5,0,0
4068,-100,4,2,1,60,0,0
4879,-133.333333333333,4,2,1,60,0,0
5122,-133.333333333333,4,2,1,5,0,0
5203,-133.333333333333,4,2,2,60,0,0
5527,-133.333333333333,4,2,2,60,0,0
5689,-133.333333333333,4,2,3,60,0,0
5851,-133.333333333333,4,2,2,60,0,0
6176,-200,4,2,1,60,0,0
6987,-200,4,2,1,40,0,0
7311,-200,4,2,1,60,0,0
7635,-200,4,2,1,40,0,0
7960,-200,4,2,1,60,0,0
8203,-200,4,2,1,5,0,0
8284,-200,4,2,2,60,0,0
8770,-100,4,2,1,60,0,0
9176,-100,4,2,1,5,0,0
9257,-100,4,2,1,30,0,0
9581,-100,4,2,1,50,0,0
9906,-100,4,2,1,60,0,0
11365,-90.9090909090909,4,2,7,60,0,0
11689,-90.9090909090909,4,2,1,60,0,0
12662,-90.9090909090909,4,2,7,60,0,0
12987,-90.9090909090909,4,2,1,60,0,0
13960,-90.9090909090909,4,2,7,60,0,0
14284,-90.9090909090909,4,2,1,60,0,0
15257,-90.9090909090909,4,2,7,60,0,0
15581,-90.9090909090909,4,2,1,60,0,0
16068,-90.9090909090909,4,2,7,60,0,0
16879,-90.9090909090909,4,2,1,60,0,0
17851,-90.9090909090909,4,2,7,60,0,0
18176,-90.9090909090909,4,2,1,60,0,0
19149,-90.9090909090909,4,2,7,60,0,0
19473,-90.9090909090909,4,2,1,60,0,0
20446,-90.9090909090909,4,2,7,60,0,0
20770,-90.9090909090909,4,2,1,60,0,0
21095,-90.9090909090909,4,2,2,60,0,0
21419,-90.9090909090909,4,2,7,60,0,0
21743,-90.9090909090909,4,2,7,60,0,0
22068,-90.9090909090909,4,2,1,60,0,0
23041,-90.9090909090909,4,2,7,60,0,0
23365,-90.9090909090909,4,2,1,60,0,0
24338,-90.9090909090909,4,2,7,60,0,0
24662,-90.9090909090909,4,2,1,60,0,0
25635,-90.9090909090909,4,2,7,60,0,0
25960,-90.9090909090909,4,2,1,60,0,0
26446,-90.9090909090909,4,2,7,60,0,0
27257,-90.9090909090909,4,2,1,60,0,0
29041,-90.9090909090909,4,2,7,60,0,0
29851,-90.9090909090909,4,2,1,60,0,0
30419,-90.9090909090909,4,2,2,60,0,0
30662,-90.9090909090909,4,2,1,60,0,0
30987,-80,4,2,7,60,0,0
31554,-80,4,2,1,5,0,0
31635,-90.9090909090909,4,2,1,60,0,0
31851,-90.9090909090909,4,2,2,60,0,0
32122,-111.111111111111,4,2,1,60,0,0
32851,-111.111111111111,4,2,1,5,0,0
32933,-111.111111111111,4,2,1,60,0,0
33824,-111.111111111111,4,2,1,5,0,0
33906,-111.111111111111,4,2,1,60,0,0
35446,-111.111111111111,4,2,1,5,0,0
35527,-111.111111111111,4,2,1,60,0,0
36257,-111.111111111111,4,2,1,5,0,0
36338,-111.111111111111,4,2,1,60,0,0
36662,-111.111111111111,4,2,2,60,0,0
36987,-111.111111111111,4,2,3,60,0,0
37149,-111.111111111111,4,2,1,60,0,0
37473,-83.3333333333333,4,2,7,50,0,0
37716,-83.3333333333333,4,2,1,5,0,0
37797,-83.3333333333333,4,2,1,50,0,0
37960,-83.3333333333333,4,2,7,50,0,0
38365,-83.3333333333333,4,2,1,5,0,0
38446,-125,4,2,7,50,0,0
39095,-125,4,2,1,50,0,0
39257,-125,4,2,7,50,0,0
39581,-125,4,2,7,50,0,0
39743,-125,4,2,1,50,0,0
39906,-125,4,2,7,50,0,0
40068,-83.3333333333333,4,2,7,50,0,0
40311,-83.3333333333333,4,2,1,5,0,0
40392,-83.3333333333333,4,2,7,50,0,0
41041,-125,4,2,7,50,0,0
41527,-125,4,2,1,50,0,0
41851,-125,4,2,7,50,0,0
42014,-125,4,2,1,50,0,0
42176,-100,4,2,1,50,0,0
42662,-83.3333333333333,4,2,7,50,0,0
42906,-83.3333333333333,4,2,1,5,0,0
42987,-83.3333333333333,4,2,1,50,0,0
43149,-83.3333333333333,4,2,7,50,0,0
43960,-125,4,2,7,50,0,0
44284,-125,4,2,1,50,0,0
44446,-125,4,2,7,50,0,0
44608,-125,4,2,1,50,0,0
44770,-100,4,2,1,50,0,0
45257,-83.3333333333333,4,2,7,50,0,0
45500,-83.3333333333333,4,2,1,5,0,0
45581,-83.3333333333333,4,2,7,50,0,0
46392,-125,4,2,7,50,0,0
46879,-125,4,2,1,50,0,0
47041,-100,4,2,1,50,0,0
47527,-100,4,2,1,50,0,0
47581,-100,4,2,2,50,0,0
47689,-100,4,2,1,50,0,0
47851,-83.3333333333333,4,2,7,50,0,0
48095,-83.3333333333333,4,2,1,5,0,0
48176,-83.3333333333333,4,2,1,50,0,0
48338,-83.3333333333333,4,2,7,50,0,0
48743,-83.3333333333333,4,2,1,5,0,0
48824,-125,4,2,7,50,0,0
49473,-125,4,2,1,50,0,0
49635,-125,4,2,7,50,0,0
49797,-125,4,2,1,50,0,0
49960,-125,4,2,7,50,0,0
50122,-125,4,2,1,50,0,0
50284,-125,4,2,7,50,0,0
50446,-83.3333333333333,4,2,7,50,0,0
50689,-83.3333333333333,4,2,1,5,0,0
50770,-83.3333333333333,4,2,1,50,0,0
50933,-83.3333333333333,4,2,7,50,0,0
51257,-83.3333333333333,4,2,1,50,0,0
51419,-125,4,2,7,50,0,0
51581,-125,4,2,1,50,0,0
52230,-125,4,2,7,50,0,0
52554,-100,4,2,1,50,0,0
53041,-83.3333333333333,4,2,7,50,0,0
53284,-83.3333333333333,4,2,1,5,0,0
53365,-83.3333333333333,4,2,1,50,0,0
53527,-83.3333333333333,4,2,7,50,0,0
54014,-125,4,2,7,50,0,0
54500,-125,4,2,1,50,0,0
54824,-125,4,2,7,50,0,0
54987,-125,4,2,1,50,0,0
55149,-100,4,2,1,50,0,0
55311,-100,4,2,7,50,0,0
55473,-100,4,2,1,50,0,0
55635,-83.3333333333333,4,2,7,50,0,0
55879,-83.3333333333333,4,2,1,5,0,0
55960,-83.3333333333333,4,2,7,50,0,0
56122,-83.3333333333333,4,2,7,50,0,0
56608,-83.3333333333333,4,2,1,50,0,0
56851,-83.3333333333333,4,2,1,50,0,0
56933,-100,4,2,1,50,0,0
57257,-100,4,2,2,50,0,0
57419,-100,4,2,3,50,0,0
57581,-125,4,2,2,50,0,0
58230,-100,4,2,7,50,0,0
58554,-100,4,2,1,50,0,0
58716,-100,4,2,7,50,0,0
58879,-100,4,2,1,50,0,0
59203,-166.666666666667,4,2,1,50,0,0
59446,-166.666666666667,4,2,1,5,0,0
59527,-100,4,2,7,50,0,0
59689,-100,4,2,7,50,0,0
59770,-100,4,2,1,50,0,0
59851,-100,4,2,7,50,0,0
59933,-100,4,2,1,50,0,0
60014,-100,4,2,7,50,0,0
60176,-100,4,2,1,50,0,0
60338,-100,4,2,7,50,0,0
61149,-100,4,2,1,50,0,0
61311,-100,4,2,7,50,0,0
61473,-100,4,2,1,50,0,0
61635,-100,4,2,1,50,0,0
61797,-166.666666666667,4,2,1,50,0,0
62041,-166.666666666667,4,2,1,5,0,0
62122,-100,4,2,7,50,0,0
62284,-100,4,2,1,50,0,0
62608,-100,4,2,7,50,0,0
62770,-100,4,2,1,50,0,0
63095,-166.666666666667,4,2,1,50,0,0
63338,-166.666666666667,4,2,1,5,0,0
63419,-100,4,2,7,50,0,0
63743,-100,4,2,1,50,0,0
63906,-100,4,2,7,50,0,0
64230,-100,4,2,1,50,0,0
64392,-100,4,2,7,50,0,0
64635,-100,4,2,1,5,0,0
64716,-100,4,2,7,50,0,0
64879,-100,4,2,1,50,0,0
65203,-100,4,2,7,50,0,0
65365,-100,4,2,1,50,0,0
65689,-100,4,2,7,50,0,0
65851,-100,4,2,1,50,0,0
66014,-90.9090909090909,4,2,7,50,0,0
66662,-90.9090909090909,4,2,2,50,0,0
66770,-90.9090909090909,4,2,3,50,0,0
66987,-90.9090909090909,4,2,2,50,0,0
67311,-80,4,2,7,50,0,0
67554,-80,4,2,1,5,0,0
67635,-80,4,2,1,50,0,0
67879,-80,4,2,1,5,0,0
67960,-80,4,2,7,50,0,0
68608,-90.9090909090909,4,2,7,60,0,0
68933,-90.9090909090909,4,2,1,60,0,0
69095,-90.9090909090909,4,2,7,60,0,0
69257,-90.9090909090909,4,2,1,60,0,0
69824,-90.9090909090909,4,2,1,5,0,0
69906,-90.9090909090909,4,2,7,60,0,0
71446,-90.9090909090909,4,2,1,5,0,0
71527,-90.9090909090909,4,2,1,60,0,0
71689,-80,4,2,7,60,0,0
72014,-80,4,2,1,60,0,0
72500,-90.9090909090909,4,2,7,60,0,0
72662,-90.9090909090909,4,2,1,60,0,0
72987,-80,4,2,7,60,0,0
73311,-80,4,2,1,60,0,0
73797,-90.9090909090909,4,2,7,60,0,0
74041,-90.9090909090909,4,2,1,5,0,0
74122,-90.9090909090909,4,2,1,60,0,0
74284,-80,4,2,7,60,0,0
74446,-80,4,2,1,60,0,0
75014,-80,4,2,1,5,0,0
75095,-90.9090909090909,4,2,7,60,0,0
76392,-100,4,2,7,60,0,0
76716,-100,4,2,1,60,0,0
76879,-100,4,2,7,60,0,0
77203,-100,4,2,1,60,0,0
77365,-100,4,2,7,60,0,0
77689,-74.0740740740741,4,2,7,60,0,0
78338,-333.333333333333,4,2,7,35,0,0
78987,-71.4285714285714,4,2,7,80,0,1
79230,-71.4285714285714,4,2,1,5,0,1
79311,-71.4285714285714,4,2,1,80,0,1
79473,-71.4285714285714,4,2,7,80,0,1
79716,-71.4285714285714,4,2,1,5,0,1
79797,-71.4285714285714,4,2,7,80,0,1
80041,-71.4285714285714,4,2,1,5,0,1
80122,-71.4285714285714,4,2,7,80,0,1
80203,-71.4285714285714,4,2,1,5,0,1
80284,-71.4285714285714,4,2,7,80,0,1
80446,-71.4285714285714,4,2,1,80,0,1
80689,-71.4285714285714,4,2,1,5,0,1
80770,-71.4285714285714,4,2,7,80,0,1
81581,-71.4285714285714,4,2,7,80,0,1
81743,-71.4285714285714,4,2,1,5,0,1
81824,-71.4285714285714,4,2,7,80,0,1
81987,-71.4285714285714,4,2,1,5,0,1
82068,-71.4285714285714,4,2,7,80,0,1
82149,-71.4285714285714,4,2,1,5,0,1
82230,-71.4285714285714,4,2,7,80,0,1
82392,-71.4285714285714,4,2,1,5,0,1
82473,-71.4285714285714,4,2,7,80,0,1
82635,-71.4285714285714,4,2,1,5,0,1
82716,-71.4285714285714,4,2,7,80,0,1
82797,-71.4285714285714,4,2,1,5,0,1
82879,-71.4285714285714,4,2,7,80,0,1
83041,-71.4285714285714,4,2,1,80,0,1
83365,-58.8235294117647,4,2,7,80,0,1
83689,-58.8235294117647,4,2,1,80,0,1
84014,-58.8235294117647,4,2,7,80,0,1
84176,-71.4285714285714,4,2,7,80,0,1
84500,-71.4285714285714,4,2,1,80,0,1
84662,-71.4285714285714,4,2,7,80,0,1
84906,-71.4285714285714,4,2,1,5,0,1
84987,-71.4285714285714,4,2,7,80,0,1
85230,-71.4285714285714,4,2,1,5,0,1
85311,-71.4285714285714,4,2,7,80,0,1
85473,-71.4285714285714,4,2,7,80,0,1
85635,-71.4285714285714,4,2,1,5,0,1
85716,-71.4285714285714,4,2,7,80,0,1
85879,-71.4285714285714,4,2,1,5,0,1
85960,-71.4285714285714,4,2,7,80,0,1
86041,-71.4285714285714,4,2,1,5,0,1
86122,-71.4285714285714,4,2,7,80,0,1
86284,-71.4285714285714,4,2,1,5,0,1
86365,-71.4285714285714,4,2,7,80,0,1
86527,-71.4285714285714,4,2,1,5,0,1
86608,-71.4285714285714,4,2,7,80,0,1
86689,-71.4285714285714,4,2,1,5,0,1
86770,-71.4285714285714,4,2,7,80,0,1
86933,-71.4285714285714,4,2,1,5,0,1
87014,-71.4285714285714,4,2,7,80,0,1
87176,-71.4285714285714,4,2,1,5,0,1
87257,-71.4285714285714,4,2,7,80,0,1
87338,-71.4285714285714,4,2,1,5,0,1
87419,-71.4285714285714,4,2,7,80,0,1
88554,-71.4285714285714,4,2,1,80,0,1
88716,-71.4285714285714,4,2,3,80,0,1
88797,-71.4285714285714,4,2,3,80,0,1
88879,-71.4285714285714,4,2,1,80,0,1
89041,-71.4285714285714,4,2,7,80,0,1
89122,-71.4285714285714,4,2,2,80,0,1
89365,-66.6666666666667,4,2,7,80,0,1
89689,-66.6666666666667,4,2,1,80,0,1
89851,-66.6666666666667,4,2,7,80,0,1
90338,-66.6666666666667,4,2,1,80,0,1
90500,-66.6666666666667,4,2,7,80,0,1
90824,-66.6666666666667,4,2,1,80,0,1
91149,-66.6666666666667,4,2,7,80,0,1
91960,-66.6666666666667,4,2,7,80,0,1
92122,-66.6666666666667,4,2,1,5,0,1
92203,-66.6666666666667,4,2,7,80,0,1
92365,-66.6666666666667,4,2,1,5,0,1
92446,-66.6666666666667,4,2,7,80,0,1
92527,-66.6666666666667,4,2,1,5,0,1
92608,-66.6666666666667,4,2,7,80,0,1
92770,-66.6666666666667,4,2,1,5,0,1
92851,-66.6666666666667,4,2,7,80,0,1
93014,-66.6666666666667,4,2,1,5,0,1
93095,-66.6666666666667,4,2,7,80,0,1
93176,-66.6666666666667,4,2,1,5,0,1
93257,-66.6666666666667,4,2,7,80,0,1
93419,-66.6666666666667,4,2,1,80,0,1
93743,-55.5555555555556,4,2,7,80,0,1
93987,-55.5555555555556,4,2,1,5,0,1
94068,-55.5555555555556,4,2,1,80,0,1
94392,-55.5555555555556,4,2,7,80,0,1
94554,-71.4285714285714,4,2,7,80,0,1
94879,-71.4285714285714,4,2,1,80,0,1
95041,-71.4285714285714,4,2,7,80,0,1
95203,-71.4285714285714,4,2,1,80,0,1
95365,-71.4285714285714,4,2,7,80,0,1
95527,-71.4285714285714,4,2,1,80,0,1
95689,-71.4285714285714,4,2,7,80,0,1
95851,-71.4285714285714,4,2,7,80,0,1
96014,-71.4285714285714,4,2,1,80,0,1
96338,-71.4285714285714,4,2,7,80,0,1
96662,-71.4285714285714,4,2,1,5,0,1
96743,-71.4285714285714,4,2,7,80,0,1
96906,-71.4285714285714,4,2,1,5,0,1
96987,-71.4285714285714,4,2,7,80,0,1
97149,-71.4285714285714,4,2,7,80,0,1
97311,-71.4285714285714,4,2,1,5,0,1
97392,-71.4285714285714,4,2,7,80,0,1
97554,-71.4285714285714,4,2,1,5,0,1
97635,-71.4285714285714,4,2,7,80,0,1
97716,-71.4285714285714,4,2,1,5,0,1
97797,-71.4285714285714,4,2,7,80,0,1
98527,-71.4285714285714,4,2,1,80,0,1
98770,-71.4285714285714,4,2,7,80,0,1
98851,-71.4285714285714,4,2,1,80,0,1
99095,-71.4285714285714,4,2,7,80,0,1
99176,-71.4285714285714,4,2,2,80,0,1
99257,-71.4285714285714,4,2,3,80,0,1
99419,-71.4285714285714,4,2,7,80,0,1
99743,-71.4285714285714,4,2,7,80,0,1
99906,-71.4285714285714,4,2,1,80,0,1
100716,-71.4285714285714,4,2,7,80,0,1
100960,-71.4285714285714,4,2,1,5,0,1
101041,-71.4285714285714,4,2,7,80,0,1
101203,-71.4285714285714,4,2,1,80,0,1
101527,-71.4285714285714,4,2,7,80,0,1
101689,-71.4285714285714,4,2,1,80,0,1
102014,-71.4285714285714,4,2,7,80,0,1
102176,-71.4285714285714,4,2,1,80,0,1
102338,-71.4285714285714,4,2,7,80,0,1
102500,-71.4285714285714,4,2,1,80,0,1
103960,-71.4285714285714,4,2,2,80,0,1
104284,-71.4285714285714,4,2,7,80,0,1
104770,-90.9090909090909,4,2,1,60,0,0
105095,-90.9090909090909,4,2,1,60,0,0
105257,-90.9090909090909,4,2,7,60,0,0
105419,-90.9090909090909,4,2,1,60,0,0
105581,-90.9090909090909,4,2,7,60,0,0
106068,-90.9090909090909,4,2,7,60,0,0
106554,-90.9090909090909,4,2,1,60,0,0
106716,-90.9090909090909,4,2,1,60,0,0
106879,-90.9090909090909,4,2,7,60,0,0
107203,-90.9090909090909,4,2,1,60,0,0
107365,-90.9090909090909,4,2,7,60,0,0
107851,-90.9090909090909,4,2,1,60,0,0
108176,-90.9090909090909,4,2,7,60,0,0
108338,-90.9090909090909,4,2,1,60,0,0
108662,-90.9090909090909,4,2,7,60,0,0
109311,-90.9090909090909,4,2,1,60,0,0
109473,-90.9090909090909,4,2,7,60,0,0
109797,-90.9090909090909,4,2,1,60,0,0
109960,-90.9090909090909,4,2,7,60,0,0
110446,-90.9090909090909,4,2,1,60,0,0
110770,-90.9090909090909,4,2,7,60,0,0
111095,-90.9090909090909,4,2,1,60,0,0
111257,-90.9090909090909,4,2,7,60,0,0
111743,-90.9090909090909,4,2,1,60,0,0
111906,-90.9090909090909,4,2,1,60,0,0
112068,-90.9090909090909,4,2,7,60,0,0
112554,-90.9090909090909,4,2,7,60,0,0
113041,-90.9090909090909,4,2,1,60,0,0
113365,-90.9090909090909,4,2,7,60,0,0
113527,-90.9090909090909,4,2,1,60,0,0
113851,-90.9090909090909,4,2,7,60,0,0
114500,-90.9090909090909,4,2,1,60,0,0
114662,-90.9090909090909,4,2,7,60,0,0
115149,-90.9090909090909,4,2,5,60,0,0
122933,-71.4285714285714,4,2,1,60,0,0
123257,-71.4285714285714,4,2,5,60,0,0
124311,-71.4285714285714,4,2,1,5,0,0
124392,-71.4285714285714,4,2,1,60,0,0
124824,-71.4285714285714,4,2,3,60,0,0
125041,-71.4285714285714,4,2,2,60,0,0
125365,-100,4,2,2,60,0,0
125689,-83.3333333333333,4,2,7,50,0,0
125933,-83.3333333333333,4,2,1,5,0,0
126014,-83.3333333333333,4,2,1,50,0,0
126176,-83.3333333333333,4,2,7,50,0,0
126581,-83.3333333333333,4,2,1,5,0,0
126662,-125,4,2,7,50,0,0
127149,-125,4,2,7,50,0,0
127311,-125,4,2,1,50,0,0
127473,-125,4,2,7,50,0,0
127635,-125,4,2,1,50,0,0
127797,-125,4,2,7,50,0,0
127960,-125,4,2,1,50,0,0
128122,-125,4,2,7,50,0,0
128284,-83.3333333333333,4,2,7,50,0,0
128527,-83.3333333333333,4,2,1,5,0,0
128608,-83.3333333333333,4,2,7,50,0,0
129581,-125,4,2,7,50,0,0
129743,-125,4,2,1,50,0,0
130068,-125,4,2,7,50,0,0
130230,-125,4,2,1,50,0,0
130392,-100,4,2,1,50,0,0
130879,-83.3333333333333,4,2,7,50,0,0
131122,-83.3333333333333,4,2,1,5,0,0
131203,-83.3333333333333,4,2,7,50,0,0
131770,-83.3333333333333,4,2,1,5,0,0
131851,-83.3333333333333,4,2,7,50,0,0
132176,-125,4,2,7,50,0,0
132338,-125,4,2,1,50,0,0
132662,-125,4,2,7,50,0,0
132824,-125,4,2,1,50,0,0
132987,-100,4,2,1,50,0,0
133149,-100,4,2,7,50,0,0
133473,-83.3333333333333,4,2,7,50,0,0
133716,-83.3333333333333,4,2,1,5,0,0
133797,-83.3333333333333,4,2,7,50,0,0
134608,-125,4,2,7,50,0,0
135095,-125,4,2,1,50,0,0
135257,-100,4,2,1,50,0,0
136068,-83.3333333333333,4,2,7,50,0,0
136311,-83.3333333333333,4,2,1,5,0,0
136392,-83.3333333333333,4,2,7,50,0,0
136960,-83.3333333333333,4,2,1,5,0,0
137041,-125,4,2,7,50,0,0
137527,-125,4,2,7,50,0,0
137689,-125,4,2,1,50,0,0
137851,-125,4,2,7,50,0,0
138014,-125,4,2,1,50,0,0
138176,-125,4,2,7,50,0,0
138338,-125,4,2,1,50,0,0
138500,-125,4,2,7,50,0,0
138662,-83.3333333333333,4,2,7,50,0,0
138906,-83.3333333333333,4,2,1,5,0,0
138987,-83.3333333333333,4,2,7,50,0,0
139554,-83.3333333333333,4,2,1,5,0,0
139635,-125,4,2,7,50,0,0
139960,-125,4,2,1,50,0,0
140689,-125,4,2,1,5,0,0
140770,-100,4,2,1,50,0,0
141257,-83.3333333333333,4,2,7,50,0,0
141500,-83.3333333333333,4,2,1,5,0,0
141581,-83.3333333333333,4,2,7,50,0,0
142716,-83.3333333333333,4,2,1,50,0,0
143041,-125,4,2,7,50,0,0
143203,-125,4,2,1,50,0,0
143365,-100,4,2,1,50,0,0
143527,-100,4,2,7,50,0,0
143689,-100,4,2,1,50,0,0
143851,-83.3333333333333,4,2,7,50,0,0
144095,-83.3333333333333,4,2,1,5,0,0
144176,-83.3333333333333,4,2,7,50,0,0
145068,-83.3333333333333,4,2,1,50,0,0
145261,400,4,2,1,50,1,0
145261,-125,4,2,3,50,0,0
145394,400,4,2,3,50,1,0
145394,-100,4,2,3,50,0,0
145476,324.324324324324,4,2,3,50,1,0
145800,-100,4,2,2,50,0,0
146124,-100,4,2,2,50,0,0
146449,324.324324324324,4,2,7,50,1,0
146773,-100,4,2,1,50,0,0
146935,-100,4,2,7,50,0,0
147097,-100,4,2,1,50,0,0
147421,-166.666666666667,4,2,1,50,0,0
147665,-166.666666666667,4,2,1,5,0,0
147746,-100,4,2,7,50,0,0
148151,-100,4,2,1,50,0,0
148232,-100,4,2,7,50,0,0
148476,-100,4,2,1,5,0,0
148557,-100,4,2,7,60,0,0
149367,-100,4,2,1,50,0,0
149530,-100,4,2,7,50,0,0
149692,-100,4,2,1,50,0,0
150016,-166.666666666667,4,2,1,50,0,0
150259,-166.666666666667,4,2,1,5,0,0
150340,-100,4,2,7,50,0,0
150503,-100,4,2,1,50,0,0
150827,-100,4,2,7,50,0,0
150989,-100,4,2,1,50,0,0
151313,-166.666666666667,4,2,1,50,0,0
151557,-166.666666666667,4,2,1,5,0,0
151638,-100,4,2,7,50,0,0
151962,-100,4,2,1,50,0,0
152124,-100,4,2,7,50,0,0
152449,-100,4,2,1,50,0,0
152611,-100,4,2,7,50,0,0
152854,-100,4,2,1,5,0,0
152935,-100,4,2,7,50,0,0
153097,-100,4,2,1,50,0,0
153421,-100,4,2,7,50,0,0
153665,-100,4,2,1,5,0,0
153746,-100,4,2,1,50,0,0
153908,-100,4,2,7,50,0,0
153989,-100,4,2,1,50,0,0
154232,-90.9090909090909,4,2,7,50,0,0
154557,-90.9090909090909,4,2,1,50,0,0
155205,-90.9090909090909,4,2,1,50,0,0
155530,-80,4,2,7,50,0,0
156016,-80,4,2,1,50,0,0
156178,-142.857142857143,4,2,7,50,0,0
156286,-142.857142857143,4,2,3,50,0,0
156503,-117.647058823529,4,2,7,50,0,0
156827,-90.9090909090909,4,2,7,60,0,0
157151,-90.9090909090909,4,2,5,60,0,0
157313,-90.9090909090909,4,2,7,60,0,0
157638,-90.9090909090909,4,2,1,60,0,0
158043,-90.9090909090909,4,2,1,5,0,0
158124,-90.9090909090909,4,2,7,60,0,0
159746,-90.9090909090909,4,2,1,60,0,0
159908,-90.9090909090909,4,2,7,60,0,0
160232,-90.9090909090909,4,2,1,60,0,0
160638,-90.9090909090909,4,2,1,5,0,0
160719,-90.9090909090909,4,2,7,60,0,0
160962,-90.9090909090909,4,2,1,60,0,0
161205,-90.9090909090909,4,2,7,60,0,0
161367,-90.9090909090909,4,2,1,60,0,0
161935,-90.9090909090909,4,2,1,5,0,0
162016,-90.9090909090909,4,2,7,60,0,0
162340,-90.9090909090909,4,2,1,60,0,0
162503,-90.9090909090909,4,2,7,60,0,0
162827,-90.9090909090909,4,2,1,60,0,0
163232,-90.9090909090909,4,2,1,5,0,0
163313,-90.9090909090909,4,2,7,60,0,0
164611,-100,4,2,7,60,0,0
164935,-100,4,2,1,60,0,0
165097,-100,4,2,7,60,0,0
165421,-100,4,2,1,60,0,0
165584,-100,4,2,7,60,0,0
165746,-100,4,2,1,60,0,0
165908,-100,4,2,7,60,0,0
166881,-166.666666666667,4,2,1,60,0,0
167043,-166.666666666667,4,2,7,60,0,0
167205,-71.4285714285714,4,2,7,80,0,1
167530,-71.4285714285714,4,2,1,80,0,1
167692,-71.4285714285714,4,2,7,80,0,1
168178,-71.4285714285714,4,2,1,80,0,1
168340,-71.4285714285714,4,2,7,80,0,1
168665,-71.4285714285714,4,2,1,80,0,1
168989,-71.4285714285714,4,2,7,80,0,1
169800,-71.4285714285714,4,2,7,80,0,1
169962,-71.4285714285714,4,2,1,5,0,1
170043,-71.4285714285714,4,2,7,80,0,1
170205,-71.4285714285714,4,2,1,5,0,1
170286,-71.4285714285714,4,2,7,80,0,1
170367,-71.4285714285714,4,2,1,5,0,1
170448,-71.4285714285714,4,2,7,80,0,1
170611,-71.4285714285714,4,2,1,5,0,1
170692,-71.4285714285714,4,2,7,80,0,1
170854,-71.4285714285714,4,2,1,5,0,1
170935,-71.4285714285714,4,2,7,80,0,1
171016,-71.4285714285714,4,2,1,5,0,1
171097,-71.4285714285714,4,2,7,80,0,1
171259,-71.4285714285714,4,2,1,80,0,1
171584,-58.8235294117647,4,2,7,80,0,1
171908,-58.8235294117647,4,2,1,80,0,1
172070,-71.4285714285714,4,2,1,80,0,1
172232,-71.4285714285714,4,2,7,80,0,1
172719,-71.4285714285714,4,2,1,80,0,1
172881,-71.4285714285714,4,2,7,80,0,1
173043,-71.4285714285714,4,2,1,80,0,1
173205,-71.4285714285714,4,2,7,80,0,1
173367,-71.4285714285714,4,2,1,80,0,1
173530,-71.4285714285714,4,2,7,80,0,1
173854,-71.4285714285714,4,2,1,80,0,1
174178,-71.4285714285714,4,2,7,80,0,1
174503,-71.4285714285714,4,2,1,5,0,1
174584,-71.4285714285714,4,2,7,80,0,1
174746,-71.4285714285714,4,2,1,5,0,1
174827,-71.4285714285714,4,2,7,80,0,1
175151,-71.4285714285714,4,2,1,5,0,1
175232,-71.4285714285714,4,2,7,80,0,1
175394,-71.4285714285714,4,2,1,5,0,1
175476,-71.4285714285714,4,2,7,80,0,1
175557,-71.4285714285714,4,2,1,5,0,1
175638,-71.4285714285714,4,2,7,80,0,1
176611,-66.6666666666667,4,2,7,80,0,1
176692,-66.6666666666667,4,2,1,80,0,1
176935,-62.5,4,2,7,80,0,1
177097,-62.5,4,2,3,80,0,1
177259,-62.5,4,2,7,80,0,1
177584,-66.6666666666667,4,2,7,80,0,1
177908,-66.6666666666667,4,2,1,80,0,1
178070,-66.6666666666667,4,2,7,80,0,1
178557,-66.6666666666667,4,2,1,80,0,1
178719,-66.6666666666667,4,2,7,80,0,1
179043,-66.6666666666667,4,2,1,80,0,1
179367,-66.6666666666667,4,2,7,80,0,1
180178,-66.6666666666667,4,2,7,80,0,1
180340,-66.6666666666667,4,2,1,5,0,1
180421,-66.6666666666667,4,2,7,80,0,1
180584,-66.6666666666667,4,2,1,5,0,1
180665,-66.6666666666667,4,2,7,80,0,1
180746,-66.6666666666667,4,2,1,5,0,1
180827,-66.6666666666667,4,2,7,80,0,1
180989,-66.6666666666667,4,2,1,5,0,1
181070,-66.6666666666667,4,2,7,80,0,1
181232,-66.6666666666667,4,2,1,5,0,1
181313,-66.6666666666667,4,2,7,80,0,1
181394,-66.6666666666667,4,2,1,5,0,1
181476,-66.6666666666667,4,2,7,80,0,1
181638,-66.6666666666667,4,2,1,80,0,1
181962,-55.5555555555556,4,2,7,80,0,1
182286,-55.5555555555556,4,2,1,80,0,1
182611,-55.5555555555556,4,2,7,80,0,1
182773,-66.6666666666667,4,2,7,80,0,1
183097,-66.6666666666667,4,2,1,80,0,1
183259,-66.6666666666667,4,2,7,80,0,1
183503,-66.6666666666667,4,2,1,5,0,1
183584,-66.6666666666667,4,2,7,80,0,1
183827,-66.6666666666667,4,2,1,5,0,1
183908,-66.6666666666667,4,2,7,80,0,1
183989,-66.6666666666667,4,2,1,5,0,1
184070,-66.6666666666667,4,2,7,80,0,1
184232,-66.6666666666667,4,2,1,5,0,1
184313,-66.6666666666667,4,2,7,80,0,1
184476,-66.6666666666667,4,2,1,5,0,1
184557,-66.6666666666667,4,2,7,80,0,1
184638,-66.6666666666667,4,2,1,5,0,1
184719,-66.6666666666667,4,2,7,80,0,1
184881,-66.6666666666667,4,2,1,5,0,1
184962,-66.6666666666667,4,2,7,80,0,1
185124,-66.6666666666667,4,2,1,5,0,1
185205,-66.6666666666667,4,2,7,80,0,1
185286,-66.6666666666667,4,2,1,5,0,1
185367,-66.6666666666667,4,2,7,80,0,1
185530,-66.6666666666667,4,2,1,5,0,1
185611,-66.6666666666667,4,2,7,80,0,1
185773,-66.6666666666667,4,2,1,5,0,1
185854,-66.6666666666667,4,2,7,80,0,1
185935,-66.6666666666667,4,2,1,5,0,1
186016,-66.6666666666667,4,2,7,80,0,1
186827,-66.6666666666667,4,2,3,80,0,1
187151,-62.5,4,2,1,80,0,1
187394,-62.5,4,2,3,80,0,1
187476,-62.5,4,2,2,80,0,1
187638,-58.8235294117647,4,2,1,80,0,1
187962,-66.6666666666667,4,2,7,80,0,1
188124,-66.6666666666667,4,2,1,80,0,1
188935,-66.6666666666667,4,2,7,80,0,1
189178,-66.6666666666667,4,2,1,5,0,1
189259,-66.6666666666667,4,2,7,80,0,1
189421,-66.6666666666667,4,2,1,80,0,1
189746,-66.6666666666667,4,2,7,80,0,1
189908,-66.6666666666667,4,2,1,80,0,1
190232,-66.6666666666667,4,2,7,80,0,1
190394,-66.6666666666667,4,2,1,80,0,1
190557,-66.6666666666667,4,2,7,80,0,1
190719,-66.6666666666667,4,2,1,80,0,1
192989,-90.9090909090909,4,2,7,60,0,0
193313,-90.9090909090909,4,2,1,60,0,0
194124,-90.9090909090909,4,2,7,60,0,0
196719,-90.9090909090909,4,2,1,60,0,0
196881,-90.9090909090909,4,2,7,60,0,0
197854,-90.9090909090909,4,2,1,60,0,0
198178,-90.9090909090909,4,2,7,60,0,0
201584,-90.9090909090909,4,2,1,60,0,0
201908,-90.9090909090909,4,2,7,60,0,0
202962,-90.9090909090909,4,2,3,60,0,0
203205,-90.9090909090909,4,2,2,60,0,0
203367,-90.9090909090909,4,2,7,60,0,0
203692,-90.9090909090909,4,2,1,60,0,0
204503,-90.9090909090909,4,2,7,60,0,0
204989,-90.9090909090909,4,2,1,60,0,0
205476,-90.9090909090909,4,2,7,60,0,0
208881,-90.9090909090909,4,2,1,60,0,0
209367,-90.9090909090909,4,2,7,60,0,0
212124,-90.9090909090909,4,2,1,5,0,0
212205,-90.9090909090909,4,2,7,60,0,0
212367,-90.9090909090909,4,2,1,5,0,0
212448,-90.9090909090909,4,2,7,60,0,0
212692,-90.9090909090909,4,2,1,5,0,0
212773,-90.9090909090909,4,2,7,60,0,0
213259,-90.9090909090909,4,2,3,60,0,0
213503,-90.9090909090909,4,2,2,60,0,0
213746,-90.9090909090909,4,2,7,60,0,0
214070,-90.9090909090909,4,2,1,60,0,0
215043,-90.9090909090909,4,2,7,60,0,0
218611,-90.9090909090909,4,2,1,60,0,0
218935,-90.9090909090909,4,2,7,60,0,0
221854,-90.9090909090909,4,2,1,60,0,0
222827,-66.6666666666667,4,2,1,60,0,0
223476,-66.6666666666667,4,2,3,60,0,0
223800,-66.6666666666667,4,2,1,60,0,0
224124,-80,4,2,7,70,0,0
228827,-90.9090909090909,4,2,7,70,0,0
229313,-80,4,2,1,70,0,0
229800,-111.111111111111,4,2,7,70,0,0
229962,-100,4,2,7,70,0,0
230124,-86.9565217391304,4,2,7,70,0,0
230286,-86.9565217391304,4,2,1,70,0,0
230611,-80,4,2,7,70,0,0
231259,-80,4,2,3,70,0,0
231367,-80,4,2,2,70,0,0
231584,-80,4,2,3,70,0,0
231692,-80,4,2,2,70,0,0
231827,-74.0740740740741,4,2,1,70,0,0
231908,-74.0740740740741,4,2,7,70,0,0
232151,-74.0740740740741,4,2,1,5,0,0
232232,-74.0740740740741,4,2,7,70,0,0
232800,-74.0740740740741,4,2,1,5,0,0
232881,-74.0740740740741,4,2,7,70,0,0
233448,-74.0740740740741,4,2,1,5,0,0
233530,-74.0740740740741,4,2,7,70,0,0
234097,-74.0740740740741,4,2,1,5,0,0
234178,-74.0740740740741,4,2,7,70,0,0
234503,-74.0740740740741,4,2,7,70,0,0
234827,-74.0740740740741,4,2,1,60,0,0
235800,-86.9565217391304,4,2,7,60,0,0
236124,-86.9565217391304,4,2,1,60,0,0
236611,-100,4,2,1,60,0,0
236773,-100,4,2,1,5,0,0
236827,-111.111111111111,4,2,3,50,0,0
236989,-111.111111111111,4,2,1,5,0,0
237043,-125,4,2,2,40,0,0
237205,-125,4,2,1,5,0,0
237259,-100,4,2,1,70,0,0
240394,-100,4,2,3,70,0,0
240719,-100,4,2,2,70,0,0
241800,-100,4,2,1,70,0,0
242773,-250,4,2,1,70,0,0
243097,-250,4,2,1,5,0,0
243421,-250,4,2,1,70,0,0
243746,-250,4,2,1,5,0,0
244070,-250,4,2,1,70,0,0
244394,-250,4,2,1,5,0,0
244719,-250,4,2,1,70,0,0
244962,-250,4,2,1,5,0,0
245043,-100,4,2,1,60,0,0
246665,-250,4,2,1,60,0,0
246827,-250,4,2,1,5,0,0
246989,-166.666666666667,4,2,1,60,0,0
247151,-166.666666666667,4,2,1,5,0,0
247313,-125,4,2,1,60,0,0
247476,-125,4,2,1,5,0,0
247638,-66.6666666666667,4,2,7,80,0,1
247962,-66.6666666666667,4,2,1,80,0,1
248124,-66.6666666666667,4,2,7,80,0,1
248611,-66.6666666666667,4,2,1,80,0,1
248773,-66.6666666666667,4,2,7,80,0,1
249178,-66.6666666666667,4,2,1,5,0,1
249259,-66.6666666666667,4,2,1,80,0,1
249421,-66.6666666666667,4,2,7,80,0,1
250394,-66.6666666666667,4,2,1,5,0,1
250476,-66.6666666666667,4,2,7,80,0,1
250638,-66.6666666666667,4,2,1,5,0,1
250719,-66.6666666666667,4,2,7,80,0,1
250800,-66.6666666666667,4,2,1,5,0,1
250881,-66.6666666666667,4,2,7,80,0,1
251043,-66.6666666666667,4,2,1,5,0,1
251124,-66.6666666666667,4,2,7,80,0,1
251286,-66.6666666666667,4,2,1,5,0,1
251367,-66.6666666666667,4,2,7,80,0,1
251448,-66.6666666666667,4,2,1,5,0,1
251530,-66.6666666666667,4,2,7,80,0,1
251692,-66.6666666666667,4,2,1,80,0,1
252016,-55.5555555555556,4,2,7,80,0,1
252259,-55.5555555555556,4,2,1,5,0,1
252340,-55.5555555555556,4,2,1,80,0,1
252665,-55.5555555555556,4,2,7,80,0,1
252827,-71.4285714285714,4,2,1,80,0,1
253151,-71.4285714285714,4,2,1,80,0,1
253313,-71.4285714285714,4,2,7,80,0,1
253476,-71.4285714285714,4,2,1,80,0,1
253638,-71.4285714285714,4,2,7,80,0,1
253800,-71.4285714285714,4,2,1,80,0,1
253962,-71.4285714285714,4,2,7,80,0,1
254367,-71.4285714285714,4,2,7,80,0,1
254530,-71.4285714285714,4,2,1,5,0,1
254611,-71.4285714285714,4,2,7,80,0,1
254692,-71.4285714285714,4,2,1,5,0,1
254773,-71.4285714285714,4,2,7,80,0,1
254935,-71.4285714285714,4,2,1,5,0,1
255016,-71.4285714285714,4,2,7,80,0,1
255178,-71.4285714285714,4,2,1,5,0,1
255259,-71.4285714285714,4,2,7,80,0,1
255340,-71.4285714285714,4,2,1,5,0,1
255421,-71.4285714285714,4,2,7,80,0,1
255584,-71.4285714285714,4,2,1,5,0,1
255665,-71.4285714285714,4,2,7,80,0,1
255827,-71.4285714285714,4,2,1,5,0,1
255908,-71.4285714285714,4,2,7,60,0,1
255989,-71.4285714285714,4,2,1,5,0,1
256070,-71.4285714285714,4,2,7,80,0,1
256827,-71.4285714285714,4,2,1,80,0,1
257043,-71.4285714285714,4,2,7,80,0,1
257151,-71.4285714285714,4,2,1,80,0,1
257367,-71.4285714285714,4,2,7,80,0,1
257584,-71.4285714285714,4,2,3,80,0,1
257801,-71.4285714285714,4,2,2,80,0,1
258016,-66.6666666666667,4,2,7,80,0,1
258340,-66.6666666666667,4,2,1,80,0,1
258503,-66.6666666666667,4,2,7,80,0,1
258989,-66.6666666666667,4,2,1,80,0,1
259151,-66.6666666666667,4,2,7,80,0,1
259313,-66.6666666666667,4,2,1,80,0,1
259800,-66.6666666666667,4,2,7,80,0,1
260773,-66.6666666666667,4,2,1,5,0,1
260854,-66.6666666666667,4,2,7,80,0,1
261016,-66.6666666666667,4,2,1,5,0,1
261097,-66.6666666666667,4,2,7,80,0,1
261178,-66.6666666666667,4,2,1,5,0,1
261259,-66.6666666666667,4,2,7,80,0,1
261421,-66.6666666666667,4,2,1,5,0,1
261503,-66.6666666666667,4,2,7,80,0,1
261665,-66.6666666666667,4,2,1,5,0,1
261746,-66.6666666666667,4,2,7,80,0,1
261827,-66.6666666666667,4,2,1,5,0,1
261908,-66.6666666666667,4,2,7,80,0,1
262394,-55.5555555555556,4,2,7,80,0,1
262881,-62.5,4,2,1,80,0,1
263043,-66.6666666666667,4,2,7,80,0,1
263205,-71.4285714285714,4,2,7,80,0,1
263530,-71.4285714285714,4,2,1,80,0,1
263692,-71.4285714285714,4,2,7,80,0,1
263854,-71.4285714285714,4,2,1,80,0,1
264016,-71.4285714285714,4,2,7,80,0,1
264178,-71.4285714285714,4,2,1,80,0,1
264340,-71.4285714285714,4,2,7,80,0,1
264665,-71.4285714285714,4,2,1,80,0,1
264989,-71.4285714285714,4,2,7,80,0,1
265313,-71.4285714285714,4,2,1,5,0,1
265394,-71.4285714285714,4,2,7,80,0,1
265557,-71.4285714285714,4,2,1,5,0,1
265638,-71.4285714285714,4,2,7,80,0,1
265962,-71.4285714285714,4,2,1,5,0,1
266043,-71.4285714285714,4,2,7,80,0,1
266205,-71.4285714285714,4,2,1,5,0,1
266286,-71.4285714285714,4,2,7,80,0,1
266367,-71.4285714285714,4,2,1,5,0,1
266448,-71.4285714285714,4,2,7,80,0,1
267178,-71.4285714285714,4,2,3,80,0,1
267259,-71.4285714285714,4,2,2,80,0,1
267340,-71.4285714285714,4,2,3,80,0,1
267421,-71.4285714285714,4,2,2,80,0,1
267584,-71.4285714285714,4,2,1,80,0,1
267665,-71.4285714285714,4,2,2,80,0,1
267746,-71.4285714285714,4,2,3,80,0,1
268070,-71.4285714285714,4,2,1,80,0,1
268394,-71.4285714285714,4,2,7,80,0,1
268557,-71.4285714285714,4,2,1,80,0,1
269367,-71.4285714285714,4,2,7,80,0,1
269611,-71.4285714285714,4,2,1,5,0,1
269692,-71.4285714285714,4,2,7,80,0,1
269854,-71.4285714285714,4,2,1,80,0,1
270178,-71.4285714285714,4,2,7,80,0,1
270340,-71.4285714285714,4,2,1,80,0,1
270665,-71.4285714285714,4,2,7,80,0,1
270827,-71.4285714285714,4,2,1,80,0,1
270989,-71.4285714285714,4,2,7,80,0,1
271151,-71.4285714285714,4,2,1,80,0,1
272286,-71.4285714285714,4,2,7,80,0,1
272448,-71.4285714285714,4,2,1,80,0,1
272935,-71.4285714285714,4,2,7,80,0,1
273016,-71.4285714285714,4,2,1,80,0,1
273259,-100,4,2,1,80,0,1
273584,-100,4,2,7,80,0,1
273746,-100,4,2,1,80,0,1
274557,-71.4285714285714,4,2,7,80,0,1
274800,-100,4,2,1,5,0,1
274881,-100,4,2,7,80,0,1
275043,-100,4,2,1,80,0,1
275367,-100,4,2,7,80,0,1
275530,-100,4,2,1,80,0,1
275854,-100,4,2,7,80,0,1
276097,-100,4,2,1,5,0,1
276178,-100,4,2,1,80,0,1
278611,-90.9090909090909,4,2,5,60,0,0
296205,-90.9090909090909,4,2,1,5,0,0
296286,-90.9090909090909,4,2,1,60,0,0
296448,-90.9090909090909,4,2,2,60,0,0
296773,-500,4,2,1,40,0,0
300827,379.746835443038,4,2,1,40,1,0
300827,-500,4,2,1,40,0,0
301206,422.535211267606,4,2,1,40,1,0
301628,447.761194029851,4,2,1,40,1,0
301628,-500,4,2,1,40,0,0
302075,500,4,2,1,40,1,0
314575,-100,4,2,1,5,0,0

[Colours]
Combo1 : 236,236,0
Combo2 : 116,151,190
Combo3 : 189,209,217
Combo4 : 147,120,175
Combo5 : 170,163,205
Combo6 : 255,0,0
Combo7 : 255,108,108
Combo8 : 255,145,34

[HitObjects]
190,279,500,5,10,0:0:0:0:
288,358,662,1,0,3:0:0:0:
391,329,824,1,0,3:0:0:0:
66,311,987,5,4,0:0:0:0:
66,311,1473,2,0,P|98:288|118:243,1,85,2|2,0:0|0:0,0:0:0:0:
203,235,2122,2,0,P|191:197|154:164,1,85,2|2,0:0|0:0,0:0:0:0:
173,81,2770,2,0,P|137:80|99:102,1,63.75,2|0,0:0|0:0,0:0:0:0:
86,162,3095,5,0,3:0:0:0:
275,234,3257,1,0,3:0:0:0:
437,126,3419,1,0,3:0:0:0:
346,275,3581,6,0,B|360:235|341:189|341:189|348:172|348:172|325:118|357:63,1,212.5,4|0,0:0|0:0,0:0:0:0:
445,0,4068,1,0,3:0:0:0:
479,18,4149,1,0,3:0:0:0:
497,55,4230,1,0,3:0:0:0:
491,97,4311,1,0,3:0:0:0:
463,128,4392,86,0,P|440:132|417:125,1,42.5,8|0,0:0|3:0,3:0:0:0:
485,264,4554,1,2,3:2:0:0:
308,169,4716,1,0,3:0:0:0:
383,333,4879,6,0,P|332:324|286:328,1,95.6250036478044,2|0,0:0|0:0,0:0:0:0:
218,378,5203,21,0,3:0:0:0:
218,378,5257,1,0,3:0:0:0:
218,378,5527,53,0,3:0:0:0:
97,218,5689,5,0,3:0:0:0:
135,301,5851,1,0,3:0:0:0:
51,338,6014,1,0,3:0:0:0:
13,254,6176,21,4,3:2:0:0:
13,254,6662,70,0,P|44:228|58:181,1,85,2|2,3:2|0:0,0:0:0:0:
92,29,7311,2,0,P|105:68|136:96,1,85,2|2,3:2|0:0,0:0:0:0:
205,231,7960,2,0,P|173:223|135:222,1,63.75,2|0,3:2|0:0,0:0:0:0:
117,228,8284,5,0,3:0:0:0:
265,138,8446,1,0,3:0:0:0:
397,276,8608,1,0,3:0:0:0:
255,340,8770,6,0,B|227:289|246:233|246:233|243:222|243:222|251:214|251:214|279:171|256:102,1,212.5,6|0,3:2|0:0,0:0:0:0:
216,47,9257,5,8,0:0:0:0:
384,0,9419,1,8,0:0:0:0:
510,156,9581,69,8,0:0:0:0:
322,102,9743,1,8,0:0:0:0:
146,269,9906,5,8,0:0:0:0:
397,196,10068,1,8,0:0:0:0:
261,375,10230,5,0,3:0:0:0:
230,369,10311,1,0,3:0:0:0:
199,363,10392,2,0,L|144:350,1,42.5,8|0,0:0|0:0,0:0:0:0:
28,35,10554,1,8,0:0:0:0:
28,35,10879,5,8,0:0:0:0:
477,153,11042,1,8,0:0:0:0:
219,280,11365,70,0,B|195:230|195:230|56:198,1,187.000005706787,6|0,3:2|3:0,0:0:0:0:
387,354,11851,2,0,L|265:326,1,93.5000028533936,10|0,0:0|3:0,0:0:0:0:
465,172,12176,1,2,3:2:0:0:
286,216,12338,1,0,3:0:0:0:
475,329,12500,1,10,0:0:0:0:
248,132,12662,6,0,B|211:43|275:7|275:7|269:32|276:61,1,187.000005706787,2|0,3:2|3:0,0:0:0:0:
50,114,13149,2,0,L|172:86,1,93.5000028533936,10|0,0:0|3:0,0:0:0:0:
430,114,13473,2,0,L|338:134,1,93.5000028533936,2|0,3:2|3:0,0:0:0:0:
391,349,13797,1,10,0:0:0:0:
451,284,13960,6,0,B|467:267|479:244|479:244|420:213|420:213|332:234,1,187.000005706787,2|0,3:2|3:0,0:0:0:0:
146,343,14446,1,10,0:0:0:0:
146,343,14608,1,0,3:0:0:0:
247,155,14770,2,0,P|259:199|267:261,1,93.5000028533936,2|0,3:2|3:0,0:0:0:0:
40,146,15095,1,10,0:0:0:0:
184,269,15257,6,0,P|169:192|129:57,1,187.000005706787,2|0,3:2|3:0,0:0:0:0:
17,293,15743,2,0,P|44:256|109:236,1,93.5000028533936,10|0,0:0|3:0,0:0:0:0:
338,374,16068,1,2,3:2:0:0:
338,374,16230,2,0,P|295:355|268:317,1,93.5000028533936,2|10,3:2|0:0,0:0:0:0:
329,134,16554,70,0,B|422:113|422:113|424:117|424:117|510:98,1,187.000005706787,2|0,3:2|3:0,0:0:0:0:
237,104,17041,2,0,B|254:74|254:74|242:5,1,93.5000028533936,10|0,0:0|3:0,0:0:0:0:
115,213,17365,1,2,3:2:0:0:
150,28,17527,1,0,3:0:0:0:
272,205,17689,1,10,0:0:0:0:
23,75,17851,6,0,B|-5:115|-5:115|23:265,1,187.000005706787,2|0,3:2|3:0,0:0:0:0:
277,320,18338,2,0,P|245:353|192:373,1,93.5000028533936,10|0,0:0|3:0,0:0:0:0:
300,160,18662,2,0,P|323:199|329:255,1,93.5000028533936,2|0,3:2|3:0,0:0:0:0:
115,384,18987,1,10,0:0:0:0:
48,325,19149,6,0,B|29:294|29:294|78:243|78:243|92:240|92:240|142:191,1,187.000005706787,2|0,3:2|3:0,0:0:0:0:
17,11,19635,2,0,B|8:55|8:55|27:99,1,93.5000028533936,10|0,0:0|3:0,0:0:0:0:
234,161,19960,1,2,3:2:0:0:
234,161,20122,2,0,B|243:205|243:205|223:249,1,93.5000028533936,2|10,3:2|0:0,0:0:0:0:
371,12,20446,6,0,B|459:0|491:78|491:78|480:99|472:127,1,187.000005706787,6|0,3:2|3:0,0:0:0:0:
214,165,20933,1,8,0:0:0:0:
276,17,21095,21,0,3:0:0:0:
280,29,21149,1,0,3:0:0:0:
285,42,21203,1,0,3:0:0:0:
290,55,21257,1,0,3:0:0:0:
359,219,21419,69,2,3:2:0:0:
186,317,21581,1,10,0:0:0:0:
28,167,21743,102,0,P|80:227|56:326,1,187.000005706787,6|0,3:2|3:0,0:0:0:0:
275,344,22230,2,0,P|225:332|176:312,1,93.5000028533936,10|0,0:0|3:0,0:0:0:0:
384,149,22554,2,0,P|338:159|294:176,1,93.5000028533936,2|0,3:2|3:0,0:0:0:0:
406,351,22879,1,10,0:0:0:0:
470,104,23041,6,0,B|444:127|435:167|435:167|388:120|411:61,1,187.000005706787,2|0,3:2|3:0,0:0:0:0:
512,279,23527,2,0,P|466:266|418:272,1,93.5000028533936,10|0,0:0|3:0,0:0:0:0:
307,372,23851,1,2,3:2:0:0:
134,221,24014,1,0,3:0:0:0:
331,285,24176,1,10,0:0:0:0:
69,371,24338,6,0,B|80:318|58:261|58:261|68:257|68:257|45:209|83:166,1,187.000005706787,2|0,3:2|3:0,0:0:0:0:
153,11,24824,1,10,0:0:0:0:
16,135,24987,1,0,3:0:0:0:
227,169,25149,2,0,P|191:133|139:113,1,93.5000028533936,2|0,3:2|3:0,0:0:0:0:
221,276,25473,1,10,0:0:0:0:
477,79,25635,70,0,P|410:117|410:36,1,187.000005706787,2|0,3:2|3:0,0:0:0:0:
448,202,26122,2,0,P|398:199|350:170,1,93.5000028533936,10|0,0:0|3:0,0:0:0:0:
331,23,26446,1,2,3:2:0:0:
231,197,26608,1,2,3:2:0:0:
322,115,26770,1,10,0:0:0:0:
29,0,26933,6,0,B|4:38|16:83|16:83|12:88|12:88|17:91|17:91|41:143|13:194,1,187.000005706787,6|0,3:2|3:0,0:0:0:0:
125,384,27419,2,0,P|133:340|167:301,1,93.5000028533936,10|0,0:0|3:0,0:0:0:0:
482,178,27743,5,2,3:2:0:0:
458,262,27906,1,0,3:0:0:0:
373,239,28068,1,10,0:0:0:0:
397,154,28230,1,0,3:0:0:0:
313,299,28392,5,2,3:2:0:0:
303,261,28473,1,0,3:0:0:0:
293,225,28554,1,0,3:0:0:0:
205,245,28717,1,10,0:0:0:0:
229,330,28879,1,0,3:0:0:0:
397,154,29041,69,2,3:2:0:0:
294,383,29203,1,2,3:2:0:0:
236,176,29365,1,10,0:0:0:0:
448,0,29527,6,0,P|368:42|270:23,1,187.000005706787,6|0,3:2|3:0,0:0:0:0:
65,159,30014,2,0,P|113:167|165:205,1,93.5000028533936,10|0,0:0|0:0,0:0:0:0:
468,257,30338,5,8,0:0:0:0:
422,251,30419,1,0,3:0:0:0:
384,276,30500,1,0,3:0:0:0:
372,320,30581,1,0,3:0:0:0:
392,361,30662,5,8,0:0:0:0:
392,361,30987,102,0,P|398:334|394:300,1,53.125,10|0,0:0|0:0,0:0:0:0:
237,154,31149,2,0,P|235:180|241:206,1,53.125,10|0,0:0|0:0,0:0:0:0:
508,48,31311,2,0,P|426:43|357:10,1,159.375,10|0,0:0|0:0,0:0:0:0:
243,54,31635,37,8,0:0:0:0:
235,52,31689,1,8,0:0:0:0:
227,51,31743,1,0,3:0:0:0:
219,50,31797,1,0,3:0:0:0:
212,49,31851,1,0,3:0:0:0:
204,49,31905,1,0,3:0:0:0:
196,48,31959,1,0,3:0:0:0:
7,364,32122,38,0,B|41:323|101:325|101:325|82:342|75:367,1,152.999995330811,12|0,0:0|3:0,0:0:0:0:
157,275,32608,2,0,P|132:326|146:381,1,114.749996498108,2|0,3:2|0:0,0:0:0:0:
214,335,32933,2,0,L|291:345,1,76.4999976654053,10|0,0:0|0:0,0:0:0:0:
414,359,33257,1,0,3:0:0:0:
512,221,33419,5,8,0:0:0:0:
474,225,33500,1,8,0:0:0:0:
436,230,33581,2,0,B|408:207|407:161|407:161|422:182|446:189,1,114.749996498108,2|0,3:2|0:0,0:0:0:0:
467,118,33906,2,0,P|436:92|397:86,1,76.4999976654053,2|0,3:2|0:0,0:0:0:0:
260,87,34230,2,0,P|297:79|325:54,1,76.4999976654053,10|0,0:0|0:0,0:0:0:0:
318,176,34554,1,2,3:2:0:0:
77,28,34716,6,0,B|44:57|44:57|50:105|50:105|55:111|55:111|64:173,1,152.999995330811,12|0,0:0|3:0,0:0:0:0:
172,263,35203,2,0,B|144:252|130:224|130:224|106:246|81:248,1,114.749996498108,2|0,3:2|0:0,0:0:0:0:
18,288,35527,2,0,P|44:315|80:324,1,76.4999976654053,10|0,0:0|0:0,0:0:0:0:
313,193,35851,37,2,3:2:0:0:
301,194,35905,1,8,0:0:0:0:
290,194,35959,1,8,0:0:0:0:
278,194,36013,1,8,0:0:0:0:
267,194,36067,1,8,0:0:0:0:
256,194,36121,1,8,0:0:0:0:
244,194,36176,54,0,L|202:196,1,38.2499988327027,8|0,0:0|0:0,0:0:0:0:
423,191,36338,1,8,0:0:0:0:
287,298,36500,1,0,3:0:0:0:
372,0,36662,37,0,3:0:0:0:
372,0,36716,2,0,B|376:61|376:61|374:65|374:65|378:133,1,127.499996109009,0|0,3:0|3:0,0:0:0:0:
469,325,37149,70,0,L|473:248,1,76.4999976654053,0|0,3:0|3:0,0:0:0:0:
152,303,37473,22,0,B|160:333|160:333|204:385|288:368,1,152.999995330811,6|0,3:2|0:0,0:0:0:0:
310,365,37797,1,8,0:0:0:0:
118,234,37960,2,0,B|72:240|30:277|30:277|5:245|23:209|23:209|31:163|15:127,1,254.999992218018,6|0,3:2|0:0,0:0:0:0:
1,91,38446,70,0,P|31:111|51:146,1,68,10|2,0:0|0:0,0:0:0:0:
139,15,38770,1,2,0:0:0:0:
139,15,38933,2,0,P|123:47|123:87,1,68,2|8,0:0|0:0,0:0:0:0:
168,159,39257,2,0,L|314:188,1,136,2|2,0:0|0:0,0:0:0:0:
352,264,39743,1,10,0:0:0:0:
267,304,39906,1,2,0:0:0:0:
495,52,40068,6,0,B|474:18|474:18|445:133,1,152.999995330811,4|0,3:2|0:0,0:0:0:0:
437,167,40392,1,10,0:0:0:0:
252,23,40554,2,0,B|323:-14|384:41|384:41|351:37|324:49,1,203.999993774414,6|2,3:2|0:0,0:0:0:0:
390,231,41041,2,0,P|398:272|409:304,1,68,10|2,0:0|0:0,0:0:0:0:
315,135,41365,6,0,P|307:176|305:209,2,68,2|2|10,0:0|0:0|0:0,0:0:0:0:
223,121,41851,2,0,P|220:154|213:188,1,68,2|2,0:0|0:0,0:0:0:0:
77,283,42176,6,0,P|91:262|115:260,1,42.5,0|0,3:0|0:0,0:0:0:0:
245,272,42338,2,0,P|230:292|206:294,1,42.5,10|0,0:0|0:0,0:0:0:0:
62,268,42500,2,0,P|76:247|100:245,1,42.5,2|0,3:2|0:0,0:0:0:0:
307,367,42662,70,0,P|371:346|457:303,1,152.999995330811,6|0,3:2|0:0,0:0:0:0:
483,287,42987,1,8,0:0:0:0:
338,115,43149,2,0,B|433:119|430:213|430:213|408:231|372:239,1,203.999993774414,6|2,3:2|0:0,0:0:0:0:
162,311,43635,1,10,0:0:0:0:
218,384,43797,1,2,3:2:0:0:
158,120,43960,6,0,B|248:93|248:93|253:70|240:44,1,136,2|10,3:2|0:0,0:0:0:0:
166,0,44446,2,0,L|87:24,1,68,2|2,0:0|0:0,0:0:0:0:
17,169,44770,6,0,B|9:150|9:150|11:127,1,42.5,0|0,3:2|0:0,0:0:0:0:
100,19,44933,2,0,B|108:38|108:38|106:61,1,42.5,10|0,0:0|0:0,0:0:0:0:
34,181,45095,2,0,B|26:162|26:162|28:139,1,42.5,2|0,3:2|0:0,0:0:0:0:
198,369,45257,6,0,B|200:344|208:322|208:322|187:211,1,152.999995330811,6|0,3:2|0:0,0:0:0:0:
180,179,45581,1,10,0:0:0:0:
67,362,45743,2,0,P|96:356|134:343,1,50.9999984436036,6|0,3:2|0:0,0:0:0:0:
284,380,45906,2,0,B|286:323|339:279|411:305|411:305|396:315|386:329,1,203.999993774414,2|10,0:0|0:0,0:0:0:0:
288,222,46392,2,0,B|384:195|384:195|392:189|392:189|483:166,1,204,2|10,0:0|0:0,0:0:0:0:
298,101,47041,70,0,L|235:85,1,42.5,2|0,0:0|0:0,0:0:0:0:
397,169,47203,2,0,L|460:153,1,42.5,2|0,0:0|0:0,0:0:0:0:
431,26,47365,1,0,3:0:0:0:
455,20,47446,1,0,3:0:0:0:
480,15,47527,54,0,B|489:42,1,28.3333333333333,8|0,0:0|3:0,0:0:0:0:
439,159,47689,85,0,3:0:0:0:
512,347,47851,86,0,B|468:316|408:320|408:320|432:338|444:369,1,152.999995330811,6|0,3:2|0:0,0:0:0:0:
373,384,48176,1,10,0:0:0:0:
389,230,48338,2,0,P|357:345|238:344,1,254.999992218018,6|0,3:2|0:0,0:0:0:0:
165,304,48824,6,0,P|186:277|216:262,1,68,10|2,0:0|0:0,0:0:0:0:
363,298,49149,1,2,0:0:0:0:
297,235,49311,2,0,L|303:159,1,68,2|10,0:0|0:0,0:0:0:0:
425,85,49635,6,0,P|391:102|353:102,1,68,2|2,0:0|0:0,0:0:0:0:
209,76,49960,2,0,P|239:60|273:58,1,68,2|10,3:2|0:0,0:0:0:0:
160,149,50284,1,2,0:0:0:0:
16,0,50446,6,0,P|42:71|47:147,1,152.999995330811,6|0,3:2|0:0,0:0:0:0:
42,170,50770,1,10,0:0:0:0:
146,318,50933,2,0,B|92:346|19:312|16:250|16:250|31:255|47:252,1,203.999993774414,6|0,3:2|0:0,0:0:0:0:
228,300,51419,2,0,P|229:333|219:366,1,68,10|0,0:0|0:0,0:0:0:0:
123,240,51743,69,2,0:0:0:0:
123,240,51906,1,2,0:0:0:0:
228,300,52068,2,0,P|261:300|294:290,1,68,10|2,0:0|0:0,0:0:0:0:
377,220,52392,1,2,0:0:0:0:
493,363,52554,6,0,L|491:315,1,42.5,0|0,3:0|0:0,0:0:0:0:
488,236,52716,2,0,L|486:188,1,42.5,10|0,0:0|0:0,0:0:0:0:
483,109,52879,2,0,L|481:61,1,42.5,2|0,3:2|0:0,0:0:0:0:
257,189,53041,6,0,B|284:220|284:220|343:223|384:180,1,152.999995330811,6|0,3:2|0:0,0:0:0:0:
401,165,53365,1,8,0:0:0:0:
162,89,53527,2,0,B|140:233|140:233|111:234|86:254,1,203.999993774414,6|2,3:2|0:0,0:0:0:0:
29,331,54014,2,0,P|57:347|90:353,1,68,10|2,0:0|0:0,0:0:0:0:
211,254,54338,5,2,3:2:0:0:
211,254,54500,1,2,3:2:0:0:
321,352,54662,2,0,L|239:362,1,68,10|2,0:0|0:0,0:0:0:0:
397,226,54987,1,2,0:0:0:0:
363,291,55149,70,0,P|345:279|331:260,1,42.5,2|0,3:2|0:0,0:0:0:0:
290,201,55311,2,0,P|282:180|281:157,1,42.5,10|0,0:0|0:0,0:0:0:0:
281,85,55473,2,0,P|286:63|299:44,1,42.5,2|0,3:2|0:0,0:0:0:0:
512,133,55635,6,0,B|437:128|437:128|431:130|431:130|360:125,1,152.999995330811,6|0,3:2|0:0,0:0:0:0:
343,125,55960,1,10,0:0:0:0:
138,28,56122,2,0,P|154:121|68:161,1,203.999993774414,6|2,3:2|3:2,0:0:0:0:
17,314,56608,2,0,P|83:281|155:302,1,152.999995330811,14|8,0:0|0:0,0:0:0:0:
213,361,56933,22,0,P|226:343|235:324,1,42.5,8|0,0:0|0:0,0:0:0:0:
247,230,57095,1,8,0:0:0:0:
91,373,57257,1,0,3:0:0:0:
308,292,57419,5,0,3:0:0:0:
308,292,57473,2,0,P|338:299|362:319,1,56.6666666666667,0|0,3:0|3:0,0:0:0:0:
410,384,57743,53,0,3:0:0:0:
442,323,57906,1,0,3:0:0:0:
509,316,58068,1,0,3:0:0:0:
284,129,58230,6,0,B|250:122|217:104|217:104|165:95|126:69,1,170,6|2,3:2|3:2,0:0:0:0:
182,180,58716,1,2,0:0:0:0:
475,86,58879,1,10,0:0:0:0:
377,129,59041,1,2,0:0:0:0:
377,129,59122,1,2,0:0:0:0:
377,129,59203,2,0,P|367:115|394:125,1,76.4999976654053,2|0,3:2|0:0,0:0:0:0:
294,158,59527,6,0,P|305:207|331:245,1,85,2|2,3:2|0:0,0:0:0:0:
314,302,59770,1,2,0:0:0:0:
320,291,59851,2,0,P|334:269|354:254,1,42.5,2|0,3:2|0:0,0:0:0:0:
267,17,60014,2,0,P|259:58|237:95,1,85,2|8,0:0|0:0,0:0:0:0:
78,147,60338,1,2,0:0:0:0:
78,147,60419,1,2,0:0:0:0:
78,147,60500,1,2,3:2:0:0:
156,117,60662,1,10,0:2:0:0:
250,371,60824,6,0,P|191:344|83:319,1,170,2|2,3:2|3:2,0:0:0:0:
199,258,61311,1,2,0:0:0:0:
4,80,61473,1,10,0:0:0:0:
35,181,61635,1,2,0:0:0:0:
35,181,61716,1,2,0:0:0:0:
35,181,61797,2,0,P|21:191|31:164,1,76.4999976654053,2|0,3:2|0:0,0:0:0:0:
107,273,62122,70,0,B|120:230|120:230|115:205|114:180,2,85,2|2|2,3:2|0:0|3:2,0:0:0:0:
104,111,62608,1,2,0:0:0:0:
370,214,62770,1,10,0:0:0:0:
320,309,62933,1,2,0:0:0:0:
320,309,63014,1,2,0:0:0:0:
320,309,63095,2,0,P|334:319|324:292,1,76.4999976654053,2|0,3:2|0:0,0:0:0:0:
448,375,63419,6,0,B|433:330|433:330|473:249|473:249|473:235|478:216,1,170,6|2,3:2|3:2,0:0:0:0:
438,7,63906,2,0,B|487:47|468:104|468:104|463:103|463:103|447:136|419:149,1,170,2|2,0:0|0:0,0:0:0:0:
317,187,64311,1,2,0:0:0:0:
317,187,64392,2,0,B|334:208|335:232|335:232|334:183|345:146,1,127.5,2|0,3:2|0:0,0:0:0:0:
250,239,64716,6,0,L|135:225,1,85,2|2,3:2|0:0,0:0:0:0:
87,222,64960,1,2,0:0:0:0:
87,222,65041,1,2,3:2:0:0:
247,136,65203,1,2,0:0:0:0:
28,366,65365,2,0,P|66:316|131:347,1,127.5,8|2,0:0|0:0,0:0:0:0:
136,364,65689,1,2,3:2:0:0:
4,140,65851,1,8,0:0:0:0:
363,12,66014,6,0,B|354:50|322:64|322:64|318:59|318:59|260:68|195:44,1,187.000005706787,6|2,3:2|3:2,0:0:0:0:
10,0,66500,1,8,0:0:0:0:
70,73,66662,21,0,3:0:0:0:
85,70,66716,1,0,3:0:0:0:
100,67,66770,1,0,3:0:0:0:
115,64,66824,1,0,3:0:0:0:
4,140,66987,53,0,3:0:0:0:
4,140,67149,1,0,3:0:0:0:
232,384,67311,6,0,B|223:353|223:353|231:266|231:266|221:227,1,159.375,14|0,0:2|0:0,0:0:0:0:
238,64,67635,6,0,B|228:102|228:102|236:189|236:189|227:220,1,159.375,12|0,0:2|0:0,0:0:0:0:
149,384,67960,101,2,3:2:0:0:
393,305,68122,1,10,0:0:0:0:
113,203,68284,1,10,0:0:0:0:
422,316,68446,1,10,0:0:0:0:
49,339,68608,6,0,B|72:301|55:232|36:265|15:210|41:160,1,187.000005706787,6|8,3:2|0:0,0:0:0:0:
179,0,69095,2,0,P|141:28|95:25,1,93.5000028533936,2|2,3:2|0:0,0:0:0:0:
221,135,69419,1,2,3:2:0:0:
221,135,69581,2,0,P|266:133|323:205,1,140.25000428009,10|0,0:2|0:0,0:0:0:0:
297,292,69906,69,2,3:2:0:0:
445,125,70068,1,2,3:2:0:0:
246,208,70230,1,10,0:0:0:0:
478,275,70392,2,0,B|492:242|475:209|475:209|458:193|458:193|473:177|473:177|451:142|469:107,1,187.000005706787,2|2,3:2|3:2,0:0:0:0:
484,30,70797,1,2,0:0:0:0:
484,30,70879,2,0,L|436:35,1,46.7500014266968,10|0,0:0|0:0,0:0:0:0:
310,160,71041,2,0,L|356:164,1,46.7500014266968,2|0,3:2|0:0,0:0:0:0:
142,13,71203,6,0,B|112:1|112:1|119:44|119:44|115:54|115:54|121:62|121:62|127:108,1,140.25000428009,2|0,3:2|0:0,0:0:0:0:
139,199,71527,1,8,0:0:0:0:
3,340,71689,6,0,B|38:338|61:312|61:312|69:299|69:299|73:304|73:304|109:305|137:281|137:281|109:305|115:354,1,212.5,2|2,3:2|3:2,0:0:0:0:
336,373,72176,1,10,0:0:0:0:
246,157,72338,1,0,3:0:0:0:
186,336,72500,6,0,B|228:329|228:329|231:332|231:332|277:325,1,93.5000028533936,2|2,3:2|3:2,0:0:0:0:
493,302,72824,1,10,0:0:0:0:
336,373,72987,70,0,B|311:328|337:281|337:281|331:269|329:260|329:260|358:219|336:170,1,212.5,2|2,3:2|3:2,0:0:0:0:
178,14,73473,1,10,0:0:0:0:
242,208,73635,1,0,3:0:0:0:
454,47,73797,6,0,L|305:59,1,140.25000428009,6|0,3:2|0:0,0:0:0:0:
237,107,74122,1,8,0:0:0:0:
494,224,74284,6,0,L|502:119,2,106.25,2|2|2,3:2|3:2|3:2,0:0:0:0:
287,326,74770,2,0,B|334:283|396:309|396:309|374:315|357:336,1,159.375,10|0,0:0|0:0,0:0:0:0:
419,384,75095,5,2,3:2:0:0:
292,194,75257,1,2,3:2:0:0:
210,349,75419,1,10,0:0:0:0:
0,207,75581,70,0,B|37:193|72:214|72:214|88:204|88:204|101:217|101:217|134:241|172:229,1,187.000005706787,6|2,3:2|3:2,0:0:0:0:
140,93,75987,1,2,0:0:0:0:
141,114,76068,2,0,L|144:160,1,46.7500014266968,10|0,0:0|0:0,0:0:0:0:
297,268,76230,2,0,L|300:221,1,46.7500014266968,2|0,3:2|0:0,0:0:0:0:
96,26,76392,6,0,B|99:89|99:89|91:108|91:108|102:130|102:130|106:193,1,170,14|2,0:0|3:2,0:0:0:0:
24,354,76879,6,0,B|66:334|66:334|74:320|74:320|90:322|90:322|129:307|129:307|112:325|109:352,1,170,10|0,0:0|3:0,0:0:0:0:
336,326,77365,6,0,B|317:290|317:290|321:270|322:245,1,85,10|0,0:0|3:0,0:0:0:0:
501,54,77689,69,10,0:0:0:0:
400,361,77851,1,10,0:0:0:0:
101,105,78014,1,10,0:0:0:0:
101,105,78338,5,2,0:0:0:0:
215,116,78500,2,0,P|194:129|167:132,1,50.9999984436036,2|2,0:0|0:0,0:0:0:0:
342,0,78987,6,0,B|333:83|333:83|338:92|338:92|328:176,1,178.499994552612,6|0,3:2|0:0,0:0:0:0:
314,269,79311,1,8,0:0:0:0:
509,123,79473,1,2,3:2:0:0:
486,124,79554,1,2,0:0:0:0:
463,125,79635,2,0,P|434:139|415:159,1,59.4999981842042,2|0,0:0|0:0,0:0:0:0:
240,343,79797,2,0,B|214:335|203:313|203:313|243:315|243:315|272:357|335:354,1,178.499994552612,2|0,3:2|0:0,0:0:0:0:
403,306,80122,2,0,P|432:309|458:322,1,59.4999981842042,2|0,0:0|0:0,0:0:0:0:
249,171,80284,5,2,3:2:0:0:
150,368,80446,1,2,3:2:0:0:
0,206,80608,2,0,B|28:209|28:209|31:208|31:208|58:212,1,59.4999981842042,10|0,0:0|0:0,0:0:0:0:
283,90,80770,69,2,3:2:0:0:
238,94,80851,1,2,0:0:0:0:
195,99,80933,1,2,0:0:0:0:
380,82,81095,1,2,3:2:0:0:
130,230,81257,69,10,0:0:0:0:
131,209,81311,1,2,0:0:0:0:
133,189,81365,1,2,0:0:0:0:
135,169,81419,1,2,0:0:0:0:
416,185,81581,38,0,B|364:178|343:229|343:229|370:226,1,118.999996368408,2|0,3:2|0:0,0:0:0:0:
301,338,81824,2,0,B|353:345|374:294|374:294|347:297,1,118.999996368408,2|0,0:0|0:0,0:0:0:0:
268,207,82068,2,0,L|274:268,1,59.4999981842042,2|0,3:2|0:0,0:0:0:0:
457,375,82230,6,0,B|454:327|454:327|460:323|460:323|454:323|454:323|451:266,1,118.999996368408,2|0,0:0|3:0,0:0:0:0:
422,75,82473,2,0,B|419:131|419:131|413:131|413:131|419:135|419:135|416:183,1,118.999996368408,2|0,0:0|0:0,0:0:0:0:
506,209,82716,2,0,L|500:149,1,59.4999981842042,2|0,0:0|0:0,0:0:0:0:
365,9,82879,5,2,3:2:0:0:
255,222,83041,1,2,3:2:0:0:
380,127,83203,1,10,0:0:0:0:
78,42,83365,6,0,P|163:115|48:101,1,289.000005512238,2|0,3:2|3:0,0:0:0:0:
132,294,83851,2,0,B|116:250|116:250|206:286,1,144.500002756119,8|2,0:0|0:0,0:0:0:0:
348,340,84095,1,2,0:0:0:0:
290,384,84176,70,0,B|320:342|294:279|294:279|302:281|302:281|289:265|289:265|250:207|298:129,1,237.999992736817,6|8,3:2|0:0,0:0:0:0:
420,129,84662,2,0,B|444:147|470:147|470:147|439:208|369:206,1,178.499994552612,2|0,3:2|0:0,0:0:0:0:
334,99,84987,2,0,B|309:80|283:80|283:80|314:19|384:21,1,178.499994552612,2|0,3:2|0:0,0:0:0:0:
395,225,85311,1,2,0:0:0:0:
207,127,85473,6,0,B|172:135|155:173|155:173|103:153|66:194,1,118.999996368408,2|0,3:2|3:0,0:0:0:0:
23,284,85716,2,0,B|58:276|75:238|75:238|127:258|164:217,1,118.999996368408,2|0,0:0|0:0,0:0:0:0:
17,151,85960,2,0,P|0:175|0:205,1,59.4999981842042,2|0,3:2|0:0,0:0:0:0:
222,314,86122,6,0,B|248:287|248:287|235:249|234:208,1,118.999996368408,2|0,0:0|3:0,0:0:0:0:
218,20,86365,2,0,B|191:47|191:47|204:85|206:126,1,118.999996368408,2|0,0:0|0:0,0:0:0:0:
352,151,86608,2,0,P|324:143|292:146,1,59.4999981842042,2|0,3:2|0:0,0:0:0:0:
90,223,86770,6,0,B|68:201|68:201|110:190|154:212,1,118.999996368408,2|0,3:2|0:0,0:0:0:0:
344,275,87014,2,0,B|365:253|365:253|323:242|279:264,1,118.999996368408,2|0,0:0|0:0,0:0:0:0:
169,364,87257,2,0,P|179:339|173:304,1,59.4999981842042,2|0,3:2|0:0,0:0:0:0:
6,36,87419,69,2,0:0:0:0:
12,79,87500,1,2,0:0:0:0:
43,110,87581,1,2,3:2:0:0:
87,114,87662,1,2,0:0:0:0:
129,82,87743,5,10,0:0:0:0:
179,53,87824,1,2,0:0:0:0:
236,66,87905,1,2,0:0:0:0:
269,114,87986,1,2,0:0:0:0:
271,190,88068,6,0,P|306:195|347:186,1,59.4999981842042,2|0,3:2|0:0,0:0:0:0:
460,46,88230,2,0,P|430:42|401:47,1,59.4999981842042,2|0,3:2|0:0,0:0:0:0:
257,183,88392,1,10,0:0:0:0:
461,264,88554,5,0,3:0:0:0:
453,278,88635,1,0,3:0:0:0:
445,292,88716,69,2,3:2:0:0:
395,264,88797,1,0,3:0:0:0:
343,287,88878,1,8,0:0:0:0:
331,343,88959,1,8,0:0:0:0:
372,384,89041,5,10,0:0:0:0:
353,321,89122,1,0,3:0:0:0:
304,277,89203,1,0,3:0:0:0:
240,263,89284,1,0,3:0:0:0:
176,280,89365,6,0,B|142:319|87:306|87:306|81:299|81:299|21:267|21:267|0:299|20:348,1,255.000009727478,6|8,3:2|0:0,0:0:0:0:
300,145,89851,1,2,3:2:0:0:
296,174,89933,1,2,0:0:0:0:
292,203,90014,2,0,L|363:218,1,63.7500024318696,2|0,0:0|0:0,0:0:0:0:
205,117,90176,2,0,B|205:92|213:61|213:61|209:54|209:54|216:22|217:-8,2,127.500004863739,2|8|2,3:2|0:0|0:0,0:0:0:0:
483,107,90662,5,2,3:2:0:0:
286,57,90824,1,0,3:0:0:0:
492,197,90987,1,8,0:0:0:0:
330,350,91149,1,2,3:2:0:0:
334,321,91231,1,2,0:0:0:0:
338,292,91312,70,0,L|267:277,1,63.7500024318696,2|0,0:0|0:0,0:0:0:0:
366,60,91473,2,0,L|437:45,1,63.7500024318696,2|0,3:2|0:0,0:0:0:0:
228,215,91635,2,0,P|200:239|170:254,1,63.7500024318696,10|0,0:0|0:0,0:0:0:0:
58,255,91797,2,0,P|86:279|116:294,1,63.7500024318696,2|0,0:0|0:0,0:0:0:0:
115,27,91960,6,0,P|58:42|32:127,1,127.500004863739,2|0,3:2|0:0,0:0:0:0:
188,0,92203,2,0,P|241:25|250:113,1,127.500004863739,2|0,0:0|0:0,0:0:0:0:
6,67,92446,2,0,P|-1:98|9:134,1,63.7500024318696,2|0,3:2|0:0,0:0:0:0:
177,377,92608,6,0,B|166:364|158:347|158:347|67:330,1,127.500004863739,2|0,3:2|3:0,0:0:0:0:
190,345,92851,2,0,B|201:332|209:315|209:315|300:298,1,127.500004863739,2|0,0:0|0:0,0:0:0:0:
78,292,93095,2,0,L|5:278,1,63.7500024318696,2|0,0:0|0:0,0:0:0:0:
264,228,93257,5,2,3:2:0:0:
159,37,93419,1,0,3:0:0:0:
347,200,93581,1,8,0:0:0:0:
77,74,93743,70,0,B|33:93|22:145|22:145|28:158|28:158|20:200|43:282,1,229.499992996216,6|0,3:2|0:0,0:0:0:0:
65,364,94068,5,8,0:0:0:0:
505,152,94230,1,8,0:0:0:0:
352,104,94392,1,2,0:0:0:0:
373,95,94473,1,2,0:0:0:0:
395,88,94554,6,0,B|436:73|436:73|439:141|389:184|309:195,1,237.999992736817,6|8,3:2|0:0,0:0:0:0:
235,9,95041,2,0,P|254:44|267:123,1,118.999996368408,2|0,3:2|0:0,0:0:0:0:
443,342,95365,2,0,P|449:283|475:229,1,118.999996368408,2|8,3:2|0:0,0:0:0:0:
368,384,95689,1,2,0:0:0:0:
193,158,95851,5,2,3:2:0:0:
8,244,96014,1,0,3:0:0:0:
164,77,96176,1,8,0:0:0:0:
284,279,96338,1,2,3:2:0:0:
219,335,96500,70,0,P|278:319|348:307,1,118.999996368408,2|0,0:0|3:0,0:0:0:0:
213,358,96743,2,0,P|154:342|84:330,1,118.999996368408,2|0,0:0|0:0,0:0:0:0:
20,320,96987,1,2,0:0:0:0:
465,258,97149,6,0,P|421:229|387:166,1,118.999996368408,6|0,3:2|0:0,0:0:0:0:
393,33,97392,2,0,P|366:85|366:144,1,118.999996368408,2|0,0:0|0:0,0:0:0:0:
504,314,97635,2,0,P|478:307|448:290,1,59.4999981842042,2|0,3:2|0:0,0:0:0:0:
275,92,97797,5,2,0:0:0:0:
234,98,97878,1,2,0:0:0:0:
199,121,97959,1,2,3:2:0:0:
180,158,98041,1,2,0:0:0:0:
142,219,98122,5,10,0:0:0:0:
199,227,98203,1,2,0:0:0:0:
249,260,98284,1,2,3:2:0:0:
278,313,98366,1,2,3:2:0:0:
250,384,98446,70,0,L|261:314,1,59.4999981842042,10|0,0:0|0:0,0:0:0:0:
76,148,98608,1,0,3:2:0:0:
73,165,98689,1,0,3:2:0:0:
70,182,98770,6,0,L|60:240,1,59.4999981842042,10|0,0:0|0:0,0:0:0:0:
356,337,98933,1,0,3:2:0:0:
359,320,99014,1,0,3:2:0:0:
363,302,99095,5,10,0:0:0:0:
319,261,99176,1,0,3:0:0:0:
263,243,99257,1,0,3:0:0:0:
205,250,99338,1,0,3:0:0:0:
231,317,99419,5,2,3:2:0:0:
287,351,99500,1,0,3:0:0:0:
352,359,99581,1,0,3:0:0:0:
415,341,99662,1,0,3:0:0:0:
473,285,99743,69,14,0:0:0:0:
390,28,99906,1,0,3:0:0:0:
329,89,100068,5,10,0:0:0:0:
69,28,100230,1,0,3:0:0:0:
26,98,100392,5,10,0:0:0:0:
274,0,100554,1,0,3:0:0:0:
490,193,100716,6,0,P|439:150|343:194,1,178.499994552612,10|0,0:0|0:0,0:0:0:0:
330,266,101041,69,10,0:0:0:0:
400,354,101203,1,0,3:0:0:0:
400,354,101284,1,0,3:0:0:0:
400,354,101365,5,10,0:0:0:0:
261,223,101527,1,2,3:2:0:0:
31,174,101689,5,10,0:0:0:0:
224,296,101851,1,0,3:0:0:0:
253,374,102014,5,10,0:0:0:0:
329,89,102176,1,0,3:0:0:0:
24,16,102338,70,0,P|84:36|143:50,1,118.999996368408,14|0,0:0|3:0,0:0:0:0:
377,18,102662,5,10,0:0:0:0:
244,217,102824,1,0,3:0:0:0:
320,175,102987,5,10,0:0:0:0:
63,317,103149,1,0,3:0:0:0:
128,375,103311,5,10,0:0:0:0:
14,95,103473,1,0,3:0:0:0:
75,155,103635,38,8,P|71:197|62:236,2,79.3333309122722,10|8|8,0:0|3:0|0:0,0:0:0:0:
66,5,103960,5,0,3:0:0:0:
128,76,104068,101,0,3:0:0:0:
219,101,104176,5,0,3:0:0:0:
277,47,104284,101,2,3:2:0:0:
220,74,104392,5,0,3:0:0:0:
166,41,104500,101,0,3:0:0:0:
111,71,104608,5,0,3:0:0:0:
84,359,104770,6,0,B|103:334|133:330|133:330|165:335|185:363|185:363|219:373|252:353,1,187.000005706787,6|0,3:2|3:0,0:0:0:0:
428,384,105257,2,0,P|434:333|455:291,1,93.5000028533936,10|0,0:0|3:0,0:0:0:0:
435,141,105581,1,2,3:2:0:0:
295,282,105743,2,0,P|289:231|268:189,1,93.5000028533936,2|10,3:2|0:0,0:0:0:0:
508,40,106068,6,0,B|418:55|418:55|415:52|415:52|325:68,1,187.000005706787,2|2,3:2|3:2,0:0:0:0:
107,138,106554,2,0,L|202:157,1,93.5000028533936,10|0,0:0|3:0,0:0:0:0:
272,9,106879,1,2,3:2:0:0:
32,104,107041,2,0,P|27:149|50:195,1,93.5000028533936,2|10,3:2|0:0,0:0:0:0:
289,309,107365,6,0,B|265:283|237:268|237:268|184:310|120:335,1,187.000005706787,2|2,3:2|3:2,0:0:0:0:
347,264,107851,2,0,P|313:232|276:205,1,93.5000028533936,10|0,0:0|3:0,0:0:0:0:
66,303,108176,1,2,3:2:0:0:
233,359,108338,1,2,3:2:0:0:
208,163,108500,1,10,0:0:0:0:
462,337,108662,6,0,P|379:296|273:316,1,187.000005706787,2|2,3:2|3:2,0:0:0:0:
509,163,109149,2,0,P|492:204|478:261,1,93.5000028533936,10|0,0:0|3:0,0:0:0:0:
451,64,109473,1,2,3:2:0:0:
330,196,109635,2,0,P|318:151|300:108,1,93.5000028533936,2|10,3:2|0:0,0:0:0:0:
111,284,109960,70,0,B|154:258|221:287|186:293|243:328|288:307,1,187.000005706787,2|2,3:2|3:2,0:0:0:0:
53,154,110446,2,0,B|29:187|29:187|54:262,1,93.5000028533936,10|0,0:0|3:0,0:0:0:0:
249,125,110770,1,2,3:2:0:0:
43,26,110933,1,2,3:2:0:0:
155,169,111095,1,10,0:0:0:0:
331,15,111257,6,0,B|419:28|419:28|422:34|422:34|517:47,1,187.000005706787,2|2,3:2|3:2,0:0:0:0:
326,221,111743,2,0,B|315:194|313:170|313:170|324:152|328:127,1,93.5000028533936,10|0,0:0|3:0,0:0:0:0:
480,286,112068,1,2,3:2:0:0:
255,346,112230,2,0,L|359:357,1,93.5000028533936,2|10,3:2|0:0,0:0:0:0:
512,202,112554,6,0,L|305:223,1,187.000005706787,2|2,3:2|3:2,0:0:0:0:
122,369,113041,2,0,P|148:331|148:285,1,93.5000028533936,10|0,0:0|3:0,0:0:0:0:
6,138,113365,2,0,P|5:183|35:223,1,93.5000028533936,2|2,3:2|3:2,0:0:0:0:
198,138,113689,1,8,0:0:0:0:
0,15,113851,6,0,B|43:-9|82:21|82:21|129:61|172:35,1,187.000005706787,6|2,3:2|3:2,0:0:0:0:
303,198,114338,1,10,0:0:0:0:
282,112,114500,1,0,3:0:0:0:
436,221,114662,69,10,0:0:0:0:
224,357,114824,1,10,0:0:0:0:
342,47,114987,1,10,0:0:0:0:
128,316,115149,6,0,B|75:301|27:269|27:269|47:235|96:225,1,187.000005706787,4|0,3:2|3:0,0:0:0:0:
365,161,115635,1,10,0:0:0:0:
365,161,115797,1,0,3:0:0:0:
100,144,115960,2,0,P|143:147|193:165,1,93.5000028533936,2|0,3:2|3:2,0:0:0:0:
373,293,116284,1,10,0:0:0:0:
297,231,116446,6,0,P|254:247|270:379,1,187.000005706787,2|2,3:2|3:2,0:0:0:0:
447,176,116933,2,0,P|491:211|508:254,1,93.5000028533936,8|0,0:0|3:2,0:0:0:0:
267,95,117257,2,0,P|223:130|206:173,1,93.5000028533936,2|0,3:2|3:2,0:0:0:0:
485,328,117581,1,10,0:0:0:0:
400,377,117743,6,0,B|357:361|357:361|271:369|271:369|263:374|263:374|242:363|216:355,1,187.000005706787,2|2,3:2|3:2,0:0:0:0:
123,148,118230,1,10,0:0:0:0:
123,148,118392,1,0,3:2:0:0:
301,276,118554,2,0,L|413:265,1,93.5000028533936,2|0,3:2|3:2,0:0:0:0:
214,107,118879,1,10,0:0:0:0:
251,17,119041,70,0,B|259:2|259:2|318:59|318:59|311:149,1,187.000005706787,2|2,3:2|3:2,0:0:0:0:
62,76,119527,1,10,0:0:0:0:
62,76,119689,1,0,3:2:0:0:
148,294,119851,1,2,3:2:0:0:
9,144,120014,1,0,3:2:0:0:
169,9,120176,1,10,0:0:0:0:
442,91,120338,6,0,B|507:140|507:140|509:200|434:204,1,187.000005706787,6|2,3:2|3:2,0:0:0:0:
197,186,120824,1,10,0:0:0:0:
197,186,120987,1,0,3:2:0:0:
372,11,121149,2,0,L|342:113,1,93.5000028533936,2|0,3:2|3:2,0:0:0:0:
101,175,121473,1,10,0:0:0:0:
157,94,121635,6,0,B|174:50|141:25|141:25|138:17|138:17|79:7|59:66,1,187.000005706787,2|2,3:2|3:2,0:0:0:0:
208,284,122122,1,10,0:0:0:0:
208,284,122284,1,0,3:2:0:0:
2,118,122446,2,0,P|18:136|30:161,1,46.7500014266968,2|0,3:2|0:0,0:0:0:0:
128,214,122608,2,0,P|112:231|102:252,1,46.7500014266968,2|0,3:2|0:0,0:0:0:0:
153,356,122770,1,10,0:0:0:0:
275,75,122933,6,0,P|295:179|304:318,1,237.999992736817,4|2,3:2|3:2,0:0:0:0:
395,93,123419,1,10,0:0:0:0:
136,16,123581,1,0,3:2:0:0:
170,276,123743,2,0,P|193:207|204:145,1,118.999996368408,14|0,0:0|3:0,0:0:0:0:
486,228,124068,2,0,B|494:241|494:241|438:298|338:296,1,178.499994552612,14|0,0:0|0:0,0:0:0:0:
265,268,124392,37,8,0:0:0:0:
300,368,124500,5,8,0:0:0:0:
252,272,124608,101,8,0:0:0:0:
333,220,124716,5,8,0:0:0:0:
361,140,124824,101,0,3:0:0:0:
323,217,124932,5,0,3:0:0:0:
260,167,125041,101,0,3:0:0:0:
189,154,125149,5,0,3:0:0:0:
129,175,125257,101,0,3:0:0:0:
101,205,125365,6,0,B|99:221|99:221|112:238|112:238|108:256,2,56.6666666666667,0|0|0,3:0|3:0|3:0,0:0:0:0:
2,368,125689,6,0,B|12:328|50:314|50:314|85:344|122:337,1,152.999995330811,6|0,3:2|0:0,0:0:0:0:
185,289,126014,1,8,0:0:0:0:
430,333,126176,2,0,B|410:289|357:279|357:279|321:324|269:317|269:317|301:315|326:291,1,254.999992218018,6|0,3:2|0:0,0:0:0:0:
262,223,126662,1,10,0:0:0:0:
364,368,126824,1,2,0:0:0:0:
498,178,126987,21,2,0:0:0:0:
418,157,127149,2,0,P|417:196|428:223,1,68,2|10,3:2|0:0,0:0:0:0:
286,103,127473,2,0,L|365:96,1,68,2|2,0:0|0:0,0:0:0:0:
215,150,127797,2,0,L|136:143,1,68,2|10,3:2|0:0,0:0:0:0:
249,26,128122,1,2,0:0:0:0:
41,148,128284,6,0,B|53:119|53:119|84:177|59:237,1,152.999995330811,6|0,3:2|0:0,0:0:0:0:
8,323,128608,1,10,0:0:0:0:
290,346,128770,2,0,B|237:362|195:327|195:327|153:292|98:316,1,203.999993774414,6|2,3:2|0:0,0:0:0:0:
217,174,129257,1,10,0:0:0:0:
257,262,129419,1,2,0:0:0:0:
422,122,129581,86,0,P|409:154|404:188,2,68,2|0|10,0:0|3:0|0:0,0:0:0:0:
447,259,130068,1,2,0:0:0:0:
435,110,130230,1,2,3:2:0:0:
335,255,130392,6,0,P|329:234|321:215,1,42.5,2|0,3:2|0:0,0:0:0:0:
136,177,130554,2,0,P|141:197|149:216,1,42.5,10|0,0:0|0:0,0:0:0:0:
356,266,130716,2,0,P|350:245|342:226,1,42.5,2|0,3:2|0:0,0:0:0:0:
49,137,130879,6,0,P|70:219|104:296,1,152.999995330811,6|0,3:2|0:0,0:0:0:0:
187,330,131203,1,10,0:0:0:0:
0,59,131365,70,0,B|29:24|81:35|81:35|134:46|164:16|164:16|134:46|140:94,1,254.999992218018,6|0,3:2|0:0,0:0:0:0:
313,0,131851,1,10,0:0:0:0:
218,76,132014,1,2,3:2:0:0:
370,202,132176,6,0,P|376:168|392:138,2,68,2|2|10,0:0|3:2|0:0,0:0:0:0:
288,71,132662,1,2,0:0:0:0:
234,221,132824,1,2,0:0:0:0:
488,205,132987,6,0,L|446:200,1,42.5,2|0,3:2|0:0,0:0:0:0:
245,220,133149,2,0,L|286:214,1,42.5,10|0,0:0|0:0,0:0:0:0:
465,288,133311,2,0,L|423:282,1,42.5,2|0,3:2|0:0,0:0:0:0:
153,327,133473,6,0,B|261:314|261:314|239:324|228:345,1,152.999995330811,6|0,3:2|0:0,0:0:0:0:
298,384,133797,1,10,0:0:0:0:
90,262,133960,2,0,P|89:236|87:211,1,50.9999984436036,4|0,3:2|0:0,0:0:0:0:
309,180,134122,70,0,P|299:273|297:383,1,203.999993774414,2|10,0:0|0:0,0:0:0:0:
443,116,134608,6,0,B|395:92|356:134|356:134|348:132|348:132|309:178|259:157,1,204,2|10,0:0|0:0,0:0:0:0:
20,152,135257,6,0,P|14:131|13:110,1,42.5,2|0,3:2|0:0,0:0:0:0:
56,0,135419,1,2,3:2:0:0:
195,207,135581,6,0,P|188:227|176:244,1,42.5,2|0,3:2|0:0,0:0:0:0:
78,310,135743,1,2,3:2:0:0:
276,384,135906,1,0,3:0:0:0:
449,110,136068,70,0,P|489:145|429:217,1,152.999995330811,6|0,3:2|0:0,0:0:0:0:
404,227,136392,1,10,0:0:0:0:
419,31,136554,2,0,B|381:-16|318:7|318:7|311:14|311:14|174:44,1,254.999992218018,6|0,3:2|0:0,0:0:0:0:
153,73,137041,6,0,L|233:55,1,68,10|2,0:0|0:0,0:0:0:0:
83,176,137365,1,2,0:0:0:0:
83,176,137527,2,0,P|44:165|-2:141,1,68,2|10,0:0|0:0,0:0:0:0:
250,183,137851,2,0,B|242:150|242:150|240:167|231:188,1,68,2|2,0:0|0:0,0:0:0:0:
150,261,138176,2,0,B|157:228|157:228|159:245|168:266,1,68,2|10,3:2|0:0,0:0:0:0:
210,337,138500,1,2,0:0:0:0:
171,96,138662,6,0,B|166:46|138:19|138:19|63:7,1,152.999995330811,6|0,3:2|0:0,0:0:0:0:
30,5,138987,1,10,0:0:0:0:
12,219,139149,2,0,B|28:113|28:113|40:98|40:98|107:129|99:209,1,254.999992218018,6|0,3:2|0:0,0:0:0:0:
97,240,139635,6,0,B|128:299|128:299|102:323|83:357,1,136,10|2,0:0|0:0,0:0:0:0:
1,303,140122,1,2,3:2:0:0:
293,222,140284,1,10,0:0:0:0:
316,320,140446,2,0,P|267:311|218:290,1,102,2|0,3:2|0:0,0:0:0:0:
188,273,140770,70,0,P|201:252|226:238,1,42.5,2|0,3:2|0:0,0:0:0:0:
275,115,140933,2,0,P|262:136|237:150,1,42.5,10|0,0:0|0:0,0:0:0:0:
166,265,141095,2,0,P|179:244|204:230,1,42.5,2|0,3:2|0:0,0:0:0:0:
414,378,141257,6,0,B|447:360|465:333|465:333|464:322|464:322|482:291|486:252,1,152.999995330811,6|0,3:2|0:0,0:0:0:0:
489,212,141581,1,10,0:0:0:0:
359,144,141743,2,0,B|406:134|406:134|424:137|424:137|501:119|501:119|476:102|454:76,1,203.999993774414,6|2,3:2|0:0,0:0:0:0:
408,2,142230,1,2,3:2:0:0:
386,235,142392,1,10,0:0:0:0:
307,267,142554,5,2,0:0:0:0:
348,342,142716,1,2,3:2:0:0:
309,78,142879,1,10,0:0:0:0:
268,153,143041,2,0,P|241:128|194:105,1,68,2|2,0:0|3:2,0:0:0:0:
27,105,143365,6,0,B|29:91|29:91|26:78|26:78|28:63,1,42.5,0|0,3:0|0:0,0:0:0:0:
152,0,143527,2,0,B|150:14|150:14|153:27|153:27|150:41,1,42.5,10|0,0:0|0:0,0:0:0:0:
6,113,143689,2,0,B|8:99|8:99|5:86|5:86|7:71,1,42.5,2|0,3:2|0:0,0:0:0:0:
204,220,143851,70,0,B|209:241|209:241|186:323|186:323|187:336|187:336|172:345|159:358,1,152.999995330811,6|0,3:2|0:0,0:0:0:0:
129,382,144176,1,10,0:0:0:0:
14,196,144338,2,0,B|21:217|21:217|43:230|43:230|69:186|116:149|173:139,1,203.999993774414,6|2,3:2|3:2,0:0:0:0:
369,33,144824,2,0,B|358:21|358:21|238:9|238:9|223:18,1,152.999995330811,14|8,0:0|0:0,0:0:0:0:
186,99,145149,85,8,0:0:0:0:
192,85,145261,2,0,L|206:143,1,45.3333333333333,0|0,3:0|3:0,0:0:0:0:
249,191,145476,5,0,3:0:0:0:
244,218,145584,101,0,3:0:0:0:
239,245,145692,5,0,3:0:0:0:
315,267,145800,101,0,3:0:0:0:
319,290,145908,5,0,3:0:0:0:
324,314,146016,101,0,3:0:0:0:
403,310,146124,5,0,3:0:0:0:
413,327,146232,101,0,3:0:0:0:
425,346,146340,5,0,3:0:0:0:
500,197,146449,6,0,B|419:171|419:171|418:165|418:165|343:140,1,170,6|2,3:2|3:2,0:0:0:0:
502,74,146935,1,2,0:0:0:0:
296,65,147097,2,0,P|265:98|259:150,1,85,10|2,0:0|0:0,0:0:0:0:
407,37,147340,1,2,0:0:0:0:
407,37,147421,2,0,B|384:31|365:36|365:36|356:16|335:0,1,76.4999976654053,2|0,3:2|0:0,0:0:0:0:
178,124,147746,6,0,B|221:115|221:115|256:135,1,85,2|2,3:2|0:0,0:0:0:0:
202,248,147989,1,2,0:0:0:0:
204,234,148070,2,0,L|209:191,1,42.5,2|0,3:2|0:0,0:0:0:0:
290,329,148232,2,0,B|239:319|239:319|212:329|212:329|163:320,1,127.5,2|0,0:0|0:0,0:0:0:0:
60,276,148557,1,2,0:0:0:0:
93,269,148638,1,2,0:0:0:0:
126,262,148719,1,2,3:2:0:0:
314,249,148881,1,2,0:0:0:0:
47,32,149043,6,0,B|17:53|14:88|14:88|11:88|11:88|10:147|62:182,1,170,6|2,3:2|3:2,0:0:0:0:
246,83,149530,1,2,0:0:0:0:
314,249,149692,1,10,0:0:0:0:
241,222,149854,1,2,0:0:0:0:
241,222,149935,1,2,0:0:0:0:
241,222,150016,2,0,B|255:202|258:183|258:183|280:182|302:168,1,76.4999976654053,2|0,3:2|0:0,0:0:0:0:
281,340,150340,6,0,P|246:314|206:302,2,85,2|2|2,3:2|0:0|3:2,0:0:0:0:
164,170,150827,1,2,0:0:0:0:
9,342,150989,1,10,0:0:0:0:
90,314,151151,1,2,0:0:0:0:
90,314,151232,1,2,0:0:0:0:
90,314,151313,2,0,B|77:293|75:274|75:274|54:270|44:262,1,76.4999976654053,2|0,3:2|0:0,0:0:0:0:
5,113,151638,70,0,B|40:93|89:106|89:106|87:108|87:108|111:142|165:135,1,170,6|2,3:2|0:0,0:0:0:0:
317,1,152124,2,0,B|291:9|273:27|273:27|278:30|278:30|267:93|307:139,1,170,2|2,0:0|0:0,0:0:0:0:
493,190,152530,1,2,0:0:0:0:
501,176,152611,2,0,B|439:190|439:190|438:194|438:194|371:210,1,127.5,2|0,3:2|0:0,0:0:0:0:
327,264,152935,5,2,3:2:0:0:
506,312,153097,1,2,0:0:0:0:
509,297,153178,1,2,0:0:0:0:
512,282,153259,1,2,3:2:0:0:
321,360,153421,2,0,P|247:335|158:336,1,127.5,2|0,0:0|0:0,0:0:0:0:
110,381,153746,1,2,0:0:0:0:
110,381,153827,1,2,0:0:0:0:
110,381,153908,2,0,P|103:365|98:341,1,42.5,2|0,3:2|0:0,0:0:0:0:
173,210,154070,1,0,0:0:0:0:
60,24,154232,6,0,B|30:22|8:2|8:2|10:4|10:4|-18:74|34:137,1,187.000005706787,6|0,3:2|3:0,0:0:0:0:
263,303,154719,6,0,B|269:281|280:264|280:264|270:247|270:247|235:316|169:313,1,187.000005706787,12|0,0:2|3:0,0:0:0:0:
208,78,155205,70,0,L|199:123,1,46.7500014266968,12|0,0:0|0:0,0:0:0:0:
326,368,155367,1,0,3:0:0:0:
336,346,155448,1,0,3:0:0:0:
353,304,155529,5,10,0:0:0:0:
14,220,155692,2,0,B|38:182|88:185|88:185|82:191|82:191|151:181|199:236,1,212.5,14|8,0:0|0:0,0:0:0:0:
382,94,156178,70,0,P|366:110|353:129,1,39.6666654561361,10|2,0:0|3:2,0:0:0:0:
462,70,156394,5,2,3:2:0:0:
390,214,156503,5,10,0:0:0:0:
337,217,156584,1,10,0:0:0:0:
290,192,156665,1,10,0:0:0:0:
264,145,156746,1,10,0:0:0:0:
279,69,156827,6,0,B|262:18|185:17|163:66|163:66|156:73|156:73|155:89|159:106,1,187.000005706787,6|10,3:2|0:0,0:0:0:0:
18,220,157313,2,0,B|136:183|136:183|104:172|82:143,1,187.000005706787,2|2,3:2|3:2,0:0:0:0:
363,94,157800,2,0,B|393:137|393:137|356:223,1,140.25000428009,10|0,0:0|0:0,0:0:0:0:
321,288,158124,5,2,3:2:0:0:
496,165,158286,1,2,3:2:0:0:
279,69,158449,1,10,0:0:0:0:
217,154,158611,2,0,B|255:154|255:154|159:122|159:122|140:141|100:159,1,187.000005706787,2|2,3:2|3:2,0:0:0:0:
237,337,159097,2,0,P|228:279|214:235,1,93.5000028533936,10|2,0:0|3:2,0:0:0:0:
306,231,159340,1,0,3:0:0:0:
306,231,159421,6,0,P|371:300|446:239,1,187.000005706787,2|10,3:2|0:0,0:0:0:0:
286,381,159908,2,0,B|275:370|267:353|267:353|165:378|165:378|148:363|120:356,1,187.000005706787,2|2,3:2|3:2,0:0:0:0:
21,172,160394,2,0,L|177:134,1,140.25000428009,10|0,0:0|0:0,0:0:0:0:
264,84,160719,70,0,B|249:54|240:16|240:16|186:67,1,140.25000428009,2|2,3:2|3:2,0:0:0:0:
157,139,161043,2,0,P|148:184|108:220,1,93.5000028533936,10|2,0:0|3:2,0:0:0:0:
21,84,161367,1,2,3:2:0:0:
48,77,161448,1,0,3:0:0:0:
377,106,161611,1,0,3:0:0:0:
350,113,161692,2,0,P|398:80|484:106,1,140.25000428009,10|0,0:0|0:0,0:0:0:0:
332,138,162016,6,0,B|200:173|200:173|194:172|194:172|171:189|167:222,1,187.000005706787,6|10,3:2|0:0,0:0:0:0:
56,377,162503,2,0,B|7:336|29:265|99:258|99:258|99:271|88:284,1,187.000005706787,2|0,3:2|3:0,0:0:0:0:
62,54,162989,2,0,P|96:92|86:175,1,140.25000428009,10|0,0:0|0:0,0:0:0:0:
29,231,163313,5,2,3:2:0:0:
244,274,163476,1,2,3:2:0:0:
56,377,163638,1,10,0:0:0:0:
323,207,163800,2,0,B|348:350|348:350|392:387,1,187.000005706787,6|2,3:2|3:2,0:0:0:0:
390,155,164205,1,2,0:0:0:0:
390,155,164286,2,0,B|430:144|430:144|436:139|436:139|479:129,1,93.5000028533936,10|2,0:0|3:2,0:0:0:0:
318,99,164530,1,0,3:0:0:0:
318,99,164611,6,0,P|247:82|147:41,1,170,14|2,0:0|3:2,0:0:0:0:
125,268,165097,70,0,B|115:247|116:222|116:222|99:206|92:184|92:184|165:141,1,170,10|2,0:0|3:2,0:0:0:0:
392,57,165584,6,0,P|408:18|377:47,1,85,10|2,0:0|3:2,0:0:0:0:
275,185,165908,5,10,0:0:0:0:
3,47,166070,1,10,0:0:0:0:
85,351,166232,1,10,0:0:0:0:
85,351,166557,5,2,0:0:0:0:
8,318,166719,1,2,3:2:0:0:
8,318,166800,1,0,3:0:0:0:
8,318,166881,2,0,L|0:385,1,50.9999984436036,8|2,0:0|0:0,0:0:0:0:
402,224,167205,70,0,B|428:383|428:383|439:344|474:299,1,237.999992736817,6|8,3:2|0:0,0:0:0:0:
320,166,167692,1,2,3:2:0:0:
293,161,167773,1,2,0:0:0:0:
266,156,167854,2,0,P|236:168|198:178,1,59.4999981842042,2|0,0:0|0:0,0:0:0:0:
351,13,168016,2,0,B|371:-2|371:-2|388:106,1,118.999996368408,2|10,3:2|0:0,0:0:0:0:
126,190,168340,1,2,0:0:0:0:
8,99,168503,5,2,3:2:0:0:
85,263,168665,1,0,3:0:0:0:
267,316,168827,1,8,0:0:0:0:
200,262,168989,5,2,3:2:0:0:
187,285,169070,1,2,0:0:0:0:
182,311,169151,2,0,P|181:342|189:377,1,59.4999981842042,2|0,0:0|0:0,0:0:0:0:
126,190,169313,2,0,P|117:160|115:124,1,59.4999981842042,2|0,3:2|0:0,0:0:0:0:
208,25,169476,37,10,0:0:0:0:
190,22,169530,1,2,0:0:0:0:
172,19,169584,1,2,0:0:0:0:
155,17,169638,1,2,0:0:0:0:
269,147,169800,54,0,P|336:173|370:223,1,118.999996368408,2|0,3:2|0:0,0:0:0:0:
488,72,170043,2,0,P|442:128|438:188,1,118.999996368408,2|0,0:0|0:0,0:0:0:0:
235,133,170286,2,0,P|265:120|300:120,1,59.4999981842042,2|0,3:2|0:0,0:0:0:0:
258,337,170448,6,0,B|211:322|211:322|189:308|189:308|143:295,1,118.999996368408,2|0,0:0|3:0,0:0:0:0:
263,361,170692,2,0,B|309:346|309:346|331:332|331:332|377:319,1,118.999996368408,2|0,0:0|0:0,0:0:0:0:
158,262,170935,2,0,L|90:242,1,59.4999981842042,2|0,0:0|0:0,0:0:0:0:
143,49,171097,5,2,3:2:0:0:
239,220,171259,1,0,3:0:0:0:
220,3,171421,1,8,0:0:0:0:
124,134,171584,70,0,B|163:135|195:144|195:144|314:83|314:83|333:132|306:175,1,289.000005512238,2|2,3:2|3:2,0:0:0:0:
36,125,172070,1,8,0:0:0:0:
12,279,172232,1,2,0:0:0:0:
14,261,172313,1,2,0:0:0:0:
16,241,172394,6,0,B|20:210|20:210|70:241|75:292|75:292|80:298|80:298|80:350|116:384,1,237.999992736817,6|8,3:2|0:0,0:0:0:0:
276,232,172881,2,0,L|146:254,1,118.999996368408,2|2,0:0|0:0,0:0:0:0:
464,207,173205,2,0,L|335:178,1,118.999996368408,2|10,3:2|0:0,0:0:0:0:
508,282,173530,1,2,0:2:0:0:
248,358,173692,5,2,3:2:0:0:
347,181,173854,1,0,3:0:0:0:
437,384,174016,1,8,0:0:0:0:
357,160,174178,1,2,3:2:0:0:
270,204,174340,6,0,P|293:239|383:254,1,118.999996368408,2|0,0:0|3:0,0:0:0:0:
492,215,174584,2,0,P|434:225|397:270,1,118.999996368408,2|0,0:0|0:0,0:0:0:0:
394,348,174827,1,2,0:0:0:0:
135,253,174989,70,0,B|157:201|157:201|141:141,1,118.999996368408,6|0,3:2|0:0,0:0:0:0:
120,10,175232,2,0,B|95:67|95:67|110:121,1,118.999996368408,2|0,0:0|0:0,0:0:0:0:
139,333,175476,2,0,L|171:258,1,59.4999981842042,2|0,3:2|0:0,0:0:0:0:
317,181,175638,5,2,0:0:0:0:
281,159,175719,1,2,0:0:0:0:
261,123,175800,1,2,3:2:0:0:
262,82,175881,1,2,0:0:0:0:
291,16,175962,5,14,0:0:0:0:
349,16,176043,1,2,0:0:0:0:
395,52,176124,1,2,0:0:0:0:
410,109,176205,1,2,0:0:0:0:
396,185,176286,6,0,L|458:208,1,59.4999981842042,6|0,3:2|0:0,0:0:0:0:
317,181,176448,1,2,3:2:0:0:
321,384,176611,70,0,L|309:318,1,63.7500024318696,14|0,0:0|0:0,0:0:0:0:
361,258,176773,1,8,0:0:0:0:
361,258,176854,1,8,0:0:0:0:
361,258,176935,6,0,L|435:285,1,68,10|0,0:0|0:0,0:0:0:0:
317,181,177097,1,0,3:0:0:0:
237,368,177259,5,2,3:2:0:0:
232,338,177340,1,8,0:0:0:0:
227,309,177421,1,8,0:0:0:0:
410,109,177584,6,0,B|425:90|456:89|456:89|422:61|379:72|379:72|373:60|373:60|360:73|360:73|319:106|276:84,1,255.000009727478,6|8,3:2|0:0,0:0:0:0:
7,21,178070,1,2,3:2:0:0:
18,15,178151,1,2,0:0:0:0:
30,10,178232,2,0,P|47:37|55:72,1,63.7500024318696,2|0,0:0|0:0,0:0:0:0:
112,312,178394,2,0,P|126:250|160:196,1,127.500004863739,2|8,3:2|0:0,0:0:0:0:
0,343,178719,1,2,0:0:0:0:
302,312,178881,70,0,B|361:321|361:321|368:317|368:317|427:326,2,127.500004863739,2|0|8,3:2|3:0|0:0,0:0:0:0:
512,196,179367,1,2,3:2:0:0:
476,200,179448,1,2,0:0:0:0:
440,204,179530,6,0,P|420:174|413:139,1,63.7500024318696,2|0,0:0|0:0,0:0:0:0:
319,0,179692,2,0,P|311:34|292:64,1,63.7500024318696,2|0,3:2|0:0,0:0:0:0:
261,176,179854,2,0,P|290:156|325:149,1,63.7500024318696,10|0,0:0|0:0,0:0:0:0:
466,55,180016,2,0,P|431:47|401:28,1,63.7500024318696,2|0,0:0|0:0,0:0:0:0:
134,68,180178,6,0,B|187:86|182:150|182:150|159:129,1,127.500004863739,2|0,3:2|0:0,0:0:0:0:
164,273,180421,2,0,B|111:255|116:191|116:191|139:212,1,127.500004863739,2|0,0:0|0:0,0:0:0:0:
261,176,180665,2,0,P|247:202|221:222,1,63.7500024318696,2|0,3:2|0:0,0:0:0:0:
53,338,180827,6,0,B|85:333|111:349|111:349|121:343|121:343|148:361|187:354,1,127.500004863739,2|0,0:0|3:0,0:0:0:0:
350,329,181070,2,0,B|324:334|297:316|297:316|287:322|287:322|261:306|229:311,1,127.500004863739,2|0,0:0|0:0,0:0:0:0:
404,383,181313,2,0,P|421:354|422:317,1,63.7500024318696,2|0,0:0|0:0,0:0:0:0:
260,98,181476,69,2,3:2:0:0:
350,329,181638,1,2,3:2:0:0:
471,199,181800,1,8,0:0:0:0:
241,88,181962,6,0,B|189:102|152:68|152:68|149:50|149:50|125:60|125:60|77:67|36:46|36:46|77:67|82:114,1,305.999990661621,6|0,3:2|3:0,0:0:0:0:
22,325,182448,2,0,B|11:331|-4:329|-4:329|2:313|18:302|18:302|51:338|99:340,1,152.999995330811,8|10,0:0|0:0,0:0:0:0:
272,307,182692,1,10,0:0:0:0:
210,346,182773,6,0,B|190:318|195:265|236:236|236:236|234:242|234:242|281:242|324:204|314:153,1,255.000009727478,6|8,3:2|0:0,0:0:0:0:
508,94,183259,6,0,B|453:90|433:16|433:16|411:57|357:49,1,191.250007295609,2|0,3:2|0:0,0:0:0:0:
241,88,183584,2,0,B|296:92|316:166|316:166|338:125|392:133,1,191.250007295609,2|0,3:2|0:0,0:0:0:0:
440,214,183908,2,0,P|408:218|379:208,1,63.7500024318696,2|0,0:0|0:0,0:0:0:0:
255,16,184070,70,0,B|220:2|187:25|201:31|171:54|137:44,1,127.500004863739,2|0,3:2|3:0,0:0:0:0:
24,97,184313,2,0,B|59:83|92:106|78:112|108:135|142:125,1,127.500004863739,2|0,0:0|0:0,0:0:0:0:
255,178,184557,2,0,P|222:176|189:198,1,63.7500024318696,2|0,3:2|0:0,0:0:0:0:
134,356,184719,6,0,B|147:311|124:270|124:270|121:294|108:308,1,127.500004863739,2|0,0:0|3:0,0:0:0:0:
38,173,184962,2,0,B|25:218|48:259|48:259|51:235|64:221,1,127.500004863739,2|0,0:0|0:0,0:0:0:0:
250,217,185205,2,0,P|226:195|195:190,1,63.7500024318696,2|0,3:2|0:0,0:0:0:0:
234,344,185367,6,0,B|274:331|274:331|296:334|296:334|311:319|311:319|351:307,1,127.500004863739,6|0,3:2|0:0,0:0:0:0:
464,378,185611,2,0,B|452:337|452:337|437:322|437:322|440:300|440:300|427:260,1,127.500004863739,2|0,0:0|0:0,0:0:0:0:
461,161,185854,2,0,B|440:166|440:166|433:174|433:174|422:172|422:172|402:179,1,63.7500024318696,2|0,3:2|0:0,0:0:0:0:
172,124,186016,5,2,0:0:0:0:
214,130,186097,1,2,0:0:0:0:
253,113,186178,1,2,3:2:0:0:
278,80,186259,1,2,0:0:0:0:
319,19,186340,69,10,0:0:0:0:
349,59,186421,1,2,0:0:0:0:
395,79,186502,1,2,3:2:0:0:
446,72,186583,1,2,0:0:0:0:
508,26,186665,6,0,P|483:5|452:0,1,63.7500024318696,10|0,0:0|0:0,0:0:0:0:
344,151,186827,1,0,3:0:0:0:
344,151,186908,1,0,3:0:0:0:
344,151,186989,1,2,3:2:0:0:
483,364,187151,6,0,B|487:333|487:333|490:331|490:331|493:298,1,68,10|0,0:0|0:0,0:0:0:0:
252,365,187313,1,2,0:0:0:0:
252,365,187394,1,0,3:0:0:0:
252,365,187476,1,0,3:0:0:0:
45,118,187638,6,0,B|65:118|84:100|84:100|97:159|61:204,1,144.500002756119,14|0,0:0|3:0,0:0:0:0:
6,244,187881,1,0,3:0:0:0:
6,244,187962,69,14,0:0:0:0:
243,118,188124,1,0,3:0:0:0:
220,192,188286,5,10,0:0:0:0:
29,43,188448,1,0,3:0:0:0:
45,118,188611,5,10,0:0:0:0:
306,9,188773,1,0,3:0:0:0:
495,278,188935,2,0,B|475:239|442:223|442:223|479:186|473:113,1,191.250007295609,10|0,0:0|0:0,0:0:0:0:
447,52,189259,5,10,0:0:0:0:
407,304,189421,1,0,3:0:0:0:
495,278,189584,69,10,0:0:0:0:
176,228,189746,1,2,3:2:0:0:
88,254,189908,5,10,0:0:0:0:
407,304,190070,1,0,3:0:0:0:
186,109,190232,2,0,P|161:168|179:232,1,127.500004863739,10|0,0:0|3:0,0:0:0:0:
474,352,190557,5,10,0:0:0:0:
266,175,190719,1,0,3:0:0:0:
347,153,190881,5,10,0:0:0:0:
119,346,191043,1,0,3:0:0:0:
191,381,191205,69,10,0:0:0:0:
71,96,191367,1,0,3:0:0:0:
34,169,191530,5,10,0:0:0:0:
304,26,191692,1,0,3:0:0:0:
267,99,191854,5,8,0:0:0:0:
34,23,192016,1,8,0:0:0:0:
181,311,192178,1,8,0:0:0:0:
435,55,192340,1,8,0:0:0:0:
435,55,192989,6,0,B|484:32|484:32|421:-13|366:45,1,187.000005706787,4|0,3:2|3:0,0:0:0:0:
228,167,193476,2,0,P|234:213|251:263,1,93.5000028533936,10|0,0:0|0:0,0:0:0:0:
280,89,193800,1,2,3:2:0:0:
280,89,193962,1,0,3:0:0:0:
147,320,194124,2,0,P|150:289|162:257,1,46.7500014266968,10|0,0:0|0:0,0:0:0:0:
150,119,194286,70,0,B|83:101|25:73|25:73|11:140,1,187.000005706787,2|2,3:2|3:2,0:0:0:0:
166,9,194773,2,0,P|143:18|153:40,1,46.7500014266968,10|0,0:0|0:0,0:0:0:0:
156,221,194935,2,0,P|178:211|168:189,1,46.7500014266968,2|0,0:0|0:0,0:0:0:0:
2,246,195097,85,2,3:2:0:0:
13,313,195205,5,2,0:0:0:0:
60,362,195313,101,2,0:0:0:0:
158,384,195421,5,10,0:0:0:0:
134,346,195529,101,2,0:0:0:0:
147,304,195637,5,2,0:0:0:0:
126,264,195746,22,0,P|178:275|226:287,1,93.5000028533936,2|2,0:0|3:2,0:0:0:0:
415,212,196070,69,8,0:0:0:0:
388,216,196178,5,2,0:0:0:0:
361,220,196286,101,2,0:0:0:0:
335,224,196394,22,0,L|321:294,1,46.7500014266968,2|0,3:2|0:0,0:0:0:0:
282,336,196557,2,0,L|291:381,1,46.7500014266968,2|0,3:2|0:0,0:0:0:0:
171,171,196719,1,10,0:0:0:0:
251,216,196881,6,0,B|257:134|257:134|260:123|260:123|267:14,1,187.000005706787,2|2,3:2|3:2,0:0:0:0:
345,97,197367,2,0,P|367:116|391:127,1,46.7500014266968,10|0,0:0|0:0,0:0:0:0:
490,56,197530,2,0,P|469:67|452:83,1,46.7500014266968,2|0,0:0|0:0,0:0:0:0:
375,203,197692,1,2,3:2:0:0:
375,203,197854,1,0,3:0:0:0:
487,380,198016,1,10,0:0:0:0:
505,295,198178,6,0,B|475:263|423:272|404:318|404:318|394:322|394:322|387:349|368:368,1,187.000005706787,2|2,3:2|3:2,0:0:0:0:
235,332,198665,54,0,B|214:357|214:357|225:388,2,62.3333352355958,10|2|2,0:0|0:0|0:0,0:0:0:0:
368,224,198989,5,2,3:2:0:0:
332,247,199097,101,2,0:0:0:0:
291,229,199205,5,2,0:0:0:0:
255,252,199313,102,0,B|235:228|235:228|245:199,2,62.3333352355958,10|2|2,0:0|0:0|0:0,0:0:0:0:
103,207,199638,53,2,0:0:0:0:
103,207,199719,1,2,0:0:0:0:
103,207,199800,2,0,P|129:209|145:189,1,46.7500014266968,2|0,3:2|0:0,0:0:0:0:
278,52,199962,2,0,P|295:37|317:40,1,46.7500014266968,10|0,0:0|0:0,0:0:0:0:
178,11,200124,5,2,0:0:0:0:
178,11,200205,1,2,0:0:0:0:
178,11,200286,2,0,P|170:33|165:62,1,46.7500014266968,2|0,0:0|0:0,0:0:0:0:
42,64,200448,2,0,P|65:68|92:78,1,46.7500014266968,2|0,3:2|0:0,0:0:0:0:
238,121,200611,2,0,P|214:125|187:135,1,46.7500014266968,10|0,0:0|0:0,0:0:0:0:
124,285,200773,70,0,B|137:339|137:339|140:342|140:342|150:387|150:387|113:374|69:368,1,187.000005706787,2|2,3:2|3:2,0:0:0:0:
274,301,201259,2,0,P|268:330|265:359,1,46.7500014266968,10|0,0:0|0:0,0:0:0:0:
204,245,201421,2,0,P|200:221|195:199,1,46.7500014266968,2|0,3:2|0:0,0:0:0:0:
360,128,201584,1,2,3:2:0:0:
263,0,201746,1,2,3:2:0:0:
288,185,201908,1,10,0:0:0:0:
482,26,202070,6,0,P|467:79|436:226,1,187.000005706787,6|2,3:2|3:2,0:0:0:0:
378,6,202557,2,0,P|384:35|387:64,1,46.7500014266968,10|0,0:0|0:0,0:0:0:0:
367,273,202719,2,0,P|362:250|358:227,1,46.7500014266968,2|0,3:2|0:0,0:0:0:0:
318,97,202881,1,8,0:0:0:0:
318,97,202962,1,0,3:0:0:0:
318,97,203043,1,2,3:2:0:0:
238,125,203205,1,0,3:0:0:0:
14,0,203367,6,0,B|26:31|68:45|68:45|81:111|38:167,1,187.000005706787,6|0,3:2|3:0,0:0:0:0:
203,224,203854,2,0,P|164:191|139:150,1,93.5000028533936,10|0,0:0|3:0,0:0:0:0:
359,260,204178,2,0,P|309:264|262:253,1,93.5000028533936,2|0,3:2|3:0,0:0:0:0:
494,175,204503,1,10,0:0:0:0:
384,384,204665,6,0,B|367:345|382:301|382:301|376:286|376:286|395:241|378:202,1,187.000005706787,2|0,3:2|3:0,0:0:0:0:
475,68,205151,2,0,P|466:113|480:157,1,93.5000028533936,10|0,0:0|3:0,0:0:0:0:
451,342,205476,69,2,3:2:0:0:
318,153,205638,1,2,3:2:0:0:
202,299,205800,1,10,0:0:0:0:
311,242,205962,1,2,3:2:0:0:
202,180,206124,5,2,3:2:0:0:
304,365,206286,1,2,3:2:0:0:
447,210,206448,1,10,0:0:0:0:
345,25,206610,1,2,3:2:0:0:
293,82,206773,5,2,3:2:0:0:
418,47,206935,1,2,3:2:0:0:
270,10,207097,1,10,0:0:0:0:
368,108,207259,1,2,3:2:0:0:
345,25,207421,5,2,3:2:0:0:
311,242,207584,1,2,3:2:0:0:
102,305,207746,1,10,0:0:0:0:
136,88,207909,1,2,3:2:0:0:
228,352,208070,69,2,3:2:0:0:
262,345,208151,1,2,0:0:0:0:
286,317,208232,1,2,3:2:0:0:
323,326,208313,1,2,0:0:0:0:
356,308,208394,1,10,0:0:0:0:
454,66,208557,6,0,B|402:94|420:171|420:171|392:151|356:159,1,187.000005706787,6|0,3:2|3:0,0:0:0:0:
482,369,209043,2,0,B|484:327|484:327|486:325|486:325|488:276,1,93.5000028533936,10|0,0:0|3:0,0:0:0:0:
332,57,209367,5,2,3:2:0:0:
288,41,209448,1,2,0:0:0:0:
243,52,209529,1,2,3:2:0:0:
212,86,209610,1,2,0:0:0:0:
161,154,209692,5,10,0:0:0:0:
110,170,209773,1,2,0:0:0:0:
61,156,209854,1,2,3:2:0:0:
26,119,209935,1,2,0:0:0:0:
69,20,210016,69,2,3:2:0:0:
112,58,210097,1,2,0:0:0:0:
129,115,210178,1,2,3:2:0:0:
110,170,210259,1,2,0:0:0:0:
64,207,210340,1,10,0:0:0:0:
18,245,210421,1,2,0:0:0:0:
0,301,210502,1,2,3:2:0:0:
25,358,210583,1,2,0:0:0:0:
104,382,210665,5,2,3:2:0:0:
138,378,210746,1,2,0:0:0:0:
194,338,210827,5,2,3:2:0:0:
229,334,210908,1,2,0:0:0:0:
297,359,210989,5,10,0:0:0:0:
512,384,211151,70,0,B|495:353|460:342|460:342|503:300|490:232,1,187.000005706787,6|2,3:2|3:2,0:0:0:0:
342,119,211638,1,8,0:0:0:0:
392,264,211800,1,2,3:2:0:0:
495,29,211962,2,0,B|449:22|449:22|405:39,1,93.5000028533936,2|0,3:2|3:0,0:0:0:0:
342,119,212205,2,0,B|296:126|296:126|252:108,1,93.5000028533936,2|0,0:0|0:0,0:0:0:0:
212,0,212448,6,0,B|207:47|207:47|181:77|181:77|176:129,1,140.25000428009,2|0,3:2|0:0,0:0:0:0:
212,200,212773,1,2,3:2:0:0:
43,94,212935,1,10,0:0:0:0:
89,362,213097,1,2,3:2:0:0:
114,324,213178,1,0,3:0:0:0:
139,286,213259,5,2,3:2:0:0:
157,299,213340,1,0,3:0:0:0:
179,309,213421,1,0,3:0:0:0:
201,313,213502,1,0,3:0:0:0:
225,313,213583,1,0,3:0:0:0:
247,307,213664,1,0,3:0:0:0:
268,296,213746,6,0,B|292:271|328:257|368:260|368:260|381:271|381:271|416:278|446:298,1,187.000005706787,6|0,3:2|3:0,0:0:0:0:
175,205,214232,2,0,B|153:201|128:202|128:202|109:192|84:184,1,93.5000028533936,10|0,0:0|3:0,0:0:0:0:
380,133,214557,2,0,B|402:129|427:130|427:130|446:120|470:112,1,93.5000028533936,2|0,3:2|3:0,0:0:0:0:
268,296,214881,1,8,0:0:0:0:
295,214,215043,70,0,B|301:188|301:188|246:111|246:111|264:14,1,187.000005706787,2|2,3:2|3:2,0:0:0:0:
333,13,215448,1,2,0:0:0:0:
333,13,215530,2,0,L|379:5,1,46.7500014266968,10|0,0:0|0:0,0:0:0:0:
257,46,215692,2,0,L|211:38,1,46.7500014266968,2|0,3:2|0:0,0:0:0:0:
10,155,215854,1,2,3:2:0:0:
138,0,216016,1,2,3:2:0:0:
175,205,216178,1,10,0:0:0:0:
158,114,216340,6,0,B|109:116|58:141|22:187|22:187|32:225,2,187.000005706787,2|2|2,3:2|3:2|3:2,0:0:0:0:
352,280,217151,1,2,3:2:0:0:
248,112,217313,1,0,3:0:0:0:
431,204,217476,1,8,0:0:0:0:
490,276,217638,6,0,P|488:325|366:377,1,187.000005706787,2|2,3:2|3:2,0:0:0:0:
308,196,218124,2,0,P|287:220|278:241,1,46.7500014266968,10|0,0:0|0:0,0:0:0:0:
325,89,218286,2,0,P|341:105|353:125,1,46.7500014266968,2|0,3:2|0:0,0:0:0:0:
313,318,218448,1,2,3:2:0:0:
313,318,218611,1,2,3:2:0:0:
41,257,218773,1,10,0:0:0:0:
254,383,218935,6,0,B|230:370|230:370|221:344|221:344|185:306|185:306|176:263|202:226,1,187.000005706787,6|2,3:2|3:2,0:0:0:0:
283,15,219421,1,10,0:0:0:0:
266,175,219584,1,2,3:2:0:0:
132,35,219746,1,2,3:2:0:0:
345,83,219908,1,2,3:2:0:0:
114,32,220070,1,10,0:0:0:0:
419,25,220232,70,0,B|441:31|441:31|463:62|486:87|486:87|488:101|488:101|460:130|433:167,1,187.000005706787,2|2,3:2|3:2,0:0:0:0:
266,311,220719,1,10,0:0:0:0:
300,199,220881,1,2,3:2:0:0:
361,378,221043,1,2,3:2:0:0:
455,307,221205,1,2,3:2:0:0:
417,197,221367,1,10,0:0:0:0:
219,150,221530,6,0,B|181:159|159:188|161:230|161:230|169:228|169:228|183:258|177:296,1,187.000005706787,2|0,3:2|3:0,0:0:0:0:
14,363,222016,2,0,P|64:353|118:346,1,93.5000028533936,10|0,0:0|3:0,0:0:0:0:
290,205,222340,2,0,P|331:226|381:242,1,93.5000028533936,2|0,3:2|3:0,0:0:0:0:
219,150,222665,1,10,0:0:0:0:
485,302,222827,6,0,B|424:319|424:319|401:367|401:367|338:339|266:323,1,255.000009727478,6|2,3:2|3:2,0:0:0:0:
5,281,223313,1,10,0:0:0:0:
92,247,223476,1,0,3:0:0:0:
92,247,223557,1,0,3:0:0:0:
92,247,223638,1,0,3:0:0:0:
170,290,223800,1,0,3:0:0:0:
174,379,223962,1,8,0:0:0:0:
0,131,224124,6,0,B|53:131|88:92|88:92|128:106|128:106|159:81|198:83,1,212.5,6|2,3:2|3:2,0:0:0:0:
326,0,224611,69,10,0:0:0:0:
352,30,224692,1,2,0:0:0:0:
362,67,224773,1,2,3:2:0:0:
355,105,224854,1,2,0:0:0:0:
421,32,224935,5,2,3:2:0:0:
419,72,225016,1,2,0:0:0:0:
400,105,225097,1,2,3:2:0:0:
368,127,225178,1,2,0:0:0:0:
466,122,225259,5,10,0:0:0:0:
436,149,225340,1,2,0:0:0:0:
400,158,225421,2,0,P|373:157|349:146,1,53.125,6|2,3:2|0:0,0:0:0:0:
237,325,225584,5,2,0:0:0:0:
267,282,225665,1,2,0:0:0:0:
315,261,225746,1,2,3:2:0:0:
368,266,225827,1,2,0:0:0:0:
413,345,225908,69,10,0:0:0:0:
362,355,225989,1,2,0:0:0:0:
313,337,226070,1,2,3:2:0:0:
282,295,226151,1,2,0:0:0:0:
266,207,226232,6,0,P|261:179|246:148,1,53.125,2|2,0:0|0:0,0:0:0:0:
8,123,226394,1,2,3:2:0:0:
8,123,226476,1,2,0:0:0:0:
8,123,226557,5,10,0:0:0:0:
7,187,226638,1,2,0:0:0:0:
49,237,226719,1,6,3:2:0:0:
114,246,226800,1,2,0:0:0:0:
184,205,226881,5,2,0:0:0:0:
220,242,226962,1,2,0:0:0:0:
228,293,227043,1,2,3:2:0:0:
204,340,227124,1,2,0:0:0:0:
142,384,227205,69,10,0:0:0:0:
185,353,227286,1,2,0:0:0:0:
236,344,227367,1,2,3:2:0:0:
287,357,227448,1,2,0:0:0:0:
360,384,227530,5,2,3:2:0:0:
362,348,227611,1,2,0:0:0:0:
364,313,227692,1,2,3:2:0:0:
366,277,227773,1,2,0:0:0:0:
420,221,227854,5,10,0:0:0:0:
417,185,227935,1,2,0:0:0:0:
415,150,228016,1,6,3:2:0:0:
413,114,228097,1,2,0:0:0:0:
467,58,228178,5,2,0:0:0:0:
425,91,228259,1,2,0:0:0:0:
374,86,228340,1,2,3:2:0:0:
337,55,228421,1,2,0:0:0:0:
304,24,228502,1,10,0:0:0:0:
263,11,228583,1,2,0:0:0:0:
224,21,228665,1,2,3:2:0:0:
199,49,228746,1,2,0:0:0:0:
258,96,228827,70,0,P|275:53|262:9,2,93.5000028533936,2|0|8,3:2|3:0|0:0,0:0:0:0:
11,333,229313,6,0,B|54:319|65:263|65:263|118:313|189:278,1,212.5,4|0,3:2|3:0,0:0:0:0:
344,335,229800,2,0,P|330:319|322:295,1,38.2499988327027,10|0,0:0|0:0,0:0:0:0:
372,210,229962,2,0,P|352:217|336:231,1,42.5,2|0,3:2|0:0,0:0:0:0:
431,341,230124,2,0,P|453:298|448:250,1,97.7500018644333,2|2,3:2|3:2,0:0:0:0:
446,356,230448,1,10,0:0:0:0:
512,111,230611,5,6,3:2:0:0:
484,155,230692,1,2,0:0:0:0:
433,166,230773,1,2,0:0:0:0:
391,136,230854,1,2,0:0:0:0:
383,85,230935,1,2,3:2:0:0:
415,45,231016,1,2,0:0:0:0:
466,39,231097,2,0,P|447:59|424:67,1,53.125,10|2,0:0|0:0,0:0:0:0:
193,28,231259,37,0,3:0:0:0:
188,40,231313,1,0,3:0:0:0:
182,51,231367,1,0,3:0:0:0:
177,63,231421,1,0,3:0:0:0:
304,128,231584,101,0,3:0:0:0:
298,116,231638,1,0,3:0:0:0:
293,104,231692,1,0,3:0:0:0:
287,92,231746,1,0,3:0:0:0:
6,331,231908,54,0,B|55:295|55:295|163:338,1,172.125000656605,6|0,3:2|0:0,0:0:0:0:
227,365,232232,2,0,P|231:337|224:302,1,57.3750002188683,2|0,3:2|0:0,0:0:0:0:
304,128,232394,2,0,P|299:156|303:184,1,57.3750002188683,10|0,0:0|0:0,0:0:0:0:
498,381,232557,6,0,B|503:320|503:320|518:295|518:295|507:268|507:268|512:215,1,172.125000656605,6|0,3:2|0:0,0:0:0:0:
471,149,232881,2,0,L|413:153,1,57.3750002188683,2|0,3:2|0:0,0:0:0:0:
217,287,233043,2,0,L|274:291,1,57.3750002188683,10|0,0:0|0:0,0:0:0:0:
512,56,233205,6,0,L|334:42,1,172.125000656605,6|0,3:2|0:0,0:0:0:0:
268,9,233530,2,0,P|263:43|271:73,1,57.3750002188683,2|0,3:2|0:0,0:0:0:0:
364,319,233692,2,0,P|369:285|361:255,1,57.3750002188683,10|0,0:0|0:0,0:0:0:0:
15,164,233854,6,0,B|52:184|98:159|98:159|143:134|179:143,1,172.125000656605,6|0,3:2|0:0,0:0:0:0:
245,200,234178,2,0,B|260:174|260:174|266:140,1,57.3750002188683,2|0,3:2|0:0,0:0:0:0:
25,30,234340,2,0,B|29:56|29:56|44:82,1,57.3750002188683,10|0,0:0|0:0,0:0:0:0:
195,355,234503,70,0,B|197:301|259:287|259:287|255:282|255:282|303:337|370:317,1,229.500000875473,6|2,3:2|3:2,0:0:0:0:
126,332,234989,2,0,P|153:267|204:235,1,114.750000437737,10|2,0:0|0:0,0:0:0:0:
393,145,235313,2,0,P|374:198|331:235,1,114.750000437737,2|2,3:2|3:2,0:0:0:0:
221,76,235638,1,10,0:0:0:0:
485,5,235800,6,0,B|481:95|481:95|485:98|485:98|481:199,1,195.500003728867,2|0,3:2|3:0,0:0:0:0:
430,384,236286,2,0,L|424:269,1,97.7500018644333,8|0,0:0|0:0,0:0:0:0:
46,283,236611,70,0,B|66:279|80:260|80:260|101:274|130:272,1,85,10|0,0:0|0:0,0:0:0:0:
191,187,236827,6,0,B|177:223|177:223|190:267,1,76.4999976654053,2|0,3:2|0:0,0:0:0:0:
205,342,237043,102,0,B|216:306|216:306|205:262,1,68,2|0,3:2|0:0,0:0:0:0:
147,16,237259,22,0,B|117:167|117:167|42:86|42:86|192:102|192:102|221:84|221:84|400:101,1,595,6|2,3:2|0:0,0:0:0:0:
451,299,238557,6,0,B|480:244|459:154|459:154|506:227|498:339|498:339|442:340|391:373|391:373|391:381|391:381|332:351|262:368,1,595,6|2,3:2|0:0,0:0:0:0:
155,233,239854,69,4,3:2:0:0:
234,230,239962,5,8,0:0:0:0:
281,293,240070,101,8,0:0:0:0:
262,367,240178,5,8,0:0:0:0:
222,344,240286,101,8,0:0:0:0:
176,342,240394,102,0,L|173:381,1,28.3333333333333,0|0,3:0|3:0,0:0:0:0:
26,379,240503,5,0,3:0:0:0:
53,371,240611,5,0,3:0:0:0:
77,356,240719,101,0,3:0:0:0:
82,261,240827,5,0,3:0:0:0:
60,254,240935,101,0,3:0:0:0:
41,242,241043,5,0,3:0:0:0:
12,151,241151,86,0,L|46:142,1,28.3333333333333,0|0,3:0|3:0,0:0:0:0:
103,87,241367,101,0,3:0:0:0:
103,87,241421,1,0,3:0:0:0:
103,87,241475,1,0,3:0:0:0:
182,140,241584,5,0,3:0:0:0:
182,140,241638,1,0,3:0:0:0:
182,140,241692,1,0,3:0:0:0:
177,227,241800,6,0,P|172:257|169:293,2,56.6666666666667,8|8|8,0:0|0:0|0:0,0:0:0:0:
271,128,242124,5,8,0:0:0:0:
314,232,242232,101,8,0:0:0:0:
267,118,242340,5,8,0:0:0:0:
463,157,242773,6,0,L|481:237,1,68,2|0,3:2|0:0,0:0:0:0:
49,157,243421,6,0,L|31:237,1,68,2|0,3:2|0:2,0:0:0:0:
453,164,244070,6,0,L|470:239,1,68,2|0,3:2|0:0,0:0:0:0:
60,164,244718,6,0,L|47:217,1,51,2|0,3:2|0:0,0:0:0:0:
32,289,245043,69,14,0:0:0:0:
257,256,245205,1,0,3:0:0:0:
417,94,245367,1,0,3:0:0:0:
195,215,245530,5,14,0:0:0:0:
398,369,245692,1,0,3:0:0:0:
159,280,245854,1,0,3:0:0:0:
36,57,246016,5,14,0:0:0:0:
122,20,246178,1,0,3:0:0:0:
122,20,246259,1,0,3:0:0:0:
122,20,246340,5,10,0:0:0:0:
480,211,246503,1,10,0:0:0:0:
49,369,246665,2,0,L|29:334,1,34,10|0,0:0|0:0,0:0:0:0:
92,290,246989,2,0,L|119:338,1,50.9999984436036,2|0,0:0|0:0,0:0:0:0:
186,301,247313,2,0,L|150:238,1,68,2|0,0:0|0:0,0:0:0:0:
255,0,247638,70,0,B|296:64|296:64|296:70|296:70|331:129|331:129|311:64|343:25,1,255.000009727478,6|8,3:2|0:0,0:0:0:0:
473,308,248124,1,2,3:2:0:0:
481,277,248205,1,2,3:2:0:0:
487,246,248286,2,0,B|454:244|454:244|452:245|452:245|423:242,1,63.7500024318696,2|0,3:2|0:0,0:0:0:0:
229,367,248448,1,2,3:2:0:0:
364,195,248611,1,8,0:0:0:0:
424,362,248773,1,2,3:2:0:0:
211,212,248935,6,0,B|169:216|143:258|143:258|110:190|57:181,1,191.250007295609,2|0,3:2|0:0,0:0:0:0:
0,173,249259,1,8,0:0:0:0:
247,26,249421,1,2,3:2:0:0:
244,51,249503,1,2,3:2:0:0:
241,76,249584,6,0,P|275:78|310:62,1,63.7500024318696,2|0,3:2|0:0,0:0:0:0:
487,171,249746,2,0,P|457:160|425:162,1,63.7500024318696,2|0,3:2|0:0,0:0:0:0:
338,215,249908,2,0,P|340:181|324:146,1,63.7500024318696,10|0,0:0|0:0,0:0:0:0:
401,17,250070,2,0,P|390:46|392:78,1,63.7500024318696,2|0,3:2|0:0,0:0:0:0:
450,324,250232,6,0,B|388:319|388:319|385:324|385:324|325:321,1,127.500004863739,2|0,3:2|0:0,0:0:0:0:
193,350,250476,2,0,B|253:346|253:346|255:351|255:351|317:347,1,127.500004863739,2|0,0:0|0:0,0:0:0:0:
482,259,250719,2,0,L|418:255,1,63.7500024318696,2|0,3:2|0:0,0:0:0:0:
178,352,250881,70,0,B|196:324|194:289|194:289|171:266|168:230,1,127.500004863739,2|0,0:0|3:0,0:0:0:0:
75,181,251124,2,0,B|57:209|59:244|59:244|82:267|85:303,1,127.500004863739,2|0,0:0|0:0,0:0:0:0:
218,156,251367,2,0,P|188:143|146:144,1,63.7500024318696,2|0,0:0|0:0,0:0:0:0:
2,306,251530,5,2,3:2:0:0:
82,82,251692,1,0,3:0:0:0:
253,228,251854,1,8,0:0:0:0:
507,71,252016,6,0,B|480:38|432:37|432:37|435:29|435:29|382:61|353:22|294:107,1,229.499992996216,2|0,3:2|0:0,0:0:0:0:
298,158,252340,1,0,3:0:0:0:
60,5,252503,1,8,0:0:0:0:
0,154,252665,1,2,0:0:0:0:
40,150,252746,1,2,0:0:0:0:
73,127,252827,6,0,B|112:113|145:143|145:143|140:145|140:145|93:221|147:298,1,237.999992736817,6|8,3:2|0:0,0:0:0:0:
359,234,253313,2,0,B|301:222|301:222|299:224|299:224|244:213,1,118.999996368408,2|0,3:2|0:0,0:0:0:0:
85,381,253638,2,0,B|143:369|143:369|145:371|145:371|200:359,1,118.999996368408,2|8,3:2|0:0,0:0:0:0:
297,146,253962,1,2,0:0:0:0:
507,359,254124,70,0,B|509:333|487:312|487:312|498:347|490:377,1,118.999996368408,2|0,3:2|3:0,0:0:0:0:
359,234,254367,2,0,B|356:259|378:280|378:280|367:245|375:215,1,118.999996368408,2|0,0:0|0:0,0:0:0:0:
508,237,254611,2,0,P|478:234|451:244,1,59.4999981842042,2|0,3:2|0:0,0:0:0:0:
404,131,254773,6,0,B|425:140|441:158|441:158|518:143,1,118.999996368408,2|0,0:0|3:0,0:0:0:0:
400,56,255016,2,0,B|379:47|363:29|363:29|285:43,1,118.999996368408,2|0,0:0|0:0,0:0:0:0:
238,135,255259,2,0,L|296:145,1,59.4999981842042,2|0,0:0|0:0,0:0:0:0:
153,25,255421,6,0,B|164:82|128:83|140:156,1,118.999996368408,6|0,3:2|0:0,0:0:0:0:
223,251,255665,2,0,B|212:194|248:193|236:120,1,118.999996368408,2|0,0:0|0:0,0:0:0:0:
80,217,255908,2,0,P|108:231|148:236,1,59.4999981842042,6|0,3:2|0:0,0:0:0:0:
436,249,256070,5,2,3:2:0:0:
407,216,256151,1,2,0:0:0:0:
364,207,256232,1,2,3:2:0:0:
325,227,256313,1,2,0:0:0:0:
293,299,256394,69,10,0:0:0:0:
267,350,256475,1,2,0:0:0:0:
212,371,256556,1,2,0:0:0:0:
158,348,256637,1,2,0:0:0:0:
82,302,256719,86,0,P|49:316|17:353,1,79.3333309122722,2|8,3:2|0:0,0:0:0:0:
94,382,256935,5,8,0:0:0:0:
114,219,257043,102,0,P|145:234|176:273,1,79.3333309122722,10|0,0:0|3:0,0:0:0:0:
99,299,257259,5,8,0:0:0:0:
45,155,257367,101,10,0:0:0:0:
21,228,257476,5,8,0:0:0:0:
135,137,257584,101,0,3:0:0:0:
118,99,257692,5,2,3:2:0:0:
87,73,257801,101,0,3:0:0:0:
47,64,257908,5,0,3:0:0:0:
237,40,258016,6,0,B|294:34|342:-4|342:-4|385:0|407:32|407:32|378:102,1,255.000009727478,6|8,3:2|0:0,0:0:0:0:
444,308,258503,1,2,3:2:0:0:
470,298,258584,1,2,0:0:0:0:
497,289,258665,2,0,P|506:251|497:214,1,63.7500024318696,2|0,0:0|0:0,0:0:0:0:
329,165,258827,2,0,B|422:190|422:190|406:199|393:214,1,127.500004863739,2|8,3:2|0:0,0:0:0:0:
248,372,259151,1,2,0:0:0:0:
242,184,259313,5,2,3:2:0:0:
76,103,259476,1,0,3:0:0:0:
193,257,259638,1,8,0:0:0:0:
34,376,259800,1,2,3:2:0:0:
27,348,259881,1,2,0:0:0:0:
20,320,259962,6,0,L|32:253,1,63.7500024318696,2|0,3:2|0:0,0:0:0:0:
149,64,260124,2,0,L|137:-3,1,63.7500024318696,2|0,3:2|0:0,0:0:0:0:
107,220,260286,2,0,P|126:239|169:261,1,63.7500024318696,10|0,0:0|0:0,0:0:0:0:
283,182,260448,2,0,P|255:197|232:219,1,63.7500024318696,2|0,3:2|0:0,0:0:0:0:
359,379,260611,6,0,L|489:343,1,127.500004863739,2|0,3:2|0:0,0:0:0:0:
476,146,260854,2,0,L|512:276,1,127.500004863739,2|0,0:0|0:0,0:0:0:0:
321,362,261097,2,0,L|386:344,1,63.7500024318696,2|0,3:2|0:0,0:0:0:0:
307,74,261259,70,0,B|296:119|248:140|248:140|233:130|207:121,1,127.500004863739,2|0,3:2|3:0,0:0:0:0:
330,64,261503,2,0,B|375:74|396:122|396:122|386:137|377:163,1,127.500004863739,2|0,0:0|0:0,0:0:0:0:
202,144,261746,2,0,P|174:128|143:118,1,63.7500024318696,2|0,3:2|0:0,0:0:0:0:
112,356,261908,6,0,P|152:298|206:241,1,127.500004863739,2|0,3:2|3:0,0:0:0:0:
257,210,262151,1,0,3:0:0:0:
257,210,262232,1,8,0:0:0:0:
49,21,262394,6,0,B|54:37|54:37|0:117|0:117|3:126|3:126|-8:189|31:240|31:240|47:211|76:184,1,305.999990661621,6|0,3:2|3:0,0:0:0:0:
157,68,262800,1,0,3:0:0:0:
157,68,262881,2,0,B|140:98|140:98|139:78|131:59,1,68,8|0,0:0|0:0,0:0:0:0:
138,242,263043,1,2,0:0:0:0:
141,270,263124,1,2,0:0:0:0:
144,298,263205,6,0,P|211:331|394:383,1,237.999992736817,6|8,3:2|0:0,0:0:0:0:
373,156,263692,2,0,P|422:107|488:124,1,118.999996368408,2|0,3:2|3:0,0:0:0:0:
336,272,264016,2,0,P|286:223|220:240,1,118.999996368408,2|8,3:2|0:0,0:0:0:0:
389,349,264340,1,2,3:2:0:0:
284,115,264503,69,2,3:2:0:0:
72,63,264665,1,0,3:0:0:0:
310,30,264827,1,8,0:0:0:0:
199,255,264989,1,2,3:2:0:0:
131,203,265151,6,0,P|106:253|80:334,1,118.999996368408,2|0,3:2|3:0,0:0:0:0:
155,195,265394,2,0,P|126:137|107:77,1,118.999996368408,2|0,0:0|0:0,0:0:0:0:
90,9,265638,1,2,3:2:0:0:
460,71,265800,6,0,B|443:51|443:51|329:33,1,118.999996368408,6|0,3:2|3:0,0:0:0:0:
211,55,266043,2,0,B|232:69|232:69|324:60,1,118.999996368408,2|0,0:0|0:0,0:0:0:0:
482,84,266286,2,0,L|470:155,1,59.4999981842042,2|0,3:2|0:0,0:0:0:0:
510,325,266448,5,2,3:2:0:0:
478,295,266530,1,2,0:0:0:0:
436,292,266611,1,2,3:2:0:0:
405,319,266692,1,2,0:0:0:0:
338,293,266773,69,10,0:0:0:0:
319,349,266854,1,2,0:0:0:0:
266,377,266935,1,2,3:2:0:0:
206,377,267016,1,2,0:0:0:0:
177,311,267097,5,10,0:0:0:0:
156,298,267178,1,0,3:0:0:0:
134,289,267259,1,0,3:0:0:0:
112,281,267340,1,0,3:0:0:0:
89,277,267421,2,0,P|68:303|33:323,1,59.4999981842042,2|0,3:2|3:0,0:0:0:0:
7,178,267584,1,8,0:0:0:0:
7,178,267665,1,0,3:0:0:0:
7,178,267746,5,2,3:2:0:0:
28,167,267827,1,0,3:0:0:0:
47,152,267908,1,0,3:0:0:0:
64,137,267989,1,0,3:0:0:0:
80,118,268070,2,0,P|118:176|183:195,1,118.999996368408,10|0,0:0|3:0,0:0:0:0:
431,67,268394,5,14,0:0:0:0:
170,103,268557,1,0,3:0:0:0:
248,60,268719,69,10,0:0:0:0:
54,239,268882,1,0,3:0:0:0:
63,159,269043,5,10,0:0:0:0:
222,365,269205,1,0,3:0:0:0:
501,171,269367,2,0,P|419:190|405:273,1,178.499994552612,10|0,0:0|0:0,0:0:0:0:
456,334,269692,5,10,0:0:0:0:
292,83,269854,1,0,3:0:0:0:
262,160,270016,5,10,0:0:0:0:
483,17,270178,1,2,3:2:0:0:
471,98,270340,69,10,0:0:0:0:
242,12,270503,1,0,3:0:0:0:
313,335,270665,2,0,P|333:276|319:214,1,118.999996368408,10|0,0:0|3:0,0:0:0:0:
87,71,270989,5,14,0:0:0:0:
242,270,271151,1,0,3:0:0:0:
250,188,271313,5,10,0:0:0:0:
11,345,271476,1,0,3:0:0:0:
36,260,271638,5,10,0:0:0:0:
385,384,271800,1,0,3:0:0:0:
313,335,271962,69,10,0:0:0:0:
492,95,272124,1,0,3:0:0:0:
512,179,272286,5,10,0:0:0:0:
229,88,272448,1,0,3:0:0:0:
274,162,272611,2,0,P|309:118|309:53,1,118.999996368408,10|0,0:0|3:0,0:0:0:0:
16,197,272935,5,10,0:0:0:0:
32,202,273016,1,0,3:0:0:0:
48,207,273097,1,0,3:0:0:0:
64,212,273178,1,0,3:0:0:0:
80,217,273259,2,0,P|88:257|62:289,1,85,10|0,0:0|3:0,0:0:0:0:
29,361,273503,1,0,3:0:0:0:
29,361,273584,5,14,0:0:0:0:
258,186,273746,1,0,3:0:0:0:
177,171,273908,69,10,0:0:0:0:
399,384,274070,1,0,3:0:0:0:
317,363,274232,5,10,0:0:0:0:
472,95,274394,1,0,3:0:0:0:
469,347,274557,2,0,P|424:289|453:189,1,178.499994552612,10|0,0:0|0:0,0:0:0:0:
512,162,274881,5,10,0:0:0:0:
265,29,275043,1,0,3:0:0:0:
281,106,275205,5,10,0:0:0:0:
512,25,275367,1,2,3:2:0:0:
472,95,275530,69,10,0:0:0:0:
206,81,275692,1,0,3:0:0:0:
369,367,275854,2,0,B|376:307|376:307|373:299|373:299|379:237,1,127.5,10|0,0:0|0:0,0:0:0:0:
349,163,276178,5,14,0:0:0:0:
356,203,276259,1,0,3:0:0:0:
393,219,276340,1,0,3:0:0:0:
428,198,276421,1,0,3:0:0:0:
414,102,276503,5,10,0:0:0:0:
377,78,276584,1,0,3:0:0:0:
336,75,276665,1,0,3:0:0:0:
297,90,276746,1,0,3:0:0:0:
266,170,276827,5,10,0:0:0:0:
239,202,276908,1,0,3:0:0:0:
200,217,276989,1,0,3:0:0:0:
158,214,277070,1,0,3:0:0:0:
94,152,277151,69,10,0:0:0:0:
116,116,277232,1,0,3:0:0:0:
116,74,277313,1,0,3:0:0:0:
95,37,277394,1,0,3:0:0:0:
15,8,277475,5,8,0:0:0:0:
78,384,278124,5,0,3:0:0:0:
96,373,278286,1,0,3:0:0:0:
114,362,278448,1,0,3:0:0:0:
299,157,278611,6,0,B|341:167|391:168|391:168|431:190|477:204,1,187.000005706787,6|0,3:2|3:0,0:0:0:0:
240,220,279097,2,0,B|218:241|218:241|202:317,1,93.5000028533936,10|0,0:0|3:0,0:0:0:0:
202,14,279421,2,0,B|224:35|224:35|240:111,1,93.5000028533936,2|0,3:2|3:0,0:0:0:0:
24,268,279746,1,10,0:0:0:0:
65,196,279908,70,0,B|91:165|96:118|63:81|63:81|27:81|-3:114,1,187.000005706787,2|0,3:2|3:0,0:0:0:0:
106,292,280394,2,0,P|139:250|199:222,1,93.5000028533936,10|0,0:0|3:0,0:0:0:0:
357,258,280719,1,2,3:2:0:0:
199,149,280881,1,0,3:0:0:0:
317,0,281043,1,10,0:0:0:0:
259,241,281205,6,0,B|233:372|233:372|249:343|273:330,1,187.000005706787,2|0,3:2|3:0,0:0:0:0:
477,204,281692,1,10,0:0:0:0:
477,204,281854,1,0,3:0:0:0:
343,86,282016,2,0,L|322:192,1,93.5000028533936,2|0,3:2|3:0,0:0:0:0:
202,14,282340,1,10,0:0:0:0:
259,241,282503,6,0,B|238:207|199:187|155:183|155:183|144:176|144:176|121:171|95:162,1,187.000005706787,6|0,3:2|3:0,0:0:0:0:
257,333,282989,2,0,P|305:314|350:304,1,93.5000028533936,10|0,0:0|3:0,0:0:0:0:
109,255,283313,2,0,P|61:236|16:226,1,93.5000028533936,2|0,3:2|3:0,0:0:0:0:
190,384,283638,1,10,0:0:0:0:
483,287,283800,6,0,B|481:312|490:338|490:338|462:375|462:375|460:331|429:294,1,187.000005706787,6|0,3:2|3:0,0:0:0:0:
285,145,284286,1,10,0:0:0:0:
285,145,284448,1,0,3:0:0:0:
492,15,284611,2,0,P|483:65|460:104,1,93.5000028533936,2|0,3:2|3:0,0:0:0:0:
259,226,284935,1,10,0:0:0:0:
345,232,285097,70,0,B|394:208|386:153|386:153|382:148|382:148|368:112|357:59,1,187.000005706787,2|0,3:2|3:0,0:0:0:0:
234,315,285584,2,0,P|248:270|258:225,1,93.5000028533936,10|0,0:0|3:0,0:0:0:0:
253,12,285908,1,2,3:2:0:0:
253,12,286070,2,0,P|263:57|277:101,1,93.5000028533936,0|10,3:0|0:0,0:0:0:0:
89,287,286394,6,0,P|15:259|76:181,1,187.000005706787,6|0,3:2|3:0,0:0:0:0:
145,357,286881,2,0,P|187:339|214:287,1,93.5000028533936,10|0,0:0|3:0,0:0:0:0:
234,117,287205,1,2,3:2:0:0:
53,181,287367,1,0,3:0:0:0:
244,210,287530,1,10,0:0:0:0:
505,248,287692,6,0,B|492:280|492:280|346:343,1,187.000005706787,6|0,3:2|3:0,0:0:0:0:
493,376,288178,1,10,0:0:0:0:
418,128,288340,6,0,B|383:25|383:25|344:7|303:29,1,187.000005706787,4|0,3:2|3:0,0:0:0:0:
500,163,288827,1,10,0:0:0:0:
226,285,288989,70,0,B|167:275|167:275|162:265|162:265|105:252|105:252|100:213|120:185,1,187.000005706787,6|0,3:2|3:0,0:0:0:0:
241,358,289476,2,0,L|146:342,1,93.5000028533936,10|0,0:0|3:0,0:0:0:0:
50,161,289800,2,0,P|33:204|32:251,1,93.5000028533936,2|0,3:2|3:0,0:0:0:0:
276,222,290124,1,10,0:0:0:0:
64,66,290286,6,0,P|155:53|253:15,1,187.000005706787,2|0,3:2|3:0,0:0:0:0:
358,207,290773,2,0,P|332:163|333:113,1,93.5000028533936,10|0,0:0|3:0,0:0:0:0:
452,0,291097,2,0,P|449:46|424:85,1,93.5000028533936,2|0,3:2|3:0,0:0:0:0:
276,222,291421,1,10,0:0:0:0:
466,337,291584,6,0,B|421:305|367:335|383:343|335:379|281:345,1,187.000005706787,2|0,3:2|3:0,0:0:0:0:
503,195,292070,2,0,B|525:228|525:228|511:286,1,93.5000028533936,10|0,0:0|3:0,0:0:0:0:
237,291,292394,1,2,3:2:0:0:
405,96,292557,1,0,3:0:0:0:
325,281,292719,1,10,0:0:0:0:
95,73,292881,6,0,B|60:89|51:122|51:122|97:174|89:260,1,187.000005706787,6|0,3:2|3:0,0:0:0:0:
30,353,293367,1,10,0:0:0:0:
308,206,293530,70,0,P|353:209|389:238,1,93.5000028533936,4|2,3:2|3:2,0:0:0:0:
446,360,293854,1,0,3:0:0:0:
498,113,294016,1,10,0:0:0:0:
251,303,294178,6,0,P|206:248|224:132,1,187.000005706787,6|0,3:2|3:0,0:0:0:0:
381,3,294665,2,0,P|329:18|277:21,1,93.5000028533936,10|0,0:0|3:0,0:0:0:0:
94,5,294989,1,2,3:2:0:0:
94,5,295151,1,0,3:0:0:0:
232,121,295313,1,10,0:0:0:0:
39,279,295476,6,0,P|44:232|46:185,1,93.5000028533936,2|0,3:2|3:0,0:0:0:0:
119,360,295800,1,2,3:2:0:0:
263,256,295962,2,0,P|344:221|408:211,1,140.25000428009,10|0,0:0|0:0,0:0:0:0:
468,225,296286,5,10,0:0:0:0:
348,8,296448,1,0,3:0:0:0:
320,82,296611,1,2,3:2:0:0:
423,377,296773,69,4,3:2:0:0:
423,377,297259,2,0,L|463:370,2,34,2|0|2,0:0|0:0|0:0,0:0:0:0:
326,233,298232,5,0,0:0:0:0:
326,233,298557,2,0,L|286:226,2,34,2|0|2,0:0|0:0|0:0,0:0:0:0:
448,299,299530,5,0,0:0:0:0:
448,299,299855,2,0,L|488:292,2,34,2|0|2,0:0|0:0|0:0,0:0:0:0:
214,378,300827,6,0,P|199:378|180:372,1,34,0|2,0:0|0:0,0:0:0:0:
501,0,301628,70,0,L|496:36,1,34,0|2,0:0|0:0,0:0:0:0:
256,192,302200,12,0,314575,0:0:0:0:
