osu file format v14

[General]
AudioFilename: audio.mp3
AudioLeadIn: 0
PreviewTime: 152597
Countdown: 0
SampleSet: Normal
StackLeniency: 0.7
Mode: 3
LetterboxInBreaks: 0
SpecialStyle: 0
WidescreenStoryboard: 0

[Editor]
DistanceSpacing: 1.1
BeatDivisor: 4
GridSize: 4
TimelineZoom: 4.099998

[Metadata]
Title:Youkai Domination ~ Who done it!!!
TitleUnicode:妖々跋扈 ~ Who done it!!!
Artist:Demetori
ArtistUnicode:Demetori
Creator:Lefrave
Version:Extra Stage
Source:東方Project
Tags:東方妖々夢 ~ Perfect Cherry Blossom
BeatmapID:1315699
BeatmapSetID:624231

[Difficulty]
HPDrainRate:8
CircleSize:4
OverallDifficulty:8.5
ApproachRate:5
SliderMultiplier:1.6
SliderTickRate:1

[Events]
//Background and Video events
0,0,"08090729_thumb-1920-705192.png",0,0
//Break Periods
//Storyboard Layer 0 (Background)
//Storyboard Layer 1 (Fail)
//Storyboard Layer 2 (Pass)
//Storyboard Layer 3 (Foreground)
//Storyboard Sound Samples

[TimingPoints]
11960.48178866,329.67032967033,4,1,0,100,1,0
110400,329.67032967033,4,1,0,100,1,0

[HitObjects]
448,192,11960,5,0,0:0:0:0:
320,192,11960,1,0,0:0:0:0:
64,192,11962,1,0,0:0:0:0:
64,192,12125,1,0,0:0:0:0:
192,192,12125,1,0,0:0:0:0:
320,192,12290,1,0,0:0:0:0:
448,192,12290,1,0,0:0:0:0:
64,192,12290,1,0,0:0:0:0:
192,192,12454,1,0,0:0:0:0:
64,192,12619,1,0,0:0:0:0:
320,192,12619,1,0,0:0:0:0:
448,192,12619,1,0,0:0:0:0:
192,192,12784,1,0,0:0:0:0:
448,192,12784,1,0,0:0:0:0:
64,192,12949,1,0,0:0:0:0:
320,192,12949,1,0,0:0:0:0:
192,192,12949,1,0,0:0:0:0:
192,192,13114,1,0,0:0:0:0:
320,192,13114,1,0,0:0:0:0:
448,192,13279,1,0,0:0:0:0:
64,192,13279,1,0,0:0:0:0:
192,192,13279,1,0,0:0:0:0:
320,192,13443,1,0,0:0:0:0:
64,192,13608,1,0,0:0:0:0:
192,192,13608,1,0,0:0:0:0:
320,192,13608,1,0,0:0:0:0:
320,192,13773,1,0,0:0:0:0:
448,192,13773,1,0,0:0:0:0:
192,192,13938,1,0,0:0:0:0:
448,192,13938,1,0,0:0:0:0:
64,192,13938,1,0,0:0:0:0:
320,192,14103,1,0,0:0:0:0:
192,192,14103,128,0,14433:0:0:0:0:
64,192,14268,1,0,0:0:0:0:
320,192,14268,1,0,0:0:0:0:
448,192,14268,1,0,0:0:0:0:
320,192,14433,128,0,14597:0:0:0:0:
448,192,14597,1,0,0:0:0:0:
192,192,14597,1,0,0:0:0:0:
64,192,14597,1,0,0:0:0:0:
320,192,14762,1,0,0:0:0:0:
192,192,14762,1,0,0:0:0:0:
448,192,14927,1,0,0:0:0:0:
192,192,14927,1,0,0:0:0:0:
320,192,14927,1,0,0:0:0:0:
64,192,15092,1,0,0:0:0:0:
320,192,15257,1,0,0:0:0:0:
64,192,15257,1,0,0:0:0:0:
448,192,15257,1,0,0:0:0:0:
192,192,15422,1,0,0:0:0:0:
448,192,15422,1,0,0:0:0:0:
320,192,15586,1,0,0:0:0:0:
64,192,15586,1,0,0:0:0:0:
192,192,15586,1,0,0:0:0:0:
320,192,15751,1,0,0:0:0:0:
64,192,15751,1,0,0:0:0:0:
448,192,15916,1,0,0:0:0:0:
192,192,15916,1,0,0:0:0:0:
320,192,15916,1,0,0:0:0:0:
64,192,16081,1,0,0:0:0:0:
64,192,16246,1,0,0:0:0:0:
192,192,16246,1,0,0:0:0:0:
320,192,16246,1,0,0:0:0:0:
448,192,16411,1,0,0:0:0:0:
64,192,16411,1,0,0:0:0:0:
192,192,16575,1,0,0:0:0:0:
64,192,16575,1,0,0:0:0:0:
448,192,16575,1,0,0:0:0:0:
192,192,16740,1,0,0:0:0:0:
320,192,16740,1,0,0:0:0:0:
64,192,16905,1,0,0:0:0:0:
320,192,16905,1,0,0:0:0:0:
448,192,16905,1,0,0:0:0:0:
64,192,17235,1,0,0:0:0:0:
192,192,17235,1,0,0:0:0:0:
320,192,17235,1,0,0:0:0:0:
192,192,17400,1,0,0:0:0:0:
448,192,17400,1,0,0:0:0:0:
64,192,17564,1,0,0:0:0:0:
448,192,17564,1,0,0:0:0:0:
320,192,17564,1,0,0:0:0:0:
192,192,17729,1,0,0:0:0:0:
320,192,17894,1,0,0:0:0:0:
64,192,17894,1,0,0:0:0:0:
448,192,17894,1,0,0:0:0:0:
192,192,18059,1,0,0:0:0:0:
448,192,18059,1,0,0:0:0:0:
64,192,18224,1,0,0:0:0:0:
192,192,18224,1,0,0:0:0:0:
320,192,18224,1,0,0:0:0:0:
192,192,18389,1,0,0:0:0:0:
64,192,18389,1,0,0:0:0:0:
448,192,18553,1,0,0:0:0:0:
192,192,18553,1,0,0:0:0:0:
320,192,18553,1,0,0:0:0:0:
192,192,18718,1,0,0:0:0:0:
448,192,18883,1,0,0:0:0:0:
320,192,18883,1,0,0:0:0:0:
64,192,18883,1,0,0:0:0:0:
192,192,19048,1,0,0:0:0:0:
320,192,19048,1,0,0:0:0:0:
64,192,19213,1,0,0:0:0:0:
448,192,19213,1,0,0:0:0:0:
192,192,19213,1,0,0:0:0:0:
320,192,19378,128,0,19707:0:0:0:0:
448,192,19378,1,0,0:0:0:0:
64,192,19542,1,0,0:0:0:0:
192,192,19542,1,0,0:0:0:0:
448,192,19542,1,0,0:0:0:0:
64,192,19707,128,0,19872:0:0:0:0:
448,192,19872,1,0,0:0:0:0:
320,192,19872,1,0,0:0:0:0:
192,192,19872,1,0,0:0:0:0:
320,192,20037,1,0,0:0:0:0:
192,192,20037,1,0,0:0:0:0:
64,192,20202,1,0,0:0:0:0:
448,192,20202,1,0,0:0:0:0:
320,192,20202,1,0,0:0:0:0:
192,192,20367,1,0,0:0:0:0:
64,192,20531,1,0,0:0:0:0:
448,192,20531,1,0,0:0:0:0:
192,192,20531,1,0,0:0:0:0:
448,192,20696,1,0,0:0:0:0:
320,192,20696,1,0,0:0:0:0:
192,192,20861,1,0,0:0:0:0:
320,192,20861,1,0,0:0:0:0:
64,192,20861,1,0,0:0:0:0:
192,192,21026,1,0,0:0:0:0:
64,192,21026,1,0,0:0:0:0:
448,192,21191,1,0,0:0:0:0:
320,192,21191,1,0,0:0:0:0:
192,192,21191,1,0,0:0:0:0:
64,192,21356,1,0,0:0:0:0:
448,192,21356,1,0,0:0:0:0:
64,192,21520,1,0,0:0:0:0:
320,192,21520,1,0,0:0:0:0:
192,192,21520,1,0,0:0:0:0:
192,192,21685,1,0,0:0:0:0:
448,192,21685,1,0,0:0:0:0:
64,192,21850,1,0,0:0:0:0:
192,192,21850,1,0,0:0:0:0:
320,192,21933,1,0,0:0:0:0:
448,192,21933,1,0,0:0:0:0:
192,192,22015,1,0,0:0:0:0:
64,192,22015,1,0,0:0:0:0:
320,192,22180,1,0,0:0:0:0:
448,192,22180,1,0,0:0:0:0:
192,192,22345,1,0,0:0:0:0:
320,192,22345,1,0,0:0:0:0:
192,192,22509,1,0,0:0:0:0:
448,192,22509,128,0,22674:0:0:0:0:
192,192,22674,1,0,0:0:0:0:
320,192,22674,1,0,0:0:0:0:
64,192,22839,1,0,0:0:0:0:
448,192,22839,1,0,0:0:0:0:
192,192,22839,128,0,23004:0:0:0:0:
320,192,23004,1,0,0:0:0:0:
64,192,23004,1,0,0:0:0:0:
192,192,23169,1,0,0:0:0:0:
320,192,23169,128,0,23334:0:0:0:0:
192,192,23334,1,0,0:0:0:0:
448,192,23334,1,0,0:0:0:0:
64,192,23498,1,0,0:0:0:0:
320,192,23498,1,0,0:0:0:0:
192,192,23498,128,0,23663:0:0:0:0:
320,192,23663,1,0,0:0:0:0:
448,192,23663,1,0,0:0:0:0:
320,192,23828,1,0,0:0:0:0:
64,192,23828,128,0,23993:0:0:0:0:
448,192,23993,1,0,0:0:0:0:
192,192,23993,1,0,0:0:0:0:
64,192,24158,1,0,0:0:0:0:
320,192,24158,1,0,0:0:0:0:
448,192,24158,128,0,24323:0:0:0:0:
192,192,24323,1,0,0:0:0:0:
320,192,24323,1,0,0:0:0:0:
64,192,24487,1,0,0:0:0:0:
192,192,24487,128,0,24652:0:0:0:0:
320,192,24652,1,0,0:0:0:0:
64,192,24652,1,0,0:0:0:0:
192,192,24817,1,0,0:0:0:0:
448,192,24817,1,0,0:0:0:0:
320,192,24817,128,0,24982:0:0:0:0:
448,192,24982,1,0,0:0:0:0:
64,192,24982,1,0,0:0:0:0:
320,192,25147,1,0,0:0:0:0:
64,192,25147,128,0,25312:0:0:0:0:
192,192,25312,1,0,0:0:0:0:
448,192,25312,1,0,0:0:0:0:
64,192,25476,1,0,0:0:0:0:
192,192,25476,1,0,0:0:0:0:
320,192,25476,128,0,25641:0:0:0:0:
192,192,25641,1,0,0:0:0:0:
448,192,25641,1,0,0:0:0:0:
320,192,25806,1,0,0:0:0:0:
64,192,25806,128,0,25971:0:0:0:0:
320,192,25971,1,0,0:0:0:0:
192,192,25971,1,0,0:0:0:0:
448,192,26136,1,0,0:0:0:0:
64,192,26136,1,0,0:0:0:0:
320,192,26136,128,0,26301:0:0:0:0:
64,192,26301,1,0,0:0:0:0:
192,192,26301,1,0,0:0:0:0:
320,192,26465,1,0,0:0:0:0:
448,192,26465,128,0,26630:0:0:0:0:
64,192,26630,1,0,0:0:0:0:
320,192,26630,1,0,0:0:0:0:
192,192,26795,128,0,26960:0:0:0:0:
320,192,26795,1,0,0:0:0:0:
64,192,26795,1,0,0:0:0:0:
448,192,26960,1,0,0:0:0:0:
64,192,26960,1,0,0:0:0:0:
64,192,27125,128,0,27290:0:0:0:0:
192,192,27125,1,0,0:0:0:0:
320,192,27290,1,0,0:0:0:0:
448,192,27290,1,0,0:0:0:0:
192,192,27290,1,0,0:0:0:0:
192,192,27454,128,0,27619:0:0:0:0:
64,192,27454,1,0,0:0:0:0:
448,192,27454,1,0,0:0:0:0:
320,192,27619,1,0,0:0:0:0:
448,192,27619,1,0,0:0:0:0:
64,192,27619,1,0,0:0:0:0:
192,192,27784,1,0,0:0:0:0:
64,192,27784,128,0,27949:0:0:0:0:
320,192,27949,1,0,0:0:0:0:
448,192,27949,1,0,0:0:0:0:
64,192,28114,1,0,0:0:0:0:
448,192,28114,1,0,0:0:0:0:
320,192,28114,128,0,28279:0:0:0:0:
192,192,28279,1,0,0:0:0:0:
448,192,28279,1,0,0:0:0:0:
320,192,28443,1,0,0:0:0:0:
192,192,28443,128,0,28608:0:0:0:0:
320,192,28608,1,0,0:0:0:0:
448,192,28608,1,0,0:0:0:0:
448,192,28773,1,0,0:0:0:0:
64,192,28773,1,0,0:0:0:0:
320,192,28773,128,0,28938:0:0:0:0:
64,192,28938,1,0,0:0:0:0:
192,192,28938,1,0,0:0:0:0:
64,192,29103,1,0,0:0:0:0:
448,192,29103,128,0,29268:0:0:0:0:
64,192,29268,1,0,0:0:0:0:
192,192,29268,1,0,0:0:0:0:
320,192,29433,128,0,29597:0:0:0:0:
192,192,29433,1,0,0:0:0:0:
448,192,29433,1,0,0:0:0:0:
448,192,29597,1,0,0:0:0:0:
64,192,29597,1,0,0:0:0:0:
64,192,29762,128,0,29927:0:0:0:0:
192,192,29762,1,0,0:0:0:0:
192,192,29927,1,0,0:0:0:0:
448,192,29927,1,0,0:0:0:0:
320,192,30092,128,0,30257:0:0:0:0:
192,192,30092,1,0,0:0:0:0:
64,192,30092,1,0,0:0:0:0:
64,192,30257,128,0,30422:0:0:0:0:
64,192,30422,1,0,0:0:0:0:
192,192,30422,128,0,31081:0:0:0:0:
320,192,30422,1,0,0:0:0:0:
448,192,30422,1,0,0:0:0:0:
320,192,30586,1,0,0:0:0:0:
64,192,30751,1,0,0:0:0:0:
448,192,30751,1,0,0:0:0:0:
320,192,30916,1,0,0:0:0:0:
448,192,31081,128,0,31740:0:0:0:0:
320,192,31081,1,0,0:0:0:0:
64,192,31081,1,0,0:0:0:0:
192,192,31246,1,0,0:0:0:0:
320,192,31411,1,0,0:0:0:0:
192,192,31493,1,0,0:0:0:0:
320,192,31575,1,0,0:0:0:0:
192,192,31658,1,0,0:0:0:0:
320,192,31740,1,0,0:0:0:0:
64,192,31740,1,0,0:0:0:0:
192,192,31740,1,0,0:0:0:0:
320,192,32070,1,0,0:0:0:0:
64,192,32152,1,0,0:0:0:0:
320,192,32235,1,0,0:0:0:0:
64,192,32317,1,0,0:0:0:0:
320,192,32400,1,0,0:0:0:0:
192,192,32400,1,0,0:0:0:0:
448,192,32400,1,0,0:0:0:0:
192,192,32729,1,0,0:0:0:0:
448,192,32812,1,0,0:0:0:0:
192,192,32894,1,0,0:0:0:0:
448,192,32976,1,0,0:0:0:0:
320,192,33059,1,0,0:0:0:0:
192,192,33059,1,0,0:0:0:0:
64,192,33059,1,0,0:0:0:0:
64,192,33553,1,0,0:0:0:0:
192,192,33553,1,0,0:0:0:0:
320,192,33636,1,0,0:0:0:0:
448,192,33636,1,0,0:0:0:0:
192,192,33718,1,0,0:0:0:0:
64,192,33718,1,0,0:0:0:0:
192,192,33965,1,0,0:0:0:0:
320,192,33965,1,0,0:0:0:0:
320,192,34213,1,0,0:0:0:0:
448,192,34213,1,0,0:0:0:0:
64,192,34378,1,0,0:0:0:0:
192,192,34378,1,0,0:0:0:0:
448,192,34378,1,0,0:0:0:0:
320,192,34460,1,0,0:0:0:0:
192,192,34542,1,0,0:0:0:0:
320,192,34625,1,0,0:0:0:0:
192,192,34707,1,0,0:0:0:0:
64,192,34707,1,0,0:0:0:0:
448,192,34707,1,0,0:0:0:0:
320,192,34790,1,0,0:0:0:0:
192,192,34872,1,0,0:0:0:0:
64,192,34954,1,0,0:0:0:0:
320,192,35037,1,0,0:0:0:0:
448,192,35037,1,0,0:0:0:0:
64,192,35119,1,0,0:0:0:0:
192,192,35202,1,0,0:0:0:0:
320,192,35284,1,0,0:0:0:0:
192,192,35367,1,0,0:0:0:0:
448,192,35367,1,0,0:0:0:0:
64,192,35367,1,0,0:0:0:0:
320,192,35449,1,0,0:0:0:0:
64,192,35531,1,0,0:0:0:0:
448,192,35614,1,0,0:0:0:0:
320,192,35696,1,0,0:0:0:0:
64,192,35696,1,0,0:0:0:0:
192,192,35779,1,0,0:0:0:0:
320,192,35861,1,0,0:0:0:0:
448,192,35943,1,0,0:0:0:0:
320,192,36026,1,0,0:0:0:0:
192,192,36026,1,0,0:0:0:0:
64,192,36026,1,0,0:0:0:0:
448,192,36108,1,0,0:0:0:0:
320,192,36191,1,0,0:0:0:0:
192,192,36273,1,0,0:0:0:0:
64,192,36356,1,0,0:0:0:0:
448,192,36356,1,0,0:0:0:0:
320,192,36438,1,0,0:0:0:0:
192,192,36520,1,0,0:0:0:0:
64,192,36603,1,0,0:0:0:0:
192,192,36685,1,0,0:0:0:0:
320,192,36685,1,0,0:0:0:0:
448,192,36685,1,0,0:0:0:0:
64,192,36768,1,0,0:0:0:0:
320,192,36850,1,0,0:0:0:0:
192,192,36933,1,0,0:0:0:0:
320,192,37015,1,0,0:0:0:0:
448,192,37015,1,0,0:0:0:0:
64,192,37097,1,0,0:0:0:0:
192,192,37180,1,0,0:0:0:0:
320,192,37262,1,0,0:0:0:0:
448,192,37345,1,0,0:0:0:0:
192,192,37345,1,0,0:0:0:0:
64,192,37345,1,0,0:0:0:0:
320,192,37427,1,0,0:0:0:0:
64,192,37509,1,0,0:0:0:0:
320,192,37592,1,0,0:0:0:0:
64,192,37674,1,0,0:0:0:0:
448,192,37674,1,0,0:0:0:0:
192,192,37757,1,0,0:0:0:0:
64,192,37839,1,0,0:0:0:0:
448,192,37922,1,0,0:0:0:0:
64,192,38004,1,0,0:0:0:0:
192,192,38004,1,0,0:0:0:0:
320,192,38004,1,0,0:0:0:0:
448,192,38086,1,0,0:0:0:0:
320,192,38169,1,0,0:0:0:0:
192,192,38251,1,0,0:0:0:0:
64,192,38334,1,0,0:0:0:0:
320,192,38334,1,0,0:0:0:0:
448,192,38416,1,0,0:0:0:0:
320,192,38498,1,0,0:0:0:0:
192,192,38581,1,0,0:0:0:0:
64,192,38663,1,0,0:0:0:0:
448,192,38663,1,0,0:0:0:0:
320,192,38663,1,0,0:0:0:0:
192,192,38746,1,0,0:0:0:0:
320,192,38828,1,0,0:0:0:0:
448,192,38911,1,0,0:0:0:0:
64,192,38993,1,0,0:0:0:0:
320,192,38993,1,0,0:0:0:0:
192,192,38993,128,0,39323:0:0:0:0:
448,192,39323,128,0,39487:0:0:0:0:
320,192,39323,128,0,39487:0:0:0:0:
64,192,39323,128,0,39487:0:0:0:0:
192,192,39487,1,0,0:0:0:0:
320,192,39570,1,0,0:0:0:0:
192,192,39652,1,0,0:0:0:0:
64,192,39652,1,0,0:0:0:0:
448,192,39652,1,0,0:0:0:0:
320,192,39735,1,0,0:0:0:0:
64,192,39817,1,0,0:0:0:0:
192,192,39900,1,0,0:0:0:0:
320,192,39982,1,0,0:0:0:0:
448,192,39982,1,0,0:0:0:0:
64,192,39982,1,0,0:0:0:0:
192,192,40064,1,0,0:0:0:0:
320,192,40147,1,0,0:0:0:0:
64,192,40229,1,0,0:0:0:0:
192,192,40312,1,0,0:0:0:0:
320,192,40312,1,0,0:0:0:0:
448,192,40394,1,0,0:0:0:0:
64,192,40476,1,0,0:0:0:0:
192,192,40559,1,0,0:0:0:0:
320,192,40641,1,0,0:0:0:0:
448,192,40641,1,0,0:0:0:0:
64,192,40641,1,0,0:0:0:0:
192,192,40724,1,0,0:0:0:0:
448,192,40806,1,0,0:0:0:0:
320,192,40889,1,0,0:0:0:0:
64,192,40971,1,0,0:0:0:0:
448,192,40971,1,0,0:0:0:0:
192,192,41053,1,0,0:0:0:0:
320,192,41136,1,0,0:0:0:0:
448,192,41218,1,0,0:0:0:0:
320,192,41301,1,0,0:0:0:0:
192,192,41301,1,0,0:0:0:0:
64,192,41301,1,0,0:0:0:0:
448,192,41383,1,0,0:0:0:0:
320,192,41465,1,0,0:0:0:0:
192,192,41548,1,0,0:0:0:0:
448,192,41630,1,0,0:0:0:0:
320,192,41630,1,0,0:0:0:0:
64,192,41713,1,0,0:0:0:0:
192,192,41795,1,0,0:0:0:0:
320,192,41878,1,0,0:0:0:0:
192,192,41960,1,0,0:0:0:0:
64,192,41960,1,0,0:0:0:0:
448,192,41960,1,0,0:0:0:0:
320,192,42042,1,0,0:0:0:0:
192,192,42125,1,0,0:0:0:0:
64,192,42207,1,0,0:0:0:0:
192,192,42290,1,0,0:0:0:0:
320,192,42290,1,0,0:0:0:0:
448,192,42290,1,0,0:0:0:0:
64,192,42372,1,0,0:0:0:0:
320,192,42454,1,0,0:0:0:0:
192,192,42537,1,0,0:0:0:0:
64,192,42619,1,0,0:0:0:0:
320,192,42619,1,0,0:0:0:0:
448,192,42619,1,0,0:0:0:0:
192,192,42702,1,0,0:0:0:0:
448,192,42784,1,0,0:0:0:0:
320,192,42867,1,0,0:0:0:0:
64,192,42949,1,0,0:0:0:0:
192,192,42949,1,0,0:0:0:0:
320,192,43031,1,0,0:0:0:0:
448,192,43114,1,0,0:0:0:0:
64,192,43196,1,0,0:0:0:0:
320,192,43279,1,0,0:0:0:0:
448,192,43279,1,0,0:0:0:0:
192,192,43279,1,0,0:0:0:0:
64,192,43361,1,0,0:0:0:0:
192,192,43443,1,0,0:0:0:0:
320,192,43526,1,0,0:0:0:0:
64,192,43608,1,0,0:0:0:0:
448,192,43608,1,0,0:0:0:0:
192,192,43608,1,0,0:0:0:0:
320,192,43691,1,0,0:0:0:0:
192,192,43773,1,0,0:0:0:0:
448,192,43856,1,0,0:0:0:0:
192,192,43938,1,0,0:0:0:0:
320,192,43938,1,0,0:0:0:0:
64,192,43938,1,0,0:0:0:0:
448,192,44020,1,0,0:0:0:0:
320,192,44103,1,0,0:0:0:0:
192,192,44185,1,0,0:0:0:0:
320,192,44268,1,0,0:0:0:0:
448,192,44268,1,0,0:0:0:0:
64,192,44268,1,0,0:0:0:0:
192,192,44350,1,0,0:0:0:0:
448,192,44433,1,0,0:0:0:0:
64,192,44433,1,0,0:0:0:0:
320,192,44515,1,0,0:0:0:0:
64,192,44597,1,0,0:0:0:0:
192,192,44597,1,0,0:0:0:0:
448,192,44680,1,0,0:0:0:0:
320,192,44762,1,0,0:0:0:0:
64,192,44762,1,0,0:0:0:0:
192,192,44845,1,0,0:0:0:0:
320,192,44927,1,0,0:0:0:0:
448,192,44927,1,0,0:0:0:0:
64,192,44927,1,0,0:0:0:0:
192,192,45009,1,0,0:0:0:0:
448,192,45092,1,0,0:0:0:0:
64,192,45092,1,0,0:0:0:0:
320,192,45092,1,0,0:0:0:0:
192,192,45174,1,0,0:0:0:0:
64,192,45257,1,0,0:0:0:0:
448,192,45257,1,0,0:0:0:0:
320,192,45339,1,0,0:0:0:0:
448,192,45422,1,0,0:0:0:0:
64,192,45422,1,0,0:0:0:0:
192,192,45422,1,0,0:0:0:0:
320,192,45504,1,0,0:0:0:0:
448,192,45586,1,0,0:0:0:0:
192,192,45586,1,0,0:0:0:0:
64,192,45669,1,0,0:0:0:0:
192,192,45751,1,0,0:0:0:0:
320,192,45751,1,0,0:0:0:0:
448,192,45751,1,0,0:0:0:0:
64,192,45834,1,0,0:0:0:0:
192,192,45916,1,0,0:0:0:0:
448,192,45916,1,0,0:0:0:0:
320,192,45998,1,0,0:0:0:0:
192,192,46081,1,0,0:0:0:0:
448,192,46081,1,0,0:0:0:0:
64,192,46081,1,0,0:0:0:0:
320,192,46163,1,0,0:0:0:0:
64,192,46246,1,0,0:0:0:0:
448,192,46246,1,0,0:0:0:0:
192,192,46328,1,0,0:0:0:0:
64,192,46411,1,0,0:0:0:0:
448,192,46411,1,0,0:0:0:0:
320,192,46411,1,0,0:0:0:0:
192,192,46493,1,0,0:0:0:0:
448,192,46575,1,0,0:0:0:0:
64,192,46575,1,0,0:0:0:0:
320,192,46658,1,0,0:0:0:0:
192,192,46740,1,0,0:0:0:0:
64,192,46740,1,0,0:0:0:0:
448,192,46740,1,0,0:0:0:0:
320,192,46823,1,0,0:0:0:0:
64,192,46905,1,0,0:0:0:0:
192,192,46905,1,0,0:0:0:0:
448,192,46987,1,0,0:0:0:0:
320,192,47070,1,0,0:0:0:0:
192,192,47070,1,0,0:0:0:0:
64,192,47070,1,0,0:0:0:0:
448,192,47152,1,0,0:0:0:0:
320,192,47235,1,0,0:0:0:0:
64,192,47235,1,0,0:0:0:0:
192,192,47317,1,0,0:0:0:0:
64,192,47400,1,0,0:0:0:0:
320,192,47400,1,0,0:0:0:0:
448,192,47400,1,0,0:0:0:0:
192,192,47482,1,0,0:0:0:0:
320,192,47564,1,0,0:0:0:0:
448,192,47564,1,0,0:0:0:0:
64,192,47647,1,0,0:0:0:0:
192,192,47729,1,0,0:0:0:0:
320,192,47729,1,0,0:0:0:0:
448,192,47729,1,0,0:0:0:0:
64,192,47812,1,0,0:0:0:0:
192,192,47894,1,0,0:0:0:0:
448,192,47894,1,0,0:0:0:0:
320,192,47976,1,0,0:0:0:0:
64,192,48059,1,0,0:0:0:0:
192,192,48059,1,0,0:0:0:0:
448,192,48059,1,0,0:0:0:0:
320,192,48141,1,0,0:0:0:0:
64,192,48224,1,0,0:0:0:0:
448,192,48224,1,0,0:0:0:0:
192,192,48306,1,0,0:0:0:0:
320,192,48389,1,0,0:0:0:0:
448,192,48389,1,0,0:0:0:0:
64,192,48389,1,0,0:0:0:0:
192,192,48471,1,0,0:0:0:0:
64,192,48553,1,0,0:0:0:0:
320,192,48553,1,0,0:0:0:0:
448,192,48636,1,0,0:0:0:0:
320,192,48718,1,0,0:0:0:0:
192,192,48718,1,0,0:0:0:0:
64,192,48718,1,0,0:0:0:0:
448,192,48801,1,0,0:0:0:0:
64,192,48883,1,0,0:0:0:0:
320,192,48883,1,0,0:0:0:0:
448,192,48965,1,0,0:0:0:0:
320,192,49048,1,0,0:0:0:0:
192,192,49048,1,0,0:0:0:0:
64,192,49048,1,0,0:0:0:0:
448,192,49130,1,0,0:0:0:0:
64,192,49213,1,0,0:0:0:0:
192,192,49213,1,0,0:0:0:0:
320,192,49295,1,0,0:0:0:0:
64,192,49378,1,0,0:0:0:0:
192,192,49378,1,0,0:0:0:0:
448,192,49378,1,0,0:0:0:0:
320,192,49460,1,0,0:0:0:0:
192,192,49542,1,0,0:0:0:0:
448,192,49542,1,0,0:0:0:0:
64,192,49625,1,0,0:0:0:0:
192,192,49707,1,0,0:0:0:0:
320,192,49707,1,0,0:0:0:0:
448,192,49707,1,0,0:0:0:0:
64,192,49790,1,0,0:0:0:0:
320,192,49872,1,0,0:0:0:0:
192,192,49872,1,0,0:0:0:0:
448,192,49954,1,0,0:0:0:0:
320,192,50037,1,0,0:0:0:0:
192,192,50037,1,0,0:0:0:0:
64,192,50037,1,0,0:0:0:0:
320,192,50202,1,0,0:0:0:0:
64,192,50202,1,0,0:0:0:0:
448,192,50202,1,0,0:0:0:0:
192,192,50284,1,0,0:0:0:0:
320,192,50367,1,0,0:0:0:0:
448,192,50367,1,0,0:0:0:0:
64,192,50367,1,0,0:0:0:0:
192,192,50449,1,0,0:0:0:0:
64,192,50531,1,0,0:0:0:0:
448,192,50531,1,0,0:0:0:0:
320,192,50614,1,0,0:0:0:0:
192,192,50696,1,0,0:0:0:0:
64,192,50696,1,0,0:0:0:0:
448,192,50696,1,0,0:0:0:0:
320,192,50779,1,0,0:0:0:0:
192,192,50861,1,0,0:0:0:0:
448,192,50861,1,0,0:0:0:0:
64,192,50943,1,0,0:0:0:0:
192,192,51026,1,0,0:0:0:0:
320,192,51026,1,0,0:0:0:0:
448,192,51026,1,0,0:0:0:0:
64,192,51108,1,0,0:0:0:0:
320,192,51191,1,0,0:0:0:0:
448,192,51191,1,0,0:0:0:0:
192,192,51273,1,0,0:0:0:0:
64,192,51356,1,0,0:0:0:0:
320,192,51356,1,0,0:0:0:0:
448,192,51356,1,0,0:0:0:0:
192,192,51438,1,0,0:0:0:0:
320,192,51520,1,0,0:0:0:0:
448,192,51520,1,0,0:0:0:0:
64,192,51520,1,0,0:0:0:0:
192,192,51603,1,0,0:0:0:0:
64,192,51685,1,0,0:0:0:0:
320,192,51685,1,0,0:0:0:0:
448,192,51685,1,0,0:0:0:0:
192,192,51768,1,0,0:0:0:0:
64,192,51850,1,0,0:0:0:0:
320,192,51850,1,0,0:0:0:0:
448,192,51933,1,0,0:0:0:0:
320,192,52015,1,0,0:0:0:0:
192,192,52015,1,0,0:0:0:0:
64,192,52015,1,0,0:0:0:0:
448,192,52097,1,0,0:0:0:0:
64,192,52180,1,0,0:0:0:0:
192,192,52180,1,0,0:0:0:0:
320,192,52262,1,0,0:0:0:0:
192,192,52345,1,0,0:0:0:0:
64,192,52345,1,0,0:0:0:0:
448,192,52345,1,0,0:0:0:0:
320,192,52509,1,0,0:0:0:0:
448,192,52509,1,0,0:0:0:0:
64,192,52509,1,0,0:0:0:0:
192,192,52592,1,0,0:0:0:0:
64,192,52674,1,0,0:0:0:0:
448,192,52757,1,0,0:0:0:0:
320,192,52839,1,0,0:0:0:0:
192,192,52839,1,0,0:0:0:0:
64,192,52839,1,0,0:0:0:0:
192,192,53004,1,0,0:0:0:0:
448,192,53004,1,0,0:0:0:0:
320,192,53169,1,0,0:0:0:0:
64,192,53169,1,0,0:0:0:0:
448,192,53169,1,0,0:0:0:0:
192,192,53334,1,0,0:0:0:0:
320,192,53334,1,0,0:0:0:0:
192,192,53498,1,0,0:0:0:0:
320,192,53498,1,0,0:0:0:0:
448,192,53498,1,0,0:0:0:0:
320,192,53663,1,0,0:0:0:0:
64,192,53663,1,0,0:0:0:0:
192,192,53828,1,0,0:0:0:0:
64,192,53828,1,0,0:0:0:0:
448,192,53828,1,0,0:0:0:0:
320,192,53993,1,0,0:0:0:0:
448,192,53993,1,0,0:0:0:0:
64,192,54158,1,0,0:0:0:0:
320,192,54158,1,0,0:0:0:0:
192,192,54405,1,0,0:0:0:0:
448,192,54405,1,0,0:0:0:0:
64,192,54652,1,0,0:0:0:0:
448,192,54652,1,0,0:0:0:0:
320,192,54817,1,0,0:0:0:0:
192,192,54900,1,0,0:0:0:0:
64,192,54982,1,0,0:0:0:0:
192,192,55064,1,0,0:0:0:0:
320,192,55147,1,0,0:0:0:0:
64,192,55147,1,0,0:0:0:0:
448,192,55147,128,0,55476:0:0:0:0:
64,192,55476,1,0,0:0:0:0:
192,192,55476,1,0,0:0:0:0:
320,192,55476,1,0,0:0:0:0:
192,192,55559,1,0,0:0:0:0:
320,192,55641,1,0,0:0:0:0:
448,192,55641,1,0,0:0:0:0:
192,192,55724,1,0,0:0:0:0:
64,192,55806,1,0,0:0:0:0:
448,192,55806,1,0,0:0:0:0:
320,192,55889,1,0,0:0:0:0:
192,192,55971,1,0,0:0:0:0:
64,192,55971,1,0,0:0:0:0:
320,192,56053,1,0,0:0:0:0:
192,192,56136,1,0,0:0:0:0:
64,192,56136,1,0,0:0:0:0:
448,192,56136,1,0,0:0:0:0:
64,192,56218,1,0,0:0:0:0:
320,192,56301,1,0,0:0:0:0:
192,192,56301,1,0,0:0:0:0:
448,192,56383,1,0,0:0:0:0:
320,192,56465,1,0,0:0:0:0:
64,192,56465,1,0,0:0:0:0:
192,192,56548,1,0,0:0:0:0:
448,192,56630,1,0,0:0:0:0:
64,192,56630,1,0,0:0:0:0:
192,192,56713,1,0,0:0:0:0:
64,192,56795,1,0,0:0:0:0:
448,192,56795,1,0,0:0:0:0:
320,192,56795,1,0,0:0:0:0:
320,192,56878,1,0,0:0:0:0:
64,192,56960,1,0,0:0:0:0:
192,192,56960,1,0,0:0:0:0:
448,192,57042,1,0,0:0:0:0:
64,192,57125,1,0,0:0:0:0:
320,192,57125,1,0,0:0:0:0:
192,192,57207,1,0,0:0:0:0:
320,192,57290,1,0,0:0:0:0:
448,192,57290,1,0,0:0:0:0:
64,192,57372,1,0,0:0:0:0:
320,192,57454,1,0,0:0:0:0:
192,192,57454,1,0,0:0:0:0:
448,192,57454,1,0,0:0:0:0:
320,192,57537,1,0,0:0:0:0:
192,192,57619,1,0,0:0:0:0:
448,192,57619,1,0,0:0:0:0:
64,192,57702,1,0,0:0:0:0:
192,192,57784,1,0,0:0:0:0:
320,192,57784,1,0,0:0:0:0:
448,192,57867,1,0,0:0:0:0:
320,192,57949,1,0,0:0:0:0:
64,192,57949,1,0,0:0:0:0:
192,192,58031,1,0,0:0:0:0:
64,192,58114,1,0,0:0:0:0:
320,192,58114,1,0,0:0:0:0:
448,192,58114,1,0,0:0:0:0:
64,192,58196,1,0,0:0:0:0:
192,192,58279,1,0,0:0:0:0:
448,192,58279,1,0,0:0:0:0:
320,192,58361,1,0,0:0:0:0:
192,192,58443,1,0,0:0:0:0:
64,192,58443,1,0,0:0:0:0:
448,192,58526,1,0,0:0:0:0:
320,192,58608,1,0,0:0:0:0:
192,192,58608,1,0,0:0:0:0:
64,192,58691,1,0,0:0:0:0:
192,192,58773,1,0,0:0:0:0:
320,192,58773,1,0,0:0:0:0:
448,192,58773,1,0,0:0:0:0:
320,192,58856,1,0,0:0:0:0:
64,192,58938,1,0,0:0:0:0:
192,192,58938,1,0,0:0:0:0:
448,192,59020,1,0,0:0:0:0:
320,192,59103,1,0,0:0:0:0:
64,192,59103,1,0,0:0:0:0:
192,192,59185,1,0,0:0:0:0:
320,192,59268,1,0,0:0:0:0:
448,192,59268,1,0,0:0:0:0:
64,192,59350,1,0,0:0:0:0:
192,192,59433,1,0,0:0:0:0:
320,192,59433,1,0,0:0:0:0:
448,192,59433,1,0,0:0:0:0:
192,192,59515,1,0,0:0:0:0:
448,192,59597,1,0,0:0:0:0:
64,192,59597,1,0,0:0:0:0:
192,192,59680,1,0,0:0:0:0:
320,192,59762,1,0,0:0:0:0:
64,192,59762,1,0,0:0:0:0:
448,192,59845,1,0,0:0:0:0:
192,192,59927,1,0,0:0:0:0:
64,192,59927,1,0,0:0:0:0:
320,192,60009,1,0,0:0:0:0:
64,192,60092,1,0,0:0:0:0:
192,192,60092,1,0,0:0:0:0:
448,192,60092,1,0,0:0:0:0:
64,192,60257,1,0,0:0:0:0:
192,192,60257,1,0,0:0:0:0:
320,192,60257,1,0,0:0:0:0:
64,192,60422,1,0,0:0:0:0:
320,192,60422,1,0,0:0:0:0:
448,192,60422,1,0,0:0:0:0:
192,192,60586,1,0,0:0:0:0:
320,192,60586,1,0,0:0:0:0:
448,192,60586,1,0,0:0:0:0:
64,192,60751,1,0,0:0:0:0:
448,192,60751,1,0,0:0:0:0:
192,192,60751,1,0,0:0:0:0:
320,192,60861,1,0,0:0:0:0:
64,192,60861,1,0,0:0:0:0:
192,192,60971,1,0,0:0:0:0:
448,192,60971,1,0,0:0:0:0:
448,192,61081,1,0,0:0:0:0:
320,192,61081,1,0,0:0:0:0:
64,192,61081,1,0,0:0:0:0:
192,192,61191,1,0,0:0:0:0:
320,192,61191,1,0,0:0:0:0:
64,192,61301,1,0,0:0:0:0:
448,192,61301,1,0,0:0:0:0:
320,192,61411,1,0,0:0:0:0:
64,192,61411,1,0,0:0:0:0:
192,192,61411,1,0,0:0:0:0:
192,192,61520,1,0,0:0:0:0:
448,192,61520,1,0,0:0:0:0:
320,192,61630,1,0,0:0:0:0:
192,192,61630,1,0,0:0:0:0:
64,192,61740,1,0,0:0:0:0:
320,192,61740,1,0,0:0:0:0:
448,192,61740,1,0,0:0:0:0:
192,192,61850,1,0,0:0:0:0:
448,192,61850,1,0,0:0:0:0:
64,192,61960,1,0,0:0:0:0:
192,192,61960,1,0,0:0:0:0:
320,192,62070,1,0,0:0:0:0:
448,192,62070,1,0,0:0:0:0:
192,192,62070,1,0,0:0:0:0:
64,192,62180,1,0,0:0:0:0:
320,192,62180,1,0,0:0:0:0:
320,192,62290,1,0,0:0:0:0:
448,192,62290,1,0,0:0:0:0:
64,192,62400,1,0,0:0:0:0:
320,192,62400,1,0,0:0:0:0:
448,192,62400,1,0,0:0:0:0:
192,192,62509,1,0,0:0:0:0:
448,192,62509,1,0,0:0:0:0:
64,192,62619,1,0,0:0:0:0:
448,192,62619,1,0,0:0:0:0:
64,192,62729,1,0,0:0:0:0:
192,192,62729,1,0,0:0:0:0:
320,192,62729,1,0,0:0:0:0:
64,192,62976,1,0,0:0:0:0:
320,192,62976,1,0,0:0:0:0:
448,192,62976,1,0,0:0:0:0:
64,192,63224,1,0,0:0:0:0:
192,192,63224,1,0,0:0:0:0:
448,192,63224,1,0,0:0:0:0:
192,192,63389,1,0,0:0:0:0:
320,192,63389,1,0,0:0:0:0:
448,192,63389,1,0,0:0:0:0:
64,192,63471,1,0,0:0:0:0:
192,192,63553,1,0,0:0:0:0:
448,192,63636,1,0,0:0:0:0:
64,192,63718,1,0,0:0:0:0:
192,192,63718,1,0,0:0:0:0:
320,192,63801,1,0,0:0:0:0:
448,192,63801,1,0,0:0:0:0:
192,192,63883,1,0,0:0:0:0:
64,192,63883,1,0,0:0:0:0:
320,192,63965,1,0,0:0:0:0:
448,192,63965,1,0,0:0:0:0:
64,192,64048,1,0,0:0:0:0:
320,192,64130,1,0,0:0:0:0:
64,192,64213,1,0,0:0:0:0:
320,192,64295,1,0,0:0:0:0:
192,192,64378,1,0,0:0:0:0:
448,192,64460,1,0,0:0:0:0:
192,192,64542,1,0,0:0:0:0:
448,192,64625,1,0,0:0:0:0:
192,192,64707,1,0,0:0:0:0:
64,192,64707,1,0,0:0:0:0:
448,192,64790,1,0,0:0:0:0:
192,192,64872,1,0,0:0:0:0:
64,192,64954,1,0,0:0:0:0:
320,192,65037,1,0,0:0:0:0:
448,192,65119,1,0,0:0:0:0:
192,192,65202,1,0,0:0:0:0:
64,192,65284,1,0,0:0:0:0:
448,192,65367,1,0,0:0:0:0:
320,192,65449,1,0,0:0:0:0:
64,192,65531,1,0,0:0:0:0:
192,192,65614,1,0,0:0:0:0:
448,192,65696,1,0,0:0:0:0:
320,192,65779,1,0,0:0:0:0:
64,192,65861,1,0,0:0:0:0:
192,192,65943,1,0,0:0:0:0:
320,192,66026,1,0,0:0:0:0:
448,192,66026,1,0,0:0:0:0:
64,192,66026,1,0,0:0:0:0:
192,192,66108,1,0,0:0:0:0:
64,192,66191,1,0,0:0:0:0:
448,192,66191,1,0,0:0:0:0:
320,192,66273,1,0,0:0:0:0:
192,192,66356,1,0,0:0:0:0:
64,192,66356,1,0,0:0:0:0:
448,192,66438,1,0,0:0:0:0:
192,192,66520,1,0,0:0:0:0:
320,192,66520,1,0,0:0:0:0:
64,192,66603,1,0,0:0:0:0:
320,192,66685,1,0,0:0:0:0:
448,192,66685,1,0,0:0:0:0:
192,192,66768,1,0,0:0:0:0:
64,192,66850,1,0,0:0:0:0:
448,192,66850,1,0,0:0:0:0:
192,192,66933,1,0,0:0:0:0:
320,192,67015,1,0,0:0:0:0:
448,192,67015,1,0,0:0:0:0:
64,192,67097,1,0,0:0:0:0:
192,192,67180,1,0,0:0:0:0:
448,192,67180,1,0,0:0:0:0:
320,192,67262,1,0,0:0:0:0:
64,192,67345,1,0,0:0:0:0:
192,192,67345,1,0,0:0:0:0:
448,192,67427,1,0,0:0:0:0:
64,192,67509,1,0,0:0:0:0:
320,192,67509,1,0,0:0:0:0:
192,192,67592,1,0,0:0:0:0:
64,192,67674,1,0,0:0:0:0:
448,192,67674,1,0,0:0:0:0:
320,192,67757,1,0,0:0:0:0:
64,192,67839,1,0,0:0:0:0:
192,192,67839,1,0,0:0:0:0:
448,192,67922,1,0,0:0:0:0:
64,192,68004,1,0,0:0:0:0:
320,192,68004,1,0,0:0:0:0:
192,192,68086,1,0,0:0:0:0:
448,192,68169,1,0,0:0:0:0:
320,192,68169,1,0,0:0:0:0:
64,192,68251,1,0,0:0:0:0:
448,192,68334,1,0,0:0:0:0:
320,192,68334,1,0,0:0:0:0:
192,192,68416,1,0,0:0:0:0:
448,192,68498,1,0,0:0:0:0:
64,192,68498,1,0,0:0:0:0:
320,192,68581,1,0,0:0:0:0:
192,192,68663,1,0,0:0:0:0:
64,192,68663,1,0,0:0:0:0:
448,192,68746,1,0,0:0:0:0:
64,192,68828,1,0,0:0:0:0:
192,192,68828,1,0,0:0:0:0:
320,192,68911,1,0,0:0:0:0:
64,192,68993,1,0,0:0:0:0:
448,192,68993,1,0,0:0:0:0:
320,192,69075,1,0,0:0:0:0:
192,192,69158,1,0,0:0:0:0:
64,192,69158,1,0,0:0:0:0:
448,192,69240,1,0,0:0:0:0:
64,192,69323,1,0,0:0:0:0:
320,192,69323,1,0,0:0:0:0:
192,192,69405,1,0,0:0:0:0:
64,192,69487,1,0,0:0:0:0:
448,192,69487,1,0,0:0:0:0:
320,192,69570,1,0,0:0:0:0:
192,192,69652,1,0,0:0:0:0:
448,192,69652,1,0,0:0:0:0:
320,192,69735,1,0,0:0:0:0:
64,192,69817,1,0,0:0:0:0:
448,192,69817,1,0,0:0:0:0:
192,192,69900,1,0,0:0:0:0:
320,192,69982,1,0,0:0:0:0:
448,192,69982,1,0,0:0:0:0:
64,192,70064,1,0,0:0:0:0:
192,192,70147,1,0,0:0:0:0:
448,192,70147,1,0,0:0:0:0:
320,192,70229,1,0,0:0:0:0:
192,192,70312,1,0,0:0:0:0:
64,192,70312,1,0,0:0:0:0:
448,192,70394,1,0,0:0:0:0:
320,192,70476,1,0,0:0:0:0:
64,192,70476,1,0,0:0:0:0:
192,192,70559,1,0,0:0:0:0:
320,192,70641,1,0,0:0:0:0:
448,192,70641,1,0,0:0:0:0:
64,192,70724,1,0,0:0:0:0:
192,192,70806,1,0,0:0:0:0:
448,192,70806,1,0,0:0:0:0:
320,192,70889,1,0,0:0:0:0:
64,192,70971,1,0,0:0:0:0:
448,192,70971,1,0,0:0:0:0:
192,192,71053,1,0,0:0:0:0:
320,192,71136,1,0,0:0:0:0:
448,192,71136,1,0,0:0:0:0:
64,192,71218,1,0,0:0:0:0:
192,192,71301,1,0,0:0:0:0:
320,192,71301,1,0,0:0:0:0:
448,192,71301,1,0,0:0:0:0:
64,192,71383,1,0,0:0:0:0:
192,192,71465,1,0,0:0:0:0:
448,192,71465,1,0,0:0:0:0:
320,192,71548,1,0,0:0:0:0:
192,192,71630,1,0,0:0:0:0:
64,192,71630,1,0,0:0:0:0:
448,192,71713,1,0,0:0:0:0:
64,192,71795,1,0,0:0:0:0:
320,192,71795,1,0,0:0:0:0:
192,192,71878,1,0,0:0:0:0:
64,192,71960,1,0,0:0:0:0:
320,192,71960,1,0,0:0:0:0:
448,192,72042,1,0,0:0:0:0:
192,192,72125,1,0,0:0:0:0:
64,192,72125,1,0,0:0:0:0:
320,192,72207,1,0,0:0:0:0:
192,192,72290,1,0,0:0:0:0:
64,192,72290,1,0,0:0:0:0:
448,192,72372,1,0,0:0:0:0:
320,192,72454,1,0,0:0:0:0:
64,192,72454,1,0,0:0:0:0:
192,192,72537,1,0,0:0:0:0:
64,192,72619,1,0,0:0:0:0:
448,192,72619,1,0,0:0:0:0:
320,192,72702,1,0,0:0:0:0:
192,192,72784,1,0,0:0:0:0:
64,192,72784,1,0,0:0:0:0:
448,192,72867,1,0,0:0:0:0:
320,192,72949,1,0,0:0:0:0:
192,192,72949,1,0,0:0:0:0:
64,192,73031,1,0,0:0:0:0:
192,192,73114,1,0,0:0:0:0:
448,192,73114,1,0,0:0:0:0:
320,192,73196,1,0,0:0:0:0:
64,192,73279,1,0,0:0:0:0:
448,192,73279,1,0,0:0:0:0:
192,192,73361,1,0,0:0:0:0:
320,192,73443,1,0,0:0:0:0:
448,192,73443,1,0,0:0:0:0:
192,192,73526,1,0,0:0:0:0:
64,192,73608,1,0,0:0:0:0:
448,192,73608,1,0,0:0:0:0:
320,192,73691,1,0,0:0:0:0:
192,192,73773,1,0,0:0:0:0:
64,192,73773,1,0,0:0:0:0:
448,192,73856,1,0,0:0:0:0:
320,192,73938,1,0,0:0:0:0:
64,192,73938,1,0,0:0:0:0:
192,192,73938,1,0,0:0:0:0:
448,192,74020,1,0,0:0:0:0:
64,192,74103,1,0,0:0:0:0:
320,192,74103,1,0,0:0:0:0:
448,192,74185,1,0,0:0:0:0:
320,192,74268,1,0,0:0:0:0:
64,192,74268,1,0,0:0:0:0:
192,192,74350,1,0,0:0:0:0:
64,192,74433,1,0,0:0:0:0:
448,192,74433,1,0,0:0:0:0:
320,192,74515,1,0,0:0:0:0:
192,192,74597,1,0,0:0:0:0:
64,192,74597,1,0,0:0:0:0:
448,192,74680,1,0,0:0:0:0:
192,192,74762,1,0,0:0:0:0:
64,192,74762,1,0,0:0:0:0:
320,192,74845,1,0,0:0:0:0:
64,192,74927,1,0,0:0:0:0:
448,192,74927,1,0,0:0:0:0:
192,192,75009,1,0,0:0:0:0:
64,192,75092,1,0,0:0:0:0:
320,192,75092,1,0,0:0:0:0:
192,192,75174,1,0,0:0:0:0:
64,192,75257,1,0,0:0:0:0:
320,192,75257,1,0,0:0:0:0:
448,192,75257,1,0,0:0:0:0:
192,192,75339,1,0,0:0:0:0:
64,192,75422,1,0,0:0:0:0:
448,192,75422,1,0,0:0:0:0:
320,192,75504,1,0,0:0:0:0:
192,192,75586,1,0,0:0:0:0:
448,192,75586,1,0,0:0:0:0:
320,192,75669,1,0,0:0:0:0:
192,192,75751,1,0,0:0:0:0:
64,192,75751,1,0,0:0:0:0:
448,192,75834,1,0,0:0:0:0:
64,192,75916,1,0,0:0:0:0:
320,192,75916,1,0,0:0:0:0:
192,192,75998,1,0,0:0:0:0:
64,192,76081,1,0,0:0:0:0:
320,192,76081,1,0,0:0:0:0:
448,192,76163,1,0,0:0:0:0:
192,192,76246,1,0,0:0:0:0:
64,192,76246,1,0,0:0:0:0:
320,192,76328,1,0,0:0:0:0:
448,192,76328,1,0,0:0:0:0:
64,192,76411,1,0,0:0:0:0:
192,192,76411,1,0,0:0:0:0:
320,192,76493,1,0,0:0:0:0:
448,192,76493,1,0,0:0:0:0:
192,192,76575,1,0,0:0:0:0:
64,192,76575,1,0,0:0:0:0:
320,192,76658,1,0,0:0:0:0:
64,192,76740,1,0,0:0:0:0:
448,192,76740,1,0,0:0:0:0:
192,192,76823,1,0,0:0:0:0:
320,192,76905,1,0,0:0:0:0:
448,192,76905,1,0,0:0:0:0:
64,192,76987,1,0,0:0:0:0:
192,192,77070,1,0,0:0:0:0:
320,192,77070,1,0,0:0:0:0:
448,192,77152,1,0,0:0:0:0:
64,192,77235,1,0,0:0:0:0:
320,192,77235,1,0,0:0:0:0:
192,192,77317,1,0,0:0:0:0:
320,192,77400,1,0,0:0:0:0:
448,192,77400,1,0,0:0:0:0:
192,192,77482,1,0,0:0:0:0:
64,192,77564,1,0,0:0:0:0:
448,192,77564,1,0,0:0:0:0:
320,192,77647,1,0,0:0:0:0:
192,192,77729,1,0,0:0:0:0:
64,192,77729,1,0,0:0:0:0:
448,192,77812,1,0,0:0:0:0:
64,192,77894,1,0,0:0:0:0:
320,192,77894,1,0,0:0:0:0:
192,192,77976,1,0,0:0:0:0:
64,192,78059,1,0,0:0:0:0:
448,192,78059,1,0,0:0:0:0:
320,192,78141,1,0,0:0:0:0:
192,192,78224,1,0,0:0:0:0:
448,192,78224,1,0,0:0:0:0:
64,192,78306,1,0,0:0:0:0:
448,192,78389,1,0,0:0:0:0:
320,192,78389,1,0,0:0:0:0:
192,192,78471,1,0,0:0:0:0:
64,192,78553,1,0,0:0:0:0:
320,192,78553,1,0,0:0:0:0:
192,192,78636,1,0,0:0:0:0:
448,192,78718,1,0,0:0:0:0:
64,192,78718,1,0,0:0:0:0:
320,192,78801,1,0,0:0:0:0:
192,192,78883,1,0,0:0:0:0:
64,192,78883,1,0,0:0:0:0:
448,192,78965,1,0,0:0:0:0:
320,192,79048,1,0,0:0:0:0:
64,192,79048,1,0,0:0:0:0:
192,192,79130,1,0,0:0:0:0:
64,192,79213,1,0,0:0:0:0:
320,192,79213,1,0,0:0:0:0:
448,192,79295,1,0,0:0:0:0:
192,192,79378,1,0,0:0:0:0:
320,192,79378,1,0,0:0:0:0:
448,192,79460,1,0,0:0:0:0:
64,192,79542,1,0,0:0:0:0:
320,192,79542,1,0,0:0:0:0:
192,192,79625,1,0,0:0:0:0:
64,192,79707,1,0,0:0:0:0:
448,192,79707,1,0,0:0:0:0:
320,192,79790,1,0,0:0:0:0:
192,192,79872,1,0,0:0:0:0:
64,192,79872,1,0,0:0:0:0:
448,192,79954,1,0,0:0:0:0:
64,192,80037,1,0,0:0:0:0:
192,192,80037,1,0,0:0:0:0:
320,192,80119,1,0,0:0:0:0:
192,192,80202,1,0,0:0:0:0:
448,192,80202,1,0,0:0:0:0:
64,192,80284,1,0,0:0:0:0:
192,192,80367,1,0,0:0:0:0:
320,192,80367,1,0,0:0:0:0:
448,192,80449,1,0,0:0:0:0:
64,192,80531,1,0,0:0:0:0:
192,192,80531,1,0,0:0:0:0:
320,192,80614,1,0,0:0:0:0:
192,192,80696,1,0,0:0:0:0:
448,192,80696,1,0,0:0:0:0:
320,192,80779,1,0,0:0:0:0:
64,192,80861,1,0,0:0:0:0:
448,192,80861,1,0,0:0:0:0:
192,192,80943,1,0,0:0:0:0:
320,192,81026,1,0,0:0:0:0:
448,192,81026,1,0,0:0:0:0:
64,192,81108,1,0,0:0:0:0:
192,192,81191,1,0,0:0:0:0:
448,192,81191,1,0,0:0:0:0:
320,192,81273,1,0,0:0:0:0:
192,192,81356,1,0,0:0:0:0:
64,192,81356,1,0,0:0:0:0:
448,192,81438,1,0,0:0:0:0:
320,192,81520,1,0,0:0:0:0:
192,192,81520,1,0,0:0:0:0:
64,192,81603,1,0,0:0:0:0:
320,192,81685,1,0,0:0:0:0:
448,192,81685,1,0,0:0:0:0:
192,192,81768,1,0,0:0:0:0:
64,192,81850,1,0,0:0:0:0:
448,192,81850,1,0,0:0:0:0:
320,192,81850,1,0,0:0:0:0:
192,192,81933,1,0,0:0:0:0:
64,192,82015,1,0,0:0:0:0:
320,192,82015,1,0,0:0:0:0:
448,192,82097,1,0,0:0:0:0:
320,192,82180,1,0,0:0:0:0:
64,192,82180,1,0,0:0:0:0:
192,192,82262,1,0,0:0:0:0:
64,192,82345,1,0,0:0:0:0:
448,192,82345,1,0,0:0:0:0:
192,192,82427,1,0,0:0:0:0:
320,192,82509,1,0,0:0:0:0:
448,192,82509,1,0,0:0:0:0:
64,192,82592,1,0,0:0:0:0:
192,192,82674,1,0,0:0:0:0:
448,192,82674,1,0,0:0:0:0:
320,192,82757,1,0,0:0:0:0:
64,192,82839,1,0,0:0:0:0:
448,192,82839,1,0,0:0:0:0:
192,192,82922,1,0,0:0:0:0:
64,192,83004,1,0,0:0:0:0:
448,192,83004,1,0,0:0:0:0:
320,192,83086,1,0,0:0:0:0:
192,192,83169,1,0,0:0:0:0:
64,192,83169,1,0,0:0:0:0:
448,192,83251,1,0,0:0:0:0:
320,192,83334,1,0,0:0:0:0:
64,192,83334,1,0,0:0:0:0:
192,192,83416,1,0,0:0:0:0:
320,192,83498,1,0,0:0:0:0:
448,192,83498,1,0,0:0:0:0:
192,192,83581,1,0,0:0:0:0:
64,192,83663,1,0,0:0:0:0:
448,192,83663,1,0,0:0:0:0:
320,192,83746,1,0,0:0:0:0:
192,192,83828,1,0,0:0:0:0:
448,192,83828,1,0,0:0:0:0:
320,192,83911,1,0,0:0:0:0:
64,192,83993,1,0,0:0:0:0:
448,192,83993,1,0,0:0:0:0:
192,192,84075,1,0,0:0:0:0:
320,192,84158,1,0,0:0:0:0:
448,192,84158,1,0,0:0:0:0:
64,192,84240,1,0,0:0:0:0:
320,192,84323,1,0,0:0:0:0:
448,192,84323,1,0,0:0:0:0:
192,192,84405,1,0,0:0:0:0:
64,192,84487,1,0,0:0:0:0:
320,192,84487,1,0,0:0:0:0:
448,192,84487,1,0,0:0:0:0:
192,192,84570,1,0,0:0:0:0:
64,192,84652,1,0,0:0:0:0:
320,192,84652,1,0,0:0:0:0:
448,192,84735,1,0,0:0:0:0:
64,192,84817,1,0,0:0:0:0:
192,192,84817,1,0,0:0:0:0:
320,192,84900,1,0,0:0:0:0:
64,192,84982,1,0,0:0:0:0:
448,192,84982,1,0,0:0:0:0:
192,192,85064,1,0,0:0:0:0:
448,192,85147,1,0,0:0:0:0:
320,192,85147,1,0,0:0:0:0:
64,192,85229,1,0,0:0:0:0:
192,192,85312,1,0,0:0:0:0:
448,192,85312,1,0,0:0:0:0:
320,192,85394,1,0,0:0:0:0:
64,192,85476,1,0,0:0:0:0:
448,192,85476,1,0,0:0:0:0:
192,192,85559,1,0,0:0:0:0:
320,192,85641,1,0,0:0:0:0:
448,192,85641,1,0,0:0:0:0:
64,192,85724,1,0,0:0:0:0:
192,192,85806,1,0,0:0:0:0:
320,192,85806,1,0,0:0:0:0:
448,192,85806,1,0,0:0:0:0:
64,192,85889,1,0,0:0:0:0:
448,192,85971,1,0,0:0:0:0:
192,192,85971,1,0,0:0:0:0:
64,192,86053,1,0,0:0:0:0:
448,192,86136,1,0,0:0:0:0:
320,192,86136,1,0,0:0:0:0:
64,192,86218,1,0,0:0:0:0:
192,192,86301,1,0,0:0:0:0:
320,192,86301,1,0,0:0:0:0:
64,192,86383,1,0,0:0:0:0:
320,192,86465,1,0,0:0:0:0:
448,192,86465,1,0,0:0:0:0:
192,192,86548,1,0,0:0:0:0:
64,192,86630,1,0,0:0:0:0:
448,192,86630,1,0,0:0:0:0:
192,192,86713,1,0,0:0:0:0:
320,192,86713,1,0,0:0:0:0:
64,192,86795,1,0,0:0:0:0:
448,192,86795,1,0,0:0:0:0:
192,192,86878,1,0,0:0:0:0:
320,192,86878,1,0,0:0:0:0:
64,192,86960,1,0,0:0:0:0:
448,192,86960,1,0,0:0:0:0:
192,192,87042,1,0,0:0:0:0:
320,192,87042,1,0,0:0:0:0:
64,192,87125,1,0,0:0:0:0:
448,192,87125,1,0,0:0:0:0:
192,192,87207,1,0,0:0:0:0:
448,192,87290,1,0,0:0:0:0:
320,192,87290,1,0,0:0:0:0:
192,192,87372,1,0,0:0:0:0:
64,192,87454,1,0,0:0:0:0:
320,192,87454,1,0,0:0:0:0:
448,192,87537,1,0,0:0:0:0:
320,192,87619,1,0,0:0:0:0:
64,192,87619,1,0,0:0:0:0:
192,192,87702,1,0,0:0:0:0:
320,192,87784,1,0,0:0:0:0:
448,192,87784,1,0,0:0:0:0:
64,192,87867,1,0,0:0:0:0:
192,192,87949,1,0,0:0:0:0:
448,192,87949,1,0,0:0:0:0:
320,192,88031,1,0,0:0:0:0:
64,192,88114,1,0,0:0:0:0:
448,192,88114,1,0,0:0:0:0:
192,192,88196,1,0,0:0:0:0:
320,192,88279,1,0,0:0:0:0:
448,192,88279,1,0,0:0:0:0:
192,192,88361,1,0,0:0:0:0:
64,192,88443,1,0,0:0:0:0:
448,192,88443,1,0,0:0:0:0:
320,192,88526,1,0,0:0:0:0:
192,192,88608,1,0,0:0:0:0:
448,192,88608,1,0,0:0:0:0:
64,192,88691,1,0,0:0:0:0:
192,192,88773,1,0,0:0:0:0:
320,192,88773,1,0,0:0:0:0:
448,192,88856,1,0,0:0:0:0:
64,192,88938,1,0,0:0:0:0:
320,192,88938,1,0,0:0:0:0:
192,192,89020,1,0,0:0:0:0:
64,192,89103,1,0,0:0:0:0:
448,192,89103,1,0,0:0:0:0:
320,192,89185,1,0,0:0:0:0:
192,192,89268,1,0,0:0:0:0:
64,192,89268,1,0,0:0:0:0:
448,192,89350,1,0,0:0:0:0:
320,192,89433,1,0,0:0:0:0:
64,192,89433,1,0,0:0:0:0:
192,192,89515,1,0,0:0:0:0:
64,192,89597,1,0,0:0:0:0:
448,192,89597,1,0,0:0:0:0:
192,192,89680,1,0,0:0:0:0:
320,192,89762,1,0,0:0:0:0:
448,192,89762,1,0,0:0:0:0:
64,192,89762,1,0,0:0:0:0:
192,192,89845,1,0,0:0:0:0:
64,192,89927,1,0,0:0:0:0:
320,192,89927,1,0,0:0:0:0:
448,192,90009,1,0,0:0:0:0:
64,192,90092,1,0,0:0:0:0:
192,192,90092,1,0,0:0:0:0:
320,192,90174,1,0,0:0:0:0:
192,192,90257,1,0,0:0:0:0:
448,192,90257,1,0,0:0:0:0:
320,192,90339,1,0,0:0:0:0:
64,192,90422,1,0,0:0:0:0:
448,192,90422,1,0,0:0:0:0:
192,192,90504,1,0,0:0:0:0:
64,192,90586,1,0,0:0:0:0:
320,192,90586,1,0,0:0:0:0:
448,192,90669,1,0,0:0:0:0:
192,192,90751,1,0,0:0:0:0:
64,192,90751,1,0,0:0:0:0:
320,192,90834,1,0,0:0:0:0:
192,192,90916,1,0,0:0:0:0:
448,192,90916,1,0,0:0:0:0:
64,192,90998,1,0,0:0:0:0:
192,192,91081,1,0,0:0:0:0:
320,192,91081,1,0,0:0:0:0:
448,192,91081,1,0,0:0:0:0:
64,192,91163,1,0,0:0:0:0:
192,192,91246,1,0,0:0:0:0:
448,192,91246,1,0,0:0:0:0:
320,192,91328,1,0,0:0:0:0:
64,192,91411,1,0,0:0:0:0:
192,192,91411,1,0,0:0:0:0:
448,192,91493,1,0,0:0:0:0:
64,192,91575,1,0,0:0:0:0:
320,192,91575,1,0,0:0:0:0:
192,192,91658,1,0,0:0:0:0:
320,192,91740,1,0,0:0:0:0:
448,192,91740,1,0,0:0:0:0:
64,192,91740,1,0,0:0:0:0:
192,192,91823,1,0,0:0:0:0:
64,192,91905,1,0,0:0:0:0:
320,192,91905,1,0,0:0:0:0:
448,192,91905,1,0,0:0:0:0:
192,192,91987,1,0,0:0:0:0:
320,192,92070,1,0,0:0:0:0:
448,192,92070,1,0,0:0:0:0:
64,192,92152,1,0,0:0:0:0:
192,192,92152,1,0,0:0:0:0:
320,192,92235,1,0,0:0:0:0:
448,192,92235,1,0,0:0:0:0:
192,192,92317,1,0,0:0:0:0:
64,192,92317,1,0,0:0:0:0:
320,192,92400,1,0,0:0:0:0:
448,192,92400,1,0,0:0:0:0:
64,192,92482,1,0,0:0:0:0:
192,192,92564,1,0,0:0:0:0:
448,192,92564,1,0,0:0:0:0:
320,192,92647,1,0,0:0:0:0:
192,192,92729,1,0,0:0:0:0:
64,192,92729,1,0,0:0:0:0:
320,192,92812,1,0,0:0:0:0:
64,192,92894,1,0,0:0:0:0:
448,192,92894,1,0,0:0:0:0:
192,192,92976,1,0,0:0:0:0:
320,192,93059,1,0,0:0:0:0:
448,192,93059,1,0,0:0:0:0:
64,192,93141,1,0,0:0:0:0:
192,192,93224,1,0,0:0:0:0:
448,192,93224,1,0,0:0:0:0:
320,192,93306,1,0,0:0:0:0:
192,192,93389,1,0,0:0:0:0:
64,192,93389,1,0,0:0:0:0:
320,192,93471,1,0,0:0:0:0:
64,192,93553,1,0,0:0:0:0:
448,192,93553,1,0,0:0:0:0:
192,192,93636,1,0,0:0:0:0:
64,192,93718,1,0,0:0:0:0:
320,192,93718,1,0,0:0:0:0:
448,192,93718,1,0,0:0:0:0:
192,192,93801,1,0,0:0:0:0:
64,192,93883,1,0,0:0:0:0:
320,192,93883,1,0,0:0:0:0:
448,192,93965,1,0,0:0:0:0:
64,192,94048,1,0,0:0:0:0:
192,192,94048,1,0,0:0:0:0:
320,192,94130,1,0,0:0:0:0:
192,192,94213,1,0,0:0:0:0:
448,192,94213,1,0,0:0:0:0:
64,192,94295,1,0,0:0:0:0:
192,192,94378,1,0,0:0:0:0:
320,192,94378,1,0,0:0:0:0:
448,192,94460,1,0,0:0:0:0:
64,192,94542,1,0,0:0:0:0:
320,192,94542,1,0,0:0:0:0:
192,192,94625,1,0,0:0:0:0:
64,192,94707,1,0,0:0:0:0:
448,192,94707,1,0,0:0:0:0:
320,192,94790,1,0,0:0:0:0:
192,192,94872,1,0,0:0:0:0:
64,192,94872,1,0,0:0:0:0:
448,192,94954,1,0,0:0:0:0:
320,192,95037,1,0,0:0:0:0:
192,192,95037,1,0,0:0:0:0:
64,192,95037,1,0,0:0:0:0:
448,192,95119,1,0,0:0:0:0:
320,192,95202,1,0,0:0:0:0:
64,192,95202,1,0,0:0:0:0:
192,192,95284,1,0,0:0:0:0:
320,192,95367,1,0,0:0:0:0:
448,192,95367,1,0,0:0:0:0:
64,192,95449,1,0,0:0:0:0:
192,192,95531,1,0,0:0:0:0:
448,192,95531,1,0,0:0:0:0:
320,192,95614,1,0,0:0:0:0:
64,192,95696,1,0,0:0:0:0:
448,192,95696,1,0,0:0:0:0:
192,192,95779,1,0,0:0:0:0:
320,192,95861,1,0,0:0:0:0:
448,192,95861,1,0,0:0:0:0:
64,192,95861,1,0,0:0:0:0:
192,192,95943,1,0,0:0:0:0:
320,192,96026,1,0,0:0:0:0:
448,192,96026,1,0,0:0:0:0:
64,192,96108,1,0,0:0:0:0:
192,192,96191,1,0,0:0:0:0:
448,192,96191,1,0,0:0:0:0:
320,192,96273,1,0,0:0:0:0:
64,192,96356,1,0,0:0:0:0:
192,192,96356,1,0,0:0:0:0:
448,192,96356,1,0,0:0:0:0:
192,192,96465,1,0,0:0:0:0:
320,192,96465,1,0,0:0:0:0:
64,192,96575,1,0,0:0:0:0:
320,192,96575,1,0,0:0:0:0:
192,192,96685,1,0,0:0:0:0:
320,192,96685,1,0,0:0:0:0:
64,192,96795,1,0,0:0:0:0:
448,192,96795,1,0,0:0:0:0:
192,192,96905,1,0,0:0:0:0:
448,192,96905,1,0,0:0:0:0:
320,192,97015,1,0,0:0:0:0:
64,192,97015,1,0,0:0:0:0:
320,192,97125,1,0,0:0:0:0:
448,192,97125,1,0,0:0:0:0:
192,192,97235,1,0,0:0:0:0:
448,192,97235,1,0,0:0:0:0:
64,192,97345,1,0,0:0:0:0:
320,192,97345,1,0,0:0:0:0:
192,192,97454,1,0,0:0:0:0:
320,192,97454,1,0,0:0:0:0:
320,192,97564,1,0,0:0:0:0:
64,192,97564,1,0,0:0:0:0:
192,192,97674,1,0,0:0:0:0:
448,192,97674,128,0,97839:0:0:0:0:
192,192,97839,1,0,0:0:0:0:
320,192,97839,1,0,0:0:0:0:
64,192,98004,1,0,0:0:0:0:
448,192,98004,1,0,0:0:0:0:
192,192,98004,128,0,98169:0:0:0:0:
320,192,98169,1,0,0:0:0:0:
64,192,98169,1,0,0:0:0:0:
192,192,98334,1,0,0:0:0:0:
320,192,98334,128,0,98498:0:0:0:0:
192,192,98498,1,0,0:0:0:0:
448,192,98498,1,0,0:0:0:0:
64,192,98663,1,0,0:0:0:0:
320,192,98663,1,0,0:0:0:0:
192,192,98663,128,0,98828:0:0:0:0:
320,192,98828,1,0,0:0:0:0:
448,192,98828,1,0,0:0:0:0:
320,192,98993,1,0,0:0:0:0:
64,192,98993,128,0,99158:0:0:0:0:
448,192,99158,1,0,0:0:0:0:
192,192,99158,1,0,0:0:0:0:
64,192,99323,1,0,0:0:0:0:
320,192,99323,1,0,0:0:0:0:
448,192,99323,128,0,99487:0:0:0:0:
192,192,99487,1,0,0:0:0:0:
320,192,99487,1,0,0:0:0:0:
64,192,99652,1,0,0:0:0:0:
192,192,99652,128,0,99817:0:0:0:0:
320,192,99817,1,0,0:0:0:0:
64,192,99817,1,0,0:0:0:0:
192,192,99982,1,0,0:0:0:0:
448,192,99982,1,0,0:0:0:0:
320,192,99982,128,0,100147:0:0:0:0:
448,192,100147,1,0,0:0:0:0:
64,192,100147,1,0,0:0:0:0:
320,192,100312,1,0,0:0:0:0:
64,192,100312,128,0,100476:0:0:0:0:
192,192,100476,1,0,0:0:0:0:
448,192,100476,1,0,0:0:0:0:
64,192,100641,1,0,0:0:0:0:
192,192,100641,1,0,0:0:0:0:
320,192,100641,128,0,100806:0:0:0:0:
192,192,100806,1,0,0:0:0:0:
448,192,100806,1,0,0:0:0:0:
320,192,100971,1,0,0:0:0:0:
64,192,100971,128,0,101136:0:0:0:0:
320,192,101136,1,0,0:0:0:0:
192,192,101136,1,0,0:0:0:0:
448,192,101301,1,0,0:0:0:0:
64,192,101301,1,0,0:0:0:0:
320,192,101301,128,0,101465:0:0:0:0:
64,192,101465,1,0,0:0:0:0:
192,192,101465,1,0,0:0:0:0:
320,192,101630,1,0,0:0:0:0:
448,192,101630,128,0,101795:0:0:0:0:
64,192,101795,1,0,0:0:0:0:
320,192,101795,1,0,0:0:0:0:
192,192,101960,128,0,102125:0:0:0:0:
320,192,101960,1,0,0:0:0:0:
64,192,101960,1,0,0:0:0:0:
448,192,102125,1,0,0:0:0:0:
64,192,102125,1,0,0:0:0:0:
64,192,102290,128,0,102454:0:0:0:0:
192,192,102290,1,0,0:0:0:0:
320,192,102454,1,0,0:0:0:0:
448,192,102454,1,0,0:0:0:0:
192,192,102454,1,0,0:0:0:0:
192,192,102619,128,0,102784:0:0:0:0:
64,192,102619,1,0,0:0:0:0:
448,192,102619,1,0,0:0:0:0:
320,192,102784,1,0,0:0:0:0:
448,192,102784,1,0,0:0:0:0:
64,192,102784,1,0,0:0:0:0:
192,192,102949,1,0,0:0:0:0:
64,192,102949,128,0,103114:0:0:0:0:
320,192,103114,1,0,0:0:0:0:
448,192,103114,1,0,0:0:0:0:
64,192,103279,1,0,0:0:0:0:
448,192,103279,1,0,0:0:0:0:
320,192,103279,128,0,103443:0:0:0:0:
192,192,103443,1,0,0:0:0:0:
448,192,103443,1,0,0:0:0:0:
320,192,103608,1,0,0:0:0:0:
192,192,103608,128,0,103773:0:0:0:0:
320,192,103773,1,0,0:0:0:0:
448,192,103773,1,0,0:0:0:0:
448,192,103938,1,0,0:0:0:0:
64,192,103938,1,0,0:0:0:0:
320,192,103938,128,0,104103:0:0:0:0:
64,192,104103,1,0,0:0:0:0:
192,192,104103,1,0,0:0:0:0:
64,192,104268,1,0,0:0:0:0:
448,192,104268,128,0,104433:0:0:0:0:
64,192,104433,1,0,0:0:0:0:
192,192,104433,1,0,0:0:0:0:
320,192,104597,128,0,104762:0:0:0:0:
192,192,104597,1,0,0:0:0:0:
448,192,104597,1,0,0:0:0:0:
448,192,104762,1,0,0:0:0:0:
64,192,104762,1,0,0:0:0:0:
64,192,104927,128,0,105092:0:0:0:0:
192,192,104927,1,0,0:0:0:0:
192,192,105092,1,0,0:0:0:0:
320,192,105092,128,0,105422:0:0:0:0:
448,192,105092,128,0,105422:0:0:0:0:
192,192,105422,128,0,105586:0:0:0:0:
64,192,105422,128,0,105586:0:0:0:0:
320,192,105586,1,0,0:0:0:0:
448,192,105586,1,0,0:0:0:0:
320,192,105751,1,0,0:0:0:0:
192,192,105751,1,0,0:0:0:0:
448,192,105916,1,0,0:0:0:0:
192,192,105916,1,0,0:0:0:0:
64,192,105916,1,0,0:0:0:0:
64,192,106081,1,0,0:0:0:0:
320,192,106081,1,0,0:0:0:0:
64,192,106246,1,0,0:0:0:0:
192,192,106246,1,0,0:0:0:0:
320,192,106246,1,0,0:0:0:0:
320,192,106411,1,0,0:0:0:0:
448,192,106411,1,0,0:0:0:0:
64,192,106493,1,0,0:0:0:0:
192,192,106493,1,0,0:0:0:0:
320,192,106575,1,0,0:0:0:0:
448,192,106575,1,0,0:0:0:0:
192,192,106740,1,0,0:0:0:0:
320,192,106740,1,0,0:0:0:0:
64,192,106905,1,0,0:0:0:0:
448,192,106905,1,0,0:0:0:0:
192,192,106987,1,0,0:0:0:0:
448,192,107070,1,0,0:0:0:0:
320,192,107152,1,0,0:0:0:0:
64,192,107235,1,0,0:0:0:0:
448,192,107235,1,0,0:0:0:0:
192,192,107317,1,0,0:0:0:0:
320,192,107400,1,0,0:0:0:0:
448,192,107400,1,0,0:0:0:0:
64,192,107482,1,0,0:0:0:0:
320,192,107564,1,0,0:0:0:0:
192,192,107647,1,0,0:0:0:0:
448,192,107729,1,0,0:0:0:0:
320,192,107812,1,0,0:0:0:0:
192,192,107894,1,0,0:0:0:0:
448,192,107976,1,0,0:0:0:0:
64,192,108059,1,0,0:0:0:0:
192,192,108141,1,0,0:0:0:0:
448,192,108224,1,0,0:0:0:0:
320,192,108224,1,0,0:0:0:0:
64,192,108224,1,0,0:0:0:0:
64,192,109707,1,0,0:0:0:0:
320,192,109707,1,0,0:0:0:0:
192,192,109831,1,0,0:0:0:0:
448,192,109831,1,0,0:0:0:0:
64,192,109954,1,0,0:0:0:0:
320,192,109954,1,0,0:0:0:0:
192,192,110078,1,0,0:0:0:0:
448,192,110078,1,0,0:0:0:0:
64,192,110202,1,0,0:0:0:0:
320,192,110202,1,0,0:0:0:0:
192,192,110325,1,0,0:0:0:0:
448,192,110325,1,0,0:0:0:0:
320,192,110400,1,0,0:0:0:0:
64,192,110400,1,0,0:0:0:0:
