osu file format v14

[General]
AudioFilename: Demetori - Wind God Girl.mp3
AudioLeadIn: 0
PreviewTime: 264035
Countdown: 0
SampleSet: None
StackLeniency: 0.7
Mode: 3
LetterboxInBreaks: 0
SpecialStyle: 0
WidescreenStoryboard: 0

[Editor]
Bookmarks: 9635,57635,79235,98435,117635,136835,146435,165635,184835,196835,206435,225635,244835,254435,264035,283235,302435,324035
DistanceSpacing: 0.8
BeatDivisor: 4
GridSize: 8
TimelineZoom: 1.099999

[Metadata]
Title:Wind God Girl
TitleUnicode:風神少女
Artist:Demetori
ArtistUnicode:Demetori
Creator:semyon422
Version:extra 1.05
Source:東方Project
Tags:
BeatmapID:1494026
BeatmapSetID:706577

[Difficulty]
HPDrainRate:7
CircleSize:4
OverallDifficulty:7
ApproachRate:5
SliderMultiplier:1.4
SliderTickRate:1

[Events]
//Background and Video events
0,0,"bg.jpg",0,0
//Break Periods
//Storyboard Layer 0 (Background)
//Storyboard Layer 1 (Fail)
//Storyboard Layer 2 (Pass)
//Storyboard Layer 3 (Foreground)
//Storyboard Sound Samples

[TimingPoints]
35,300,4,2,0,20,1,0

[HitObjects]
64,192,35,5,0,0:0:0:0:
448,192,35,1,0,0:0:0:0:
192,192,35,1,0,0:0:0:0:
448,192,2285,1,0,0:0:0:0:
192,192,2285,1,0,0:0:0:0:
320,192,2285,1,0,0:0:0:0:
448,192,2435,1,0,0:0:0:0:
64,192,2435,1,0,0:0:0:0:
192,192,2435,1,0,0:0:0:0:
64,192,4835,1,0,0:0:0:0:
320,192,4835,1,0,0:0:0:0:
192,192,4835,1,0,0:0:0:0:
320,192,7085,1,0,0:0:0:0:
64,192,7085,1,0,0:0:0:0:
448,192,7085,1,0,0:0:0:0:
448,192,7235,1,0,0:0:0:0:
64,192,7235,1,0,0:0:0:0:
192,192,7235,1,0,0:0:0:0:
320,192,8435,1,0,0:0:0:0:
192,192,8435,1,0,0:0:0:0:
64,192,8510,1,0,0:0:0:0:
448,192,8510,1,0,0:0:0:0:
320,192,8585,1,0,0:0:0:0:
192,192,8660,1,0,0:0:0:0:
448,192,8735,1,0,0:0:0:0:
64,192,8810,1,0,0:0:0:0:
320,192,8885,1,0,0:0:0:0:
192,192,8885,1,0,0:0:0:0:
448,192,8960,1,0,0:0:0:0:
64,192,8960,1,0,0:0:0:0:
192,192,9035,1,0,0:0:0:0:
320,192,9110,1,0,0:0:0:0:
448,192,9185,1,0,0:0:0:0:
64,192,9260,1,0,0:0:0:0:
320,192,9335,1,0,0:0:0:0:
192,192,9335,1,0,0:0:0:0:
448,192,9410,1,0,0:0:0:0:
64,192,9410,1,0,0:0:0:0:
192,192,9485,1,0,0:0:0:0:
320,192,9485,1,0,0:0:0:0:
448,192,9560,1,0,0:0:0:0:
64,192,9560,1,0,0:0:0:0:
192,192,9635,1,0,0:0:0:0:
320,192,9635,1,0,0:0:0:0:
448,192,9710,1,0,0:0:0:0:
64,192,9785,1,0,0:0:0:0:
192,192,9785,1,0,0:0:0:0:
320,192,9860,1,0,0:0:0:0:
448,192,9935,1,0,0:0:0:0:
64,192,10010,1,0,0:0:0:0:
448,192,10085,1,0,0:0:0:0:
192,192,10085,1,0,0:0:0:0:
320,192,10085,1,0,0:0:0:0:
64,192,10160,1,0,0:0:0:0:
320,192,10235,1,0,0:0:0:0:
192,192,10310,1,0,0:0:0:0:
64,192,10385,1,0,0:0:0:0:
448,192,10385,1,0,0:0:0:0:
192,192,10460,1,0,0:0:0:0:
448,192,10535,1,0,0:0:0:0:
320,192,10535,1,0,0:0:0:0:
64,192,10610,1,0,0:0:0:0:
320,192,10685,1,0,0:0:0:0:
192,192,10685,1,0,0:0:0:0:
448,192,10760,1,0,0:0:0:0:
320,192,10835,1,0,0:0:0:0:
64,192,10835,1,0,0:0:0:0:
192,192,10910,1,0,0:0:0:0:
320,192,10985,1,0,0:0:0:0:
448,192,10985,1,0,0:0:0:0:
64,192,11060,1,0,0:0:0:0:
192,192,11135,1,0,0:0:0:0:
448,192,11210,1,0,0:0:0:0:
64,192,11285,1,0,0:0:0:0:
192,192,11285,1,0,0:0:0:0:
320,192,11285,1,0,0:0:0:0:
448,192,11360,1,0,0:0:0:0:
64,192,11435,1,0,0:0:0:0:
320,192,11510,1,0,0:0:0:0:
192,192,11585,1,0,0:0:0:0:
448,192,11585,1,0,0:0:0:0:
320,192,11660,1,0,0:0:0:0:
64,192,11735,1,0,0:0:0:0:
192,192,11735,1,0,0:0:0:0:
448,192,11810,1,0,0:0:0:0:
64,192,11885,1,0,0:0:0:0:
320,192,11885,1,0,0:0:0:0:
192,192,11960,1,0,0:0:0:0:
448,192,12035,1,0,0:0:0:0:
64,192,12035,1,0,0:0:0:0:
320,192,12110,1,0,0:0:0:0:
192,192,12185,1,0,0:0:0:0:
448,192,12185,1,0,0:0:0:0:
64,192,12260,1,0,0:0:0:0:
320,192,12335,1,0,0:0:0:0:
192,192,12410,1,0,0:0:0:0:
448,192,12485,1,0,0:0:0:0:
64,192,12485,1,0,0:0:0:0:
320,192,12485,1,0,0:0:0:0:
192,192,12560,1,0,0:0:0:0:
448,192,12635,1,0,0:0:0:0:
64,192,12710,1,0,0:0:0:0:
192,192,12785,1,0,0:0:0:0:
320,192,12785,1,0,0:0:0:0:
448,192,12860,1,0,0:0:0:0:
320,192,12935,1,0,0:0:0:0:
64,192,12935,1,0,0:0:0:0:
192,192,13010,1,0,0:0:0:0:
320,192,13085,1,0,0:0:0:0:
448,192,13085,1,0,0:0:0:0:
64,192,13160,1,0,0:0:0:0:
192,192,13235,1,0,0:0:0:0:
448,192,13235,1,0,0:0:0:0:
64,192,13310,1,0,0:0:0:0:
320,192,13385,1,0,0:0:0:0:
448,192,13385,1,0,0:0:0:0:
192,192,13460,1,0,0:0:0:0:
320,192,13535,1,0,0:0:0:0:
64,192,13610,1,0,0:0:0:0:
192,192,13685,1,0,0:0:0:0:
320,192,13685,1,0,0:0:0:0:
448,192,13685,1,0,0:0:0:0:
64,192,13760,1,0,0:0:0:0:
448,192,13835,1,0,0:0:0:0:
192,192,13910,1,0,0:0:0:0:
320,192,13985,1,0,0:0:0:0:
64,192,13985,1,0,0:0:0:0:
448,192,14060,1,0,0:0:0:0:
192,192,14135,1,0,0:0:0:0:
320,192,14135,1,0,0:0:0:0:
64,192,14210,1,0,0:0:0:0:
192,192,14285,1,0,0:0:0:0:
448,192,14285,1,0,0:0:0:0:
320,192,14360,1,0,0:0:0:0:
64,192,14435,1,0,0:0:0:0:
192,192,14435,1,0,0:0:0:0:
448,192,14510,1,0,0:0:0:0:
64,192,14585,1,0,0:0:0:0:
320,192,14585,1,0,0:0:0:0:
448,192,14660,1,0,0:0:0:0:
192,192,14735,1,0,0:0:0:0:
64,192,14810,1,0,0:0:0:0:
192,192,14885,1,0,0:0:0:0:
448,192,14885,1,0,0:0:0:0:
320,192,14885,1,0,0:0:0:0:
64,192,14960,1,0,0:0:0:0:
320,192,15035,1,0,0:0:0:0:
448,192,15110,1,0,0:0:0:0:
192,192,15185,1,0,0:0:0:0:
64,192,15185,1,0,0:0:0:0:
320,192,15260,1,0,0:0:0:0:
192,192,15335,1,0,0:0:0:0:
448,192,15335,1,0,0:0:0:0:
320,192,15410,1,0,0:0:0:0:
448,192,15485,1,0,0:0:0:0:
64,192,15485,1,0,0:0:0:0:
192,192,15560,1,0,0:0:0:0:
64,192,15635,1,0,0:0:0:0:
320,192,15635,1,0,0:0:0:0:
192,192,15710,1,0,0:0:0:0:
320,192,15785,1,0,0:0:0:0:
448,192,15785,1,0,0:0:0:0:
64,192,15860,1,0,0:0:0:0:
448,192,15935,1,0,0:0:0:0:
192,192,16010,1,0,0:0:0:0:
448,192,16085,1,0,0:0:0:0:
64,192,16085,1,0,0:0:0:0:
320,192,16085,1,0,0:0:0:0:
192,192,16160,1,0,0:0:0:0:
320,192,16235,1,0,0:0:0:0:
64,192,16310,1,0,0:0:0:0:
448,192,16385,1,0,0:0:0:0:
192,192,16385,1,0,0:0:0:0:
64,192,16460,1,0,0:0:0:0:
320,192,16535,1,0,0:0:0:0:
448,192,16535,1,0,0:0:0:0:
192,192,16610,1,0,0:0:0:0:
320,192,16685,1,0,0:0:0:0:
64,192,16685,1,0,0:0:0:0:
448,192,16760,1,0,0:0:0:0:
192,192,16835,1,0,0:0:0:0:
64,192,16835,1,0,0:0:0:0:
320,192,16910,1,0,0:0:0:0:
192,192,16985,1,0,0:0:0:0:
448,192,16985,1,0,0:0:0:0:
320,192,17060,1,0,0:0:0:0:
64,192,17060,1,0,0:0:0:0:
448,192,17135,1,0,0:0:0:0:
192,192,17210,1,0,0:0:0:0:
320,192,17285,1,0,0:0:0:0:
64,192,17285,1,0,0:0:0:0:
448,192,17360,1,0,0:0:0:0:
192,192,17435,1,0,0:0:0:0:
320,192,17510,1,0,0:0:0:0:
64,192,17510,1,0,0:0:0:0:
448,192,17585,1,0,0:0:0:0:
192,192,17660,1,0,0:0:0:0:
320,192,17660,1,0,0:0:0:0:
64,192,17735,1,0,0:0:0:0:
448,192,17735,1,0,0:0:0:0:
320,192,17810,1,0,0:0:0:0:
192,192,17810,1,0,0:0:0:0:
64,192,17885,1,0,0:0:0:0:
448,192,17960,1,0,0:0:0:0:
192,192,18035,1,0,0:0:0:0:
320,192,18035,1,0,0:0:0:0:
64,192,18035,1,0,0:0:0:0:
448,192,18110,1,0,0:0:0:0:
64,192,18185,1,0,0:0:0:0:
192,192,18260,1,0,0:0:0:0:
320,192,18335,1,0,0:0:0:0:
448,192,18335,1,0,0:0:0:0:
64,192,18410,1,0,0:0:0:0:
192,192,18410,1,0,0:0:0:0:
448,192,18485,1,0,0:0:0:0:
320,192,18485,1,0,0:0:0:0:
64,192,18560,1,0,0:0:0:0:
320,192,18635,1,0,0:0:0:0:
192,192,18710,1,0,0:0:0:0:
448,192,18785,1,0,0:0:0:0:
64,192,18860,1,0,0:0:0:0:
320,192,18935,1,0,0:0:0:0:
192,192,18935,1,0,0:0:0:0:
64,192,19010,1,0,0:0:0:0:
448,192,19010,1,0,0:0:0:0:
320,192,19085,1,0,0:0:0:0:
192,192,19085,1,0,0:0:0:0:
448,192,19160,1,0,0:0:0:0:
192,192,19235,1,0,0:0:0:0:
320,192,19235,1,0,0:0:0:0:
64,192,19235,1,0,0:0:0:0:
448,192,19310,1,0,0:0:0:0:
192,192,19385,1,0,0:0:0:0:
64,192,19385,1,0,0:0:0:0:
320,192,19460,1,0,0:0:0:0:
448,192,19535,1,0,0:0:0:0:
192,192,19610,1,0,0:0:0:0:
448,192,19685,1,0,0:0:0:0:
320,192,19685,1,0,0:0:0:0:
64,192,19685,1,0,0:0:0:0:
192,192,19760,1,0,0:0:0:0:
64,192,19835,1,0,0:0:0:0:
320,192,19910,1,0,0:0:0:0:
448,192,19985,1,0,0:0:0:0:
192,192,19985,1,0,0:0:0:0:
64,192,20060,1,0,0:0:0:0:
320,192,20135,1,0,0:0:0:0:
448,192,20135,1,0,0:0:0:0:
64,192,20210,1,0,0:0:0:0:
448,192,20285,1,0,0:0:0:0:
192,192,20285,1,0,0:0:0:0:
320,192,20360,1,0,0:0:0:0:
64,192,20435,1,0,0:0:0:0:
192,192,20435,1,0,0:0:0:0:
448,192,20510,1,0,0:0:0:0:
64,192,20585,1,0,0:0:0:0:
320,192,20585,1,0,0:0:0:0:
192,192,20660,1,0,0:0:0:0:
448,192,20735,1,0,0:0:0:0:
320,192,20810,1,0,0:0:0:0:
192,192,20885,1,0,0:0:0:0:
448,192,20885,1,0,0:0:0:0:
64,192,20885,1,0,0:0:0:0:
320,192,20960,1,0,0:0:0:0:
64,192,21035,1,0,0:0:0:0:
192,192,21110,1,0,0:0:0:0:
448,192,21185,1,0,0:0:0:0:
320,192,21185,1,0,0:0:0:0:
64,192,21260,1,0,0:0:0:0:
192,192,21335,1,0,0:0:0:0:
448,192,21335,1,0,0:0:0:0:
320,192,21410,1,0,0:0:0:0:
448,192,21485,1,0,0:0:0:0:
64,192,21485,1,0,0:0:0:0:
192,192,21560,1,0,0:0:0:0:
320,192,21635,1,0,0:0:0:0:
64,192,21635,1,0,0:0:0:0:
448,192,21710,1,0,0:0:0:0:
320,192,21785,1,0,0:0:0:0:
192,192,21785,1,0,0:0:0:0:
64,192,21860,1,0,0:0:0:0:
192,192,21935,1,0,0:0:0:0:
448,192,22010,1,0,0:0:0:0:
192,192,22085,1,0,0:0:0:0:
64,192,22085,1,0,0:0:0:0:
320,192,22085,1,0,0:0:0:0:
448,192,22160,1,0,0:0:0:0:
320,192,22235,1,0,0:0:0:0:
64,192,22310,1,0,0:0:0:0:
192,192,22385,1,0,0:0:0:0:
448,192,22385,1,0,0:0:0:0:
320,192,22460,1,0,0:0:0:0:
64,192,22535,1,0,0:0:0:0:
448,192,22535,1,0,0:0:0:0:
192,192,22610,1,0,0:0:0:0:
320,192,22685,1,0,0:0:0:0:
64,192,22685,1,0,0:0:0:0:
192,192,22760,1,0,0:0:0:0:
448,192,22835,1,0,0:0:0:0:
64,192,22835,1,0,0:0:0:0:
320,192,22910,1,0,0:0:0:0:
192,192,22985,1,0,0:0:0:0:
448,192,22985,1,0,0:0:0:0:
320,192,23060,1,0,0:0:0:0:
64,192,23135,1,0,0:0:0:0:
192,192,23210,1,0,0:0:0:0:
448,192,23285,1,0,0:0:0:0:
64,192,23285,1,0,0:0:0:0:
320,192,23285,1,0,0:0:0:0:
192,192,23360,1,0,0:0:0:0:
448,192,23435,1,0,0:0:0:0:
320,192,23510,1,0,0:0:0:0:
64,192,23585,1,0,0:0:0:0:
192,192,23585,1,0,0:0:0:0:
448,192,23660,1,0,0:0:0:0:
320,192,23735,1,0,0:0:0:0:
64,192,23735,1,0,0:0:0:0:
448,192,23810,1,0,0:0:0:0:
192,192,23885,1,0,0:0:0:0:
64,192,23960,1,0,0:0:0:0:
192,192,24035,1,0,0:0:0:0:
320,192,24035,1,0,0:0:0:0:
448,192,24110,1,0,0:0:0:0:
320,192,24185,1,0,0:0:0:0:
64,192,24185,1,0,0:0:0:0:
448,192,24260,1,0,0:0:0:0:
192,192,24335,1,0,0:0:0:0:
64,192,24410,1,0,0:0:0:0:
192,192,24485,1,0,0:0:0:0:
448,192,24485,1,0,0:0:0:0:
320,192,24485,1,0,0:0:0:0:
64,192,24560,1,0,0:0:0:0:
320,192,24635,1,0,0:0:0:0:
448,192,24710,1,0,0:0:0:0:
192,192,24785,1,0,0:0:0:0:
320,192,24785,1,0,0:0:0:0:
64,192,24860,1,0,0:0:0:0:
448,192,24935,1,0,0:0:0:0:
192,192,24935,1,0,0:0:0:0:
320,192,25010,1,0,0:0:0:0:
64,192,25085,1,0,0:0:0:0:
192,192,25085,1,0,0:0:0:0:
448,192,25160,1,0,0:0:0:0:
64,192,25235,1,0,0:0:0:0:
320,192,25235,1,0,0:0:0:0:
448,192,25310,1,0,0:0:0:0:
192,192,25385,1,0,0:0:0:0:
320,192,25385,1,0,0:0:0:0:
64,192,25460,1,0,0:0:0:0:
192,192,25535,1,0,0:0:0:0:
448,192,25610,1,0,0:0:0:0:
192,192,25685,1,0,0:0:0:0:
64,192,25685,1,0,0:0:0:0:
320,192,25685,1,0,0:0:0:0:
448,192,25760,1,0,0:0:0:0:
320,192,25835,1,0,0:0:0:0:
64,192,25910,1,0,0:0:0:0:
192,192,25985,1,0,0:0:0:0:
448,192,25985,1,0,0:0:0:0:
320,192,26060,1,0,0:0:0:0:
64,192,26135,1,0,0:0:0:0:
448,192,26135,1,0,0:0:0:0:
192,192,26210,1,0,0:0:0:0:
320,192,26285,1,0,0:0:0:0:
64,192,26285,1,0,0:0:0:0:
448,192,26360,1,0,0:0:0:0:
192,192,26435,1,0,0:0:0:0:
320,192,26435,1,0,0:0:0:0:
64,192,26435,1,0,0:0:0:0:
448,192,26510,1,0,0:0:0:0:
192,192,26585,1,0,0:0:0:0:
320,192,26660,1,0,0:0:0:0:
64,192,26735,1,0,0:0:0:0:
448,192,26810,1,0,0:0:0:0:
64,192,26885,1,0,0:0:0:0:
192,192,26885,1,0,0:0:0:0:
320,192,26885,1,0,0:0:0:0:
448,192,26960,1,0,0:0:0:0:
192,192,27035,1,0,0:0:0:0:
64,192,27110,1,0,0:0:0:0:
320,192,27185,1,0,0:0:0:0:
448,192,27260,1,0,0:0:0:0:
192,192,27335,1,0,0:0:0:0:
320,192,27335,1,0,0:0:0:0:
64,192,27410,1,0,0:0:0:0:
448,192,27485,1,0,0:0:0:0:
192,192,27560,1,0,0:0:0:0:
320,192,27635,1,0,0:0:0:0:
64,192,27710,1,0,0:0:0:0:
448,192,27785,1,0,0:0:0:0:
192,192,27785,1,0,0:0:0:0:
320,192,27860,1,0,0:0:0:0:
64,192,27935,1,0,0:0:0:0:
448,192,28010,1,0,0:0:0:0:
192,192,28085,1,0,0:0:0:0:
64,192,28160,1,0,0:0:0:0:
448,192,28235,1,0,0:0:0:0:
320,192,28235,1,0,0:0:0:0:
192,192,28310,1,0,0:0:0:0:
64,192,28385,1,0,0:0:0:0:
320,192,28460,1,0,0:0:0:0:
448,192,28535,1,0,0:0:0:0:
192,192,28535,1,0,0:0:0:0:
64,192,28610,1,0,0:0:0:0:
320,192,28685,1,0,0:0:0:0:
448,192,28685,1,0,0:0:0:0:
192,192,28760,1,0,0:0:0:0:
64,192,28835,1,0,0:0:0:0:
320,192,28835,1,0,0:0:0:0:
448,192,28910,1,0,0:0:0:0:
64,192,28985,1,0,0:0:0:0:
320,192,28985,1,0,0:0:0:0:
192,192,28985,1,0,0:0:0:0:
448,192,29060,1,0,0:0:0:0:
320,192,29135,1,0,0:0:0:0:
192,192,29135,1,0,0:0:0:0:
64,192,29210,1,0,0:0:0:0:
320,192,29285,1,0,0:0:0:0:
192,192,29285,1,0,0:0:0:0:
448,192,29285,1,0,0:0:0:0:
64,192,29360,1,0,0:0:0:0:
192,192,29435,1,0,0:0:0:0:
448,192,29435,1,0,0:0:0:0:
320,192,29510,1,0,0:0:0:0:
64,192,29585,1,0,0:0:0:0:
192,192,29585,1,0,0:0:0:0:
448,192,29660,1,0,0:0:0:0:
320,192,29735,1,0,0:0:0:0:
64,192,29810,1,0,0:0:0:0:
448,192,29885,1,0,0:0:0:0:
192,192,29885,1,0,0:0:0:0:
64,192,29960,1,0,0:0:0:0:
320,192,30035,1,0,0:0:0:0:
192,192,30110,1,0,0:0:0:0:
64,192,30185,1,0,0:0:0:0:
320,192,30185,1,0,0:0:0:0:
448,192,30185,1,0,0:0:0:0:
192,192,30260,1,0,0:0:0:0:
320,192,30335,1,0,0:0:0:0:
448,192,30335,1,0,0:0:0:0:
64,192,30410,1,0,0:0:0:0:
448,192,30485,1,0,0:0:0:0:
192,192,30485,1,0,0:0:0:0:
320,192,30485,1,0,0:0:0:0:
64,192,30560,1,0,0:0:0:0:
448,192,30635,1,0,0:0:0:0:
192,192,30635,1,0,0:0:0:0:
64,192,30710,1,0,0:0:0:0:
192,192,30785,1,0,0:0:0:0:
448,192,30785,1,0,0:0:0:0:
320,192,30785,1,0,0:0:0:0:
64,192,30860,1,0,0:0:0:0:
320,192,30935,1,0,0:0:0:0:
448,192,30935,1,0,0:0:0:0:
192,192,31010,1,0,0:0:0:0:
64,192,31085,1,0,0:0:0:0:
448,192,31085,1,0,0:0:0:0:
320,192,31085,1,0,0:0:0:0:
192,192,31160,1,0,0:0:0:0:
320,192,31235,1,0,0:0:0:0:
64,192,31235,1,0,0:0:0:0:
448,192,31310,1,0,0:0:0:0:
320,192,31385,1,0,0:0:0:0:
64,192,31385,1,0,0:0:0:0:
192,192,31385,1,0,0:0:0:0:
448,192,31460,1,0,0:0:0:0:
192,192,31535,1,0,0:0:0:0:
64,192,31535,1,0,0:0:0:0:
320,192,31610,1,0,0:0:0:0:
448,192,31685,1,0,0:0:0:0:
64,192,31685,1,0,0:0:0:0:
192,192,31685,1,0,0:0:0:0:
320,192,31760,1,0,0:0:0:0:
192,192,31835,1,0,0:0:0:0:
448,192,31835,1,0,0:0:0:0:
64,192,31910,1,0,0:0:0:0:
320,192,31985,1,0,0:0:0:0:
192,192,31985,1,0,0:0:0:0:
448,192,32060,1,0,0:0:0:0:
64,192,32135,1,0,0:0:0:0:
320,192,32210,1,0,0:0:0:0:
192,192,32285,1,0,0:0:0:0:
448,192,32285,1,0,0:0:0:0:
64,192,32360,1,0,0:0:0:0:
320,192,32435,1,0,0:0:0:0:
192,192,32510,1,0,0:0:0:0:
64,192,32585,1,0,0:0:0:0:
448,192,32585,1,0,0:0:0:0:
320,192,32660,1,0,0:0:0:0:
192,192,32735,1,0,0:0:0:0:
448,192,32810,1,0,0:0:0:0:
64,192,32885,1,0,0:0:0:0:
192,192,32885,1,0,0:0:0:0:
320,192,32960,1,0,0:0:0:0:
448,192,33035,1,0,0:0:0:0:
64,192,33110,1,0,0:0:0:0:
192,192,33185,1,0,0:0:0:0:
320,192,33185,1,0,0:0:0:0:
448,192,33260,1,0,0:0:0:0:
64,192,33335,1,0,0:0:0:0:
320,192,33410,1,0,0:0:0:0:
448,192,33485,1,0,0:0:0:0:
192,192,33485,1,0,0:0:0:0:
64,192,33560,1,0,0:0:0:0:
448,192,33635,1,0,0:0:0:0:
320,192,33635,1,0,0:0:0:0:
192,192,33710,1,0,0:0:0:0:
448,192,33785,1,0,0:0:0:0:
64,192,33785,1,0,0:0:0:0:
320,192,33785,1,0,0:0:0:0:
192,192,33860,1,0,0:0:0:0:
64,192,33935,1,0,0:0:0:0:
320,192,33935,1,0,0:0:0:0:
448,192,34010,1,0,0:0:0:0:
320,192,34085,1,0,0:0:0:0:
64,192,34085,1,0,0:0:0:0:
192,192,34085,1,0,0:0:0:0:
448,192,34160,1,0,0:0:0:0:
64,192,34235,1,0,0:0:0:0:
192,192,34235,1,0,0:0:0:0:
320,192,34310,1,0,0:0:0:0:
64,192,34385,1,0,0:0:0:0:
448,192,34385,1,0,0:0:0:0:
192,192,34460,1,0,0:0:0:0:
320,192,34535,1,0,0:0:0:0:
448,192,34610,1,0,0:0:0:0:
64,192,34685,1,0,0:0:0:0:
192,192,34685,1,0,0:0:0:0:
320,192,34760,1,0,0:0:0:0:
448,192,34835,1,0,0:0:0:0:
64,192,34910,1,0,0:0:0:0:
448,192,34985,1,0,0:0:0:0:
192,192,34985,1,0,0:0:0:0:
320,192,34985,1,0,0:0:0:0:
64,192,35060,1,0,0:0:0:0:
192,192,35135,1,0,0:0:0:0:
448,192,35135,1,0,0:0:0:0:
320,192,35210,1,0,0:0:0:0:
64,192,35285,1,0,0:0:0:0:
448,192,35285,1,0,0:0:0:0:
192,192,35285,1,0,0:0:0:0:
320,192,35360,1,0,0:0:0:0:
64,192,35435,1,0,0:0:0:0:
192,192,35435,1,0,0:0:0:0:
320,192,35510,1,0,0:0:0:0:
64,192,35585,1,0,0:0:0:0:
192,192,35585,1,0,0:0:0:0:
448,192,35585,1,0,0:0:0:0:
320,192,35660,1,0,0:0:0:0:
64,192,35735,1,0,0:0:0:0:
448,192,35735,1,0,0:0:0:0:
192,192,35810,1,0,0:0:0:0:
448,192,35885,1,0,0:0:0:0:
64,192,35885,1,0,0:0:0:0:
320,192,35885,1,0,0:0:0:0:
192,192,35960,1,0,0:0:0:0:
448,192,36035,1,0,0:0:0:0:
320,192,36035,1,0,0:0:0:0:
64,192,36110,1,0,0:0:0:0:
448,192,36185,1,0,0:0:0:0:
320,192,36185,1,0,0:0:0:0:
192,192,36185,1,0,0:0:0:0:
64,192,36260,1,0,0:0:0:0:
192,192,36335,1,0,0:0:0:0:
448,192,36335,1,0,0:0:0:0:
320,192,36410,1,0,0:0:0:0:
64,192,36485,1,0,0:0:0:0:
448,192,36485,1,0,0:0:0:0:
192,192,36485,1,0,0:0:0:0:
320,192,36560,1,0,0:0:0:0:
64,192,36635,1,0,0:0:0:0:
192,192,36635,1,0,0:0:0:0:
448,192,36710,1,0,0:0:0:0:
320,192,36785,1,0,0:0:0:0:
192,192,36785,1,0,0:0:0:0:
64,192,36860,1,0,0:0:0:0:
320,192,36935,1,0,0:0:0:0:
448,192,36935,1,0,0:0:0:0:
64,192,37010,1,0,0:0:0:0:
192,192,37010,1,0,0:0:0:0:
320,192,37085,1,0,0:0:0:0:
448,192,37085,1,0,0:0:0:0:
64,192,37160,1,0,0:0:0:0:
192,192,37235,1,0,0:0:0:0:
448,192,37310,1,0,0:0:0:0:
320,192,37385,1,0,0:0:0:0:
64,192,37460,1,0,0:0:0:0:
192,192,37535,1,0,0:0:0:0:
320,192,37610,1,0,0:0:0:0:
448,192,37685,1,0,0:0:0:0:
64,192,37760,1,0,0:0:0:0:
192,192,37760,1,0,0:0:0:0:
448,192,37835,1,0,0:0:0:0:
320,192,37835,1,0,0:0:0:0:
192,192,37910,1,0,0:0:0:0:
64,192,37910,1,0,0:0:0:0:
320,192,37985,1,0,0:0:0:0:
448,192,37985,1,0,0:0:0:0:
192,192,38060,1,0,0:0:0:0:
64,192,38060,1,0,0:0:0:0:
448,192,38135,1,0,0:0:0:0:
320,192,38135,1,0,0:0:0:0:
64,192,38210,1,0,0:0:0:0:
192,192,38285,1,0,0:0:0:0:
448,192,38360,1,0,0:0:0:0:
64,192,38435,1,0,0:0:0:0:
192,192,38435,1,0,0:0:0:0:
320,192,38435,1,0,0:0:0:0:
448,192,38510,1,0,0:0:0:0:
192,192,38585,1,0,0:0:0:0:
320,192,38585,1,0,0:0:0:0:
64,192,38585,1,0,0:0:0:0:
448,192,38660,1,0,0:0:0:0:
64,192,38735,1,0,0:0:0:0:
320,192,38735,1,0,0:0:0:0:
192,192,38810,1,0,0:0:0:0:
320,192,38885,1,0,0:0:0:0:
448,192,38885,1,0,0:0:0:0:
64,192,38885,1,0,0:0:0:0:
192,192,38960,1,0,0:0:0:0:
448,192,39035,1,0,0:0:0:0:
320,192,39035,1,0,0:0:0:0:
64,192,39110,1,0,0:0:0:0:
192,192,39185,1,0,0:0:0:0:
448,192,39185,1,0,0:0:0:0:
64,192,39260,1,0,0:0:0:0:
320,192,39335,1,0,0:0:0:0:
448,192,39410,1,0,0:0:0:0:
192,192,39485,1,0,0:0:0:0:
64,192,39485,1,0,0:0:0:0:
320,192,39560,1,0,0:0:0:0:
448,192,39635,1,0,0:0:0:0:
192,192,39710,1,0,0:0:0:0:
448,192,39785,1,0,0:0:0:0:
320,192,39785,1,0,0:0:0:0:
64,192,39785,1,0,0:0:0:0:
192,192,39860,1,0,0:0:0:0:
64,192,39935,1,0,0:0:0:0:
320,192,39935,1,0,0:0:0:0:
192,192,40010,1,0,0:0:0:0:
64,192,40085,1,0,0:0:0:0:
320,192,40085,1,0,0:0:0:0:
448,192,40085,1,0,0:0:0:0:
192,192,40160,1,0,0:0:0:0:
448,192,40235,1,0,0:0:0:0:
320,192,40235,1,0,0:0:0:0:
64,192,40310,1,0,0:0:0:0:
320,192,40385,1,0,0:0:0:0:
192,192,40385,1,0,0:0:0:0:
448,192,40385,1,0,0:0:0:0:
64,192,40460,1,0,0:0:0:0:
192,192,40535,1,0,0:0:0:0:
448,192,40535,1,0,0:0:0:0:
64,192,40610,1,0,0:0:0:0:
192,192,40685,1,0,0:0:0:0:
448,192,40685,1,0,0:0:0:0:
320,192,40685,1,0,0:0:0:0:
64,192,40760,1,0,0:0:0:0:
320,192,40835,1,0,0:0:0:0:
448,192,40835,1,0,0:0:0:0:
192,192,40910,1,0,0:0:0:0:
320,192,40985,1,0,0:0:0:0:
448,192,40985,1,0,0:0:0:0:
64,192,40985,1,0,0:0:0:0:
192,192,41060,1,0,0:0:0:0:
64,192,41135,1,0,0:0:0:0:
320,192,41135,1,0,0:0:0:0:
448,192,41210,1,0,0:0:0:0:
64,192,41285,1,0,0:0:0:0:
192,192,41285,1,0,0:0:0:0:
320,192,41285,1,0,0:0:0:0:
448,192,41360,1,0,0:0:0:0:
192,192,41435,1,0,0:0:0:0:
320,192,41435,1,0,0:0:0:0:
64,192,41510,1,0,0:0:0:0:
448,192,41585,1,0,0:0:0:0:
320,192,41585,1,0,0:0:0:0:
192,192,41660,1,0,0:0:0:0:
64,192,41735,1,0,0:0:0:0:
448,192,41810,1,0,0:0:0:0:
320,192,41885,1,0,0:0:0:0:
192,192,41885,1,0,0:0:0:0:
64,192,41960,1,0,0:0:0:0:
320,192,42035,1,0,0:0:0:0:
448,192,42110,1,0,0:0:0:0:
64,192,42185,1,0,0:0:0:0:
192,192,42185,1,0,0:0:0:0:
320,192,42260,1,0,0:0:0:0:
448,192,42335,1,0,0:0:0:0:
192,192,42410,1,0,0:0:0:0:
64,192,42485,1,0,0:0:0:0:
448,192,42485,1,0,0:0:0:0:
320,192,42560,1,0,0:0:0:0:
192,192,42635,1,0,0:0:0:0:
64,192,42710,1,0,0:0:0:0:
448,192,42785,1,0,0:0:0:0:
320,192,42785,1,0,0:0:0:0:
192,192,42860,1,0,0:0:0:0:
64,192,42935,1,0,0:0:0:0:
448,192,43010,1,0,0:0:0:0:
192,192,43085,1,0,0:0:0:0:
320,192,43085,1,0,0:0:0:0:
64,192,43160,1,0,0:0:0:0:
320,192,43235,1,0,0:0:0:0:
448,192,43235,1,0,0:0:0:0:
192,192,43310,1,0,0:0:0:0:
448,192,43385,1,0,0:0:0:0:
64,192,43385,1,0,0:0:0:0:
320,192,43385,1,0,0:0:0:0:
192,192,43460,1,0,0:0:0:0:
64,192,43535,1,0,0:0:0:0:
448,192,43535,1,0,0:0:0:0:
320,192,43610,1,0,0:0:0:0:
64,192,43685,1,0,0:0:0:0:
448,192,43685,1,0,0:0:0:0:
192,192,43685,1,0,0:0:0:0:
320,192,43760,1,0,0:0:0:0:
64,192,43835,1,0,0:0:0:0:
192,192,43835,1,0,0:0:0:0:
448,192,43910,1,0,0:0:0:0:
320,192,43985,1,0,0:0:0:0:
192,192,43985,1,0,0:0:0:0:
64,192,44060,1,0,0:0:0:0:
448,192,44135,1,0,0:0:0:0:
320,192,44210,1,0,0:0:0:0:
192,192,44285,1,0,0:0:0:0:
64,192,44285,1,0,0:0:0:0:
448,192,44360,1,0,0:0:0:0:
320,192,44435,1,0,0:0:0:0:
192,192,44510,1,0,0:0:0:0:
320,192,44585,1,0,0:0:0:0:
64,192,44585,1,0,0:0:0:0:
448,192,44585,1,0,0:0:0:0:
192,192,44660,1,0,0:0:0:0:
64,192,44735,1,0,0:0:0:0:
320,192,44735,1,0,0:0:0:0:
448,192,44810,1,0,0:0:0:0:
320,192,44885,1,0,0:0:0:0:
64,192,44885,1,0,0:0:0:0:
192,192,44885,1,0,0:0:0:0:
448,192,44960,1,0,0:0:0:0:
192,192,45035,1,0,0:0:0:0:
64,192,45035,1,0,0:0:0:0:
448,192,45110,1,0,0:0:0:0:
64,192,45185,1,0,0:0:0:0:
192,192,45185,1,0,0:0:0:0:
320,192,45185,1,0,0:0:0:0:
448,192,45260,1,0,0:0:0:0:
320,192,45335,1,0,0:0:0:0:
192,192,45335,1,0,0:0:0:0:
64,192,45410,1,0,0:0:0:0:
320,192,45485,1,0,0:0:0:0:
192,192,45485,1,0,0:0:0:0:
448,192,45485,1,0,0:0:0:0:
64,192,45560,1,0,0:0:0:0:
448,192,45635,1,0,0:0:0:0:
320,192,45635,1,0,0:0:0:0:
64,192,45710,1,0,0:0:0:0:
192,192,45785,1,0,0:0:0:0:
448,192,45785,1,0,0:0:0:0:
320,192,45785,1,0,0:0:0:0:
64,192,45860,1,0,0:0:0:0:
192,192,45935,1,0,0:0:0:0:
448,192,45935,1,0,0:0:0:0:
320,192,46010,1,0,0:0:0:0:
192,192,46085,1,0,0:0:0:0:
448,192,46085,1,0,0:0:0:0:
64,192,46085,1,0,0:0:0:0:
320,192,46160,1,0,0:0:0:0:
192,192,46235,1,0,0:0:0:0:
64,192,46235,1,0,0:0:0:0:
320,192,46310,1,0,0:0:0:0:
448,192,46385,1,0,0:0:0:0:
64,192,46385,1,0,0:0:0:0:
192,192,46460,1,0,0:0:0:0:
448,192,46535,1,0,0:0:0:0:
320,192,46610,1,0,0:0:0:0:
64,192,46685,1,0,0:0:0:0:
192,192,46685,1,0,0:0:0:0:
320,192,46760,1,0,0:0:0:0:
448,192,46835,1,0,0:0:0:0:
64,192,46835,1,0,0:0:0:0:
320,192,46910,1,0,0:0:0:0:
192,192,46910,1,0,0:0:0:0:
448,192,46985,1,0,0:0:0:0:
64,192,46985,1,0,0:0:0:0:
192,192,47060,1,0,0:0:0:0:
320,192,47060,1,0,0:0:0:0:
448,192,47135,1,0,0:0:0:0:
64,192,47210,1,0,0:0:0:0:
192,192,47285,1,0,0:0:0:0:
320,192,47285,1,0,0:0:0:0:
64,192,47360,1,0,0:0:0:0:
448,192,47360,1,0,0:0:0:0:
192,192,47435,1,0,0:0:0:0:
320,192,47435,1,0,0:0:0:0:
64,192,47510,1,0,0:0:0:0:
448,192,47510,1,0,0:0:0:0:
192,192,47585,1,0,0:0:0:0:
320,192,47660,1,0,0:0:0:0:
64,192,47735,1,0,0:0:0:0:
448,192,47810,1,0,0:0:0:0:
192,192,47885,1,0,0:0:0:0:
320,192,47960,1,0,0:0:0:0:
64,192,48035,1,0,0:0:0:0:
448,192,48035,1,0,0:0:0:0:
192,192,48110,1,0,0:0:0:0:
64,192,48185,1,0,0:0:0:0:
448,192,48185,1,0,0:0:0:0:
320,192,48185,1,0,0:0:0:0:
192,192,48260,1,0,0:0:0:0:
64,192,48485,1,0,0:0:0:0:
320,192,48485,1,0,0:0:0:0:
448,192,48485,1,0,0:0:0:0:
192,192,48560,1,0,0:0:0:0:
64,192,48635,1,0,0:0:0:0:
448,192,48635,1,0,0:0:0:0:
320,192,48710,1,0,0:0:0:0:
64,192,48785,1,0,0:0:0:0:
448,192,48785,1,0,0:0:0:0:
192,192,48785,1,0,0:0:0:0:
320,192,48860,1,0,0:0:0:0:
448,192,49085,1,0,0:0:0:0:
192,192,49085,1,0,0:0:0:0:
64,192,49160,1,0,0:0:0:0:
320,192,49235,1,0,0:0:0:0:
192,192,49310,1,0,0:0:0:0:
448,192,49385,1,0,0:0:0:0:
320,192,49385,1,0,0:0:0:0:
64,192,49385,1,0,0:0:0:0:
192,192,49460,1,0,0:0:0:0:
64,192,49535,1,0,0:0:0:0:
448,192,49685,1,0,0:0:0:0:
192,192,49685,1,0,0:0:0:0:
320,192,49685,1,0,0:0:0:0:
64,192,49760,1,0,0:0:0:0:
448,192,49835,1,0,0:0:0:0:
320,192,49835,1,0,0:0:0:0:
192,192,49910,1,0,0:0:0:0:
320,192,49985,1,0,0:0:0:0:
448,192,49985,1,0,0:0:0:0:
64,192,49985,1,0,0:0:0:0:
192,192,50060,1,0,0:0:0:0:
64,192,50135,1,0,0:0:0:0:
320,192,50210,1,0,0:0:0:0:
192,192,50285,1,0,0:0:0:0:
64,192,50285,1,0,0:0:0:0:
448,192,50285,1,0,0:0:0:0:
320,192,50360,1,0,0:0:0:0:
64,192,50435,1,0,0:0:0:0:
448,192,50435,1,0,0:0:0:0:
192,192,50510,1,0,0:0:0:0:
64,192,50585,1,0,0:0:0:0:
448,192,50585,1,0,0:0:0:0:
320,192,50585,1,0,0:0:0:0:
192,192,50660,1,0,0:0:0:0:
64,192,50885,1,0,0:0:0:0:
448,192,50885,1,0,0:0:0:0:
320,192,50885,1,0,0:0:0:0:
192,192,50960,1,0,0:0:0:0:
320,192,51035,1,0,0:0:0:0:
64,192,51035,1,0,0:0:0:0:
448,192,51110,1,0,0:0:0:0:
192,192,51185,1,0,0:0:0:0:
64,192,51185,1,0,0:0:0:0:
448,192,51260,1,0,0:0:0:0:
192,192,51485,1,0,0:0:0:0:
320,192,51485,1,0,0:0:0:0:
64,192,51560,1,0,0:0:0:0:
448,192,51635,1,0,0:0:0:0:
320,192,51710,1,0,0:0:0:0:
192,192,51785,1,0,0:0:0:0:
64,192,51785,1,0,0:0:0:0:
448,192,51860,1,0,0:0:0:0:
320,192,52085,1,0,0:0:0:0:
64,192,52085,1,0,0:0:0:0:
192,192,52160,1,0,0:0:0:0:
448,192,52235,1,0,0:0:0:0:
320,192,52310,1,0,0:0:0:0:
192,192,52385,1,0,0:0:0:0:
64,192,52385,1,0,0:0:0:0:
448,192,52460,1,0,0:0:0:0:
320,192,52535,1,0,0:0:0:0:
192,192,52610,1,0,0:0:0:0:
448,192,52685,1,0,0:0:0:0:
64,192,52685,1,0,0:0:0:0:
320,192,52760,1,0,0:0:0:0:
192,192,52835,1,0,0:0:0:0:
64,192,52835,1,0,0:0:0:0:
448,192,52910,1,0,0:0:0:0:
192,192,52985,1,0,0:0:0:0:
64,192,52985,1,0,0:0:0:0:
320,192,52985,1,0,0:0:0:0:
448,192,53060,1,0,0:0:0:0:
192,192,53285,1,0,0:0:0:0:
320,192,53285,1,0,0:0:0:0:
64,192,53285,1,0,0:0:0:0:
448,192,53360,1,0,0:0:0:0:
320,192,53435,1,0,0:0:0:0:
192,192,53435,1,0,0:0:0:0:
64,192,53510,1,0,0:0:0:0:
448,192,53585,1,0,0:0:0:0:
320,192,53585,1,0,0:0:0:0:
192,192,53660,1,0,0:0:0:0:
64,192,53885,1,0,0:0:0:0:
448,192,54035,1,0,0:0:0:0:
320,192,54110,1,0,0:0:0:0:
448,192,54185,1,0,0:0:0:0:
64,192,54185,1,0,0:0:0:0:
192,192,54185,1,0,0:0:0:0:
320,192,54260,1,0,0:0:0:0:
64,192,54335,1,0,0:0:0:0:
192,192,54335,1,0,0:0:0:0:
448,192,54410,1,0,0:0:0:0:
192,192,54485,1,0,0:0:0:0:
64,192,54485,1,0,0:0:0:0:
320,192,54485,1,0,0:0:0:0:
448,192,54560,1,0,0:0:0:0:
320,192,54635,1,0,0:0:0:0:
64,192,54635,1,0,0:0:0:0:
192,192,54710,1,0,0:0:0:0:
320,192,54785,1,0,0:0:0:0:
64,192,54785,1,0,0:0:0:0:
448,192,54785,1,0,0:0:0:0:
192,192,54860,1,0,0:0:0:0:
320,192,54935,1,0,0:0:0:0:
448,192,55010,1,0,0:0:0:0:
192,192,55085,1,0,0:0:0:0:
320,192,55085,1,0,0:0:0:0:
64,192,55085,1,0,0:0:0:0:
448,192,55160,1,0,0:0:0:0:
64,192,55235,1,0,0:0:0:0:
192,192,55235,1,0,0:0:0:0:
448,192,55310,1,0,0:0:0:0:
192,192,55385,1,0,0:0:0:0:
64,192,55385,1,0,0:0:0:0:
320,192,55385,1,0,0:0:0:0:
448,192,55460,1,0,0:0:0:0:
320,192,55535,1,0,0:0:0:0:
192,192,55535,1,0,0:0:0:0:
64,192,55610,1,0,0:0:0:0:
192,192,55685,1,0,0:0:0:0:
448,192,55685,1,0,0:0:0:0:
320,192,55685,1,0,0:0:0:0:
64,192,55760,1,0,0:0:0:0:
320,192,55835,1,0,0:0:0:0:
448,192,55835,1,0,0:0:0:0:
64,192,55910,1,0,0:0:0:0:
192,192,55985,1,0,0:0:0:0:
320,192,55985,1,0,0:0:0:0:
448,192,56060,1,0,0:0:0:0:
64,192,56135,1,0,0:0:0:0:
192,192,56210,1,0,0:0:0:0:
448,192,56285,1,0,0:0:0:0:
320,192,56285,1,0,0:0:0:0:
64,192,56360,1,0,0:0:0:0:
320,192,56435,1,0,0:0:0:0:
192,192,56435,1,0,0:0:0:0:
448,192,56510,1,0,0:0:0:0:
64,192,56510,1,0,0:0:0:0:
192,192,56585,1,0,0:0:0:0:
320,192,56585,1,0,0:0:0:0:
448,192,56660,1,0,0:0:0:0:
192,192,56735,1,0,0:0:0:0:
64,192,56735,1,0,0:0:0:0:
448,192,56810,1,0,0:0:0:0:
320,192,56810,1,0,0:0:0:0:
192,192,56885,1,0,0:0:0:0:
64,192,56885,1,0,0:0:0:0:
320,192,56960,1,0,0:0:0:0:
64,192,57035,1,0,0:0:0:0:
448,192,57035,1,0,0:0:0:0:
192,192,57110,1,0,0:0:0:0:
320,192,57110,1,0,0:0:0:0:
448,192,57185,1,0,0:0:0:0:
64,192,57185,1,0,0:0:0:0:
192,192,57260,1,0,0:0:0:0:
320,192,57335,1,0,0:0:0:0:
64,192,57335,1,0,0:0:0:0:
192,192,57410,1,0,0:0:0:0:
448,192,57410,1,0,0:0:0:0:
320,192,57485,1,0,0:0:0:0:
64,192,57485,1,0,0:0:0:0:
448,192,57560,1,0,0:0:0:0:
64,192,57635,1,0,0:0:0:0:
320,192,57635,1,0,0:0:0:0:
192,192,57635,1,0,0:0:0:0:
448,192,57710,1,0,0:0:0:0:
192,192,57785,1,0,0:0:0:0:
320,192,57785,1,0,0:0:0:0:
448,192,57860,1,0,0:0:0:0:
64,192,57935,1,0,0:0:0:0:
320,192,58010,1,0,0:0:0:0:
64,192,58085,1,0,0:0:0:0:
448,192,58085,1,0,0:0:0:0:
192,192,58085,1,0,0:0:0:0:
320,192,58160,1,0,0:0:0:0:
192,192,58235,1,0,0:0:0:0:
448,192,58310,1,0,0:0:0:0:
192,192,58385,1,0,0:0:0:0:
64,192,58385,1,0,0:0:0:0:
320,192,58385,1,0,0:0:0:0:
448,192,58460,1,0,0:0:0:0:
64,192,58535,1,0,0:0:0:0:
320,192,58610,1,0,0:0:0:0:
64,192,58685,1,0,0:0:0:0:
192,192,58685,1,0,0:0:0:0:
448,192,58685,1,0,0:0:0:0:
320,192,58760,1,0,0:0:0:0:
192,192,58835,1,0,0:0:0:0:
448,192,58835,1,0,0:0:0:0:
64,192,58910,1,0,0:0:0:0:
320,192,58985,1,0,0:0:0:0:
192,192,58985,1,0,0:0:0:0:
448,192,59060,1,0,0:0:0:0:
64,192,59135,1,0,0:0:0:0:
192,192,59210,1,0,0:0:0:0:
320,192,59285,1,0,0:0:0:0:
448,192,59285,1,0,0:0:0:0:
64,192,59285,1,0,0:0:0:0:
192,192,59360,1,0,0:0:0:0:
320,192,59435,1,0,0:0:0:0:
448,192,59510,1,0,0:0:0:0:
64,192,59585,1,0,0:0:0:0:
192,192,59585,1,0,0:0:0:0:
320,192,59585,1,0,0:0:0:0:
448,192,59660,1,0,0:0:0:0:
64,192,59735,1,0,0:0:0:0:
320,192,59810,1,0,0:0:0:0:
192,192,59885,1,0,0:0:0:0:
64,192,59885,1,0,0:0:0:0:
448,192,59885,1,0,0:0:0:0:
320,192,59960,1,0,0:0:0:0:
192,192,60035,1,0,0:0:0:0:
64,192,60035,1,0,0:0:0:0:
448,192,60110,1,0,0:0:0:0:
192,192,60185,1,0,0:0:0:0:
320,192,60185,1,0,0:0:0:0:
64,192,60260,1,0,0:0:0:0:
448,192,60335,1,0,0:0:0:0:
192,192,60410,1,0,0:0:0:0:
320,192,60485,1,0,0:0:0:0:
64,192,60485,1,0,0:0:0:0:
448,192,60485,1,0,0:0:0:0:
192,192,60560,1,0,0:0:0:0:
320,192,60635,1,0,0:0:0:0:
64,192,60710,1,0,0:0:0:0:
448,192,60785,1,0,0:0:0:0:
320,192,60785,1,0,0:0:0:0:
192,192,60785,1,0,0:0:0:0:
64,192,60860,1,0,0:0:0:0:
448,192,60935,1,0,0:0:0:0:
192,192,61010,1,0,0:0:0:0:
320,192,61085,1,0,0:0:0:0:
448,192,61085,1,0,0:0:0:0:
64,192,61085,1,0,0:0:0:0:
192,192,61160,1,0,0:0:0:0:
320,192,61235,1,0,0:0:0:0:
64,192,61235,1,0,0:0:0:0:
448,192,61310,1,0,0:0:0:0:
320,192,61385,1,0,0:0:0:0:
192,192,61385,1,0,0:0:0:0:
448,192,61460,1,0,0:0:0:0:
64,192,61535,1,0,0:0:0:0:
320,192,61610,1,0,0:0:0:0:
448,192,61685,1,0,0:0:0:0:
192,192,61685,1,0,0:0:0:0:
64,192,61760,1,0,0:0:0:0:
320,192,61835,1,0,0:0:0:0:
192,192,61910,1,0,0:0:0:0:
64,192,61985,1,0,0:0:0:0:
320,192,61985,1,0,0:0:0:0:
448,192,61985,1,0,0:0:0:0:
192,192,62060,1,0,0:0:0:0:
448,192,62135,1,0,0:0:0:0:
64,192,62135,1,0,0:0:0:0:
192,192,62210,1,0,0:0:0:0:
64,192,62285,1,0,0:0:0:0:
448,192,62285,1,0,0:0:0:0:
320,192,62285,1,0,0:0:0:0:
192,192,62360,1,0,0:0:0:0:
320,192,62435,1,0,0:0:0:0:
64,192,62435,1,0,0:0:0:0:
448,192,62510,1,0,0:0:0:0:
320,192,62585,1,0,0:0:0:0:
192,192,62585,1,0,0:0:0:0:
64,192,62660,1,0,0:0:0:0:
448,192,62735,1,0,0:0:0:0:
320,192,62810,1,0,0:0:0:0:
192,192,62885,1,0,0:0:0:0:
64,192,62885,1,0,0:0:0:0:
448,192,62885,1,0,0:0:0:0:
320,192,62960,1,0,0:0:0:0:
192,192,63035,1,0,0:0:0:0:
448,192,63110,1,0,0:0:0:0:
64,192,63185,1,0,0:0:0:0:
192,192,63185,1,0,0:0:0:0:
320,192,63185,1,0,0:0:0:0:
448,192,63260,1,0,0:0:0:0:
64,192,63335,1,0,0:0:0:0:
320,192,63410,1,0,0:0:0:0:
192,192,63485,1,0,0:0:0:0:
64,192,63485,1,0,0:0:0:0:
448,192,63485,1,0,0:0:0:0:
320,192,63560,1,0,0:0:0:0:
192,192,63635,1,0,0:0:0:0:
64,192,63635,1,0,0:0:0:0:
448,192,63710,1,0,0:0:0:0:
320,192,63785,1,0,0:0:0:0:
192,192,63785,1,0,0:0:0:0:
64,192,63860,1,0,0:0:0:0:
448,192,63935,1,0,0:0:0:0:
192,192,64010,1,0,0:0:0:0:
320,192,64085,1,0,0:0:0:0:
448,192,64085,1,0,0:0:0:0:
64,192,64085,1,0,0:0:0:0:
192,192,64160,1,0,0:0:0:0:
320,192,64235,1,0,0:0:0:0:
448,192,64310,1,0,0:0:0:0:
64,192,64385,1,0,0:0:0:0:
320,192,64385,1,0,0:0:0:0:
192,192,64385,1,0,0:0:0:0:
448,192,64460,1,0,0:0:0:0:
64,192,64535,1,0,0:0:0:0:
320,192,64610,1,0,0:0:0:0:
192,192,64685,1,0,0:0:0:0:
448,192,64685,1,0,0:0:0:0:
64,192,64685,1,0,0:0:0:0:
320,192,64760,1,0,0:0:0:0:
192,192,64835,1,0,0:0:0:0:
448,192,64835,1,0,0:0:0:0:
64,192,64910,1,0,0:0:0:0:
320,192,64985,1,0,0:0:0:0:
192,192,64985,1,0,0:0:0:0:
64,192,65060,1,0,0:0:0:0:
448,192,65135,1,0,0:0:0:0:
320,192,65210,1,0,0:0:0:0:
192,192,65285,1,0,0:0:0:0:
448,192,65285,1,0,0:0:0:0:
64,192,65360,1,0,0:0:0:0:
192,192,65435,1,0,0:0:0:0:
320,192,65510,1,0,0:0:0:0:
448,192,65585,1,0,0:0:0:0:
64,192,65585,1,0,0:0:0:0:
192,192,65660,1,0,0:0:0:0:
320,192,65735,1,0,0:0:0:0:
448,192,65810,1,0,0:0:0:0:
64,192,65885,1,0,0:0:0:0:
192,192,65885,1,0,0:0:0:0:
320,192,65960,1,0,0:0:0:0:
448,192,66035,1,0,0:0:0:0:
64,192,66110,1,0,0:0:0:0:
320,192,66185,1,0,0:0:0:0:
192,192,66185,1,0,0:0:0:0:
448,192,66260,1,0,0:0:0:0:
64,192,66335,1,0,0:0:0:0:
320,192,66410,1,0,0:0:0:0:
192,192,66485,1,0,0:0:0:0:
448,192,66485,1,0,0:0:0:0:
64,192,66560,1,0,0:0:0:0:
320,192,66635,1,0,0:0:0:0:
192,192,66710,1,0,0:0:0:0:
64,192,66785,1,0,0:0:0:0:
448,192,66785,1,0,0:0:0:0:
320,192,66860,1,0,0:0:0:0:
192,192,66935,1,0,0:0:0:0:
448,192,67010,1,0,0:0:0:0:
320,192,67085,1,0,0:0:0:0:
64,192,67085,1,0,0:0:0:0:
192,192,67160,1,0,0:0:0:0:
448,192,67235,1,0,0:0:0:0:
320,192,67235,1,0,0:0:0:0:
64,192,67310,1,0,0:0:0:0:
448,192,67385,1,0,0:0:0:0:
192,192,67385,1,0,0:0:0:0:
320,192,67460,1,0,0:0:0:0:
64,192,67535,1,0,0:0:0:0:
192,192,67610,1,0,0:0:0:0:
320,192,67685,1,0,0:0:0:0:
64,192,67685,1,0,0:0:0:0:
448,192,67685,1,0,0:0:0:0:
192,192,67760,1,0,0:0:0:0:
448,192,67835,1,0,0:0:0:0:
64,192,67910,1,0,0:0:0:0:
192,192,67985,1,0,0:0:0:0:
448,192,67985,1,0,0:0:0:0:
320,192,67985,1,0,0:0:0:0:
64,192,68060,1,0,0:0:0:0:
320,192,68135,1,0,0:0:0:0:
192,192,68210,1,0,0:0:0:0:
64,192,68285,1,0,0:0:0:0:
320,192,68285,1,0,0:0:0:0:
448,192,68285,1,0,0:0:0:0:
192,192,68360,1,0,0:0:0:0:
320,192,68435,1,0,0:0:0:0:
448,192,68435,1,0,0:0:0:0:
64,192,68510,1,0,0:0:0:0:
448,192,68585,1,0,0:0:0:0:
192,192,68585,1,0,0:0:0:0:
64,192,68660,1,0,0:0:0:0:
320,192,68735,1,0,0:0:0:0:
192,192,68810,1,0,0:0:0:0:
320,192,68885,1,0,0:0:0:0:
64,192,68885,1,0,0:0:0:0:
448,192,68885,1,0,0:0:0:0:
192,192,68960,1,0,0:0:0:0:
448,192,69035,1,0,0:0:0:0:
64,192,69110,1,0,0:0:0:0:
192,192,69185,1,0,0:0:0:0:
448,192,69185,1,0,0:0:0:0:
320,192,69185,1,0,0:0:0:0:
64,192,69260,1,0,0:0:0:0:
320,192,69335,1,0,0:0:0:0:
448,192,69410,1,0,0:0:0:0:
320,192,69485,1,0,0:0:0:0:
64,192,69485,1,0,0:0:0:0:
192,192,69485,1,0,0:0:0:0:
448,192,69560,1,0,0:0:0:0:
320,192,69635,1,0,0:0:0:0:
192,192,69635,1,0,0:0:0:0:
64,192,69710,1,0,0:0:0:0:
192,192,69785,1,0,0:0:0:0:
448,192,69785,1,0,0:0:0:0:
64,192,69860,1,0,0:0:0:0:
320,192,69935,1,0,0:0:0:0:
192,192,70010,1,0,0:0:0:0:
320,192,70085,1,0,0:0:0:0:
64,192,70085,1,0,0:0:0:0:
448,192,70085,1,0,0:0:0:0:
192,192,70160,1,0,0:0:0:0:
448,192,70235,1,0,0:0:0:0:
320,192,70310,1,0,0:0:0:0:
192,192,70385,1,0,0:0:0:0:
448,192,70385,1,0,0:0:0:0:
64,192,70385,1,0,0:0:0:0:
320,192,70460,1,0,0:0:0:0:
64,192,70535,1,0,0:0:0:0:
448,192,70610,1,0,0:0:0:0:
320,192,70685,1,0,0:0:0:0:
64,192,70685,1,0,0:0:0:0:
192,192,70685,1,0,0:0:0:0:
448,192,70760,1,0,0:0:0:0:
192,192,70835,1,0,0:0:0:0:
320,192,70835,1,0,0:0:0:0:
64,192,70910,1,0,0:0:0:0:
192,192,70985,1,0,0:0:0:0:
320,192,70985,1,0,0:0:0:0:
448,192,70985,1,0,0:0:0:0:
64,192,71060,1,0,0:0:0:0:
192,192,71135,1,0,0:0:0:0:
320,192,71210,1,0,0:0:0:0:
64,192,71285,1,0,0:0:0:0:
192,192,71285,1,0,0:0:0:0:
448,192,71285,1,0,0:0:0:0:
320,192,71360,1,0,0:0:0:0:
448,192,71435,1,0,0:0:0:0:
64,192,71435,1,0,0:0:0:0:
192,192,71510,1,0,0:0:0:0:
448,192,71585,1,0,0:0:0:0:
320,192,71585,1,0,0:0:0:0:
64,192,71660,1,0,0:0:0:0:
192,192,71735,1,0,0:0:0:0:
320,192,71735,1,0,0:0:0:0:
448,192,71810,1,0,0:0:0:0:
320,192,71885,1,0,0:0:0:0:
64,192,71885,1,0,0:0:0:0:
192,192,71960,1,0,0:0:0:0:
448,192,72035,1,0,0:0:0:0:
64,192,72035,1,0,0:0:0:0:
192,192,72110,1,0,0:0:0:0:
448,192,72185,1,0,0:0:0:0:
320,192,72185,1,0,0:0:0:0:
64,192,72260,1,0,0:0:0:0:
320,192,72335,1,0,0:0:0:0:
192,192,72410,1,0,0:0:0:0:
64,192,72485,1,0,0:0:0:0:
320,192,72485,1,0,0:0:0:0:
448,192,72485,1,0,0:0:0:0:
192,192,72560,1,0,0:0:0:0:
448,192,72635,1,0,0:0:0:0:
320,192,72710,1,0,0:0:0:0:
192,192,72785,1,0,0:0:0:0:
448,192,72785,1,0,0:0:0:0:
64,192,72785,1,0,0:0:0:0:
320,192,72860,1,0,0:0:0:0:
64,192,72935,1,0,0:0:0:0:
192,192,73010,1,0,0:0:0:0:
64,192,73085,1,0,0:0:0:0:
320,192,73085,1,0,0:0:0:0:
448,192,73085,1,0,0:0:0:0:
192,192,73160,1,0,0:0:0:0:
64,192,73235,1,0,0:0:0:0:
448,192,73235,1,0,0:0:0:0:
320,192,73310,1,0,0:0:0:0:
192,192,73385,1,0,0:0:0:0:
448,192,73385,1,0,0:0:0:0:
320,192,73460,1,0,0:0:0:0:
64,192,73535,1,0,0:0:0:0:
192,192,73610,1,0,0:0:0:0:
64,192,73685,1,0,0:0:0:0:
320,192,73685,1,0,0:0:0:0:
448,192,73685,1,0,0:0:0:0:
192,192,73760,1,0,0:0:0:0:
448,192,73835,1,0,0:0:0:0:
64,192,73910,1,0,0:0:0:0:
192,192,73985,1,0,0:0:0:0:
448,192,73985,1,0,0:0:0:0:
320,192,73985,1,0,0:0:0:0:
64,192,74060,1,0,0:0:0:0:
320,192,74135,1,0,0:0:0:0:
192,192,74210,1,0,0:0:0:0:
64,192,74285,1,0,0:0:0:0:
320,192,74285,1,0,0:0:0:0:
448,192,74285,1,0,0:0:0:0:
192,192,74360,1,0,0:0:0:0:
320,192,74435,1,0,0:0:0:0:
448,192,74435,1,0,0:0:0:0:
64,192,74510,1,0,0:0:0:0:
192,192,74585,1,0,0:0:0:0:
448,192,74660,1,0,0:0:0:0:
64,192,74735,1,0,0:0:0:0:
320,192,74735,1,0,0:0:0:0:
192,192,74810,1,0,0:0:0:0:
448,192,74885,1,0,0:0:0:0:
320,192,74960,1,0,0:0:0:0:
64,192,75035,1,0,0:0:0:0:
192,192,75035,1,0,0:0:0:0:
320,192,75110,1,0,0:0:0:0:
64,192,75185,1,0,0:0:0:0:
448,192,75185,1,0,0:0:0:0:
192,192,75260,1,0,0:0:0:0:
320,192,75335,1,0,0:0:0:0:
448,192,75410,1,0,0:0:0:0:
192,192,75485,1,0,0:0:0:0:
320,192,75485,1,0,0:0:0:0:
64,192,75485,1,0,0:0:0:0:
448,192,75560,1,0,0:0:0:0:
64,192,75635,1,0,0:0:0:0:
192,192,75710,1,0,0:0:0:0:
320,192,75785,1,0,0:0:0:0:
448,192,75860,1,0,0:0:0:0:
64,192,75935,1,0,0:0:0:0:
192,192,75935,1,0,0:0:0:0:
320,192,76010,1,0,0:0:0:0:
448,192,76085,1,0,0:0:0:0:
192,192,76085,1,0,0:0:0:0:
64,192,76160,1,0,0:0:0:0:
320,192,76160,1,0,0:0:0:0:
448,192,76235,1,0,0:0:0:0:
64,192,76310,1,0,0:0:0:0:
192,192,76385,1,0,0:0:0:0:
320,192,76460,1,0,0:0:0:0:
448,192,76535,1,0,0:0:0:0:
192,192,76610,1,0,0:0:0:0:
64,192,76685,1,0,0:0:0:0:
320,192,76760,1,0,0:0:0:0:
64,192,76835,1,0,0:0:0:0:
448,192,76835,1,0,0:0:0:0:
192,192,76835,1,0,0:0:0:0:
320,192,78035,1,0,0:0:0:0:
192,192,78185,1,0,0:0:0:0:
448,192,78335,1,0,0:0:0:0:
64,192,78485,1,0,0:0:0:0:
320,192,78485,1,0,0:0:0:0:
192,192,78635,1,0,0:0:0:0:
448,192,78635,1,0,0:0:0:0:
64,192,78785,1,0,0:0:0:0:
320,192,78860,1,0,0:0:0:0:
64,192,78935,1,0,0:0:0:0:
448,192,78935,1,0,0:0:0:0:
192,192,78935,1,0,0:0:0:0:
448,192,79235,1,0,0:0:0:0:
320,192,79235,1,0,0:0:0:0:
192,192,79235,1,0,0:0:0:0:
64,192,79310,1,0,0:0:0:0:
448,192,79385,1,0,0:0:0:0:
320,192,79460,1,0,0:0:0:0:
192,192,79535,1,0,0:0:0:0:
64,192,79535,1,0,0:0:0:0:
320,192,79610,1,0,0:0:0:0:
448,192,79685,1,0,0:0:0:0:
192,192,79685,1,0,0:0:0:0:
64,192,79760,1,0,0:0:0:0:
320,192,79835,1,0,0:0:0:0:
448,192,79835,1,0,0:0:0:0:
192,192,79910,1,0,0:0:0:0:
64,192,79985,1,0,0:0:0:0:
320,192,80060,1,0,0:0:0:0:
64,192,80135,1,0,0:0:0:0:
192,192,80135,1,0,0:0:0:0:
448,192,80135,1,0,0:0:0:0:
320,192,80210,1,0,0:0:0:0:
448,192,80285,1,0,0:0:0:0:
192,192,80360,1,0,0:0:0:0:
448,192,80435,1,0,0:0:0:0:
64,192,80435,1,0,0:0:0:0:
320,192,80435,1,0,0:0:0:0:
192,192,80510,1,0,0:0:0:0:
64,192,80585,1,0,0:0:0:0:
320,192,80660,1,0,0:0:0:0:
448,192,80735,1,0,0:0:0:0:
192,192,80735,1,0,0:0:0:0:
64,192,80810,1,0,0:0:0:0:
192,192,80885,1,0,0:0:0:0:
320,192,80885,1,0,0:0:0:0:
448,192,80960,1,0,0:0:0:0:
320,192,81035,1,0,0:0:0:0:
64,192,81035,1,0,0:0:0:0:
192,192,81110,1,0,0:0:0:0:
448,192,81185,1,0,0:0:0:0:
64,192,81260,1,0,0:0:0:0:
192,192,81335,1,0,0:0:0:0:
320,192,81335,1,0,0:0:0:0:
448,192,81335,1,0,0:0:0:0:
64,192,81410,1,0,0:0:0:0:
320,192,81485,1,0,0:0:0:0:
192,192,81560,1,0,0:0:0:0:
448,192,81635,1,0,0:0:0:0:
320,192,81635,1,0,0:0:0:0:
64,192,81635,1,0,0:0:0:0:
192,192,81710,1,0,0:0:0:0:
448,192,81785,1,0,0:0:0:0:
64,192,81860,1,0,0:0:0:0:
320,192,81935,1,0,0:0:0:0:
192,192,81935,1,0,0:0:0:0:
448,192,82010,1,0,0:0:0:0:
320,192,82085,1,0,0:0:0:0:
64,192,82085,1,0,0:0:0:0:
192,192,82160,1,0,0:0:0:0:
64,192,82235,1,0,0:0:0:0:
448,192,82235,1,0,0:0:0:0:
320,192,82310,1,0,0:0:0:0:
192,192,82385,1,0,0:0:0:0:
448,192,82460,1,0,0:0:0:0:
192,192,82535,1,0,0:0:0:0:
64,192,82535,1,0,0:0:0:0:
320,192,82535,1,0,0:0:0:0:
448,192,82610,1,0,0:0:0:0:
320,192,82685,1,0,0:0:0:0:
64,192,82760,1,0,0:0:0:0:
448,192,82835,1,0,0:0:0:0:
192,192,82835,1,0,0:0:0:0:
320,192,82835,1,0,0:0:0:0:
64,192,82910,1,0,0:0:0:0:
192,192,82985,1,0,0:0:0:0:
448,192,83060,1,0,0:0:0:0:
64,192,83135,1,0,0:0:0:0:
320,192,83135,1,0,0:0:0:0:
192,192,83210,1,0,0:0:0:0:
448,192,83285,1,0,0:0:0:0:
64,192,83285,1,0,0:0:0:0:
320,192,83360,1,0,0:0:0:0:
448,192,83435,1,0,0:0:0:0:
192,192,83435,1,0,0:0:0:0:
320,192,83510,1,0,0:0:0:0:
64,192,83585,1,0,0:0:0:0:
192,192,83660,1,0,0:0:0:0:
64,192,83735,1,0,0:0:0:0:
448,192,83735,1,0,0:0:0:0:
320,192,83735,1,0,0:0:0:0:
192,192,83810,1,0,0:0:0:0:
448,192,83885,1,0,0:0:0:0:
64,192,83960,1,0,0:0:0:0:
448,192,84035,1,0,0:0:0:0:
320,192,84035,1,0,0:0:0:0:
192,192,84035,1,0,0:0:0:0:
64,192,84110,1,0,0:0:0:0:
320,192,84185,1,0,0:0:0:0:
448,192,84260,1,0,0:0:0:0:
192,192,84335,1,0,0:0:0:0:
320,192,84335,1,0,0:0:0:0:
64,192,84410,1,0,0:0:0:0:
448,192,84485,1,0,0:0:0:0:
192,192,84485,1,0,0:0:0:0:
64,192,84560,1,0,0:0:0:0:
320,192,84635,1,0,0:0:0:0:
192,192,84635,1,0,0:0:0:0:
448,192,84710,1,0,0:0:0:0:
64,192,84785,1,0,0:0:0:0:
320,192,84860,1,0,0:0:0:0:
448,192,84935,1,0,0:0:0:0:
192,192,84935,1,0,0:0:0:0:
64,192,84935,1,0,0:0:0:0:
320,192,85010,1,0,0:0:0:0:
192,192,85085,1,0,0:0:0:0:
448,192,85160,1,0,0:0:0:0:
320,192,85235,1,0,0:0:0:0:
64,192,85235,1,0,0:0:0:0:
192,192,85235,1,0,0:0:0:0:
448,192,85310,1,0,0:0:0:0:
64,192,85385,1,0,0:0:0:0:
320,192,85460,1,0,0:0:0:0:
192,192,85535,1,0,0:0:0:0:
64,192,85535,1,0,0:0:0:0:
448,192,85610,1,0,0:0:0:0:
320,192,85685,1,0,0:0:0:0:
192,192,85685,1,0,0:0:0:0:
64,192,85760,1,0,0:0:0:0:
320,192,85835,1,0,0:0:0:0:
448,192,85835,1,0,0:0:0:0:
192,192,85910,1,0,0:0:0:0:
64,192,85985,1,0,0:0:0:0:
448,192,86060,1,0,0:0:0:0:
64,192,86135,1,0,0:0:0:0:
320,192,86135,1,0,0:0:0:0:
192,192,86135,1,0,0:0:0:0:
448,192,86210,1,0,0:0:0:0:
320,192,86285,1,0,0:0:0:0:
192,192,86360,1,0,0:0:0:0:
320,192,86435,1,0,0:0:0:0:
64,192,86435,1,0,0:0:0:0:
448,192,86435,1,0,0:0:0:0:
192,192,86510,1,0,0:0:0:0:
64,192,86585,1,0,0:0:0:0:
448,192,86660,1,0,0:0:0:0:
64,192,86735,1,0,0:0:0:0:
320,192,86735,1,0,0:0:0:0:
192,192,86810,1,0,0:0:0:0:
448,192,86885,1,0,0:0:0:0:
320,192,86885,1,0,0:0:0:0:
192,192,86960,1,0,0:0:0:0:
320,192,87035,1,0,0:0:0:0:
64,192,87035,1,0,0:0:0:0:
448,192,87110,1,0,0:0:0:0:
64,192,87185,1,0,0:0:0:0:
192,192,87260,1,0,0:0:0:0:
320,192,87335,1,0,0:0:0:0:
64,192,87335,1,0,0:0:0:0:
448,192,87335,1,0,0:0:0:0:
192,192,87410,1,0,0:0:0:0:
448,192,87485,1,0,0:0:0:0:
320,192,87560,1,0,0:0:0:0:
64,192,87635,1,0,0:0:0:0:
192,192,87635,1,0,0:0:0:0:
320,192,87710,1,0,0:0:0:0:
448,192,87785,1,0,0:0:0:0:
64,192,87860,1,0,0:0:0:0:
192,192,87935,1,0,0:0:0:0:
448,192,87935,1,0,0:0:0:0:
320,192,88010,1,0,0:0:0:0:
64,192,88085,1,0,0:0:0:0:
192,192,88160,1,0,0:0:0:0:
320,192,88235,1,0,0:0:0:0:
448,192,88235,1,0,0:0:0:0:
64,192,88310,1,0,0:0:0:0:
192,192,88385,1,0,0:0:0:0:
320,192,88460,1,0,0:0:0:0:
64,192,88535,1,0,0:0:0:0:
448,192,88535,1,0,0:0:0:0:
192,192,88535,1,0,0:0:0:0:
320,192,88610,1,0,0:0:0:0:
64,192,88685,1,0,0:0:0:0:
448,192,88760,1,0,0:0:0:0:
192,192,88835,1,0,0:0:0:0:
64,192,88835,1,0,0:0:0:0:
320,192,88835,1,0,0:0:0:0:
448,192,88910,1,0,0:0:0:0:
192,192,88985,1,0,0:0:0:0:
320,192,89060,1,0,0:0:0:0:
448,192,89135,1,0,0:0:0:0:
64,192,89135,1,0,0:0:0:0:
192,192,89210,1,0,0:0:0:0:
64,192,89285,1,0,0:0:0:0:
320,192,89285,1,0,0:0:0:0:
448,192,89360,1,0,0:0:0:0:
192,192,89435,1,0,0:0:0:0:
320,192,89435,1,0,0:0:0:0:
64,192,89510,1,0,0:0:0:0:
448,192,89585,1,0,0:0:0:0:
192,192,89660,1,0,0:0:0:0:
64,192,89735,1,0,0:0:0:0:
320,192,89735,1,0,0:0:0:0:
448,192,89735,1,0,0:0:0:0:
192,192,89810,1,0,0:0:0:0:
64,192,89885,1,0,0:0:0:0:
320,192,89960,1,0,0:0:0:0:
64,192,90035,1,0,0:0:0:0:
448,192,90035,1,0,0:0:0:0:
192,192,90035,1,0,0:0:0:0:
320,192,90110,1,0,0:0:0:0:
448,192,90185,1,0,0:0:0:0:
192,192,90260,1,0,0:0:0:0:
64,192,90335,1,0,0:0:0:0:
320,192,90335,1,0,0:0:0:0:
448,192,90410,1,0,0:0:0:0:
192,192,90485,1,0,0:0:0:0:
64,192,90485,1,0,0:0:0:0:
320,192,90560,1,0,0:0:0:0:
192,192,90635,1,0,0:0:0:0:
448,192,90635,1,0,0:0:0:0:
64,192,90710,1,0,0:0:0:0:
320,192,90785,1,0,0:0:0:0:
448,192,90860,1,0,0:0:0:0:
320,192,90935,1,0,0:0:0:0:
192,192,90935,1,0,0:0:0:0:
64,192,90935,1,0,0:0:0:0:
448,192,91010,1,0,0:0:0:0:
192,192,91085,1,0,0:0:0:0:
64,192,91160,1,0,0:0:0:0:
192,192,91235,1,0,0:0:0:0:
320,192,91235,1,0,0:0:0:0:
448,192,91235,1,0,0:0:0:0:
64,192,91310,1,0,0:0:0:0:
320,192,91385,1,0,0:0:0:0:
448,192,91460,1,0,0:0:0:0:
192,192,91535,1,0,0:0:0:0:
64,192,91535,1,0,0:0:0:0:
320,192,91610,1,0,0:0:0:0:
448,192,91685,1,0,0:0:0:0:
192,192,91685,1,0,0:0:0:0:
64,192,91760,1,0,0:0:0:0:
320,192,91835,1,0,0:0:0:0:
448,192,91835,1,0,0:0:0:0:
192,192,91910,1,0,0:0:0:0:
64,192,91985,1,0,0:0:0:0:
320,192,92060,1,0,0:0:0:0:
64,192,92135,1,0,0:0:0:0:
448,192,92135,1,0,0:0:0:0:
192,192,92135,1,0,0:0:0:0:
320,192,92210,1,0,0:0:0:0:
448,192,92285,1,0,0:0:0:0:
192,192,92360,1,0,0:0:0:0:
64,192,92435,1,0,0:0:0:0:
448,192,92435,1,0,0:0:0:0:
320,192,92435,1,0,0:0:0:0:
192,192,92510,1,0,0:0:0:0:
64,192,92585,1,0,0:0:0:0:
320,192,92660,1,0,0:0:0:0:
64,192,92735,1,0,0:0:0:0:
448,192,92735,1,0,0:0:0:0:
192,192,92810,1,0,0:0:0:0:
448,192,92885,1,0,0:0:0:0:
320,192,92885,1,0,0:0:0:0:
192,192,92960,1,0,0:0:0:0:
64,192,93035,1,0,0:0:0:0:
320,192,93035,1,0,0:0:0:0:
448,192,93110,1,0,0:0:0:0:
64,192,93185,1,0,0:0:0:0:
192,192,93260,1,0,0:0:0:0:
320,192,93335,1,0,0:0:0:0:
448,192,93335,1,0,0:0:0:0:
192,192,93410,1,0,0:0:0:0:
64,192,93485,1,0,0:0:0:0:
320,192,93560,1,0,0:0:0:0:
192,192,93635,1,0,0:0:0:0:
448,192,93635,1,0,0:0:0:0:
64,192,93635,1,0,0:0:0:0:
320,192,93710,1,0,0:0:0:0:
448,192,93785,1,0,0:0:0:0:
192,192,93860,1,0,0:0:0:0:
320,192,93935,1,0,0:0:0:0:
448,192,93935,1,0,0:0:0:0:
64,192,93935,1,0,0:0:0:0:
192,192,94010,1,0,0:0:0:0:
64,192,94085,1,0,0:0:0:0:
320,192,94160,1,0,0:0:0:0:
192,192,94235,1,0,0:0:0:0:
64,192,94235,1,0,0:0:0:0:
448,192,94235,1,0,0:0:0:0:
320,192,94310,1,0,0:0:0:0:
448,192,94385,1,0,0:0:0:0:
192,192,94460,1,0,0:0:0:0:
320,192,94535,1,0,0:0:0:0:
64,192,94535,1,0,0:0:0:0:
448,192,94535,1,0,0:0:0:0:
192,192,94610,1,0,0:0:0:0:
64,192,94685,1,0,0:0:0:0:
320,192,94760,1,0,0:0:0:0:
64,192,94835,1,0,0:0:0:0:
448,192,94835,1,0,0:0:0:0:
192,192,94835,1,0,0:0:0:0:
320,192,94910,1,0,0:0:0:0:
448,192,94985,1,0,0:0:0:0:
64,192,95060,1,0,0:0:0:0:
448,192,95135,1,0,0:0:0:0:
320,192,95135,1,0,0:0:0:0:
192,192,95135,1,0,0:0:0:0:
64,192,95210,1,0,0:0:0:0:
192,192,95285,1,0,0:0:0:0:
320,192,95360,1,0,0:0:0:0:
192,192,95435,1,0,0:0:0:0:
64,192,95435,1,0,0:0:0:0:
448,192,95435,1,0,0:0:0:0:
320,192,95510,1,0,0:0:0:0:
448,192,95585,1,0,0:0:0:0:
192,192,95660,1,0,0:0:0:0:
320,192,95735,1,0,0:0:0:0:
64,192,95735,1,0,0:0:0:0:
448,192,95735,1,0,0:0:0:0:
192,192,95810,1,0,0:0:0:0:
64,192,95885,1,0,0:0:0:0:
320,192,95960,1,0,0:0:0:0:
448,192,96035,1,0,0:0:0:0:
64,192,96035,1,0,0:0:0:0:
192,192,96110,1,0,0:0:0:0:
320,192,96185,1,0,0:0:0:0:
448,192,96185,1,0,0:0:0:0:
64,192,96260,1,0,0:0:0:0:
192,192,96335,1,0,0:0:0:0:
320,192,96410,1,0,0:0:0:0:
448,192,96485,1,0,0:0:0:0:
64,192,96485,1,0,0:0:0:0:
192,192,96560,1,0,0:0:0:0:
448,192,96635,1,0,0:0:0:0:
320,192,96635,1,0,0:0:0:0:
192,192,96710,1,0,0:0:0:0:
64,192,96785,1,0,0:0:0:0:
320,192,96860,1,0,0:0:0:0:
64,192,96935,1,0,0:0:0:0:
448,192,96935,1,0,0:0:0:0:
192,192,97010,1,0,0:0:0:0:
320,192,97010,1,0,0:0:0:0:
448,192,97085,1,0,0:0:0:0:
64,192,97085,1,0,0:0:0:0:
192,192,97160,1,0,0:0:0:0:
320,192,97235,1,0,0:0:0:0:
448,192,97235,1,0,0:0:0:0:
64,192,97235,1,0,0:0:0:0:
192,192,97310,1,0,0:0:0:0:
320,192,97385,1,0,0:0:0:0:
448,192,97460,1,0,0:0:0:0:
64,192,97535,1,0,0:0:0:0:
192,192,97610,1,0,0:0:0:0:
320,192,97685,1,0,0:0:0:0:
64,192,97760,1,0,0:0:0:0:
448,192,97835,1,0,0:0:0:0:
192,192,97910,1,0,0:0:0:0:
320,192,97985,1,0,0:0:0:0:
448,192,98060,1,0,0:0:0:0:
64,192,98135,1,0,0:0:0:0:
192,192,98210,1,0,0:0:0:0:
320,192,98285,1,0,0:0:0:0:
448,192,98360,1,0,0:0:0:0:
64,192,98435,1,0,0:0:0:0:
192,192,98435,1,0,0:0:0:0:
320,192,98510,1,0,0:0:0:0:
192,192,98585,1,0,0:0:0:0:
64,192,98585,1,0,0:0:0:0:
448,192,98585,1,0,0:0:0:0:
320,192,98660,1,0,0:0:0:0:
448,192,98735,1,0,0:0:0:0:
64,192,98735,1,0,0:0:0:0:
192,192,98810,1,0,0:0:0:0:
448,192,98885,1,0,0:0:0:0:
64,192,98885,1,0,0:0:0:0:
320,192,98885,1,0,0:0:0:0:
192,192,98960,1,0,0:0:0:0:
64,192,99035,1,0,0:0:0:0:
320,192,99035,1,0,0:0:0:0:
448,192,99110,1,0,0:0:0:0:
320,192,99185,1,0,0:0:0:0:
192,192,99185,1,0,0:0:0:0:
448,192,99260,1,0,0:0:0:0:
64,192,99335,1,0,0:0:0:0:
192,192,99410,1,0,0:0:0:0:
320,192,99485,1,0,0:0:0:0:
64,192,99485,1,0,0:0:0:0:
448,192,99560,1,0,0:0:0:0:
192,192,99635,1,0,0:0:0:0:
320,192,99710,1,0,0:0:0:0:
192,192,99785,1,0,0:0:0:0:
448,192,99785,1,0,0:0:0:0:
64,192,99785,1,0,0:0:0:0:
320,192,99860,1,0,0:0:0:0:
64,192,99935,1,0,0:0:0:0:
448,192,99935,1,0,0:0:0:0:
320,192,100010,1,0,0:0:0:0:
448,192,100085,1,0,0:0:0:0:
64,192,100085,1,0,0:0:0:0:
192,192,100085,1,0,0:0:0:0:
320,192,100160,1,0,0:0:0:0:
192,192,100235,1,0,0:0:0:0:
64,192,100235,1,0,0:0:0:0:
448,192,100310,1,0,0:0:0:0:
320,192,100385,1,0,0:0:0:0:
64,192,100385,1,0,0:0:0:0:
192,192,100385,1,0,0:0:0:0:
448,192,100460,1,0,0:0:0:0:
192,192,100535,1,0,0:0:0:0:
320,192,100535,1,0,0:0:0:0:
448,192,100610,1,0,0:0:0:0:
64,192,100685,1,0,0:0:0:0:
320,192,100685,1,0,0:0:0:0:
192,192,100685,1,0,0:0:0:0:
448,192,100760,1,0,0:0:0:0:
64,192,100835,1,0,0:0:0:0:
320,192,100835,1,0,0:0:0:0:
192,192,100910,1,0,0:0:0:0:
64,192,100985,1,0,0:0:0:0:
320,192,100985,1,0,0:0:0:0:
448,192,100985,1,0,0:0:0:0:
192,192,101060,1,0,0:0:0:0:
64,192,101135,1,0,0:0:0:0:
448,192,101135,1,0,0:0:0:0:
320,192,101210,1,0,0:0:0:0:
448,192,101285,1,0,0:0:0:0:
192,192,101285,1,0,0:0:0:0:
64,192,101285,1,0,0:0:0:0:
320,192,101360,1,0,0:0:0:0:
192,192,101435,1,0,0:0:0:0:
448,192,101435,1,0,0:0:0:0:
64,192,101510,1,0,0:0:0:0:
320,192,101585,1,0,0:0:0:0:
192,192,101585,1,0,0:0:0:0:
448,192,101660,1,0,0:0:0:0:
64,192,101735,1,0,0:0:0:0:
320,192,101810,1,0,0:0:0:0:
64,192,101885,1,0,0:0:0:0:
192,192,101885,1,0,0:0:0:0:
448,192,101960,1,0,0:0:0:0:
192,192,102035,1,0,0:0:0:0:
320,192,102110,1,0,0:0:0:0:
448,192,102185,1,0,0:0:0:0:
64,192,102185,1,0,0:0:0:0:
320,192,102260,1,0,0:0:0:0:
192,192,102335,1,0,0:0:0:0:
448,192,102410,1,0,0:0:0:0:
64,192,102485,1,0,0:0:0:0:
192,192,102485,1,0,0:0:0:0:
320,192,102560,1,0,0:0:0:0:
448,192,102635,1,0,0:0:0:0:
64,192,102710,1,0,0:0:0:0:
320,192,102785,1,0,0:0:0:0:
192,192,102785,1,0,0:0:0:0:
448,192,102860,1,0,0:0:0:0:
64,192,102935,1,0,0:0:0:0:
320,192,103010,1,0,0:0:0:0:
192,192,103085,1,0,0:0:0:0:
448,192,103085,1,0,0:0:0:0:
64,192,103160,1,0,0:0:0:0:
320,192,103235,1,0,0:0:0:0:
192,192,103235,1,0,0:0:0:0:
448,192,103310,1,0,0:0:0:0:
192,192,103385,1,0,0:0:0:0:
320,192,103385,1,0,0:0:0:0:
64,192,103385,1,0,0:0:0:0:
448,192,103460,1,0,0:0:0:0:
192,192,103535,1,0,0:0:0:0:
64,192,103535,1,0,0:0:0:0:
320,192,103610,1,0,0:0:0:0:
64,192,103685,1,0,0:0:0:0:
192,192,103685,1,0,0:0:0:0:
448,192,103685,1,0,0:0:0:0:
320,192,103760,1,0,0:0:0:0:
64,192,103835,1,0,0:0:0:0:
448,192,103835,1,0,0:0:0:0:
320,192,103910,1,0,0:0:0:0:
448,192,103985,1,0,0:0:0:0:
192,192,103985,1,0,0:0:0:0:
64,192,104060,1,0,0:0:0:0:
192,192,104135,1,0,0:0:0:0:
320,192,104210,1,0,0:0:0:0:
64,192,104285,1,0,0:0:0:0:
448,192,104285,1,0,0:0:0:0:
192,192,104360,1,0,0:0:0:0:
320,192,104435,1,0,0:0:0:0:
448,192,104510,1,0,0:0:0:0:
192,192,104585,1,0,0:0:0:0:
320,192,104585,1,0,0:0:0:0:
64,192,104585,1,0,0:0:0:0:
448,192,104660,1,0,0:0:0:0:
320,192,104735,1,0,0:0:0:0:
64,192,104735,1,0,0:0:0:0:
192,192,104810,1,0,0:0:0:0:
320,192,104885,1,0,0:0:0:0:
64,192,104885,1,0,0:0:0:0:
448,192,104885,1,0,0:0:0:0:
192,192,104960,1,0,0:0:0:0:
448,192,105035,1,0,0:0:0:0:
320,192,105035,1,0,0:0:0:0:
64,192,105110,1,0,0:0:0:0:
448,192,105185,1,0,0:0:0:0:
320,192,105185,1,0,0:0:0:0:
192,192,105185,1,0,0:0:0:0:
64,192,105260,1,0,0:0:0:0:
192,192,105335,1,0,0:0:0:0:
320,192,105335,1,0,0:0:0:0:
448,192,105410,1,0,0:0:0:0:
192,192,105485,1,0,0:0:0:0:
320,192,105485,1,0,0:0:0:0:
64,192,105485,1,0,0:0:0:0:
448,192,105560,1,0,0:0:0:0:
192,192,105635,1,0,0:0:0:0:
64,192,105635,1,0,0:0:0:0:
320,192,105710,1,0,0:0:0:0:
64,192,105785,1,0,0:0:0:0:
448,192,105785,1,0,0:0:0:0:
192,192,105785,1,0,0:0:0:0:
320,192,105860,1,0,0:0:0:0:
448,192,105935,1,0,0:0:0:0:
64,192,105935,1,0,0:0:0:0:
192,192,106010,1,0,0:0:0:0:
448,192,106085,1,0,0:0:0:0:
64,192,106085,1,0,0:0:0:0:
320,192,106085,1,0,0:0:0:0:
192,192,106160,1,0,0:0:0:0:
320,192,106235,1,0,0:0:0:0:
64,192,106235,1,0,0:0:0:0:
448,192,106310,1,0,0:0:0:0:
192,192,106385,1,0,0:0:0:0:
64,192,106385,1,0,0:0:0:0:
448,192,106460,1,0,0:0:0:0:
320,192,106535,1,0,0:0:0:0:
192,192,106535,1,0,0:0:0:0:
448,192,106610,1,0,0:0:0:0:
64,192,106610,1,0,0:0:0:0:
192,192,106685,1,0,0:0:0:0:
320,192,106685,1,0,0:0:0:0:
448,192,106760,1,0,0:0:0:0:
320,192,106835,1,0,0:0:0:0:
64,192,106835,1,0,0:0:0:0:
192,192,106910,1,0,0:0:0:0:
448,192,106910,1,0,0:0:0:0:
64,192,106985,1,0,0:0:0:0:
320,192,106985,1,0,0:0:0:0:
192,192,107060,1,0,0:0:0:0:
64,192,107135,1,0,0:0:0:0:
320,192,107135,1,0,0:0:0:0:
192,192,107210,1,0,0:0:0:0:
448,192,107210,1,0,0:0:0:0:
64,192,107285,1,0,0:0:0:0:
320,192,107285,1,0,0:0:0:0:
192,192,107360,1,0,0:0:0:0:
448,192,107360,1,0,0:0:0:0:
320,192,107435,1,0,0:0:0:0:
64,192,107435,1,0,0:0:0:0:
448,192,107510,1,0,0:0:0:0:
192,192,107585,1,0,0:0:0:0:
64,192,107585,1,0,0:0:0:0:
320,192,107660,1,0,0:0:0:0:
448,192,107660,1,0,0:0:0:0:
64,192,107735,1,0,0:0:0:0:
192,192,107735,1,0,0:0:0:0:
448,192,107810,1,0,0:0:0:0:
320,192,107885,1,0,0:0:0:0:
64,192,107960,1,0,0:0:0:0:
320,192,108035,1,0,0:0:0:0:
192,192,108035,1,0,0:0:0:0:
448,192,108110,1,0,0:0:0:0:
320,192,108185,1,0,0:0:0:0:
192,192,108185,1,0,0:0:0:0:
64,192,108185,1,0,0:0:0:0:
448,192,108260,1,0,0:0:0:0:
64,192,108485,1,0,0:0:0:0:
192,192,108485,1,0,0:0:0:0:
320,192,108485,1,0,0:0:0:0:
448,192,108560,1,0,0:0:0:0:
192,192,108635,1,0,0:0:0:0:
64,192,108635,1,0,0:0:0:0:
320,192,108710,1,0,0:0:0:0:
64,192,108785,1,0,0:0:0:0:
192,192,108785,1,0,0:0:0:0:
448,192,108785,1,0,0:0:0:0:
320,192,108860,1,0,0:0:0:0:
64,192,109085,1,0,0:0:0:0:
448,192,109085,1,0,0:0:0:0:
192,192,109160,1,0,0:0:0:0:
320,192,109235,1,0,0:0:0:0:
448,192,109310,1,0,0:0:0:0:
64,192,109385,1,0,0:0:0:0:
320,192,109385,1,0,0:0:0:0:
192,192,109385,1,0,0:0:0:0:
448,192,109460,1,0,0:0:0:0:
64,192,109535,1,0,0:0:0:0:
448,192,109685,1,0,0:0:0:0:
320,192,109685,1,0,0:0:0:0:
192,192,109685,1,0,0:0:0:0:
64,192,109760,1,0,0:0:0:0:
192,192,109835,1,0,0:0:0:0:
320,192,109835,1,0,0:0:0:0:
448,192,109910,1,0,0:0:0:0:
192,192,109985,1,0,0:0:0:0:
320,192,109985,1,0,0:0:0:0:
64,192,109985,1,0,0:0:0:0:
448,192,110060,1,0,0:0:0:0:
192,192,110135,1,0,0:0:0:0:
64,192,110210,1,0,0:0:0:0:
192,192,110285,1,0,0:0:0:0:
448,192,110285,1,0,0:0:0:0:
320,192,110285,1,0,0:0:0:0:
64,192,110360,1,0,0:0:0:0:
448,192,110435,1,0,0:0:0:0:
320,192,110435,1,0,0:0:0:0:
64,192,110510,1,0,0:0:0:0:
320,192,110585,1,0,0:0:0:0:
448,192,110585,1,0,0:0:0:0:
192,192,110585,1,0,0:0:0:0:
64,192,110660,1,0,0:0:0:0:
448,192,110885,1,0,0:0:0:0:
192,192,110885,1,0,0:0:0:0:
320,192,110885,1,0,0:0:0:0:
64,192,110960,1,0,0:0:0:0:
320,192,111035,1,0,0:0:0:0:
192,192,111035,1,0,0:0:0:0:
448,192,111110,1,0,0:0:0:0:
320,192,111185,1,0,0:0:0:0:
64,192,111185,1,0,0:0:0:0:
192,192,111260,1,0,0:0:0:0:
64,192,111485,1,0,0:0:0:0:
448,192,111485,1,0,0:0:0:0:
320,192,111560,1,0,0:0:0:0:
192,192,111635,1,0,0:0:0:0:
448,192,111710,1,0,0:0:0:0:
64,192,111785,1,0,0:0:0:0:
320,192,111785,1,0,0:0:0:0:
192,192,111860,1,0,0:0:0:0:
448,192,112085,1,0,0:0:0:0:
64,192,112085,1,0,0:0:0:0:
320,192,112160,1,0,0:0:0:0:
192,192,112235,1,0,0:0:0:0:
448,192,112310,1,0,0:0:0:0:
64,192,112385,1,0,0:0:0:0:
320,192,112385,1,0,0:0:0:0:
192,192,112460,1,0,0:0:0:0:
448,192,112535,1,0,0:0:0:0:
320,192,112610,1,0,0:0:0:0:
64,192,112685,1,0,0:0:0:0:
192,192,112685,1,0,0:0:0:0:
448,192,112760,1,0,0:0:0:0:
320,192,112835,1,0,0:0:0:0:
64,192,112835,1,0,0:0:0:0:
192,192,112910,1,0,0:0:0:0:
448,192,112985,1,0,0:0:0:0:
64,192,112985,1,0,0:0:0:0:
320,192,112985,1,0,0:0:0:0:
192,192,113060,1,0,0:0:0:0:
320,192,113285,1,0,0:0:0:0:
64,192,113285,1,0,0:0:0:0:
448,192,113285,1,0,0:0:0:0:
192,192,113360,1,0,0:0:0:0:
64,192,113435,1,0,0:0:0:0:
448,192,113435,1,0,0:0:0:0:
320,192,113510,1,0,0:0:0:0:
64,192,113585,1,0,0:0:0:0:
192,192,113585,1,0,0:0:0:0:
448,192,113660,1,0,0:0:0:0:
320,192,113885,1,0,0:0:0:0:
192,192,114035,1,0,0:0:0:0:
64,192,114110,1,0,0:0:0:0:
320,192,114185,1,0,0:0:0:0:
192,192,114185,1,0,0:0:0:0:
448,192,114185,1,0,0:0:0:0:
64,192,114260,1,0,0:0:0:0:
448,192,114335,1,0,0:0:0:0:
320,192,114335,1,0,0:0:0:0:
192,192,114410,1,0,0:0:0:0:
64,192,114485,1,0,0:0:0:0:
448,192,114485,1,0,0:0:0:0:
320,192,114485,1,0,0:0:0:0:
192,192,114560,1,0,0:0:0:0:
64,192,114635,1,0,0:0:0:0:
320,192,114635,1,0,0:0:0:0:
448,192,114710,1,0,0:0:0:0:
64,192,114785,1,0,0:0:0:0:
320,192,114785,1,0,0:0:0:0:
192,192,114785,1,0,0:0:0:0:
448,192,114860,1,0,0:0:0:0:
64,192,114935,1,0,0:0:0:0:
192,192,115010,1,0,0:0:0:0:
448,192,115085,1,0,0:0:0:0:
64,192,115085,1,0,0:0:0:0:
320,192,115085,1,0,0:0:0:0:
192,192,115160,1,0,0:0:0:0:
448,192,115235,1,0,0:0:0:0:
320,192,115235,1,0,0:0:0:0:
64,192,115310,1,0,0:0:0:0:
448,192,115385,1,0,0:0:0:0:
192,192,115385,1,0,0:0:0:0:
320,192,115385,1,0,0:0:0:0:
64,192,115460,1,0,0:0:0:0:
320,192,115535,1,0,0:0:0:0:
192,192,115535,1,0,0:0:0:0:
448,192,115610,1,0,0:0:0:0:
192,192,115685,1,0,0:0:0:0:
320,192,115685,1,0,0:0:0:0:
64,192,115685,1,0,0:0:0:0:
448,192,115760,1,0,0:0:0:0:
192,192,115835,1,0,0:0:0:0:
64,192,115835,1,0,0:0:0:0:
320,192,115910,1,0,0:0:0:0:
448,192,115985,1,0,0:0:0:0:
192,192,115985,1,0,0:0:0:0:
64,192,116060,1,0,0:0:0:0:
320,192,116135,1,0,0:0:0:0:
448,192,116135,1,0,0:0:0:0:
64,192,116210,1,0,0:0:0:0:
192,192,116285,1,0,0:0:0:0:
448,192,116360,1,0,0:0:0:0:
192,192,116435,1,0,0:0:0:0:
320,192,116435,1,0,0:0:0:0:
64,192,116435,1,0,0:0:0:0:
448,192,116735,1,0,0:0:0:0:
320,192,117035,1,0,0:0:0:0:
192,192,117335,1,0,0:0:0:0:
64,192,117635,1,0,0:0:0:0:
320,192,117635,1,0,0:0:0:0:
448,192,117635,1,0,0:0:0:0:
192,192,117710,1,0,0:0:0:0:
320,192,117785,1,0,0:0:0:0:
64,192,117785,1,0,0:0:0:0:
448,192,117860,1,0,0:0:0:0:
192,192,117935,1,0,0:0:0:0:
64,192,118010,1,0,0:0:0:0:
192,192,118085,1,0,0:0:0:0:
320,192,118085,1,0,0:0:0:0:
448,192,118085,1,0,0:0:0:0:
64,192,118160,1,0,0:0:0:0:
448,192,118235,1,0,0:0:0:0:
320,192,118310,1,0,0:0:0:0:
64,192,118385,1,0,0:0:0:0:
448,192,118385,1,0,0:0:0:0:
192,192,118385,1,0,0:0:0:0:
320,192,118460,1,0,0:0:0:0:
192,192,118535,1,0,0:0:0:0:
64,192,118610,1,0,0:0:0:0:
448,192,118685,1,0,0:0:0:0:
192,192,118685,1,0,0:0:0:0:
320,192,118685,1,0,0:0:0:0:
64,192,118760,1,0,0:0:0:0:
448,192,118835,1,0,0:0:0:0:
320,192,118835,1,0,0:0:0:0:
192,192,118910,1,0,0:0:0:0:
64,192,118985,1,0,0:0:0:0:
448,192,118985,1,0,0:0:0:0:
320,192,119060,1,0,0:0:0:0:
192,192,119135,1,0,0:0:0:0:
64,192,119210,1,0,0:0:0:0:
192,192,119285,1,0,0:0:0:0:
448,192,119285,1,0,0:0:0:0:
320,192,119285,1,0,0:0:0:0:
64,192,119360,1,0,0:0:0:0:
320,192,119435,1,0,0:0:0:0:
448,192,119510,1,0,0:0:0:0:
320,192,119585,1,0,0:0:0:0:
192,192,119585,1,0,0:0:0:0:
64,192,119585,1,0,0:0:0:0:
448,192,119660,1,0,0:0:0:0:
192,192,119735,1,0,0:0:0:0:
64,192,119810,1,0,0:0:0:0:
192,192,119885,1,0,0:0:0:0:
320,192,119885,1,0,0:0:0:0:
448,192,119885,1,0,0:0:0:0:
64,192,119960,1,0,0:0:0:0:
448,192,120035,1,0,0:0:0:0:
320,192,120035,1,0,0:0:0:0:
192,192,120110,1,0,0:0:0:0:
320,192,120185,1,0,0:0:0:0:
64,192,120185,1,0,0:0:0:0:
448,192,120260,1,0,0:0:0:0:
192,192,120335,1,0,0:0:0:0:
64,192,120410,1,0,0:0:0:0:
192,192,120485,1,0,0:0:0:0:
320,192,120485,1,0,0:0:0:0:
448,192,120485,1,0,0:0:0:0:
64,192,120560,1,0,0:0:0:0:
320,192,120635,1,0,0:0:0:0:
448,192,120710,1,0,0:0:0:0:
64,192,120785,1,0,0:0:0:0:
192,192,120785,1,0,0:0:0:0:
320,192,120785,1,0,0:0:0:0:
448,192,120860,1,0,0:0:0:0:
192,192,120935,1,0,0:0:0:0:
320,192,121010,1,0,0:0:0:0:
192,192,121085,1,0,0:0:0:0:
64,192,121085,1,0,0:0:0:0:
448,192,121085,1,0,0:0:0:0:
320,192,121160,1,0,0:0:0:0:
64,192,121235,1,0,0:0:0:0:
448,192,121235,1,0,0:0:0:0:
192,192,121310,1,0,0:0:0:0:
320,192,121385,1,0,0:0:0:0:
64,192,121385,1,0,0:0:0:0:
192,192,121460,1,0,0:0:0:0:
448,192,121535,1,0,0:0:0:0:
320,192,121610,1,0,0:0:0:0:
192,192,121685,1,0,0:0:0:0:
64,192,121685,1,0,0:0:0:0:
448,192,121760,1,0,0:0:0:0:
320,192,121835,1,0,0:0:0:0:
64,192,121910,1,0,0:0:0:0:
192,192,121985,1,0,0:0:0:0:
320,192,121985,1,0,0:0:0:0:
448,192,121985,1,0,0:0:0:0:
64,192,122060,1,0,0:0:0:0:
192,192,122135,1,0,0:0:0:0:
448,192,122135,1,0,0:0:0:0:
64,192,122210,1,0,0:0:0:0:
192,192,122285,1,0,0:0:0:0:
320,192,122285,1,0,0:0:0:0:
448,192,122285,1,0,0:0:0:0:
64,192,122360,1,0,0:0:0:0:
320,192,122435,1,0,0:0:0:0:
192,192,122435,1,0,0:0:0:0:
448,192,122510,1,0,0:0:0:0:
64,192,122585,1,0,0:0:0:0:
320,192,122585,1,0,0:0:0:0:
192,192,122660,1,0,0:0:0:0:
448,192,122735,1,0,0:0:0:0:
320,192,122810,1,0,0:0:0:0:
448,192,122885,1,0,0:0:0:0:
64,192,122885,1,0,0:0:0:0:
192,192,122885,1,0,0:0:0:0:
320,192,122960,1,0,0:0:0:0:
64,192,123035,1,0,0:0:0:0:
448,192,123110,1,0,0:0:0:0:
64,192,123185,1,0,0:0:0:0:
192,192,123185,1,0,0:0:0:0:
320,192,123185,1,0,0:0:0:0:
448,192,123260,1,0,0:0:0:0:
192,192,123335,1,0,0:0:0:0:
64,192,123410,1,0,0:0:0:0:
192,192,123485,1,0,0:0:0:0:
320,192,123485,1,0,0:0:0:0:
448,192,123485,1,0,0:0:0:0:
64,192,123560,1,0,0:0:0:0:
320,192,123635,1,0,0:0:0:0:
192,192,123635,1,0,0:0:0:0:
448,192,123710,1,0,0:0:0:0:
64,192,123785,1,0,0:0:0:0:
320,192,123785,1,0,0:0:0:0:
192,192,123860,1,0,0:0:0:0:
448,192,123935,1,0,0:0:0:0:
64,192,124010,1,0,0:0:0:0:
448,192,124085,1,0,0:0:0:0:
320,192,124085,1,0,0:0:0:0:
192,192,124085,1,0,0:0:0:0:
64,192,124160,1,0,0:0:0:0:
320,192,124235,1,0,0:0:0:0:
192,192,124310,1,0,0:0:0:0:
64,192,124385,1,0,0:0:0:0:
448,192,124385,1,0,0:0:0:0:
320,192,124385,1,0,0:0:0:0:
192,192,124460,1,0,0:0:0:0:
448,192,124535,1,0,0:0:0:0:
64,192,124610,1,0,0:0:0:0:
448,192,124685,1,0,0:0:0:0:
320,192,124685,1,0,0:0:0:0:
192,192,124685,1,0,0:0:0:0:
64,192,124760,1,0,0:0:0:0:
320,192,124835,1,0,0:0:0:0:
192,192,124835,1,0,0:0:0:0:
448,192,124910,1,0,0:0:0:0:
320,192,124985,1,0,0:0:0:0:
64,192,124985,1,0,0:0:0:0:
192,192,125060,1,0,0:0:0:0:
448,192,125135,1,0,0:0:0:0:
64,192,125210,1,0,0:0:0:0:
448,192,125285,1,0,0:0:0:0:
320,192,125285,1,0,0:0:0:0:
192,192,125360,1,0,0:0:0:0:
64,192,125435,1,0,0:0:0:0:
320,192,125510,1,0,0:0:0:0:
192,192,125585,1,0,0:0:0:0:
448,192,125585,1,0,0:0:0:0:
64,192,125660,1,0,0:0:0:0:
320,192,125735,1,0,0:0:0:0:
192,192,125810,1,0,0:0:0:0:
448,192,125885,1,0,0:0:0:0:
320,192,125885,1,0,0:0:0:0:
64,192,125960,1,0,0:0:0:0:
192,192,126035,1,0,0:0:0:0:
448,192,126110,1,0,0:0:0:0:
64,192,126185,1,0,0:0:0:0:
320,192,126185,1,0,0:0:0:0:
192,192,126260,1,0,0:0:0:0:
448,192,126335,1,0,0:0:0:0:
320,192,126410,1,0,0:0:0:0:
64,192,126485,1,0,0:0:0:0:
192,192,126485,1,0,0:0:0:0:
448,192,126560,1,0,0:0:0:0:
320,192,126635,1,0,0:0:0:0:
64,192,126710,1,0,0:0:0:0:
448,192,126785,1,0,0:0:0:0:
192,192,126785,1,0,0:0:0:0:
320,192,126860,1,0,0:0:0:0:
64,192,126935,1,0,0:0:0:0:
448,192,127010,1,0,0:0:0:0:
192,192,127085,1,0,0:0:0:0:
320,192,127085,1,0,0:0:0:0:
64,192,127160,1,0,0:0:0:0:
448,192,127235,1,0,0:0:0:0:
192,192,127235,1,0,0:0:0:0:
320,192,127310,1,0,0:0:0:0:
64,192,127385,1,0,0:0:0:0:
448,192,127385,1,0,0:0:0:0:
192,192,127460,1,0,0:0:0:0:
320,192,127535,1,0,0:0:0:0:
64,192,127610,1,0,0:0:0:0:
448,192,127685,1,0,0:0:0:0:
320,192,127685,1,0,0:0:0:0:
192,192,127685,1,0,0:0:0:0:
64,192,127760,1,0,0:0:0:0:
448,192,127835,1,0,0:0:0:0:
320,192,127910,1,0,0:0:0:0:
192,192,127985,1,0,0:0:0:0:
448,192,127985,1,0,0:0:0:0:
64,192,127985,1,0,0:0:0:0:
320,192,128060,1,0,0:0:0:0:
192,192,128135,1,0,0:0:0:0:
64,192,128210,1,0,0:0:0:0:
448,192,128285,1,0,0:0:0:0:
192,192,128285,1,0,0:0:0:0:
320,192,128285,1,0,0:0:0:0:
64,192,128360,1,0,0:0:0:0:
448,192,128435,1,0,0:0:0:0:
192,192,128435,1,0,0:0:0:0:
320,192,128510,1,0,0:0:0:0:
64,192,128585,1,0,0:0:0:0:
448,192,128585,1,0,0:0:0:0:
320,192,128660,1,0,0:0:0:0:
192,192,128735,1,0,0:0:0:0:
448,192,128810,1,0,0:0:0:0:
64,192,128885,1,0,0:0:0:0:
320,192,128885,1,0,0:0:0:0:
192,192,128885,1,0,0:0:0:0:
448,192,128960,1,0,0:0:0:0:
64,192,129035,1,0,0:0:0:0:
320,192,129110,1,0,0:0:0:0:
192,192,129185,1,0,0:0:0:0:
448,192,129185,1,0,0:0:0:0:
64,192,129185,1,0,0:0:0:0:
320,192,129260,1,0,0:0:0:0:
192,192,129335,1,0,0:0:0:0:
448,192,129410,1,0,0:0:0:0:
64,192,129485,1,0,0:0:0:0:
320,192,129485,1,0,0:0:0:0:
192,192,129485,1,0,0:0:0:0:
448,192,129560,1,0,0:0:0:0:
64,192,129635,1,0,0:0:0:0:
192,192,129635,1,0,0:0:0:0:
320,192,129710,1,0,0:0:0:0:
448,192,129785,1,0,0:0:0:0:
64,192,129785,1,0,0:0:0:0:
320,192,129860,1,0,0:0:0:0:
192,192,129935,1,0,0:0:0:0:
448,192,130010,1,0,0:0:0:0:
64,192,130085,1,0,0:0:0:0:
320,192,130085,1,0,0:0:0:0:
192,192,130085,1,0,0:0:0:0:
448,192,130160,1,0,0:0:0:0:
64,192,130235,1,0,0:0:0:0:
192,192,130310,1,0,0:0:0:0:
320,192,130385,1,0,0:0:0:0:
448,192,130385,1,0,0:0:0:0:
64,192,130385,1,0,0:0:0:0:
192,192,130460,1,0,0:0:0:0:
320,192,130535,1,0,0:0:0:0:
64,192,130610,1,0,0:0:0:0:
448,192,130685,1,0,0:0:0:0:
192,192,130685,1,0,0:0:0:0:
320,192,130685,1,0,0:0:0:0:
64,192,130760,1,0,0:0:0:0:
448,192,130835,1,0,0:0:0:0:
192,192,130835,1,0,0:0:0:0:
320,192,130910,1,0,0:0:0:0:
64,192,130985,1,0,0:0:0:0:
192,192,130985,1,0,0:0:0:0:
448,192,130985,1,0,0:0:0:0:
320,192,131060,1,0,0:0:0:0:
64,192,131135,1,0,0:0:0:0:
448,192,131210,1,0,0:0:0:0:
320,192,131285,1,0,0:0:0:0:
64,192,131285,1,0,0:0:0:0:
192,192,131285,1,0,0:0:0:0:
448,192,131360,1,0,0:0:0:0:
320,192,131435,1,0,0:0:0:0:
192,192,131435,1,0,0:0:0:0:
64,192,131510,1,0,0:0:0:0:
192,192,131585,1,0,0:0:0:0:
448,192,131585,1,0,0:0:0:0:
320,192,131660,1,0,0:0:0:0:
192,192,131735,1,0,0:0:0:0:
64,192,131735,1,0,0:0:0:0:
448,192,131810,1,0,0:0:0:0:
320,192,131885,1,0,0:0:0:0:
64,192,131885,1,0,0:0:0:0:
448,192,131960,1,0,0:0:0:0:
320,192,132035,1,0,0:0:0:0:
64,192,132035,1,0,0:0:0:0:
192,192,132035,1,0,0:0:0:0:
448,192,132110,1,0,0:0:0:0:
192,192,132185,1,0,0:0:0:0:
320,192,132185,1,0,0:0:0:0:
64,192,132260,1,0,0:0:0:0:
448,192,132335,1,0,0:0:0:0:
192,192,132410,1,0,0:0:0:0:
448,192,132485,1,0,0:0:0:0:
64,192,132485,1,0,0:0:0:0:
320,192,132485,1,0,0:0:0:0:
192,192,132560,1,0,0:0:0:0:
320,192,132635,1,0,0:0:0:0:
448,192,132635,1,0,0:0:0:0:
64,192,132710,1,0,0:0:0:0:
448,192,132785,1,0,0:0:0:0:
320,192,132785,1,0,0:0:0:0:
192,192,132785,1,0,0:0:0:0:
64,192,132860,1,0,0:0:0:0:
320,192,132935,1,0,0:0:0:0:
192,192,133010,1,0,0:0:0:0:
64,192,133085,1,0,0:0:0:0:
320,192,133085,1,0,0:0:0:0:
448,192,133085,1,0,0:0:0:0:
192,192,133160,1,0,0:0:0:0:
448,192,133235,1,0,0:0:0:0:
64,192,133235,1,0,0:0:0:0:
192,192,133310,1,0,0:0:0:0:
320,192,133385,1,0,0:0:0:0:
64,192,133385,1,0,0:0:0:0:
448,192,133460,1,0,0:0:0:0:
320,192,133535,1,0,0:0:0:0:
192,192,133610,1,0,0:0:0:0:
320,192,133685,1,0,0:0:0:0:
448,192,133685,1,0,0:0:0:0:
64,192,133685,1,0,0:0:0:0:
192,192,133760,1,0,0:0:0:0:
64,192,133835,1,0,0:0:0:0:
448,192,133835,1,0,0:0:0:0:
320,192,133910,1,0,0:0:0:0:
64,192,133985,1,0,0:0:0:0:
448,192,133985,1,0,0:0:0:0:
192,192,133985,1,0,0:0:0:0:
320,192,134060,1,0,0:0:0:0:
192,192,134135,1,0,0:0:0:0:
448,192,134210,1,0,0:0:0:0:
320,192,134285,1,0,0:0:0:0:
192,192,134285,1,0,0:0:0:0:
64,192,134285,1,0,0:0:0:0:
448,192,134360,1,0,0:0:0:0:
320,192,134435,1,0,0:0:0:0:
64,192,134435,1,0,0:0:0:0:
448,192,134510,1,0,0:0:0:0:
192,192,134510,1,0,0:0:0:0:
320,192,134585,1,0,0:0:0:0:
64,192,134585,1,0,0:0:0:0:
192,192,134660,1,0,0:0:0:0:
448,192,134660,1,0,0:0:0:0:
320,192,134735,1,0,0:0:0:0:
64,192,134810,1,0,0:0:0:0:
448,192,134885,1,0,0:0:0:0:
192,192,134885,1,0,0:0:0:0:
64,192,134960,1,0,0:0:0:0:
320,192,134960,1,0,0:0:0:0:
192,192,135035,1,0,0:0:0:0:
448,192,135035,1,0,0:0:0:0:
320,192,135110,1,0,0:0:0:0:
64,192,135185,1,0,0:0:0:0:
448,192,135260,1,0,0:0:0:0:
192,192,135260,1,0,0:0:0:0:
64,192,135335,1,0,0:0:0:0:
320,192,135335,1,0,0:0:0:0:
448,192,135410,1,0,0:0:0:0:
192,192,135485,1,0,0:0:0:0:
320,192,135485,1,0,0:0:0:0:
64,192,135560,1,0,0:0:0:0:
448,192,135635,1,0,0:0:0:0:
320,192,135710,1,0,0:0:0:0:
192,192,135710,1,0,0:0:0:0:
64,192,135785,1,0,0:0:0:0:
448,192,135785,1,0,0:0:0:0:
192,192,135860,1,0,0:0:0:0:
320,192,135860,1,0,0:0:0:0:
448,192,135935,1,0,0:0:0:0:
64,192,135935,1,0,0:0:0:0:
192,192,136010,1,0,0:0:0:0:
320,192,136085,1,0,0:0:0:0:
64,192,136160,1,0,0:0:0:0:
448,192,136235,1,0,0:0:0:0:
192,192,136235,1,0,0:0:0:0:
320,192,136310,1,0,0:0:0:0:
64,192,136385,1,0,0:0:0:0:
448,192,136385,1,0,0:0:0:0:
192,192,136460,1,0,0:0:0:0:
320,192,136535,1,0,0:0:0:0:
64,192,136610,1,0,0:0:0:0:
448,192,136685,1,0,0:0:0:0:
192,192,136685,1,0,0:0:0:0:
320,192,136760,1,0,0:0:0:0:
192,192,136835,1,0,0:0:0:0:
64,192,136835,1,0,0:0:0:0:
448,192,136835,1,0,0:0:0:0:
320,192,136910,1,0,0:0:0:0:
192,192,136985,1,0,0:0:0:0:
64,192,136985,1,0,0:0:0:0:
448,192,137060,1,0,0:0:0:0:
64,192,137135,1,0,0:0:0:0:
320,192,137135,1,0,0:0:0:0:
448,192,137210,1,0,0:0:0:0:
192,192,137285,1,0,0:0:0:0:
320,192,137285,1,0,0:0:0:0:
448,192,137360,1,0,0:0:0:0:
192,192,137435,1,0,0:0:0:0:
64,192,137435,1,0,0:0:0:0:
320,192,137510,1,0,0:0:0:0:
448,192,137585,1,0,0:0:0:0:
64,192,137585,1,0,0:0:0:0:
192,192,137660,1,0,0:0:0:0:
448,192,137735,1,0,0:0:0:0:
320,192,137735,1,0,0:0:0:0:
64,192,137810,1,0,0:0:0:0:
192,192,137885,1,0,0:0:0:0:
320,192,137885,1,0,0:0:0:0:
64,192,137960,1,0,0:0:0:0:
192,192,138035,1,0,0:0:0:0:
448,192,138035,1,0,0:0:0:0:
320,192,138035,1,0,0:0:0:0:
64,192,138110,1,0,0:0:0:0:
192,192,138185,1,0,0:0:0:0:
448,192,138185,1,0,0:0:0:0:
320,192,138260,1,0,0:0:0:0:
64,192,138335,1,0,0:0:0:0:
448,192,138335,1,0,0:0:0:0:
192,192,138410,1,0,0:0:0:0:
320,192,138485,1,0,0:0:0:0:
448,192,138485,1,0,0:0:0:0:
64,192,138560,1,0,0:0:0:0:
192,192,138635,1,0,0:0:0:0:
320,192,138635,1,0,0:0:0:0:
448,192,138710,1,0,0:0:0:0:
64,192,138785,1,0,0:0:0:0:
192,192,138785,1,0,0:0:0:0:
320,192,138860,1,0,0:0:0:0:
64,192,138935,1,0,0:0:0:0:
448,192,138935,1,0,0:0:0:0:
320,192,139010,1,0,0:0:0:0:
192,192,139085,1,0,0:0:0:0:
448,192,139085,1,0,0:0:0:0:
64,192,139160,1,0,0:0:0:0:
192,192,139235,1,0,0:0:0:0:
320,192,139235,1,0,0:0:0:0:
448,192,139235,1,0,0:0:0:0:
64,192,139310,1,0,0:0:0:0:
192,192,139385,1,0,0:0:0:0:
320,192,139385,1,0,0:0:0:0:
448,192,139460,1,0,0:0:0:0:
64,192,139535,1,0,0:0:0:0:
320,192,139535,1,0,0:0:0:0:
192,192,139610,1,0,0:0:0:0:
448,192,139685,1,0,0:0:0:0:
64,192,139685,1,0,0:0:0:0:
192,192,139760,1,0,0:0:0:0:
448,192,139835,1,0,0:0:0:0:
320,192,139835,1,0,0:0:0:0:
64,192,139910,1,0,0:0:0:0:
192,192,139985,1,0,0:0:0:0:
320,192,139985,1,0,0:0:0:0:
448,192,140060,1,0,0:0:0:0:
192,192,140135,1,0,0:0:0:0:
64,192,140135,1,0,0:0:0:0:
320,192,140210,1,0,0:0:0:0:
448,192,140285,1,0,0:0:0:0:
64,192,140285,1,0,0:0:0:0:
320,192,140360,1,0,0:0:0:0:
64,192,140435,1,0,0:0:0:0:
192,192,140435,1,0,0:0:0:0:
448,192,140435,1,0,0:0:0:0:
320,192,140510,1,0,0:0:0:0:
192,192,140585,1,0,0:0:0:0:
448,192,140585,1,0,0:0:0:0:
64,192,140660,1,0,0:0:0:0:
320,192,140735,1,0,0:0:0:0:
192,192,140735,1,0,0:0:0:0:
64,192,140810,1,0,0:0:0:0:
448,192,140885,1,0,0:0:0:0:
192,192,140885,1,0,0:0:0:0:
320,192,140960,1,0,0:0:0:0:
448,192,141035,1,0,0:0:0:0:
64,192,141035,1,0,0:0:0:0:
320,192,141110,1,0,0:0:0:0:
192,192,141185,1,0,0:0:0:0:
64,192,141185,1,0,0:0:0:0:
448,192,141260,1,0,0:0:0:0:
320,192,141335,1,0,0:0:0:0:
64,192,141335,1,0,0:0:0:0:
192,192,141335,1,0,0:0:0:0:
448,192,141410,1,0,0:0:0:0:
320,192,141485,1,0,0:0:0:0:
64,192,141485,1,0,0:0:0:0:
192,192,141485,1,0,0:0:0:0:
448,192,141560,1,0,0:0:0:0:
192,192,141635,1,0,0:0:0:0:
64,192,141635,1,0,0:0:0:0:
320,192,141635,1,0,0:0:0:0:
448,192,141710,1,0,0:0:0:0:
192,192,141785,1,0,0:0:0:0:
64,192,141860,1,0,0:0:0:0:
448,192,141935,1,0,0:0:0:0:
320,192,141935,1,0,0:0:0:0:
64,192,142010,1,0,0:0:0:0:
192,192,142085,1,0,0:0:0:0:
320,192,142160,1,0,0:0:0:0:
448,192,142235,1,0,0:0:0:0:
64,192,142235,1,0,0:0:0:0:
192,192,142235,1,0,0:0:0:0:
320,192,142310,1,0,0:0:0:0:
448,192,142385,1,0,0:0:0:0:
64,192,142460,1,0,0:0:0:0:
320,192,142535,1,0,0:0:0:0:
192,192,142535,1,0,0:0:0:0:
448,192,142610,1,0,0:0:0:0:
192,192,142685,1,0,0:0:0:0:
64,192,142760,1,0,0:0:0:0:
448,192,142835,1,0,0:0:0:0:
320,192,142835,1,0,0:0:0:0:
192,192,142835,1,0,0:0:0:0:
64,192,142910,1,0,0:0:0:0:
320,192,142985,1,0,0:0:0:0:
448,192,143060,1,0,0:0:0:0:
192,192,143135,1,0,0:0:0:0:
64,192,143135,1,0,0:0:0:0:
320,192,143210,1,0,0:0:0:0:
448,192,143285,1,0,0:0:0:0:
192,192,143360,1,0,0:0:0:0:
448,192,143435,1,0,0:0:0:0:
64,192,143435,1,0,0:0:0:0:
320,192,143435,1,0,0:0:0:0:
192,192,143510,1,0,0:0:0:0:
64,192,143585,1,0,0:0:0:0:
320,192,143660,1,0,0:0:0:0:
448,192,143735,1,0,0:0:0:0:
192,192,143735,1,0,0:0:0:0:
64,192,143810,1,0,0:0:0:0:
320,192,143885,1,0,0:0:0:0:
448,192,143960,1,0,0:0:0:0:
64,192,144035,1,0,0:0:0:0:
192,192,144035,1,0,0:0:0:0:
320,192,144110,1,0,0:0:0:0:
448,192,144110,1,0,0:0:0:0:
64,192,144185,1,0,0:0:0:0:
192,192,144185,1,0,0:0:0:0:
320,192,144260,1,0,0:0:0:0:
448,192,144260,1,0,0:0:0:0:
192,192,144335,1,0,0:0:0:0:
64,192,144335,1,0,0:0:0:0:
448,192,144410,1,0,0:0:0:0:
320,192,144485,1,0,0:0:0:0:
192,192,144485,1,0,0:0:0:0:
64,192,144560,1,0,0:0:0:0:
448,192,144560,1,0,0:0:0:0:
192,192,144635,1,0,0:0:0:0:
320,192,144635,1,0,0:0:0:0:
64,192,144710,1,0,0:0:0:0:
192,192,144785,1,0,0:0:0:0:
448,192,144785,1,0,0:0:0:0:
320,192,144860,1,0,0:0:0:0:
64,192,144860,1,0,0:0:0:0:
448,192,144935,1,0,0:0:0:0:
192,192,144935,1,0,0:0:0:0:
320,192,145010,1,0,0:0:0:0:
64,192,145085,1,0,0:0:0:0:
448,192,145085,1,0,0:0:0:0:
320,192,145160,1,0,0:0:0:0:
192,192,145160,1,0,0:0:0:0:
64,192,145235,1,0,0:0:0:0:
448,192,145235,1,0,0:0:0:0:
320,192,145310,1,0,0:0:0:0:
192,192,145310,1,0,0:0:0:0:
64,192,145385,1,0,0:0:0:0:
448,192,145385,1,0,0:0:0:0:
192,192,145460,1,0,0:0:0:0:
320,192,145460,1,0,0:0:0:0:
448,192,145535,1,0,0:0:0:0:
64,192,145535,1,0,0:0:0:0:
192,192,145610,1,0,0:0:0:0:
320,192,145685,1,0,0:0:0:0:
64,192,145685,1,0,0:0:0:0:
192,192,145760,1,0,0:0:0:0:
448,192,145760,1,0,0:0:0:0:
320,192,145835,1,0,0:0:0:0:
64,192,145835,1,0,0:0:0:0:
448,192,145910,1,0,0:0:0:0:
192,192,145985,1,0,0:0:0:0:
64,192,145985,1,0,0:0:0:0:
320,192,146060,1,0,0:0:0:0:
448,192,146060,1,0,0:0:0:0:
64,192,146135,1,0,0:0:0:0:
192,192,146135,1,0,0:0:0:0:
320,192,146210,1,0,0:0:0:0:
192,192,146285,1,0,0:0:0:0:
448,192,146285,1,0,0:0:0:0:
64,192,146360,1,0,0:0:0:0:
320,192,146360,1,0,0:0:0:0:
192,192,146435,1,0,0:0:0:0:
448,192,146435,1,0,0:0:0:0:
64,192,146510,1,0,0:0:0:0:
320,192,146585,1,0,0:0:0:0:
448,192,146585,1,0,0:0:0:0:
192,192,146585,1,0,0:0:0:0:
64,192,146660,1,0,0:0:0:0:
448,192,146735,1,0,0:0:0:0:
320,192,146810,1,0,0:0:0:0:
192,192,146885,1,0,0:0:0:0:
448,192,146885,1,0,0:0:0:0:
64,192,146885,1,0,0:0:0:0:
320,192,146960,1,0,0:0:0:0:
192,192,147035,1,0,0:0:0:0:
64,192,147035,1,0,0:0:0:0:
320,192,147110,1,0,0:0:0:0:
448,192,147185,1,0,0:0:0:0:
64,192,147185,1,0,0:0:0:0:
192,192,147185,1,0,0:0:0:0:
320,192,147260,1,0,0:0:0:0:
448,192,147335,1,0,0:0:0:0:
192,192,147335,1,0,0:0:0:0:
64,192,147410,1,0,0:0:0:0:
320,192,147485,1,0,0:0:0:0:
192,192,147485,1,0,0:0:0:0:
448,192,147485,1,0,0:0:0:0:
64,192,147560,1,0,0:0:0:0:
448,192,147635,1,0,0:0:0:0:
192,192,147635,1,0,0:0:0:0:
320,192,147710,1,0,0:0:0:0:
192,192,147785,1,0,0:0:0:0:
64,192,147785,1,0,0:0:0:0:
448,192,147785,1,0,0:0:0:0:
320,192,147860,1,0,0:0:0:0:
64,192,147935,1,0,0:0:0:0:
320,192,148010,1,0,0:0:0:0:
64,192,148085,1,0,0:0:0:0:
192,192,148085,1,0,0:0:0:0:
448,192,148085,1,0,0:0:0:0:
320,192,148160,1,0,0:0:0:0:
448,192,148235,1,0,0:0:0:0:
192,192,148235,1,0,0:0:0:0:
64,192,148310,1,0,0:0:0:0:
448,192,148385,1,0,0:0:0:0:
320,192,148385,1,0,0:0:0:0:
192,192,148385,1,0,0:0:0:0:
64,192,148460,1,0,0:0:0:0:
448,192,148535,1,0,0:0:0:0:
192,192,148535,1,0,0:0:0:0:
320,192,148610,1,0,0:0:0:0:
448,192,148685,1,0,0:0:0:0:
192,192,148685,1,0,0:0:0:0:
64,192,148685,1,0,0:0:0:0:
320,192,148760,1,0,0:0:0:0:
64,192,148835,1,0,0:0:0:0:
192,192,148835,1,0,0:0:0:0:
448,192,148910,1,0,0:0:0:0:
192,192,148985,1,0,0:0:0:0:
64,192,148985,1,0,0:0:0:0:
320,192,148985,1,0,0:0:0:0:
448,192,149060,1,0,0:0:0:0:
320,192,149135,1,0,0:0:0:0:
64,192,149210,1,0,0:0:0:0:
448,192,149285,1,0,0:0:0:0:
320,192,149285,1,0,0:0:0:0:
192,192,149285,1,0,0:0:0:0:
64,192,149360,1,0,0:0:0:0:
192,192,149435,1,0,0:0:0:0:
448,192,149435,1,0,0:0:0:0:
320,192,149510,1,0,0:0:0:0:
192,192,149585,1,0,0:0:0:0:
448,192,149585,1,0,0:0:0:0:
64,192,149585,1,0,0:0:0:0:
320,192,149660,1,0,0:0:0:0:
192,192,149735,1,0,0:0:0:0:
448,192,149735,1,0,0:0:0:0:
64,192,149810,1,0,0:0:0:0:
320,192,149885,1,0,0:0:0:0:
448,192,149885,1,0,0:0:0:0:
192,192,149885,1,0,0:0:0:0:
64,192,149960,1,0,0:0:0:0:
320,192,150035,1,0,0:0:0:0:
448,192,150035,1,0,0:0:0:0:
64,192,150110,1,0,0:0:0:0:
320,192,150185,1,0,0:0:0:0:
448,192,150185,1,0,0:0:0:0:
192,192,150185,1,0,0:0:0:0:
64,192,150260,1,0,0:0:0:0:
192,192,150335,1,0,0:0:0:0:
448,192,150410,1,0,0:0:0:0:
64,192,150485,1,0,0:0:0:0:
192,192,150485,1,0,0:0:0:0:
320,192,150485,1,0,0:0:0:0:
448,192,150560,1,0,0:0:0:0:
192,192,150635,1,0,0:0:0:0:
320,192,150635,1,0,0:0:0:0:
64,192,150710,1,0,0:0:0:0:
192,192,150785,1,0,0:0:0:0:
448,192,150785,1,0,0:0:0:0:
320,192,150785,1,0,0:0:0:0:
64,192,150860,1,0,0:0:0:0:
448,192,150935,1,0,0:0:0:0:
320,192,150935,1,0,0:0:0:0:
192,192,151010,1,0,0:0:0:0:
448,192,151085,1,0,0:0:0:0:
320,192,151085,1,0,0:0:0:0:
64,192,151085,1,0,0:0:0:0:
192,192,151160,1,0,0:0:0:0:
448,192,151235,1,0,0:0:0:0:
64,192,151235,1,0,0:0:0:0:
320,192,151310,1,0,0:0:0:0:
448,192,151385,1,0,0:0:0:0:
64,192,151385,1,0,0:0:0:0:
192,192,151385,1,0,0:0:0:0:
320,192,151460,1,0,0:0:0:0:
192,192,151535,1,0,0:0:0:0:
64,192,151535,1,0,0:0:0:0:
448,192,151610,1,0,0:0:0:0:
64,192,151685,1,0,0:0:0:0:
192,192,151685,1,0,0:0:0:0:
320,192,151685,1,0,0:0:0:0:
448,192,151760,1,0,0:0:0:0:
320,192,151835,1,0,0:0:0:0:
192,192,151835,1,0,0:0:0:0:
64,192,151910,1,0,0:0:0:0:
320,192,151985,1,0,0:0:0:0:
192,192,151985,1,0,0:0:0:0:
448,192,151985,1,0,0:0:0:0:
64,192,152060,1,0,0:0:0:0:
320,192,152135,1,0,0:0:0:0:
448,192,152135,1,0,0:0:0:0:
192,192,152210,1,0,0:0:0:0:
448,192,152285,1,0,0:0:0:0:
320,192,152285,1,0,0:0:0:0:
64,192,152285,1,0,0:0:0:0:
192,192,152360,1,0,0:0:0:0:
448,192,152435,1,0,0:0:0:0:
64,192,152435,1,0,0:0:0:0:
192,192,152510,1,0,0:0:0:0:
64,192,152585,1,0,0:0:0:0:
448,192,152585,1,0,0:0:0:0:
320,192,152585,1,0,0:0:0:0:
192,192,152660,1,0,0:0:0:0:
64,192,152735,1,0,0:0:0:0:
320,192,152735,1,0,0:0:0:0:
448,192,152810,1,0,0:0:0:0:
64,192,152885,1,0,0:0:0:0:
192,192,152885,1,0,0:0:0:0:
320,192,152885,1,0,0:0:0:0:
448,192,152960,1,0,0:0:0:0:
192,192,153035,1,0,0:0:0:0:
320,192,153035,1,0,0:0:0:0:
64,192,153110,1,0,0:0:0:0:
320,192,153185,1,0,0:0:0:0:
192,192,153185,1,0,0:0:0:0:
448,192,153185,1,0,0:0:0:0:
64,192,153260,1,0,0:0:0:0:
448,192,153335,1,0,0:0:0:0:
320,192,153335,1,0,0:0:0:0:
192,192,153410,1,0,0:0:0:0:
448,192,153485,1,0,0:0:0:0:
320,192,153485,1,0,0:0:0:0:
64,192,153485,1,0,0:0:0:0:
192,192,153560,1,0,0:0:0:0:
64,192,153635,1,0,0:0:0:0:
448,192,153635,1,0,0:0:0:0:
320,192,153710,1,0,0:0:0:0:
64,192,153785,1,0,0:0:0:0:
448,192,153785,1,0,0:0:0:0:
192,192,153785,1,0,0:0:0:0:
320,192,153860,1,0,0:0:0:0:
192,192,153935,1,0,0:0:0:0:
64,192,153935,1,0,0:0:0:0:
320,192,154010,1,0,0:0:0:0:
64,192,154085,1,0,0:0:0:0:
192,192,154085,1,0,0:0:0:0:
448,192,154085,1,0,0:0:0:0:
320,192,154160,1,0,0:0:0:0:
448,192,154235,1,0,0:0:0:0:
64,192,154235,1,0,0:0:0:0:
192,192,154310,1,0,0:0:0:0:
320,192,154385,1,0,0:0:0:0:
64,192,154385,1,0,0:0:0:0:
448,192,154385,1,0,0:0:0:0:
192,192,154460,1,0,0:0:0:0:
320,192,154535,1,0,0:0:0:0:
448,192,154535,1,0,0:0:0:0:
64,192,154610,1,0,0:0:0:0:
320,192,154685,1,0,0:0:0:0:
192,192,154685,1,0,0:0:0:0:
448,192,154685,1,0,0:0:0:0:
64,192,154760,1,0,0:0:0:0:
192,192,154835,1,0,0:0:0:0:
448,192,154835,1,0,0:0:0:0:
320,192,154910,1,0,0:0:0:0:
448,192,154985,1,0,0:0:0:0:
64,192,154985,1,0,0:0:0:0:
192,192,154985,1,0,0:0:0:0:
320,192,155060,1,0,0:0:0:0:
64,192,155135,1,0,0:0:0:0:
192,192,155135,1,0,0:0:0:0:
448,192,155210,1,0,0:0:0:0:
192,192,155285,1,0,0:0:0:0:
320,192,155285,1,0,0:0:0:0:
64,192,155285,1,0,0:0:0:0:
448,192,155360,1,0,0:0:0:0:
320,192,155435,1,0,0:0:0:0:
192,192,155435,1,0,0:0:0:0:
64,192,155510,1,0,0:0:0:0:
448,192,155585,1,0,0:0:0:0:
192,192,155585,1,0,0:0:0:0:
320,192,155585,1,0,0:0:0:0:
64,192,155660,1,0,0:0:0:0:
448,192,155735,1,0,0:0:0:0:
320,192,155735,1,0,0:0:0:0:
192,192,155810,1,0,0:0:0:0:
320,192,155885,1,0,0:0:0:0:
448,192,155885,1,0,0:0:0:0:
64,192,155885,1,0,0:0:0:0:
192,192,155960,1,0,0:0:0:0:
64,192,156035,1,0,0:0:0:0:
448,192,156035,1,0,0:0:0:0:
320,192,156110,1,0,0:0:0:0:
448,192,156185,1,0,0:0:0:0:
192,192,156185,1,0,0:0:0:0:
64,192,156185,1,0,0:0:0:0:
320,192,156260,1,0,0:0:0:0:
192,192,156335,1,0,0:0:0:0:
64,192,156410,1,0,0:0:0:0:
192,192,156485,1,0,0:0:0:0:
448,192,156485,1,0,0:0:0:0:
320,192,156485,1,0,0:0:0:0:
64,192,156560,1,0,0:0:0:0:
448,192,156635,1,0,0:0:0:0:
320,192,156635,1,0,0:0:0:0:
192,192,156710,1,0,0:0:0:0:
320,192,156785,1,0,0:0:0:0:
448,192,156785,1,0,0:0:0:0:
64,192,156785,1,0,0:0:0:0:
192,192,156860,1,0,0:0:0:0:
64,192,156935,1,0,0:0:0:0:
448,192,156935,1,0,0:0:0:0:
320,192,157010,1,0,0:0:0:0:
64,192,157085,1,0,0:0:0:0:
448,192,157085,1,0,0:0:0:0:
192,192,157085,1,0,0:0:0:0:
320,192,157160,1,0,0:0:0:0:
192,192,157235,1,0,0:0:0:0:
448,192,157235,1,0,0:0:0:0:
64,192,157310,1,0,0:0:0:0:
192,192,157385,1,0,0:0:0:0:
448,192,157385,1,0,0:0:0:0:
320,192,157385,1,0,0:0:0:0:
64,192,157460,1,0,0:0:0:0:
192,192,157535,1,0,0:0:0:0:
320,192,157610,1,0,0:0:0:0:
64,192,157685,1,0,0:0:0:0:
192,192,157685,1,0,0:0:0:0:
448,192,157685,1,0,0:0:0:0:
320,192,157760,1,0,0:0:0:0:
448,192,157835,1,0,0:0:0:0:
64,192,157835,1,0,0:0:0:0:
320,192,157910,1,0,0:0:0:0:
448,192,157985,1,0,0:0:0:0:
64,192,157985,1,0,0:0:0:0:
192,192,157985,1,0,0:0:0:0:
320,192,158060,1,0,0:0:0:0:
192,192,158135,1,0,0:0:0:0:
448,192,158135,1,0,0:0:0:0:
64,192,158210,1,0,0:0:0:0:
192,192,158285,1,0,0:0:0:0:
448,192,158285,1,0,0:0:0:0:
320,192,158285,1,0,0:0:0:0:
64,192,158360,1,0,0:0:0:0:
192,192,158435,1,0,0:0:0:0:
448,192,158435,1,0,0:0:0:0:
320,192,158510,1,0,0:0:0:0:
192,192,158585,1,0,0:0:0:0:
448,192,158585,1,0,0:0:0:0:
64,192,158585,1,0,0:0:0:0:
320,192,158660,1,0,0:0:0:0:
64,192,158735,1,0,0:0:0:0:
320,192,158810,1,0,0:0:0:0:
448,192,158885,1,0,0:0:0:0:
64,192,158885,1,0,0:0:0:0:
192,192,158885,1,0,0:0:0:0:
320,192,158960,1,0,0:0:0:0:
448,192,159035,1,0,0:0:0:0:
192,192,159035,1,0,0:0:0:0:
64,192,159110,1,0,0:0:0:0:
448,192,159185,1,0,0:0:0:0:
192,192,159185,1,0,0:0:0:0:
320,192,159185,1,0,0:0:0:0:
64,192,159260,1,0,0:0:0:0:
448,192,159335,1,0,0:0:0:0:
320,192,159335,1,0,0:0:0:0:
192,192,159410,1,0,0:0:0:0:
320,192,159485,1,0,0:0:0:0:
448,192,159485,1,0,0:0:0:0:
64,192,159485,1,0,0:0:0:0:
192,192,159560,1,0,0:0:0:0:
320,192,159635,1,0,0:0:0:0:
64,192,159635,1,0,0:0:0:0:
192,192,159710,1,0,0:0:0:0:
320,192,159785,1,0,0:0:0:0:
64,192,159785,1,0,0:0:0:0:
448,192,159785,1,0,0:0:0:0:
192,192,159860,1,0,0:0:0:0:
448,192,159935,1,0,0:0:0:0:
64,192,160010,1,0,0:0:0:0:
192,192,160085,1,0,0:0:0:0:
448,192,160085,1,0,0:0:0:0:
320,192,160085,1,0,0:0:0:0:
64,192,160160,1,0,0:0:0:0:
192,192,160235,1,0,0:0:0:0:
320,192,160235,1,0,0:0:0:0:
448,192,160310,1,0,0:0:0:0:
320,192,160385,1,0,0:0:0:0:
192,192,160385,1,0,0:0:0:0:
64,192,160385,1,0,0:0:0:0:
448,192,160460,1,0,0:0:0:0:
320,192,160535,1,0,0:0:0:0:
64,192,160535,1,0,0:0:0:0:
192,192,160610,1,0,0:0:0:0:
64,192,160685,1,0,0:0:0:0:
320,192,160685,1,0,0:0:0:0:
448,192,160685,1,0,0:0:0:0:
192,192,160760,1,0,0:0:0:0:
448,192,160835,1,0,0:0:0:0:
320,192,160835,1,0,0:0:0:0:
64,192,160910,1,0,0:0:0:0:
448,192,160985,1,0,0:0:0:0:
320,192,160985,1,0,0:0:0:0:
192,192,160985,1,0,0:0:0:0:
64,192,161060,1,0,0:0:0:0:
192,192,161135,1,0,0:0:0:0:
448,192,161135,1,0,0:0:0:0:
64,192,161210,1,0,0:0:0:0:
448,192,161285,1,0,0:0:0:0:
320,192,161285,1,0,0:0:0:0:
192,192,161285,1,0,0:0:0:0:
64,192,161360,1,0,0:0:0:0:
320,192,161435,1,0,0:0:0:0:
448,192,161435,1,0,0:0:0:0:
192,192,161510,1,0,0:0:0:0:
448,192,161585,1,0,0:0:0:0:
320,192,161585,1,0,0:0:0:0:
64,192,161585,1,0,0:0:0:0:
192,192,161660,1,0,0:0:0:0:
320,192,161735,1,0,0:0:0:0:
64,192,161735,1,0,0:0:0:0:
448,192,161810,1,0,0:0:0:0:
320,192,161885,1,0,0:0:0:0:
64,192,161885,1,0,0:0:0:0:
192,192,161885,1,0,0:0:0:0:
448,192,161960,1,0,0:0:0:0:
192,192,162035,1,0,0:0:0:0:
64,192,162035,1,0,0:0:0:0:
320,192,162110,1,0,0:0:0:0:
192,192,162185,1,0,0:0:0:0:
64,192,162185,1,0,0:0:0:0:
448,192,162185,1,0,0:0:0:0:
320,192,162260,1,0,0:0:0:0:
448,192,162335,1,0,0:0:0:0:
64,192,162335,1,0,0:0:0:0:
192,192,162410,1,0,0:0:0:0:
320,192,162485,1,0,0:0:0:0:
64,192,162485,1,0,0:0:0:0:
448,192,162485,1,0,0:0:0:0:
192,192,162560,1,0,0:0:0:0:
320,192,162635,1,0,0:0:0:0:
448,192,162635,1,0,0:0:0:0:
192,192,162710,1,0,0:0:0:0:
320,192,162785,1,0,0:0:0:0:
448,192,162785,1,0,0:0:0:0:
64,192,162785,1,0,0:0:0:0:
192,192,162860,1,0,0:0:0:0:
448,192,162935,1,0,0:0:0:0:
64,192,162935,1,0,0:0:0:0:
320,192,163010,1,0,0:0:0:0:
448,192,163085,1,0,0:0:0:0:
192,192,163085,1,0,0:0:0:0:
64,192,163085,1,0,0:0:0:0:
320,192,163160,1,0,0:0:0:0:
64,192,163235,1,0,0:0:0:0:
192,192,163235,1,0,0:0:0:0:
448,192,163235,1,0,0:0:0:0:
320,192,163310,1,0,0:0:0:0:
192,192,163385,1,0,0:0:0:0:
64,192,163385,1,0,0:0:0:0:
320,192,163460,1,0,0:0:0:0:
448,192,163460,1,0,0:0:0:0:
64,192,163535,1,0,0:0:0:0:
192,192,163535,1,0,0:0:0:0:
320,192,163610,1,0,0:0:0:0:
448,192,163610,1,0,0:0:0:0:
192,192,163685,1,0,0:0:0:0:
64,192,163685,1,0,0:0:0:0:
320,192,163760,1,0,0:0:0:0:
448,192,163760,1,0,0:0:0:0:
64,192,163835,1,0,0:0:0:0:
192,192,163835,1,0,0:0:0:0:
320,192,163910,1,0,0:0:0:0:
448,192,163910,1,0,0:0:0:0:
192,192,163985,1,0,0:0:0:0:
64,192,163985,1,0,0:0:0:0:
448,192,164060,1,0,0:0:0:0:
320,192,164060,1,0,0:0:0:0:
64,192,164135,1,0,0:0:0:0:
192,192,164135,1,0,0:0:0:0:
448,192,164210,1,0,0:0:0:0:
320,192,164210,1,0,0:0:0:0:
64,192,164285,1,0,0:0:0:0:
192,192,164285,1,0,0:0:0:0:
448,192,164360,1,0,0:0:0:0:
192,192,164435,1,0,0:0:0:0:
64,192,164435,1,0,0:0:0:0:
320,192,164435,1,0,0:0:0:0:
448,192,164510,1,0,0:0:0:0:
64,192,164585,1,0,0:0:0:0:
320,192,164585,1,0,0:0:0:0:
192,192,164660,1,0,0:0:0:0:
448,192,164660,1,0,0:0:0:0:
320,192,164735,1,0,0:0:0:0:
64,192,164735,1,0,0:0:0:0:
192,192,164810,1,0,0:0:0:0:
320,192,164885,1,0,0:0:0:0:
448,192,164885,1,0,0:0:0:0:
64,192,164885,1,0,0:0:0:0:
192,192,164960,1,0,0:0:0:0:
448,192,165035,1,0,0:0:0:0:
64,192,165035,1,0,0:0:0:0:
192,192,165110,1,0,0:0:0:0:
320,192,165110,1,0,0:0:0:0:
448,192,165185,1,0,0:0:0:0:
64,192,165185,1,0,0:0:0:0:
320,192,165260,1,0,0:0:0:0:
64,192,165335,1,0,0:0:0:0:
448,192,165335,1,0,0:0:0:0:
192,192,165335,1,0,0:0:0:0:
320,192,165410,1,0,0:0:0:0:
192,192,165485,1,0,0:0:0:0:
64,192,165485,1,0,0:0:0:0:
448,192,165560,1,0,0:0:0:0:
64,192,165635,1,0,0:0:0:0:
320,192,165635,1,0,0:0:0:0:
192,192,165635,1,0,0:0:0:0:
448,192,165710,1,0,0:0:0:0:
192,192,165785,1,0,0:0:0:0:
320,192,165785,1,0,0:0:0:0:
64,192,165860,1,0,0:0:0:0:
448,192,165860,1,0,0:0:0:0:
192,192,165935,1,0,0:0:0:0:
320,192,165935,1,0,0:0:0:0:
448,192,166010,1,0,0:0:0:0:
64,192,166010,1,0,0:0:0:0:
320,192,166085,1,0,0:0:0:0:
192,192,166085,1,0,0:0:0:0:
448,192,166160,1,0,0:0:0:0:
64,192,166235,1,0,0:0:0:0:
192,192,166235,1,0,0:0:0:0:
448,192,166310,1,0,0:0:0:0:
320,192,166310,1,0,0:0:0:0:
64,192,166385,1,0,0:0:0:0:
192,192,166385,1,0,0:0:0:0:
448,192,166460,1,0,0:0:0:0:
320,192,166460,1,0,0:0:0:0:
192,192,166535,1,0,0:0:0:0:
64,192,166535,1,0,0:0:0:0:
320,192,166610,1,0,0:0:0:0:
64,192,166685,1,0,0:0:0:0:
448,192,166685,1,0,0:0:0:0:
192,192,166760,1,0,0:0:0:0:
320,192,166760,1,0,0:0:0:0:
448,192,166835,1,0,0:0:0:0:
64,192,166835,1,0,0:0:0:0:
320,192,166910,1,0,0:0:0:0:
192,192,166910,1,0,0:0:0:0:
64,192,166985,1,0,0:0:0:0:
448,192,166985,1,0,0:0:0:0:
320,192,167060,1,0,0:0:0:0:
192,192,167135,1,0,0:0:0:0:
64,192,167135,1,0,0:0:0:0:
448,192,167210,1,0,0:0:0:0:
320,192,167210,1,0,0:0:0:0:
64,192,167285,1,0,0:0:0:0:
192,192,167285,1,0,0:0:0:0:
448,192,167360,1,0,0:0:0:0:
320,192,167360,1,0,0:0:0:0:
192,192,167435,1,0,0:0:0:0:
64,192,167435,1,0,0:0:0:0:
448,192,167510,1,0,0:0:0:0:
192,192,167585,1,0,0:0:0:0:
320,192,167585,1,0,0:0:0:0:
448,192,167660,1,0,0:0:0:0:
64,192,167660,1,0,0:0:0:0:
320,192,167735,1,0,0:0:0:0:
192,192,167735,1,0,0:0:0:0:
64,192,167810,1,0,0:0:0:0:
448,192,167810,1,0,0:0:0:0:
320,192,167885,1,0,0:0:0:0:
192,192,167885,1,0,0:0:0:0:
64,192,167960,1,0,0:0:0:0:
320,192,168035,1,0,0:0:0:0:
192,192,168035,1,0,0:0:0:0:
448,192,168035,1,0,0:0:0:0:
64,192,168110,1,0,0:0:0:0:
448,192,168185,1,0,0:0:0:0:
320,192,168260,1,0,0:0:0:0:
192,192,168335,1,0,0:0:0:0:
64,192,168335,1,0,0:0:0:0:
448,192,168410,1,0,0:0:0:0:
192,192,168485,1,0,0:0:0:0:
320,192,168560,1,0,0:0:0:0:
64,192,168635,1,0,0:0:0:0:
192,192,168635,1,0,0:0:0:0:
448,192,168710,1,0,0:0:0:0:
320,192,168785,1,0,0:0:0:0:
64,192,168860,1,0,0:0:0:0:
448,192,168935,1,0,0:0:0:0:
192,192,168935,1,0,0:0:0:0:
320,192,169010,1,0,0:0:0:0:
192,192,169085,1,0,0:0:0:0:
64,192,169085,1,0,0:0:0:0:
448,192,169160,1,0,0:0:0:0:
64,192,169235,1,0,0:0:0:0:
192,192,169235,1,0,0:0:0:0:
320,192,169235,1,0,0:0:0:0:
448,192,169310,1,0,0:0:0:0:
320,192,169385,1,0,0:0:0:0:
192,192,169460,1,0,0:0:0:0:
64,192,169535,1,0,0:0:0:0:
448,192,169535,1,0,0:0:0:0:
320,192,169610,1,0,0:0:0:0:
64,192,169685,1,0,0:0:0:0:
192,192,169760,1,0,0:0:0:0:
448,192,169835,1,0,0:0:0:0:
320,192,169835,1,0,0:0:0:0:
64,192,169910,1,0,0:0:0:0:
192,192,169985,1,0,0:0:0:0:
448,192,170060,1,0,0:0:0:0:
320,192,170135,1,0,0:0:0:0:
192,192,170210,1,0,0:0:0:0:
64,192,170285,1,0,0:0:0:0:
448,192,170360,1,0,0:0:0:0:
64,192,170435,1,0,0:0:0:0:
192,192,170435,1,0,0:0:0:0:
320,192,170435,1,0,0:0:0:0:
448,192,170510,1,0,0:0:0:0:
320,192,170585,1,0,0:0:0:0:
192,192,170660,1,0,0:0:0:0:
320,192,170735,1,0,0:0:0:0:
448,192,170735,1,0,0:0:0:0:
64,192,170735,1,0,0:0:0:0:
192,192,170810,1,0,0:0:0:0:
64,192,170885,1,0,0:0:0:0:
448,192,170885,1,0,0:0:0:0:
320,192,170960,1,0,0:0:0:0:
448,192,171035,1,0,0:0:0:0:
64,192,171035,1,0,0:0:0:0:
192,192,171035,1,0,0:0:0:0:
320,192,171110,1,0,0:0:0:0:
192,192,171185,1,0,0:0:0:0:
64,192,171185,1,0,0:0:0:0:
448,192,171260,1,0,0:0:0:0:
320,192,171260,1,0,0:0:0:0:
192,192,171335,1,0,0:0:0:0:
64,192,171335,1,0,0:0:0:0:
320,192,171410,1,0,0:0:0:0:
448,192,171410,1,0,0:0:0:0:
192,192,171485,1,0,0:0:0:0:
64,192,171485,1,0,0:0:0:0:
448,192,171560,1,0,0:0:0:0:
192,192,171635,1,0,0:0:0:0:
320,192,171635,1,0,0:0:0:0:
64,192,171710,1,0,0:0:0:0:
448,192,171710,1,0,0:0:0:0:
320,192,171785,1,0,0:0:0:0:
192,192,171785,1,0,0:0:0:0:
448,192,171860,1,0,0:0:0:0:
64,192,171860,1,0,0:0:0:0:
320,192,171935,1,0,0:0:0:0:
192,192,171935,1,0,0:0:0:0:
448,192,172010,1,0,0:0:0:0:
64,192,172085,1,0,0:0:0:0:
192,192,172085,1,0,0:0:0:0:
320,192,172160,1,0,0:0:0:0:
448,192,172160,1,0,0:0:0:0:
192,192,172235,1,0,0:0:0:0:
64,192,172235,1,0,0:0:0:0:
320,192,172310,1,0,0:0:0:0:
448,192,172310,1,0,0:0:0:0:
64,192,172385,1,0,0:0:0:0:
192,192,172385,1,0,0:0:0:0:
320,192,172460,1,0,0:0:0:0:
64,192,172535,1,0,0:0:0:0:
448,192,172535,1,0,0:0:0:0:
192,192,172610,1,0,0:0:0:0:
320,192,172610,1,0,0:0:0:0:
64,192,172685,1,0,0:0:0:0:
448,192,172685,1,0,0:0:0:0:
320,192,172760,1,0,0:0:0:0:
192,192,172760,1,0,0:0:0:0:
448,192,172835,1,0,0:0:0:0:
64,192,172835,1,0,0:0:0:0:
320,192,172910,1,0,0:0:0:0:
192,192,172985,1,0,0:0:0:0:
448,192,173060,1,0,0:0:0:0:
64,192,173135,1,0,0:0:0:0:
320,192,173135,1,0,0:0:0:0:
192,192,173210,1,0,0:0:0:0:
448,192,173285,1,0,0:0:0:0:
64,192,173360,1,0,0:0:0:0:
320,192,173435,1,0,0:0:0:0:
448,192,173435,1,0,0:0:0:0:
192,192,173435,1,0,0:0:0:0:
64,192,173510,1,0,0:0:0:0:
320,192,173585,1,0,0:0:0:0:
192,192,173585,1,0,0:0:0:0:
64,192,173660,1,0,0:0:0:0:
320,192,173735,1,0,0:0:0:0:
192,192,173735,1,0,0:0:0:0:
448,192,173735,1,0,0:0:0:0:
64,192,173810,1,0,0:0:0:0:
192,192,173885,1,0,0:0:0:0:
448,192,173885,1,0,0:0:0:0:
320,192,173960,1,0,0:0:0:0:
448,192,174035,1,0,0:0:0:0:
64,192,174035,1,0,0:0:0:0:
192,192,174110,1,0,0:0:0:0:
448,192,174185,1,0,0:0:0:0:
320,192,174185,1,0,0:0:0:0:
64,192,174260,1,0,0:0:0:0:
320,192,174335,1,0,0:0:0:0:
192,192,174335,1,0,0:0:0:0:
448,192,174410,1,0,0:0:0:0:
64,192,174485,1,0,0:0:0:0:
320,192,174485,1,0,0:0:0:0:
192,192,174560,1,0,0:0:0:0:
448,192,174635,1,0,0:0:0:0:
64,192,174635,1,0,0:0:0:0:
320,192,174710,1,0,0:0:0:0:
448,192,174785,1,0,0:0:0:0:
192,192,174785,1,0,0:0:0:0:
64,192,174860,1,0,0:0:0:0:
448,192,174935,1,0,0:0:0:0:
192,192,174935,1,0,0:0:0:0:
320,192,174935,1,0,0:0:0:0:
64,192,175010,1,0,0:0:0:0:
320,192,175085,1,0,0:0:0:0:
192,192,175085,1,0,0:0:0:0:
448,192,175160,1,0,0:0:0:0:
192,192,175235,1,0,0:0:0:0:
64,192,175235,1,0,0:0:0:0:
320,192,175310,1,0,0:0:0:0:
448,192,175310,1,0,0:0:0:0:
64,192,175385,1,0,0:0:0:0:
192,192,175385,1,0,0:0:0:0:
320,192,175460,1,0,0:0:0:0:
448,192,175535,1,0,0:0:0:0:
192,192,175535,1,0,0:0:0:0:
320,192,175610,1,0,0:0:0:0:
64,192,175610,1,0,0:0:0:0:
448,192,175685,1,0,0:0:0:0:
192,192,175685,1,0,0:0:0:0:
320,192,175760,1,0,0:0:0:0:
448,192,175835,1,0,0:0:0:0:
64,192,175835,1,0,0:0:0:0:
192,192,175910,1,0,0:0:0:0:
320,192,175910,1,0,0:0:0:0:
64,192,175985,1,0,0:0:0:0:
448,192,175985,1,0,0:0:0:0:
320,192,176060,1,0,0:0:0:0:
192,192,176135,1,0,0:0:0:0:
64,192,176135,1,0,0:0:0:0:
320,192,176210,1,0,0:0:0:0:
448,192,176210,1,0,0:0:0:0:
192,192,176285,1,0,0:0:0:0:
64,192,176285,1,0,0:0:0:0:
448,192,176360,1,0,0:0:0:0:
192,192,176435,1,0,0:0:0:0:
64,192,176435,1,0,0:0:0:0:
320,192,176510,1,0,0:0:0:0:
448,192,176510,1,0,0:0:0:0:
192,192,176585,1,0,0:0:0:0:
64,192,176585,1,0,0:0:0:0:
320,192,176660,1,0,0:0:0:0:
192,192,176735,1,0,0:0:0:0:
448,192,176735,1,0,0:0:0:0:
320,192,176810,1,0,0:0:0:0:
64,192,176810,1,0,0:0:0:0:
448,192,176885,1,0,0:0:0:0:
192,192,176885,1,0,0:0:0:0:
64,192,176960,1,0,0:0:0:0:
320,192,177035,1,0,0:0:0:0:
448,192,177035,1,0,0:0:0:0:
64,192,177110,1,0,0:0:0:0:
192,192,177110,1,0,0:0:0:0:
320,192,177185,1,0,0:0:0:0:
448,192,177185,1,0,0:0:0:0:
192,192,177260,1,0,0:0:0:0:
64,192,177335,1,0,0:0:0:0:
320,192,177335,1,0,0:0:0:0:
448,192,177410,1,0,0:0:0:0:
64,192,177485,1,0,0:0:0:0:
192,192,177485,1,0,0:0:0:0:
320,192,177560,1,0,0:0:0:0:
448,192,177560,1,0,0:0:0:0:
64,192,177635,1,0,0:0:0:0:
192,192,177635,1,0,0:0:0:0:
320,192,177710,1,0,0:0:0:0:
448,192,177710,1,0,0:0:0:0:
64,192,177785,1,0,0:0:0:0:
192,192,177785,1,0,0:0:0:0:
320,192,177860,1,0,0:0:0:0:
448,192,177935,1,0,0:0:0:0:
64,192,177935,1,0,0:0:0:0:
320,192,178010,1,0,0:0:0:0:
192,192,178010,1,0,0:0:0:0:
448,192,178085,1,0,0:0:0:0:
64,192,178085,1,0,0:0:0:0:
192,192,178160,1,0,0:0:0:0:
320,192,178160,1,0,0:0:0:0:
64,192,178235,1,0,0:0:0:0:
448,192,178235,1,0,0:0:0:0:
192,192,178310,1,0,0:0:0:0:
64,192,178385,1,0,0:0:0:0:
320,192,178385,1,0,0:0:0:0:
448,192,178460,1,0,0:0:0:0:
192,192,178460,1,0,0:0:0:0:
64,192,178535,1,0,0:0:0:0:
320,192,178535,1,0,0:0:0:0:
192,192,178610,1,0,0:0:0:0:
448,192,178610,1,0,0:0:0:0:
320,192,178685,1,0,0:0:0:0:
64,192,178685,1,0,0:0:0:0:
192,192,178760,1,0,0:0:0:0:
448,192,178835,1,0,0:0:0:0:
320,192,178835,1,0,0:0:0:0:
64,192,178910,1,0,0:0:0:0:
192,192,178910,1,0,0:0:0:0:
320,192,178985,1,0,0:0:0:0:
448,192,178985,1,0,0:0:0:0:
64,192,179060,1,0,0:0:0:0:
192,192,179060,1,0,0:0:0:0:
448,192,179135,1,0,0:0:0:0:
320,192,179135,1,0,0:0:0:0:
192,192,179210,1,0,0:0:0:0:
64,192,179285,1,0,0:0:0:0:
320,192,179285,1,0,0:0:0:0:
192,192,179360,1,0,0:0:0:0:
448,192,179360,1,0,0:0:0:0:
64,192,179435,1,0,0:0:0:0:
320,192,179435,1,0,0:0:0:0:
448,192,179510,1,0,0:0:0:0:
64,192,179585,1,0,0:0:0:0:
192,192,179660,1,0,0:0:0:0:
320,192,179735,1,0,0:0:0:0:
448,192,179735,1,0,0:0:0:0:
192,192,179810,1,0,0:0:0:0:
64,192,179810,1,0,0:0:0:0:
320,192,179885,1,0,0:0:0:0:
448,192,179885,1,0,0:0:0:0:
64,192,179960,1,0,0:0:0:0:
192,192,179960,1,0,0:0:0:0:
448,192,180035,1,0,0:0:0:0:
320,192,180035,1,0,0:0:0:0:
64,192,180110,1,0,0:0:0:0:
192,192,180110,1,0,0:0:0:0:
320,192,180185,1,0,0:0:0:0:
448,192,180185,1,0,0:0:0:0:
192,192,180260,1,0,0:0:0:0:
64,192,180335,1,0,0:0:0:0:
320,192,180335,1,0,0:0:0:0:
192,192,180410,1,0,0:0:0:0:
448,192,180410,1,0,0:0:0:0:
64,192,180485,1,0,0:0:0:0:
320,192,180485,1,0,0:0:0:0:
448,192,180560,1,0,0:0:0:0:
64,192,180635,1,0,0:0:0:0:
192,192,180635,1,0,0:0:0:0:
320,192,180710,1,0,0:0:0:0:
448,192,180710,1,0,0:0:0:0:
64,192,180785,1,0,0:0:0:0:
192,192,180785,1,0,0:0:0:0:
320,192,180860,1,0,0:0:0:0:
192,192,180935,1,0,0:0:0:0:
448,192,180935,1,0,0:0:0:0:
64,192,181010,1,0,0:0:0:0:
320,192,181010,1,0,0:0:0:0:
448,192,181085,1,0,0:0:0:0:
192,192,181085,1,0,0:0:0:0:
320,192,181160,1,0,0:0:0:0:
192,192,181235,1,0,0:0:0:0:
64,192,181235,1,0,0:0:0:0:
448,192,181310,1,0,0:0:0:0:
320,192,181310,1,0,0:0:0:0:
64,192,181385,1,0,0:0:0:0:
192,192,181385,1,0,0:0:0:0:
448,192,181460,1,0,0:0:0:0:
64,192,181535,1,0,0:0:0:0:
320,192,181535,1,0,0:0:0:0:
448,192,181610,1,0,0:0:0:0:
192,192,181610,1,0,0:0:0:0:
320,192,181685,1,0,0:0:0:0:
64,192,181685,1,0,0:0:0:0:
192,192,181760,1,0,0:0:0:0:
448,192,181835,1,0,0:0:0:0:
320,192,181835,1,0,0:0:0:0:
64,192,181910,1,0,0:0:0:0:
192,192,181910,1,0,0:0:0:0:
320,192,181985,1,0,0:0:0:0:
448,192,181985,1,0,0:0:0:0:
64,192,182060,1,0,0:0:0:0:
448,192,182135,1,0,0:0:0:0:
192,192,182135,1,0,0:0:0:0:
64,192,182210,1,0,0:0:0:0:
192,192,182285,1,0,0:0:0:0:
320,192,182285,1,0,0:0:0:0:
448,192,182360,1,0,0:0:0:0:
64,192,182435,1,0,0:0:0:0:
320,192,182435,1,0,0:0:0:0:
192,192,182435,1,0,0:0:0:0:
448,192,182510,1,0,0:0:0:0:
320,192,182585,1,0,0:0:0:0:
192,192,182585,1,0,0:0:0:0:
64,192,182660,1,0,0:0:0:0:
320,192,182735,1,0,0:0:0:0:
448,192,182735,1,0,0:0:0:0:
64,192,182810,1,0,0:0:0:0:
192,192,182810,1,0,0:0:0:0:
448,192,182885,1,0,0:0:0:0:
320,192,182885,1,0,0:0:0:0:
64,192,182960,1,0,0:0:0:0:
192,192,183035,1,0,0:0:0:0:
448,192,183035,1,0,0:0:0:0:
320,192,183110,1,0,0:0:0:0:
64,192,183110,1,0,0:0:0:0:
448,192,183185,1,0,0:0:0:0:
192,192,183185,1,0,0:0:0:0:
64,192,183260,1,0,0:0:0:0:
320,192,183335,1,0,0:0:0:0:
448,192,183335,1,0,0:0:0:0:
192,192,183410,1,0,0:0:0:0:
64,192,183410,1,0,0:0:0:0:
448,192,183485,1,0,0:0:0:0:
320,192,183485,1,0,0:0:0:0:
192,192,183560,1,0,0:0:0:0:
320,192,183635,1,0,0:0:0:0:
64,192,183635,1,0,0:0:0:0:
192,192,183710,1,0,0:0:0:0:
64,192,183785,1,0,0:0:0:0:
320,192,183785,1,0,0:0:0:0:
448,192,183785,1,0,0:0:0:0:
192,192,183860,1,0,0:0:0:0:
320,192,183935,1,0,0:0:0:0:
64,192,183935,1,0,0:0:0:0:
448,192,183935,1,0,0:0:0:0:
192,192,184010,1,0,0:0:0:0:
64,192,184085,1,0,0:0:0:0:
320,192,184085,1,0,0:0:0:0:
448,192,184085,1,0,0:0:0:0:
192,192,184160,1,0,0:0:0:0:
320,192,184235,1,0,0:0:0:0:
448,192,184235,1,0,0:0:0:0:
64,192,184235,1,0,0:0:0:0:
192,192,184310,1,0,0:0:0:0:
448,192,184385,1,0,0:0:0:0:
320,192,184385,1,0,0:0:0:0:
64,192,184385,1,0,0:0:0:0:
192,192,184460,1,0,0:0:0:0:
448,192,184535,1,0,0:0:0:0:
64,192,184535,1,0,0:0:0:0:
320,192,184535,1,0,0:0:0:0:
192,192,184610,1,0,0:0:0:0:
448,192,184685,1,0,0:0:0:0:
320,192,184685,1,0,0:0:0:0:
64,192,184760,1,0,0:0:0:0:
192,192,184835,1,0,0:0:0:0:
320,192,184835,1,0,0:0:0:0:
448,192,184835,1,0,0:0:0:0:
64,192,184985,1,0,0:0:0:0:
192,192,185135,1,0,0:0:0:0:
448,192,185285,1,0,0:0:0:0:
320,192,185435,1,0,0:0:0:0:
64,192,185585,1,0,0:0:0:0:
192,192,185735,1,0,0:0:0:0:
448,192,185885,1,0,0:0:0:0:
320,192,186035,1,0,0:0:0:0:
64,192,186185,1,0,0:0:0:0:
192,192,186335,1,0,0:0:0:0:
448,192,186485,1,0,0:0:0:0:
320,192,186635,1,0,0:0:0:0:
64,192,186785,1,0,0:0:0:0:
192,192,186935,1,0,0:0:0:0:
320,192,187085,1,0,0:0:0:0:
448,192,187235,1,0,0:0:0:0:
64,192,187235,1,0,0:0:0:0:
192,192,187235,1,0,0:0:0:0:
320,192,187385,1,0,0:0:0:0:
448,192,187535,1,0,0:0:0:0:
64,192,187685,1,0,0:0:0:0:
192,192,187835,1,0,0:0:0:0:
448,192,187985,1,0,0:0:0:0:
320,192,188135,1,0,0:0:0:0:
64,192,188285,1,0,0:0:0:0:
192,192,188435,1,0,0:0:0:0:
320,192,188585,1,0,0:0:0:0:
448,192,188735,1,0,0:0:0:0:
64,192,188885,1,0,0:0:0:0:
192,192,189035,1,0,0:0:0:0:
320,192,189185,1,0,0:0:0:0:
448,192,189335,1,0,0:0:0:0:
320,192,189485,1,0,0:0:0:0:
192,192,189485,1,0,0:0:0:0:
64,192,189485,1,0,0:0:0:0:
448,192,189635,1,0,0:0:0:0:
64,192,189635,1,0,0:0:0:0:
320,192,189635,1,0,0:0:0:0:
192,192,189785,1,0,0:0:0:0:
448,192,189935,1,0,0:0:0:0:
192,192,190085,1,0,0:0:0:0:
64,192,190235,1,0,0:0:0:0:
320,192,190385,1,0,0:0:0:0:
448,192,190535,1,0,0:0:0:0:
192,192,190685,1,0,0:0:0:0:
320,192,190835,1,0,0:0:0:0:
64,192,190985,1,0,0:0:0:0:
448,192,191135,1,0,0:0:0:0:
192,192,191285,1,0,0:0:0:0:
320,192,191435,1,0,0:0:0:0:
64,192,191585,1,0,0:0:0:0:
320,192,191735,1,0,0:0:0:0:
192,192,191735,1,0,0:0:0:0:
448,192,191735,1,0,0:0:0:0:
64,192,191885,1,0,0:0:0:0:
320,192,192035,1,0,0:0:0:0:
448,192,192035,1,0,0:0:0:0:
192,192,192035,1,0,0:0:0:0:
64,192,192185,1,0,0:0:0:0:
192,192,192335,1,0,0:0:0:0:
448,192,192485,1,0,0:0:0:0:
320,192,192635,1,0,0:0:0:0:
64,192,192785,1,0,0:0:0:0:
192,192,192935,1,0,0:0:0:0:
448,192,193085,1,0,0:0:0:0:
320,192,193235,1,0,0:0:0:0:
64,192,193385,1,0,0:0:0:0:
448,192,193535,1,0,0:0:0:0:
192,192,193685,1,0,0:0:0:0:
320,192,193835,1,0,0:0:0:0:
64,192,193985,1,0,0:0:0:0:
192,192,194135,1,0,0:0:0:0:
448,192,194135,1,0,0:0:0:0:
320,192,194210,1,0,0:0:0:0:
64,192,194285,1,0,0:0:0:0:
448,192,194285,1,0,0:0:0:0:
192,192,194360,1,0,0:0:0:0:
64,192,194435,1,0,0:0:0:0:
320,192,194435,1,0,0:0:0:0:
448,192,194435,1,0,0:0:0:0:
192,192,194585,1,0,0:0:0:0:
320,192,194735,1,0,0:0:0:0:
64,192,194885,1,0,0:0:0:0:
448,192,195035,1,0,0:0:0:0:
320,192,195035,1,0,0:0:0:0:
64,192,195185,1,0,0:0:0:0:
192,192,195185,1,0,0:0:0:0:
320,192,195335,1,0,0:0:0:0:
448,192,195335,1,0,0:0:0:0:
192,192,195485,1,0,0:0:0:0:
64,192,195485,1,0,0:0:0:0:
320,192,195635,1,0,0:0:0:0:
448,192,195635,1,0,0:0:0:0:
64,192,195785,1,0,0:0:0:0:
192,192,195785,1,0,0:0:0:0:
320,192,195935,1,0,0:0:0:0:
448,192,195935,1,0,0:0:0:0:
64,192,196085,1,0,0:0:0:0:
192,192,196085,1,0,0:0:0:0:
448,192,196085,1,0,0:0:0:0:
320,192,196160,1,0,0:0:0:0:
192,192,196235,1,0,0:0:0:0:
64,192,196235,1,0,0:0:0:0:
448,192,196235,1,0,0:0:0:0:
192,192,196385,1,0,0:0:0:0:
320,192,196385,1,0,0:0:0:0:
64,192,196385,1,0,0:0:0:0:
448,192,196835,1,0,0:0:0:0:
320,192,196835,1,0,0:0:0:0:
192,192,196910,1,0,0:0:0:0:
448,192,196985,1,0,0:0:0:0:
64,192,196985,1,0,0:0:0:0:
320,192,197135,1,0,0:0:0:0:
192,192,197135,1,0,0:0:0:0:
448,192,197285,1,0,0:0:0:0:
64,192,197285,1,0,0:0:0:0:
192,192,197435,1,0,0:0:0:0:
64,192,197435,1,0,0:0:0:0:
320,192,197435,1,0,0:0:0:0:
448,192,197585,1,0,0:0:0:0:
192,192,197735,1,0,0:0:0:0:
320,192,197735,1,0,0:0:0:0:
448,192,197885,1,0,0:0:0:0:
64,192,197885,1,0,0:0:0:0:
320,192,198035,1,0,0:0:0:0:
192,192,198035,1,0,0:0:0:0:
448,192,198185,1,0,0:0:0:0:
64,192,198185,1,0,0:0:0:0:
192,192,198335,1,0,0:0:0:0:
320,192,198335,1,0,0:0:0:0:
64,192,198485,1,0,0:0:0:0:
448,192,198485,1,0,0:0:0:0:
64,192,198635,1,0,0:0:0:0:
192,192,198635,1,0,0:0:0:0:
320,192,198635,1,0,0:0:0:0:
192,192,198785,1,0,0:0:0:0:
448,192,198785,1,0,0:0:0:0:
64,192,198935,1,0,0:0:0:0:
448,192,198935,1,0,0:0:0:0:
320,192,198935,1,0,0:0:0:0:
192,192,199085,1,0,0:0:0:0:
320,192,199085,1,0,0:0:0:0:
448,192,199235,1,0,0:0:0:0:
64,192,199235,1,0,0:0:0:0:
320,192,199310,1,0,0:0:0:0:
64,192,199385,1,0,0:0:0:0:
192,192,199385,1,0,0:0:0:0:
320,192,199535,1,0,0:0:0:0:
448,192,199535,1,0,0:0:0:0:
192,192,199685,1,0,0:0:0:0:
64,192,199685,1,0,0:0:0:0:
64,192,199835,1,0,0:0:0:0:
448,192,199835,1,0,0:0:0:0:
320,192,199835,1,0,0:0:0:0:
192,192,199985,1,0,0:0:0:0:
448,192,200135,1,0,0:0:0:0:
320,192,200285,1,0,0:0:0:0:
64,192,200435,1,0,0:0:0:0:
192,192,200435,1,0,0:0:0:0:
320,192,200585,1,0,0:0:0:0:
448,192,200585,1,0,0:0:0:0:
192,192,200735,1,0,0:0:0:0:
64,192,200735,1,0,0:0:0:0:
448,192,200885,1,0,0:0:0:0:
320,192,200885,1,0,0:0:0:0:
64,192,201035,1,0,0:0:0:0:
192,192,201035,1,0,0:0:0:0:
448,192,201035,1,0,0:0:0:0:
320,192,201185,1,0,0:0:0:0:
192,192,201185,1,0,0:0:0:0:
320,192,201335,1,0,0:0:0:0:
448,192,201335,1,0,0:0:0:0:
64,192,201335,1,0,0:0:0:0:
64,192,201485,1,0,0:0:0:0:
192,192,201485,1,0,0:0:0:0:
448,192,201635,1,0,0:0:0:0:
320,192,201635,1,0,0:0:0:0:
64,192,201710,1,0,0:0:0:0:
192,192,201785,1,0,0:0:0:0:
320,192,201785,1,0,0:0:0:0:
64,192,201935,1,0,0:0:0:0:
448,192,201935,1,0,0:0:0:0:
192,192,202085,1,0,0:0:0:0:
320,192,202085,1,0,0:0:0:0:
448,192,202235,1,0,0:0:0:0:
192,192,202235,1,0,0:0:0:0:
64,192,202235,1,0,0:0:0:0:
320,192,202385,1,0,0:0:0:0:
448,192,202535,1,0,0:0:0:0:
64,192,202535,1,0,0:0:0:0:
192,192,202685,1,0,0:0:0:0:
320,192,202685,1,0,0:0:0:0:
64,192,202835,1,0,0:0:0:0:
448,192,202835,1,0,0:0:0:0:
320,192,202985,1,0,0:0:0:0:
192,192,202985,1,0,0:0:0:0:
64,192,203135,1,0,0:0:0:0:
448,192,203135,1,0,0:0:0:0:
320,192,203285,1,0,0:0:0:0:
192,192,203285,1,0,0:0:0:0:
320,192,203435,1,0,0:0:0:0:
448,192,203435,1,0,0:0:0:0:
64,192,203435,1,0,0:0:0:0:
192,192,203585,1,0,0:0:0:0:
64,192,203585,1,0,0:0:0:0:
320,192,203735,1,0,0:0:0:0:
192,192,203735,1,0,0:0:0:0:
448,192,203735,1,0,0:0:0:0:
448,192,203885,1,0,0:0:0:0:
64,192,203885,1,0,0:0:0:0:
192,192,204035,1,0,0:0:0:0:
320,192,204035,1,0,0:0:0:0:
64,192,204110,1,0,0:0:0:0:
192,192,204185,1,0,0:0:0:0:
448,192,204185,1,0,0:0:0:0:
320,192,204335,1,0,0:0:0:0:
64,192,204335,1,0,0:0:0:0:
192,192,204485,1,0,0:0:0:0:
448,192,204485,1,0,0:0:0:0:
320,192,204635,1,0,0:0:0:0:
192,192,204635,1,0,0:0:0:0:
64,192,204635,1,0,0:0:0:0:
320,192,204785,1,0,0:0:0:0:
448,192,204785,1,0,0:0:0:0:
64,192,204860,1,0,0:0:0:0:
448,192,204935,1,0,0:0:0:0:
192,192,204935,1,0,0:0:0:0:
320,192,205085,1,0,0:0:0:0:
64,192,205085,1,0,0:0:0:0:
448,192,205235,1,0,0:0:0:0:
192,192,205235,1,0,0:0:0:0:
64,192,205385,1,0,0:0:0:0:
320,192,205385,1,0,0:0:0:0:
448,192,205535,1,0,0:0:0:0:
192,192,205535,1,0,0:0:0:0:
320,192,205685,1,0,0:0:0:0:
64,192,205685,1,0,0:0:0:0:
448,192,205835,1,0,0:0:0:0:
192,192,205835,1,0,0:0:0:0:
64,192,205835,1,0,0:0:0:0:
320,192,205985,1,0,0:0:0:0:
448,192,205985,1,0,0:0:0:0:
320,192,206135,1,0,0:0:0:0:
64,192,206135,1,0,0:0:0:0:
192,192,206135,1,0,0:0:0:0:
192,192,206285,1,0,0:0:0:0:
448,192,206285,1,0,0:0:0:0:
64,192,206435,1,0,0:0:0:0:
320,192,206435,1,0,0:0:0:0:
448,192,206510,1,0,0:0:0:0:
192,192,206585,1,0,0:0:0:0:
320,192,206585,1,0,0:0:0:0:
448,192,206735,1,0,0:0:0:0:
64,192,206735,1,0,0:0:0:0:
192,192,206885,1,0,0:0:0:0:
320,192,206885,1,0,0:0:0:0:
64,192,206960,1,0,0:0:0:0:
448,192,207035,1,0,0:0:0:0:
320,192,207035,1,0,0:0:0:0:
192,192,207110,1,0,0:0:0:0:
64,192,207185,1,0,0:0:0:0:
448,192,207185,1,0,0:0:0:0:
320,192,207260,1,0,0:0:0:0:
448,192,207335,1,0,0:0:0:0:
64,192,207335,1,0,0:0:0:0:
192,192,207335,1,0,0:0:0:0:
192,192,207485,1,0,0:0:0:0:
64,192,207635,1,0,0:0:0:0:
320,192,207635,1,0,0:0:0:0:
448,192,207710,1,0,0:0:0:0:
320,192,207785,1,0,0:0:0:0:
192,192,207785,1,0,0:0:0:0:
448,192,207935,1,0,0:0:0:0:
64,192,207935,1,0,0:0:0:0:
192,192,208085,1,0,0:0:0:0:
320,192,208085,1,0,0:0:0:0:
64,192,208160,1,0,0:0:0:0:
448,192,208235,1,0,0:0:0:0:
320,192,208235,1,0,0:0:0:0:
192,192,208310,1,0,0:0:0:0:
64,192,208385,1,0,0:0:0:0:
448,192,208385,1,0,0:0:0:0:
192,192,208460,1,0,0:0:0:0:
64,192,208535,1,0,0:0:0:0:
448,192,208535,1,0,0:0:0:0:
320,192,208535,1,0,0:0:0:0:
320,192,208685,1,0,0:0:0:0:
192,192,208835,1,0,0:0:0:0:
64,192,208835,1,0,0:0:0:0:
448,192,208910,1,0,0:0:0:0:
320,192,208985,1,0,0:0:0:0:
192,192,208985,1,0,0:0:0:0:
448,192,209135,1,0,0:0:0:0:
64,192,209135,1,0,0:0:0:0:
320,192,209285,1,0,0:0:0:0:
192,192,209285,1,0,0:0:0:0:
64,192,209360,1,0,0:0:0:0:
448,192,209435,1,0,0:0:0:0:
320,192,209435,1,0,0:0:0:0:
192,192,209510,1,0,0:0:0:0:
64,192,209585,1,0,0:0:0:0:
448,192,209585,1,0,0:0:0:0:
320,192,209660,1,0,0:0:0:0:
192,192,209735,1,0,0:0:0:0:
64,192,209735,1,0,0:0:0:0:
448,192,209735,1,0,0:0:0:0:
192,192,209885,1,0,0:0:0:0:
320,192,210035,1,0,0:0:0:0:
448,192,210035,1,0,0:0:0:0:
64,192,210110,1,0,0:0:0:0:
192,192,210185,1,0,0:0:0:0:
320,192,210185,1,0,0:0:0:0:
64,192,210260,1,0,0:0:0:0:
192,192,210335,1,0,0:0:0:0:
320,192,210335,1,0,0:0:0:0:
448,192,210335,1,0,0:0:0:0:
64,192,210410,1,0,0:0:0:0:
448,192,210485,1,0,0:0:0:0:
320,192,210485,1,0,0:0:0:0:
192,192,210560,1,0,0:0:0:0:
448,192,210635,1,0,0:0:0:0:
64,192,210635,1,0,0:0:0:0:
320,192,210710,1,0,0:0:0:0:
192,192,210785,1,0,0:0:0:0:
448,192,210785,1,0,0:0:0:0:
64,192,210860,1,0,0:0:0:0:
448,192,210935,1,0,0:0:0:0:
192,192,210935,1,0,0:0:0:0:
320,192,210935,1,0,0:0:0:0:
64,192,211085,1,0,0:0:0:0:
448,192,211235,1,0,0:0:0:0:
320,192,211235,1,0,0:0:0:0:
192,192,211310,1,0,0:0:0:0:
64,192,211385,1,0,0:0:0:0:
320,192,211385,1,0,0:0:0:0:
192,192,211535,1,0,0:0:0:0:
448,192,211535,1,0,0:0:0:0:
64,192,211685,1,0,0:0:0:0:
320,192,211685,1,0,0:0:0:0:
192,192,211760,1,0,0:0:0:0:
448,192,211835,1,0,0:0:0:0:
320,192,211835,1,0,0:0:0:0:
64,192,211910,1,0,0:0:0:0:
192,192,211985,1,0,0:0:0:0:
448,192,211985,1,0,0:0:0:0:
320,192,212060,1,0,0:0:0:0:
64,192,212135,1,0,0:0:0:0:
192,192,212135,1,0,0:0:0:0:
448,192,212135,1,0,0:0:0:0:
320,192,212285,1,0,0:0:0:0:
64,192,212435,1,0,0:0:0:0:
192,192,212435,1,0,0:0:0:0:
448,192,212510,1,0,0:0:0:0:
320,192,212585,1,0,0:0:0:0:
192,192,212585,1,0,0:0:0:0:
448,192,212735,1,0,0:0:0:0:
64,192,212735,1,0,0:0:0:0:
192,192,212885,1,0,0:0:0:0:
320,192,212885,1,0,0:0:0:0:
448,192,212960,1,0,0:0:0:0:
64,192,213035,1,0,0:0:0:0:
192,192,213035,1,0,0:0:0:0:
320,192,213110,1,0,0:0:0:0:
64,192,213185,1,0,0:0:0:0:
448,192,213185,1,0,0:0:0:0:
192,192,213260,1,0,0:0:0:0:
64,192,213335,1,0,0:0:0:0:
448,192,213335,1,0,0:0:0:0:
320,192,213335,1,0,0:0:0:0:
192,192,213485,1,0,0:0:0:0:
64,192,213635,1,0,0:0:0:0:
320,192,213635,1,0,0:0:0:0:
448,192,213710,1,0,0:0:0:0:
320,192,213785,1,0,0:0:0:0:
192,192,213785,1,0,0:0:0:0:
64,192,213935,1,0,0:0:0:0:
448,192,213935,1,0,0:0:0:0:
192,192,214085,1,0,0:0:0:0:
320,192,214085,1,0,0:0:0:0:
448,192,214160,1,0,0:0:0:0:
64,192,214235,1,0,0:0:0:0:
192,192,214235,1,0,0:0:0:0:
320,192,214310,1,0,0:0:0:0:
448,192,214385,1,0,0:0:0:0:
64,192,214385,1,0,0:0:0:0:
320,192,214460,1,0,0:0:0:0:
64,192,214535,1,0,0:0:0:0:
448,192,214535,1,0,0:0:0:0:
192,192,214535,1,0,0:0:0:0:
320,192,214685,1,0,0:0:0:0:
64,192,214835,1,0,0:0:0:0:
192,192,214835,1,0,0:0:0:0:
448,192,214835,1,0,0:0:0:0:
320,192,214910,1,0,0:0:0:0:
64,192,214985,1,0,0:0:0:0:
448,192,214985,1,0,0:0:0:0:
192,192,215060,1,0,0:0:0:0:
320,192,215135,1,0,0:0:0:0:
448,192,215135,1,0,0:0:0:0:
64,192,215135,1,0,0:0:0:0:
192,192,215210,1,0,0:0:0:0:
320,192,215285,1,0,0:0:0:0:
64,192,215285,1,0,0:0:0:0:
448,192,215360,1,0,0:0:0:0:
320,192,215435,1,0,0:0:0:0:
64,192,215435,1,0,0:0:0:0:
192,192,215435,1,0,0:0:0:0:
448,192,215510,1,0,0:0:0:0:
64,192,215585,1,0,0:0:0:0:
192,192,215585,1,0,0:0:0:0:
320,192,215660,1,0,0:0:0:0:
64,192,215735,1,0,0:0:0:0:
192,192,215735,1,0,0:0:0:0:
448,192,215735,1,0,0:0:0:0:
320,192,215810,1,0,0:0:0:0:
448,192,215885,1,0,0:0:0:0:
192,192,215885,1,0,0:0:0:0:
64,192,215960,1,0,0:0:0:0:
448,192,216035,1,0,0:0:0:0:
192,192,216035,1,0,0:0:0:0:
320,192,216035,1,0,0:0:0:0:
64,192,216110,1,0,0:0:0:0:
320,192,216185,1,0,0:0:0:0:
448,192,216185,1,0,0:0:0:0:
192,192,216260,1,0,0:0:0:0:
64,192,216335,1,0,0:0:0:0:
448,192,216335,1,0,0:0:0:0:
320,192,216335,1,0,0:0:0:0:
192,192,216410,1,0,0:0:0:0:
448,192,216485,1,0,0:0:0:0:
64,192,216485,1,0,0:0:0:0:
320,192,216560,1,0,0:0:0:0:
448,192,216635,1,0,0:0:0:0:
192,192,216635,1,0,0:0:0:0:
64,192,216635,1,0,0:0:0:0:
320,192,216710,1,0,0:0:0:0:
64,192,216785,1,0,0:0:0:0:
192,192,216785,1,0,0:0:0:0:
320,192,216860,1,0,0:0:0:0:
192,192,216935,1,0,0:0:0:0:
64,192,216935,1,0,0:0:0:0:
448,192,216935,1,0,0:0:0:0:
320,192,217010,1,0,0:0:0:0:
448,192,217085,1,0,0:0:0:0:
192,192,217085,1,0,0:0:0:0:
64,192,217160,1,0,0:0:0:0:
448,192,217235,1,0,0:0:0:0:
192,192,217235,1,0,0:0:0:0:
320,192,217235,1,0,0:0:0:0:
64,192,217310,1,0,0:0:0:0:
320,192,217385,1,0,0:0:0:0:
448,192,217385,1,0,0:0:0:0:
192,192,217460,1,0,0:0:0:0:
320,192,217535,1,0,0:0:0:0:
448,192,217535,1,0,0:0:0:0:
64,192,217535,1,0,0:0:0:0:
192,192,217610,1,0,0:0:0:0:
448,192,217685,1,0,0:0:0:0:
320,192,217685,1,0,0:0:0:0:
64,192,217760,1,0,0:0:0:0:
192,192,217835,1,0,0:0:0:0:
320,192,217835,1,0,0:0:0:0:
448,192,217835,1,0,0:0:0:0:
64,192,217910,1,0,0:0:0:0:
192,192,217985,1,0,0:0:0:0:
320,192,217985,1,0,0:0:0:0:
64,192,218060,1,0,0:0:0:0:
192,192,218135,1,0,0:0:0:0:
320,192,218135,1,0,0:0:0:0:
448,192,218135,1,0,0:0:0:0:
64,192,218210,1,0,0:0:0:0:
192,192,218285,1,0,0:0:0:0:
448,192,218285,1,0,0:0:0:0:
320,192,218360,1,0,0:0:0:0:
448,192,218435,1,0,0:0:0:0:
192,192,218435,1,0,0:0:0:0:
64,192,218435,1,0,0:0:0:0:
320,192,218510,1,0,0:0:0:0:
64,192,218585,1,0,0:0:0:0:
448,192,218585,1,0,0:0:0:0:
192,192,218660,1,0,0:0:0:0:
64,192,218735,1,0,0:0:0:0:
320,192,218735,1,0,0:0:0:0:
448,192,218735,1,0,0:0:0:0:
192,192,218810,1,0,0:0:0:0:
64,192,218885,1,0,0:0:0:0:
448,192,218885,1,0,0:0:0:0:
320,192,218960,1,0,0:0:0:0:
64,192,219035,1,0,0:0:0:0:
448,192,219035,1,0,0:0:0:0:
192,192,219035,1,0,0:0:0:0:
320,192,219110,1,0,0:0:0:0:
64,192,219185,1,0,0:0:0:0:
192,192,219185,1,0,0:0:0:0:
448,192,219260,1,0,0:0:0:0:
192,192,219335,1,0,0:0:0:0:
64,192,219335,1,0,0:0:0:0:
320,192,219335,1,0,0:0:0:0:
448,192,219410,1,0,0:0:0:0:
320,192,219485,1,0,0:0:0:0:
192,192,219485,1,0,0:0:0:0:
448,192,219560,1,0,0:0:0:0:
192,192,219635,1,0,0:0:0:0:
320,192,219635,1,0,0:0:0:0:
64,192,219635,1,0,0:0:0:0:
448,192,219710,1,0,0:0:0:0:
64,192,219785,1,0,0:0:0:0:
320,192,219785,1,0,0:0:0:0:
192,192,219860,1,0,0:0:0:0:
64,192,219935,1,0,0:0:0:0:
320,192,219935,1,0,0:0:0:0:
448,192,219935,1,0,0:0:0:0:
192,192,220010,1,0,0:0:0:0:
64,192,220085,1,0,0:0:0:0:
448,192,220085,1,0,0:0:0:0:
320,192,220160,1,0,0:0:0:0:
64,192,220235,1,0,0:0:0:0:
192,192,220235,1,0,0:0:0:0:
448,192,220235,1,0,0:0:0:0:
320,192,220310,1,0,0:0:0:0:
64,192,220385,1,0,0:0:0:0:
192,192,220385,1,0,0:0:0:0:
448,192,220460,1,0,0:0:0:0:
192,192,220535,1,0,0:0:0:0:
64,192,220535,1,0,0:0:0:0:
320,192,220535,1,0,0:0:0:0:
448,192,220610,1,0,0:0:0:0:
320,192,220685,1,0,0:0:0:0:
64,192,220685,1,0,0:0:0:0:
192,192,220760,1,0,0:0:0:0:
64,192,220835,1,0,0:0:0:0:
320,192,220835,1,0,0:0:0:0:
448,192,220835,1,0,0:0:0:0:
192,192,220910,1,0,0:0:0:0:
64,192,220985,1,0,0:0:0:0:
320,192,220985,1,0,0:0:0:0:
448,192,220985,1,0,0:0:0:0:
192,192,221060,1,0,0:0:0:0:
448,192,221135,1,0,0:0:0:0:
64,192,221135,1,0,0:0:0:0:
320,192,221135,1,0,0:0:0:0:
192,192,221210,1,0,0:0:0:0:
448,192,221285,1,0,0:0:0:0:
320,192,221285,1,0,0:0:0:0:
192,192,221360,1,0,0:0:0:0:
320,192,221435,1,0,0:0:0:0:
64,192,221435,1,0,0:0:0:0:
448,192,221435,1,0,0:0:0:0:
192,192,221510,1,0,0:0:0:0:
64,192,221585,1,0,0:0:0:0:
320,192,221585,1,0,0:0:0:0:
448,192,221585,1,0,0:0:0:0:
192,192,221660,1,0,0:0:0:0:
448,192,221735,1,0,0:0:0:0:
320,192,221735,1,0,0:0:0:0:
64,192,221735,1,0,0:0:0:0:
192,192,221810,1,0,0:0:0:0:
64,192,221885,1,0,0:0:0:0:
320,192,221885,1,0,0:0:0:0:
448,192,221960,1,0,0:0:0:0:
64,192,222035,1,0,0:0:0:0:
320,192,222035,1,0,0:0:0:0:
192,192,222035,1,0,0:0:0:0:
448,192,222110,1,0,0:0:0:0:
320,192,222185,1,0,0:0:0:0:
64,192,222185,1,0,0:0:0:0:
192,192,222185,1,0,0:0:0:0:
448,192,222260,1,0,0:0:0:0:
320,192,222335,1,0,0:0:0:0:
64,192,222335,1,0,0:0:0:0:
192,192,222335,1,0,0:0:0:0:
448,192,222410,1,0,0:0:0:0:
64,192,222485,1,0,0:0:0:0:
192,192,222485,1,0,0:0:0:0:
320,192,222560,1,0,0:0:0:0:
448,192,222635,1,0,0:0:0:0:
192,192,222635,1,0,0:0:0:0:
64,192,222635,1,0,0:0:0:0:
320,192,222710,1,0,0:0:0:0:
192,192,222785,1,0,0:0:0:0:
64,192,222785,1,0,0:0:0:0:
448,192,222785,1,0,0:0:0:0:
320,192,222860,1,0,0:0:0:0:
64,192,222935,1,0,0:0:0:0:
448,192,222935,1,0,0:0:0:0:
192,192,222935,1,0,0:0:0:0:
320,192,223010,1,0,0:0:0:0:
192,192,223085,1,0,0:0:0:0:
448,192,223085,1,0,0:0:0:0:
64,192,223160,1,0,0:0:0:0:
320,192,223235,1,0,0:0:0:0:
448,192,223235,1,0,0:0:0:0:
192,192,223235,1,0,0:0:0:0:
64,192,223310,1,0,0:0:0:0:
320,192,223385,1,0,0:0:0:0:
448,192,223385,1,0,0:0:0:0:
192,192,223385,1,0,0:0:0:0:
64,192,223460,1,0,0:0:0:0:
192,192,223535,1,0,0:0:0:0:
448,192,223535,1,0,0:0:0:0:
320,192,223535,1,0,0:0:0:0:
64,192,223610,1,0,0:0:0:0:
192,192,223685,1,0,0:0:0:0:
320,192,223685,1,0,0:0:0:0:
448,192,223760,1,0,0:0:0:0:
192,192,223835,1,0,0:0:0:0:
320,192,223835,1,0,0:0:0:0:
64,192,223835,1,0,0:0:0:0:
448,192,223910,1,0,0:0:0:0:
192,192,223985,1,0,0:0:0:0:
64,192,223985,1,0,0:0:0:0:
320,192,223985,1,0,0:0:0:0:
448,192,224060,1,0,0:0:0:0:
320,192,224135,1,0,0:0:0:0:
192,192,224135,1,0,0:0:0:0:
64,192,224135,1,0,0:0:0:0:
448,192,224210,1,0,0:0:0:0:
320,192,224285,1,0,0:0:0:0:
64,192,224285,1,0,0:0:0:0:
448,192,224360,1,0,0:0:0:0:
320,192,224435,1,0,0:0:0:0:
64,192,224435,1,0,0:0:0:0:
192,192,224435,1,0,0:0:0:0:
448,192,224635,1,0,0:0:0:0:
192,192,224835,1,0,0:0:0:0:
320,192,225035,1,0,0:0:0:0:
64,192,225235,1,0,0:0:0:0:
448,192,225435,1,0,0:0:0:0:
320,192,225635,1,0,0:0:0:0:
192,192,225635,1,0,0:0:0:0:
64,192,225635,1,0,0:0:0:0:
448,192,225710,1,0,0:0:0:0:
320,192,225785,1,0,0:0:0:0:
64,192,225785,1,0,0:0:0:0:
192,192,225860,1,0,0:0:0:0:
448,192,225935,1,0,0:0:0:0:
64,192,226010,1,0,0:0:0:0:
192,192,226085,1,0,0:0:0:0:
320,192,226085,1,0,0:0:0:0:
448,192,226160,1,0,0:0:0:0:
64,192,226235,1,0,0:0:0:0:
192,192,226310,1,0,0:0:0:0:
320,192,226385,1,0,0:0:0:0:
448,192,226385,1,0,0:0:0:0:
64,192,226460,1,0,0:0:0:0:
192,192,226535,1,0,0:0:0:0:
320,192,226610,1,0,0:0:0:0:
448,192,226685,1,0,0:0:0:0:
64,192,226685,1,0,0:0:0:0:
192,192,226760,1,0,0:0:0:0:
320,192,226835,1,0,0:0:0:0:
448,192,226835,1,0,0:0:0:0:
64,192,226910,1,0,0:0:0:0:
320,192,226985,1,0,0:0:0:0:
192,192,226985,1,0,0:0:0:0:
448,192,227060,1,0,0:0:0:0:
64,192,227135,1,0,0:0:0:0:
192,192,227135,1,0,0:0:0:0:
320,192,227210,1,0,0:0:0:0:
448,192,227285,1,0,0:0:0:0:
64,192,227285,1,0,0:0:0:0:
192,192,227360,1,0,0:0:0:0:
320,192,227435,1,0,0:0:0:0:
448,192,227435,1,0,0:0:0:0:
64,192,227510,1,0,0:0:0:0:
448,192,227585,1,0,0:0:0:0:
320,192,227585,1,0,0:0:0:0:
192,192,227585,1,0,0:0:0:0:
64,192,227660,1,0,0:0:0:0:
192,192,227735,1,0,0:0:0:0:
320,192,227735,1,0,0:0:0:0:
448,192,227810,1,0,0:0:0:0:
192,192,227885,1,0,0:0:0:0:
320,192,227885,1,0,0:0:0:0:
64,192,227885,1,0,0:0:0:0:
448,192,227960,1,0,0:0:0:0:
64,192,228035,1,0,0:0:0:0:
192,192,228035,1,0,0:0:0:0:
320,192,228110,1,0,0:0:0:0:
192,192,228185,1,0,0:0:0:0:
448,192,228185,1,0,0:0:0:0:
64,192,228260,1,0,0:0:0:0:
320,192,228335,1,0,0:0:0:0:
448,192,228410,1,0,0:0:0:0:
192,192,228485,1,0,0:0:0:0:
64,192,228485,1,0,0:0:0:0:
320,192,228560,1,0,0:0:0:0:
192,192,228635,1,0,0:0:0:0:
448,192,228710,1,0,0:0:0:0:
64,192,228785,1,0,0:0:0:0:
192,192,228785,1,0,0:0:0:0:
320,192,228785,1,0,0:0:0:0:
448,192,228860,1,0,0:0:0:0:
64,192,228935,1,0,0:0:0:0:
320,192,229010,1,0,0:0:0:0:
192,192,229085,1,0,0:0:0:0:
64,192,229085,1,0,0:0:0:0:
448,192,229085,1,0,0:0:0:0:
320,192,229160,1,0,0:0:0:0:
448,192,229235,1,0,0:0:0:0:
192,192,229235,1,0,0:0:0:0:
64,192,229310,1,0,0:0:0:0:
320,192,229385,1,0,0:0:0:0:
448,192,229385,1,0,0:0:0:0:
192,192,229460,1,0,0:0:0:0:
64,192,229535,1,0,0:0:0:0:
320,192,229610,1,0,0:0:0:0:
448,192,229685,1,0,0:0:0:0:
192,192,229685,1,0,0:0:0:0:
64,192,229760,1,0,0:0:0:0:
448,192,229835,1,0,0:0:0:0:
320,192,229910,1,0,0:0:0:0:
64,192,229985,1,0,0:0:0:0:
192,192,229985,1,0,0:0:0:0:
320,192,230060,1,0,0:0:0:0:
448,192,230135,1,0,0:0:0:0:
192,192,230210,1,0,0:0:0:0:
64,192,230285,1,0,0:0:0:0:
320,192,230285,1,0,0:0:0:0:
448,192,230360,1,0,0:0:0:0:
192,192,230435,1,0,0:0:0:0:
64,192,230435,1,0,0:0:0:0:
448,192,230510,1,0,0:0:0:0:
64,192,230585,1,0,0:0:0:0:
192,192,230585,1,0,0:0:0:0:
320,192,230585,1,0,0:0:0:0:
448,192,230660,1,0,0:0:0:0:
320,192,230735,1,0,0:0:0:0:
192,192,230810,1,0,0:0:0:0:
64,192,230885,1,0,0:0:0:0:
320,192,230885,1,0,0:0:0:0:
448,192,230960,1,0,0:0:0:0:
64,192,231035,1,0,0:0:0:0:
192,192,231035,1,0,0:0:0:0:
448,192,231110,1,0,0:0:0:0:
320,192,231185,1,0,0:0:0:0:
64,192,231185,1,0,0:0:0:0:
192,192,231260,1,0,0:0:0:0:
448,192,231335,1,0,0:0:0:0:
320,192,231410,1,0,0:0:0:0:
192,192,231485,1,0,0:0:0:0:
64,192,231485,1,0,0:0:0:0:
448,192,231560,1,0,0:0:0:0:
320,192,231635,1,0,0:0:0:0:
64,192,231635,1,0,0:0:0:0:
192,192,231710,1,0,0:0:0:0:
448,192,231785,1,0,0:0:0:0:
320,192,231785,1,0,0:0:0:0:
192,192,231860,1,0,0:0:0:0:
64,192,231935,1,0,0:0:0:0:
448,192,231935,1,0,0:0:0:0:
320,192,232010,1,0,0:0:0:0:
64,192,232085,1,0,0:0:0:0:
192,192,232085,1,0,0:0:0:0:
448,192,232160,1,0,0:0:0:0:
320,192,232235,1,0,0:0:0:0:
192,192,232235,1,0,0:0:0:0:
64,192,232310,1,0,0:0:0:0:
448,192,232385,1,0,0:0:0:0:
192,192,232385,1,0,0:0:0:0:
320,192,232385,1,0,0:0:0:0:
64,192,232460,1,0,0:0:0:0:
320,192,232535,1,0,0:0:0:0:
448,192,232535,1,0,0:0:0:0:
192,192,232610,1,0,0:0:0:0:
320,192,232685,1,0,0:0:0:0:
448,192,232685,1,0,0:0:0:0:
64,192,232685,1,0,0:0:0:0:
192,192,232760,1,0,0:0:0:0:
64,192,232835,1,0,0:0:0:0:
320,192,232835,1,0,0:0:0:0:
448,192,232910,1,0,0:0:0:0:
192,192,232985,1,0,0:0:0:0:
64,192,232985,1,0,0:0:0:0:
320,192,233060,1,0,0:0:0:0:
448,192,233135,1,0,0:0:0:0:
64,192,233210,1,0,0:0:0:0:
192,192,233285,1,0,0:0:0:0:
320,192,233285,1,0,0:0:0:0:
448,192,233360,1,0,0:0:0:0:
192,192,233435,1,0,0:0:0:0:
64,192,233435,1,0,0:0:0:0:
320,192,233510,1,0,0:0:0:0:
448,192,233585,1,0,0:0:0:0:
64,192,233585,1,0,0:0:0:0:
192,192,233660,1,0,0:0:0:0:
320,192,233735,1,0,0:0:0:0:
448,192,233810,1,0,0:0:0:0:
192,192,233885,1,0,0:0:0:0:
64,192,233885,1,0,0:0:0:0:
320,192,233960,1,0,0:0:0:0:
192,192,234035,1,0,0:0:0:0:
448,192,234035,1,0,0:0:0:0:
64,192,234110,1,0,0:0:0:0:
448,192,234185,1,0,0:0:0:0:
320,192,234185,1,0,0:0:0:0:
192,192,234260,1,0,0:0:0:0:
64,192,234335,1,0,0:0:0:0:
320,192,234410,1,0,0:0:0:0:
448,192,234485,1,0,0:0:0:0:
64,192,234485,1,0,0:0:0:0:
192,192,234560,1,0,0:0:0:0:
320,192,234635,1,0,0:0:0:0:
448,192,234635,1,0,0:0:0:0:
64,192,234710,1,0,0:0:0:0:
192,192,234710,1,0,0:0:0:0:
320,192,234785,1,0,0:0:0:0:
448,192,234785,1,0,0:0:0:0:
192,192,234860,1,0,0:0:0:0:
64,192,234860,1,0,0:0:0:0:
448,192,234935,1,0,0:0:0:0:
320,192,234935,1,0,0:0:0:0:
64,192,235010,1,0,0:0:0:0:
192,192,235010,1,0,0:0:0:0:
320,192,235085,1,0,0:0:0:0:
448,192,235085,1,0,0:0:0:0:
192,192,235160,1,0,0:0:0:0:
320,192,235235,1,0,0:0:0:0:
448,192,235235,1,0,0:0:0:0:
64,192,235235,1,0,0:0:0:0:
192,192,235310,1,0,0:0:0:0:
64,192,235385,1,0,0:0:0:0:
448,192,235385,1,0,0:0:0:0:
320,192,235460,1,0,0:0:0:0:
64,192,235535,1,0,0:0:0:0:
192,192,235610,1,0,0:0:0:0:
320,192,235685,1,0,0:0:0:0:
448,192,235685,1,0,0:0:0:0:
64,192,235760,1,0,0:0:0:0:
192,192,235835,1,0,0:0:0:0:
448,192,235910,1,0,0:0:0:0:
320,192,235985,1,0,0:0:0:0:
192,192,235985,1,0,0:0:0:0:
64,192,235985,1,0,0:0:0:0:
448,192,236060,1,0,0:0:0:0:
320,192,236135,1,0,0:0:0:0:
64,192,236210,1,0,0:0:0:0:
448,192,236285,1,0,0:0:0:0:
192,192,236285,1,0,0:0:0:0:
320,192,236285,1,0,0:0:0:0:
64,192,236360,1,0,0:0:0:0:
192,192,236435,1,0,0:0:0:0:
448,192,236435,1,0,0:0:0:0:
320,192,236510,1,0,0:0:0:0:
64,192,236585,1,0,0:0:0:0:
192,192,236585,1,0,0:0:0:0:
448,192,236660,1,0,0:0:0:0:
320,192,236735,1,0,0:0:0:0:
64,192,236810,1,0,0:0:0:0:
448,192,236885,1,0,0:0:0:0:
192,192,236885,1,0,0:0:0:0:
320,192,236960,1,0,0:0:0:0:
64,192,237035,1,0,0:0:0:0:
192,192,237110,1,0,0:0:0:0:
448,192,237185,1,0,0:0:0:0:
64,192,237185,1,0,0:0:0:0:
320,192,237185,1,0,0:0:0:0:
192,192,237260,1,0,0:0:0:0:
448,192,237335,1,0,0:0:0:0:
320,192,237410,1,0,0:0:0:0:
64,192,237485,1,0,0:0:0:0:
448,192,237485,1,0,0:0:0:0:
192,192,237485,1,0,0:0:0:0:
320,192,237560,1,0,0:0:0:0:
192,192,237635,1,0,0:0:0:0:
64,192,237635,1,0,0:0:0:0:
448,192,237710,1,0,0:0:0:0:
320,192,237785,1,0,0:0:0:0:
64,192,237785,1,0,0:0:0:0:
192,192,237860,1,0,0:0:0:0:
448,192,237935,1,0,0:0:0:0:
320,192,238010,1,0,0:0:0:0:
64,192,238085,1,0,0:0:0:0:
448,192,238085,1,0,0:0:0:0:
192,192,238085,1,0,0:0:0:0:
320,192,238160,1,0,0:0:0:0:
64,192,238235,1,0,0:0:0:0:
192,192,238310,1,0,0:0:0:0:
448,192,238385,1,0,0:0:0:0:
320,192,238385,1,0,0:0:0:0:
64,192,238385,1,0,0:0:0:0:
192,192,238460,1,0,0:0:0:0:
448,192,238535,1,0,0:0:0:0:
320,192,238610,1,0,0:0:0:0:
64,192,238685,1,0,0:0:0:0:
192,192,238685,1,0,0:0:0:0:
448,192,238685,1,0,0:0:0:0:
320,192,238760,1,0,0:0:0:0:
64,192,238835,1,0,0:0:0:0:
192,192,238835,1,0,0:0:0:0:
448,192,238910,1,0,0:0:0:0:
64,192,238985,1,0,0:0:0:0:
320,192,238985,1,0,0:0:0:0:
192,192,239060,1,0,0:0:0:0:
448,192,239135,1,0,0:0:0:0:
64,192,239210,1,0,0:0:0:0:
320,192,239285,1,0,0:0:0:0:
192,192,239285,1,0,0:0:0:0:
448,192,239360,1,0,0:0:0:0:
64,192,239435,1,0,0:0:0:0:
320,192,239510,1,0,0:0:0:0:
448,192,239585,1,0,0:0:0:0:
192,192,239585,1,0,0:0:0:0:
64,192,239585,1,0,0:0:0:0:
320,192,239660,1,0,0:0:0:0:
192,192,239735,1,0,0:0:0:0:
448,192,239810,1,0,0:0:0:0:
64,192,239885,1,0,0:0:0:0:
320,192,239885,1,0,0:0:0:0:
192,192,239885,1,0,0:0:0:0:
448,192,239960,1,0,0:0:0:0:
320,192,240035,1,0,0:0:0:0:
192,192,240035,1,0,0:0:0:0:
64,192,240035,1,0,0:0:0:0:
448,192,240110,1,0,0:0:0:0:
192,192,240185,1,0,0:0:0:0:
64,192,240185,1,0,0:0:0:0:
320,192,240260,1,0,0:0:0:0:
448,192,240335,1,0,0:0:0:0:
320,192,240410,1,0,0:0:0:0:
192,192,240485,1,0,0:0:0:0:
64,192,240485,1,0,0:0:0:0:
448,192,240560,1,0,0:0:0:0:
320,192,240635,1,0,0:0:0:0:
192,192,240710,1,0,0:0:0:0:
448,192,240785,1,0,0:0:0:0:
64,192,240785,1,0,0:0:0:0:
320,192,240785,1,0,0:0:0:0:
192,192,240860,1,0,0:0:0:0:
64,192,240935,1,0,0:0:0:0:
448,192,241010,1,0,0:0:0:0:
192,192,241085,1,0,0:0:0:0:
320,192,241085,1,0,0:0:0:0:
64,192,241085,1,0,0:0:0:0:
448,192,241160,1,0,0:0:0:0:
192,192,241235,1,0,0:0:0:0:
320,192,241235,1,0,0:0:0:0:
64,192,241310,1,0,0:0:0:0:
192,192,241385,1,0,0:0:0:0:
448,192,241385,1,0,0:0:0:0:
320,192,241460,1,0,0:0:0:0:
448,192,241535,1,0,0:0:0:0:
64,192,241535,1,0,0:0:0:0:
192,192,241610,1,0,0:0:0:0:
64,192,241685,1,0,0:0:0:0:
320,192,241685,1,0,0:0:0:0:
448,192,241685,1,0,0:0:0:0:
192,192,241760,1,0,0:0:0:0:
64,192,241835,1,0,0:0:0:0:
320,192,241835,1,0,0:0:0:0:
448,192,241910,1,0,0:0:0:0:
192,192,241985,1,0,0:0:0:0:
320,192,241985,1,0,0:0:0:0:
64,192,241985,1,0,0:0:0:0:
448,192,242060,1,0,0:0:0:0:
320,192,242135,1,0,0:0:0:0:
192,192,242135,1,0,0:0:0:0:
64,192,242210,1,0,0:0:0:0:
448,192,242285,1,0,0:0:0:0:
320,192,242285,1,0,0:0:0:0:
192,192,242285,1,0,0:0:0:0:
64,192,242360,1,0,0:0:0:0:
448,192,242435,1,0,0:0:0:0:
192,192,242435,1,0,0:0:0:0:
320,192,242510,1,0,0:0:0:0:
64,192,242585,1,0,0:0:0:0:
448,192,242585,1,0,0:0:0:0:
320,192,242660,1,0,0:0:0:0:
192,192,242735,1,0,0:0:0:0:
64,192,242810,1,0,0:0:0:0:
448,192,242885,1,0,0:0:0:0:
320,192,242885,1,0,0:0:0:0:
192,192,242885,1,0,0:0:0:0:
64,192,242960,1,0,0:0:0:0:
448,192,243035,1,0,0:0:0:0:
192,192,243110,1,0,0:0:0:0:
64,192,243185,1,0,0:0:0:0:
320,192,243185,1,0,0:0:0:0:
448,192,243185,1,0,0:0:0:0:
192,192,243260,1,0,0:0:0:0:
320,192,243335,1,0,0:0:0:0:
64,192,243410,1,0,0:0:0:0:
448,192,243485,1,0,0:0:0:0:
192,192,243485,1,0,0:0:0:0:
320,192,243485,1,0,0:0:0:0:
64,192,243560,1,0,0:0:0:0:
448,192,243635,1,0,0:0:0:0:
192,192,243635,1,0,0:0:0:0:
320,192,243635,1,0,0:0:0:0:
64,192,243710,1,0,0:0:0:0:
320,192,243785,1,0,0:0:0:0:
192,192,243785,1,0,0:0:0:0:
448,192,243785,1,0,0:0:0:0:
64,192,243860,1,0,0:0:0:0:
320,192,243935,1,0,0:0:0:0:
192,192,243935,1,0,0:0:0:0:
448,192,244010,1,0,0:0:0:0:
64,192,244010,1,0,0:0:0:0:
320,192,244085,1,0,0:0:0:0:
192,192,244085,1,0,0:0:0:0:
448,192,244160,1,0,0:0:0:0:
192,192,244235,1,0,0:0:0:0:
320,192,244235,1,0,0:0:0:0:
64,192,244235,1,0,0:0:0:0:
448,192,244310,1,0,0:0:0:0:
192,192,244385,1,0,0:0:0:0:
64,192,244385,1,0,0:0:0:0:
448,192,244460,1,0,0:0:0:0:
192,192,244535,1,0,0:0:0:0:
320,192,244535,1,0,0:0:0:0:
64,192,244610,1,0,0:0:0:0:
448,192,244685,1,0,0:0:0:0:
320,192,244685,1,0,0:0:0:0:
192,192,244685,1,0,0:0:0:0:
64,192,244760,1,0,0:0:0:0:
192,192,244835,1,0,0:0:0:0:
320,192,244835,1,0,0:0:0:0:
448,192,244835,1,0,0:0:0:0:
64,192,244910,1,0,0:0:0:0:
192,192,244985,1,0,0:0:0:0:
320,192,244985,1,0,0:0:0:0:
448,192,244985,1,0,0:0:0:0:
64,192,245060,1,0,0:0:0:0:
192,192,245285,1,0,0:0:0:0:
448,192,245285,1,0,0:0:0:0:
320,192,245285,1,0,0:0:0:0:
64,192,245360,1,0,0:0:0:0:
192,192,245435,1,0,0:0:0:0:
448,192,245435,1,0,0:0:0:0:
320,192,245510,1,0,0:0:0:0:
64,192,245585,1,0,0:0:0:0:
448,192,245585,1,0,0:0:0:0:
192,192,245660,1,0,0:0:0:0:
320,192,245885,1,0,0:0:0:0:
64,192,245885,1,0,0:0:0:0:
448,192,245960,1,0,0:0:0:0:
192,192,246035,1,0,0:0:0:0:
320,192,246110,1,0,0:0:0:0:
448,192,246185,1,0,0:0:0:0:
192,192,246185,1,0,0:0:0:0:
64,192,246185,1,0,0:0:0:0:
320,192,246260,1,0,0:0:0:0:
64,192,246335,1,0,0:0:0:0:
320,192,246485,1,0,0:0:0:0:
192,192,246485,1,0,0:0:0:0:
448,192,246485,1,0,0:0:0:0:
64,192,246560,1,0,0:0:0:0:
448,192,246635,1,0,0:0:0:0:
320,192,246635,1,0,0:0:0:0:
192,192,246710,1,0,0:0:0:0:
448,192,246785,1,0,0:0:0:0:
320,192,246785,1,0,0:0:0:0:
64,192,246785,1,0,0:0:0:0:
192,192,246860,1,0,0:0:0:0:
448,192,246935,1,0,0:0:0:0:
64,192,246935,1,0,0:0:0:0:
320,192,247010,1,0,0:0:0:0:
192,192,247085,1,0,0:0:0:0:
448,192,247085,1,0,0:0:0:0:
64,192,247085,1,0,0:0:0:0:
320,192,247160,1,0,0:0:0:0:
64,192,247235,1,0,0:0:0:0:
192,192,247235,1,0,0:0:0:0:
448,192,247310,1,0,0:0:0:0:
192,192,247385,1,0,0:0:0:0:
64,192,247385,1,0,0:0:0:0:
320,192,247385,1,0,0:0:0:0:
448,192,247460,1,0,0:0:0:0:
64,192,247685,1,0,0:0:0:0:
192,192,247685,1,0,0:0:0:0:
320,192,247685,1,0,0:0:0:0:
448,192,247760,1,0,0:0:0:0:
192,192,247835,1,0,0:0:0:0:
64,192,247835,1,0,0:0:0:0:
320,192,247910,1,0,0:0:0:0:
448,192,247985,1,0,0:0:0:0:
64,192,247985,1,0,0:0:0:0:
320,192,248060,1,0,0:0:0:0:
192,192,248285,1,0,0:0:0:0:
448,192,248285,1,0,0:0:0:0:
64,192,248360,1,0,0:0:0:0:
320,192,248435,1,0,0:0:0:0:
192,192,248510,1,0,0:0:0:0:
64,192,248585,1,0,0:0:0:0:
448,192,248585,1,0,0:0:0:0:
320,192,248660,1,0,0:0:0:0:
320,192,248885,1,0,0:0:0:0:
192,192,248885,1,0,0:0:0:0:
448,192,248960,1,0,0:0:0:0:
64,192,249035,1,0,0:0:0:0:
192,192,249110,1,0,0:0:0:0:
320,192,249185,1,0,0:0:0:0:
448,192,249185,1,0,0:0:0:0:
64,192,249260,1,0,0:0:0:0:
192,192,249335,1,0,0:0:0:0:
448,192,249410,1,0,0:0:0:0:
64,192,249485,1,0,0:0:0:0:
320,192,249485,1,0,0:0:0:0:
192,192,249560,1,0,0:0:0:0:
320,192,249635,1,0,0:0:0:0:
448,192,249635,1,0,0:0:0:0:
64,192,249710,1,0,0:0:0:0:
320,192,249785,1,0,0:0:0:0:
192,192,249785,1,0,0:0:0:0:
448,192,249785,1,0,0:0:0:0:
64,192,249860,1,0,0:0:0:0:
192,192,250085,1,0,0:0:0:0:
448,192,250085,1,0,0:0:0:0:
320,192,250085,1,0,0:0:0:0:
64,192,250160,1,0,0:0:0:0:
448,192,250235,1,0,0:0:0:0:
192,192,250235,1,0,0:0:0:0:
320,192,250310,1,0,0:0:0:0:
448,192,250385,1,0,0:0:0:0:
64,192,250385,1,0,0:0:0:0:
192,192,250460,1,0,0:0:0:0:
320,192,250685,1,0,0:0:0:0:
64,192,250835,1,0,0:0:0:0:
448,192,250910,1,0,0:0:0:0:
64,192,250985,1,0,0:0:0:0:
192,192,250985,1,0,0:0:0:0:
320,192,250985,1,0,0:0:0:0:
448,192,251060,1,0,0:0:0:0:
192,192,251135,1,0,0:0:0:0:
320,192,251135,1,0,0:0:0:0:
64,192,251210,1,0,0:0:0:0:
192,192,251285,1,0,0:0:0:0:
320,192,251285,1,0,0:0:0:0:
448,192,251285,1,0,0:0:0:0:
64,192,251360,1,0,0:0:0:0:
448,192,251435,1,0,0:0:0:0:
320,192,251435,1,0,0:0:0:0:
192,192,251510,1,0,0:0:0:0:
320,192,251585,1,0,0:0:0:0:
448,192,251585,1,0,0:0:0:0:
64,192,251585,1,0,0:0:0:0:
192,192,251660,1,0,0:0:0:0:
448,192,251735,1,0,0:0:0:0:
64,192,251735,1,0,0:0:0:0:
192,192,251810,1,0,0:0:0:0:
64,192,251885,1,0,0:0:0:0:
448,192,251885,1,0,0:0:0:0:
320,192,251885,1,0,0:0:0:0:
192,192,251960,1,0,0:0:0:0:
320,192,252035,1,0,0:0:0:0:
64,192,252035,1,0,0:0:0:0:
448,192,252110,1,0,0:0:0:0:
192,192,252185,1,0,0:0:0:0:
64,192,252185,1,0,0:0:0:0:
320,192,252185,1,0,0:0:0:0:
448,192,252260,1,0,0:0:0:0:
192,192,252335,1,0,0:0:0:0:
320,192,252335,1,0,0:0:0:0:
448,192,252410,1,0,0:0:0:0:
320,192,252485,1,0,0:0:0:0:
64,192,252485,1,0,0:0:0:0:
192,192,252485,1,0,0:0:0:0:
448,192,252560,1,0,0:0:0:0:
320,192,252635,1,0,0:0:0:0:
64,192,252635,1,0,0:0:0:0:
192,192,252710,1,0,0:0:0:0:
448,192,252785,1,0,0:0:0:0:
64,192,252785,1,0,0:0:0:0:
192,192,252860,1,0,0:0:0:0:
64,192,252935,1,0,0:0:0:0:
320,192,252935,1,0,0:0:0:0:
448,192,253010,1,0,0:0:0:0:
320,192,253085,1,0,0:0:0:0:
192,192,253160,1,0,0:0:0:0:
64,192,253235,1,0,0:0:0:0:
448,192,253235,1,0,0:0:0:0:
192,192,253310,1,0,0:0:0:0:
320,192,253385,1,0,0:0:0:0:
64,192,253385,1,0,0:0:0:0:
448,192,253460,1,0,0:0:0:0:
192,192,253535,1,0,0:0:0:0:
320,192,253535,1,0,0:0:0:0:
64,192,253610,1,0,0:0:0:0:
448,192,253685,1,0,0:0:0:0:
192,192,253685,1,0,0:0:0:0:
320,192,253760,1,0,0:0:0:0:
192,192,253835,1,0,0:0:0:0:
448,192,253835,1,0,0:0:0:0:
64,192,253835,1,0,0:0:0:0:
320,192,253910,1,0,0:0:0:0:
64,192,253985,1,0,0:0:0:0:
192,192,254060,1,0,0:0:0:0:
64,192,254135,1,0,0:0:0:0:
320,192,254135,1,0,0:0:0:0:
448,192,254135,1,0,0:0:0:0:
192,192,254210,1,0,0:0:0:0:
448,192,254285,1,0,0:0:0:0:
320,192,254360,1,0,0:0:0:0:
192,192,254435,1,0,0:0:0:0:
64,192,254435,1,0,0:0:0:0:
448,192,254435,1,0,0:0:0:0:
320,192,254510,1,0,0:0:0:0:
64,192,254585,1,0,0:0:0:0:
448,192,254660,1,0,0:0:0:0:
192,192,254735,1,0,0:0:0:0:
64,192,254735,1,0,0:0:0:0:
320,192,254810,1,0,0:0:0:0:
192,192,254885,1,0,0:0:0:0:
448,192,254885,1,0,0:0:0:0:
64,192,254885,1,0,0:0:0:0:
320,192,254960,1,0,0:0:0:0:
448,192,255035,1,0,0:0:0:0:
192,192,255035,1,0,0:0:0:0:
320,192,255110,1,0,0:0:0:0:
64,192,255110,1,0,0:0:0:0:
448,192,255185,1,0,0:0:0:0:
192,192,255185,1,0,0:0:0:0:
320,192,255260,1,0,0:0:0:0:
64,192,255335,1,0,0:0:0:0:
192,192,255335,1,0,0:0:0:0:
320,192,255410,1,0,0:0:0:0:
448,192,255410,1,0,0:0:0:0:
64,192,255485,1,0,0:0:0:0:
192,192,255485,1,0,0:0:0:0:
448,192,255560,1,0,0:0:0:0:
192,192,255635,1,0,0:0:0:0:
320,192,255635,1,0,0:0:0:0:
64,192,255635,1,0,0:0:0:0:
448,192,255710,1,0,0:0:0:0:
64,192,255785,1,0,0:0:0:0:
320,192,255860,1,0,0:0:0:0:
192,192,255935,1,0,0:0:0:0:
448,192,255935,1,0,0:0:0:0:
320,192,256010,1,0,0:0:0:0:
448,192,256085,1,0,0:0:0:0:
192,192,256085,1,0,0:0:0:0:
64,192,256085,1,0,0:0:0:0:
320,192,256160,1,0,0:0:0:0:
64,192,256235,1,0,0:0:0:0:
192,192,256310,1,0,0:0:0:0:
64,192,256385,1,0,0:0:0:0:
320,192,256385,1,0,0:0:0:0:
448,192,256385,1,0,0:0:0:0:
192,192,256460,1,0,0:0:0:0:
320,192,256535,1,0,0:0:0:0:
448,192,256535,1,0,0:0:0:0:
64,192,256610,1,0,0:0:0:0:
192,192,256610,1,0,0:0:0:0:
448,192,256685,1,0,0:0:0:0:
320,192,256685,1,0,0:0:0:0:
64,192,256760,1,0,0:0:0:0:
192,192,256835,1,0,0:0:0:0:
320,192,256835,1,0,0:0:0:0:
448,192,256835,1,0,0:0:0:0:
64,192,256910,1,0,0:0:0:0:
448,192,256985,1,0,0:0:0:0:
192,192,256985,1,0,0:0:0:0:
320,192,257060,1,0,0:0:0:0:
64,192,257135,1,0,0:0:0:0:
192,192,257210,1,0,0:0:0:0:
448,192,257285,1,0,0:0:0:0:
320,192,257285,1,0,0:0:0:0:
64,192,257285,1,0,0:0:0:0:
192,192,257360,1,0,0:0:0:0:
448,192,257435,1,0,0:0:0:0:
320,192,257435,1,0,0:0:0:0:
64,192,257510,1,0,0:0:0:0:
448,192,257585,1,0,0:0:0:0:
192,192,257585,1,0,0:0:0:0:
320,192,257660,1,0,0:0:0:0:
64,192,257735,1,0,0:0:0:0:
192,192,257735,1,0,0:0:0:0:
448,192,257810,1,0,0:0:0:0:
192,192,257885,1,0,0:0:0:0:
64,192,257885,1,0,0:0:0:0:
320,192,257885,1,0,0:0:0:0:
448,192,257960,1,0,0:0:0:0:
192,192,258035,1,0,0:0:0:0:
320,192,258035,1,0,0:0:0:0:
64,192,258110,1,0,0:0:0:0:
448,192,258185,1,0,0:0:0:0:
64,192,258260,1,0,0:0:0:0:
192,192,258335,1,0,0:0:0:0:
320,192,258410,1,0,0:0:0:0:
448,192,258485,1,0,0:0:0:0:
320,192,258560,1,0,0:0:0:0:
64,192,258635,1,0,0:0:0:0:
192,192,258710,1,0,0:0:0:0:
448,192,258785,1,0,0:0:0:0:
64,192,258785,1,0,0:0:0:0:
320,192,258860,1,0,0:0:0:0:
192,192,258935,1,0,0:0:0:0:
448,192,259010,1,0,0:0:0:0:
64,192,259085,1,0,0:0:0:0:
320,192,259085,1,0,0:0:0:0:
192,192,259160,1,0,0:0:0:0:
448,192,259235,1,0,0:0:0:0:
320,192,259235,1,0,0:0:0:0:
64,192,259235,1,0,0:0:0:0:
192,192,259310,1,0,0:0:0:0:
448,192,259385,1,0,0:0:0:0:
64,192,259460,1,0,0:0:0:0:
320,192,259535,1,0,0:0:0:0:
192,192,259535,1,0,0:0:0:0:
448,192,259610,1,0,0:0:0:0:
320,192,259685,1,0,0:0:0:0:
64,192,259685,1,0,0:0:0:0:
192,192,259760,1,0,0:0:0:0:
448,192,259835,1,0,0:0:0:0:
320,192,259910,1,0,0:0:0:0:
192,192,259985,1,0,0:0:0:0:
64,192,259985,1,0,0:0:0:0:
448,192,259985,1,0,0:0:0:0:
320,192,260060,1,0,0:0:0:0:
192,192,260135,1,0,0:0:0:0:
64,192,260210,1,0,0:0:0:0:
320,192,260285,1,0,0:0:0:0:
448,192,260285,1,0,0:0:0:0:
192,192,260285,1,0,0:0:0:0:
64,192,260360,1,0,0:0:0:0:
448,192,260435,1,0,0:0:0:0:
320,192,260435,1,0,0:0:0:0:
192,192,260435,1,0,0:0:0:0:
64,192,260510,1,0,0:0:0:0:
320,192,260585,1,0,0:0:0:0:
448,192,260660,1,0,0:0:0:0:
192,192,260735,1,0,0:0:0:0:
64,192,260735,1,0,0:0:0:0:
448,192,260810,1,0,0:0:0:0:
320,192,260810,1,0,0:0:0:0:
192,192,260885,1,0,0:0:0:0:
64,192,260885,1,0,0:0:0:0:
448,192,260960,1,0,0:0:0:0:
320,192,261035,1,0,0:0:0:0:
64,192,261035,1,0,0:0:0:0:
192,192,261110,1,0,0:0:0:0:
448,192,261110,1,0,0:0:0:0:
320,192,261185,1,0,0:0:0:0:
64,192,261185,1,0,0:0:0:0:
192,192,261260,1,0,0:0:0:0:
320,192,261335,1,0,0:0:0:0:
448,192,261335,1,0,0:0:0:0:
64,192,261410,1,0,0:0:0:0:
448,192,261485,1,0,0:0:0:0:
320,192,261485,1,0,0:0:0:0:
192,192,261485,1,0,0:0:0:0:
64,192,261560,1,0,0:0:0:0:
448,192,261635,1,0,0:0:0:0:
192,192,261635,1,0,0:0:0:0:
320,192,261635,1,0,0:0:0:0:
64,192,261710,1,0,0:0:0:0:
192,192,261785,1,0,0:0:0:0:
448,192,261785,1,0,0:0:0:0:
320,192,261860,1,0,0:0:0:0:
64,192,261935,1,0,0:0:0:0:
192,192,262010,1,0,0:0:0:0:
448,192,262085,1,0,0:0:0:0:
320,192,262085,1,0,0:0:0:0:
64,192,262160,1,0,0:0:0:0:
192,192,262160,1,0,0:0:0:0:
448,192,262235,1,0,0:0:0:0:
320,192,262235,1,0,0:0:0:0:
64,192,262310,1,0,0:0:0:0:
192,192,262310,1,0,0:0:0:0:
448,192,262385,1,0,0:0:0:0:
320,192,262385,1,0,0:0:0:0:
64,192,262460,1,0,0:0:0:0:
192,192,262460,1,0,0:0:0:0:
320,192,262535,1,0,0:0:0:0:
448,192,262535,1,0,0:0:0:0:
192,192,262610,1,0,0:0:0:0:
64,192,262685,1,0,0:0:0:0:
448,192,262760,1,0,0:0:0:0:
64,192,262835,1,0,0:0:0:0:
192,192,262835,1,0,0:0:0:0:
320,192,262835,1,0,0:0:0:0:
448,192,262910,1,0,0:0:0:0:
320,192,262985,1,0,0:0:0:0:
64,192,263060,1,0,0:0:0:0:
320,192,263135,1,0,0:0:0:0:
448,192,263135,1,0,0:0:0:0:
192,192,263135,1,0,0:0:0:0:
64,192,263210,1,0,0:0:0:0:
192,192,263285,1,0,0:0:0:0:
320,192,263360,1,0,0:0:0:0:
64,192,263435,1,0,0:0:0:0:
192,192,263435,1,0,0:0:0:0:
448,192,263435,1,0,0:0:0:0:
320,192,263510,1,0,0:0:0:0:
192,192,263585,1,0,0:0:0:0:
448,192,263585,1,0,0:0:0:0:
64,192,263585,1,0,0:0:0:0:
320,192,263660,1,0,0:0:0:0:
448,192,263735,1,0,0:0:0:0:
192,192,263735,1,0,0:0:0:0:
64,192,263810,1,0,0:0:0:0:
192,192,263885,1,0,0:0:0:0:
320,192,263885,1,0,0:0:0:0:
448,192,263885,1,0,0:0:0:0:
64,192,263960,1,0,0:0:0:0:
320,192,264035,1,0,0:0:0:0:
448,192,264035,1,0,0:0:0:0:
192,192,264035,1,0,0:0:0:0:
64,192,264110,1,0,0:0:0:0:
448,192,264185,1,0,0:0:0:0:
320,192,264185,1,0,0:0:0:0:
192,192,264260,1,0,0:0:0:0:
64,192,264335,1,0,0:0:0:0:
192,192,264410,1,0,0:0:0:0:
448,192,264485,1,0,0:0:0:0:
64,192,264485,1,0,0:0:0:0:
320,192,264485,1,0,0:0:0:0:
192,192,264560,1,0,0:0:0:0:
448,192,264635,1,0,0:0:0:0:
320,192,264710,1,0,0:0:0:0:
448,192,264785,1,0,0:0:0:0:
192,192,264785,1,0,0:0:0:0:
64,192,264785,1,0,0:0:0:0:
320,192,264860,1,0,0:0:0:0:
64,192,264935,1,0,0:0:0:0:
192,192,265010,1,0,0:0:0:0:
320,192,265085,1,0,0:0:0:0:
64,192,265085,1,0,0:0:0:0:
448,192,265085,1,0,0:0:0:0:
192,192,265160,1,0,0:0:0:0:
448,192,265235,1,0,0:0:0:0:
64,192,265235,1,0,0:0:0:0:
320,192,265310,1,0,0:0:0:0:
448,192,265385,1,0,0:0:0:0:
192,192,265385,1,0,0:0:0:0:
320,192,265460,1,0,0:0:0:0:
64,192,265535,1,0,0:0:0:0:
448,192,265610,1,0,0:0:0:0:
320,192,265685,1,0,0:0:0:0:
64,192,265685,1,0,0:0:0:0:
192,192,265685,1,0,0:0:0:0:
448,192,265760,1,0,0:0:0:0:
192,192,265835,1,0,0:0:0:0:
320,192,265910,1,0,0:0:0:0:
448,192,265985,1,0,0:0:0:0:
192,192,265985,1,0,0:0:0:0:
64,192,265985,1,0,0:0:0:0:
320,192,266060,1,0,0:0:0:0:
64,192,266135,1,0,0:0:0:0:
192,192,266210,1,0,0:0:0:0:
320,192,266285,1,0,0:0:0:0:
64,192,266285,1,0,0:0:0:0:
448,192,266285,1,0,0:0:0:0:
192,192,266360,1,0,0:0:0:0:
448,192,266435,1,0,0:0:0:0:
320,192,266435,1,0,0:0:0:0:
64,192,266510,1,0,0:0:0:0:
448,192,266585,1,0,0:0:0:0:
192,192,266585,1,0,0:0:0:0:
320,192,266660,1,0,0:0:0:0:
64,192,266735,1,0,0:0:0:0:
448,192,266810,1,0,0:0:0:0:
64,192,266885,1,0,0:0:0:0:
320,192,266885,1,0,0:0:0:0:
192,192,266885,1,0,0:0:0:0:
448,192,266960,1,0,0:0:0:0:
192,192,267035,1,0,0:0:0:0:
320,192,267110,1,0,0:0:0:0:
192,192,267185,1,0,0:0:0:0:
448,192,267185,1,0,0:0:0:0:
64,192,267185,1,0,0:0:0:0:
320,192,267260,1,0,0:0:0:0:
64,192,267335,1,0,0:0:0:0:
192,192,267410,1,0,0:0:0:0:
320,192,267485,1,0,0:0:0:0:
64,192,267485,1,0,0:0:0:0:
448,192,267485,1,0,0:0:0:0:
192,192,267560,1,0,0:0:0:0:
448,192,267635,1,0,0:0:0:0:
320,192,267635,1,0,0:0:0:0:
64,192,267710,1,0,0:0:0:0:
192,192,267785,1,0,0:0:0:0:
448,192,267785,1,0,0:0:0:0:
320,192,267860,1,0,0:0:0:0:
64,192,267935,1,0,0:0:0:0:
192,192,268010,1,0,0:0:0:0:
320,192,268085,1,0,0:0:0:0:
448,192,268085,1,0,0:0:0:0:
64,192,268160,1,0,0:0:0:0:
192,192,268235,1,0,0:0:0:0:
448,192,268310,1,0,0:0:0:0:
64,192,268385,1,0,0:0:0:0:
192,192,268385,1,0,0:0:0:0:
320,192,268385,1,0,0:0:0:0:
448,192,268460,1,0,0:0:0:0:
320,192,268535,1,0,0:0:0:0:
64,192,268535,1,0,0:0:0:0:
192,192,268610,1,0,0:0:0:0:
320,192,268685,1,0,0:0:0:0:
64,192,268685,1,0,0:0:0:0:
448,192,268685,1,0,0:0:0:0:
192,192,268760,1,0,0:0:0:0:
448,192,268835,1,0,0:0:0:0:
320,192,268835,1,0,0:0:0:0:
64,192,268910,1,0,0:0:0:0:
192,192,268985,1,0,0:0:0:0:
320,192,268985,1,0,0:0:0:0:
448,192,269060,1,0,0:0:0:0:
64,192,269135,1,0,0:0:0:0:
192,192,269210,1,0,0:0:0:0:
448,192,269285,1,0,0:0:0:0:
64,192,269285,1,0,0:0:0:0:
320,192,269285,1,0,0:0:0:0:
192,192,269360,1,0,0:0:0:0:
320,192,269435,1,0,0:0:0:0:
448,192,269510,1,0,0:0:0:0:
320,192,269585,1,0,0:0:0:0:
192,192,269585,1,0,0:0:0:0:
64,192,269585,1,0,0:0:0:0:
448,192,269660,1,0,0:0:0:0:
64,192,269735,1,0,0:0:0:0:
192,192,269810,1,0,0:0:0:0:
64,192,269885,1,0,0:0:0:0:
448,192,269885,1,0,0:0:0:0:
320,192,269885,1,0,0:0:0:0:
192,192,269960,1,0,0:0:0:0:
320,192,270035,1,0,0:0:0:0:
448,192,270035,1,0,0:0:0:0:
64,192,270110,1,0,0:0:0:0:
192,192,270185,1,0,0:0:0:0:
320,192,270185,1,0,0:0:0:0:
64,192,270260,1,0,0:0:0:0:
448,192,270335,1,0,0:0:0:0:
192,192,270410,1,0,0:0:0:0:
448,192,270485,1,0,0:0:0:0:
64,192,270485,1,0,0:0:0:0:
320,192,270485,1,0,0:0:0:0:
192,192,270560,1,0,0:0:0:0:
320,192,270635,1,0,0:0:0:0:
448,192,270710,1,0,0:0:0:0:
320,192,270785,1,0,0:0:0:0:
192,192,270785,1,0,0:0:0:0:
64,192,270785,1,0,0:0:0:0:
448,192,270860,1,0,0:0:0:0:
64,192,270935,1,0,0:0:0:0:
320,192,271010,1,0,0:0:0:0:
448,192,271085,1,0,0:0:0:0:
64,192,271085,1,0,0:0:0:0:
192,192,271085,1,0,0:0:0:0:
320,192,271160,1,0,0:0:0:0:
192,192,271235,1,0,0:0:0:0:
448,192,271235,1,0,0:0:0:0:
64,192,271310,1,0,0:0:0:0:
320,192,271385,1,0,0:0:0:0:
448,192,271385,1,0,0:0:0:0:
192,192,271385,1,0,0:0:0:0:
64,192,271460,1,0,0:0:0:0:
320,192,271535,1,0,0:0:0:0:
192,192,271610,1,0,0:0:0:0:
448,192,271685,1,0,0:0:0:0:
320,192,271685,1,0,0:0:0:0:
64,192,271685,1,0,0:0:0:0:
192,192,271760,1,0,0:0:0:0:
448,192,271835,1,0,0:0:0:0:
64,192,271835,1,0,0:0:0:0:
320,192,271910,1,0,0:0:0:0:
192,192,271985,1,0,0:0:0:0:
64,192,271985,1,0,0:0:0:0:
448,192,271985,1,0,0:0:0:0:
320,192,272060,1,0,0:0:0:0:
64,192,272135,1,0,0:0:0:0:
192,192,272135,1,0,0:0:0:0:
448,192,272210,1,0,0:0:0:0:
64,192,272285,1,0,0:0:0:0:
320,192,272285,1,0,0:0:0:0:
192,192,272285,1,0,0:0:0:0:
448,192,272360,1,0,0:0:0:0:
192,192,272435,1,0,0:0:0:0:
320,192,272435,1,0,0:0:0:0:
64,192,272510,1,0,0:0:0:0:
448,192,272585,1,0,0:0:0:0:
192,192,272585,1,0,0:0:0:0:
320,192,272660,1,0,0:0:0:0:
64,192,272735,1,0,0:0:0:0:
448,192,272810,1,0,0:0:0:0:
320,192,272885,1,0,0:0:0:0:
192,192,272885,1,0,0:0:0:0:
448,192,272960,1,0,0:0:0:0:
64,192,273035,1,0,0:0:0:0:
192,192,273110,1,0,0:0:0:0:
448,192,273185,1,0,0:0:0:0:
64,192,273185,1,0,0:0:0:0:
320,192,273185,1,0,0:0:0:0:
192,192,273260,1,0,0:0:0:0:
320,192,273335,1,0,0:0:0:0:
448,192,273410,1,0,0:0:0:0:
320,192,273485,1,0,0:0:0:0:
192,192,273485,1,0,0:0:0:0:
64,192,273485,1,0,0:0:0:0:
448,192,273560,1,0,0:0:0:0:
192,192,273635,1,0,0:0:0:0:
64,192,273635,1,0,0:0:0:0:
320,192,273710,1,0,0:0:0:0:
64,192,273785,1,0,0:0:0:0:
448,192,273785,1,0,0:0:0:0:
192,192,273860,1,0,0:0:0:0:
320,192,273935,1,0,0:0:0:0:
448,192,274010,1,0,0:0:0:0:
64,192,274085,1,0,0:0:0:0:
320,192,274085,1,0,0:0:0:0:
192,192,274085,1,0,0:0:0:0:
448,192,274160,1,0,0:0:0:0:
64,192,274235,1,0,0:0:0:0:
320,192,274310,1,0,0:0:0:0:
192,192,274385,1,0,0:0:0:0:
64,192,274385,1,0,0:0:0:0:
448,192,274385,1,0,0:0:0:0:
320,192,274460,1,0,0:0:0:0:
192,192,274535,1,0,0:0:0:0:
448,192,274610,1,0,0:0:0:0:
64,192,274685,1,0,0:0:0:0:
320,192,274685,1,0,0:0:0:0:
192,192,274685,1,0,0:0:0:0:
448,192,274760,1,0,0:0:0:0:
64,192,274835,1,0,0:0:0:0:
192,192,274835,1,0,0:0:0:0:
320,192,274910,1,0,0:0:0:0:
64,192,274985,1,0,0:0:0:0:
448,192,274985,1,0,0:0:0:0:
192,192,275060,1,0,0:0:0:0:
320,192,275135,1,0,0:0:0:0:
448,192,275210,1,0,0:0:0:0:
64,192,275285,1,0,0:0:0:0:
192,192,275285,1,0,0:0:0:0:
320,192,275285,1,0,0:0:0:0:
448,192,275360,1,0,0:0:0:0:
64,192,275435,1,0,0:0:0:0:
320,192,275510,1,0,0:0:0:0:
192,192,275585,1,0,0:0:0:0:
64,192,275585,1,0,0:0:0:0:
448,192,275585,1,0,0:0:0:0:
320,192,275660,1,0,0:0:0:0:
192,192,275735,1,0,0:0:0:0:
64,192,275810,1,0,0:0:0:0:
448,192,275885,1,0,0:0:0:0:
320,192,275885,1,0,0:0:0:0:
192,192,275885,1,0,0:0:0:0:
64,192,275960,1,0,0:0:0:0:
320,192,276035,1,0,0:0:0:0:
448,192,276035,1,0,0:0:0:0:
192,192,276110,1,0,0:0:0:0:
64,192,276185,1,0,0:0:0:0:
448,192,276185,1,0,0:0:0:0:
192,192,276260,1,0,0:0:0:0:
320,192,276335,1,0,0:0:0:0:
448,192,276410,1,0,0:0:0:0:
64,192,276485,1,0,0:0:0:0:
320,192,276485,1,0,0:0:0:0:
192,192,276485,1,0,0:0:0:0:
448,192,276560,1,0,0:0:0:0:
64,192,276635,1,0,0:0:0:0:
320,192,276710,1,0,0:0:0:0:
192,192,276785,1,0,0:0:0:0:
448,192,276785,1,0,0:0:0:0:
64,192,276785,1,0,0:0:0:0:
320,192,276860,1,0,0:0:0:0:
192,192,276935,1,0,0:0:0:0:
64,192,277010,1,0,0:0:0:0:
448,192,277085,1,0,0:0:0:0:
192,192,277085,1,0,0:0:0:0:
320,192,277085,1,0,0:0:0:0:
64,192,277160,1,0,0:0:0:0:
448,192,277235,1,0,0:0:0:0:
192,192,277235,1,0,0:0:0:0:
320,192,277310,1,0,0:0:0:0:
64,192,277385,1,0,0:0:0:0:
192,192,277385,1,0,0:0:0:0:
448,192,277385,1,0,0:0:0:0:
320,192,277460,1,0,0:0:0:0:
448,192,277535,1,0,0:0:0:0:
64,192,277610,1,0,0:0:0:0:
320,192,277685,1,0,0:0:0:0:
448,192,277685,1,0,0:0:0:0:
192,192,277685,1,0,0:0:0:0:
64,192,277760,1,0,0:0:0:0:
320,192,277835,1,0,0:0:0:0:
192,192,277835,1,0,0:0:0:0:
64,192,277910,1,0,0:0:0:0:
448,192,277985,1,0,0:0:0:0:
192,192,277985,1,0,0:0:0:0:
320,192,278060,1,0,0:0:0:0:
448,192,278135,1,0,0:0:0:0:
64,192,278135,1,0,0:0:0:0:
192,192,278210,1,0,0:0:0:0:
320,192,278285,1,0,0:0:0:0:
64,192,278285,1,0,0:0:0:0:
448,192,278360,1,0,0:0:0:0:
320,192,278435,1,0,0:0:0:0:
192,192,278435,1,0,0:0:0:0:
64,192,278510,1,0,0:0:0:0:
448,192,278585,1,0,0:0:0:0:
192,192,278585,1,0,0:0:0:0:
320,192,278660,1,0,0:0:0:0:
448,192,278735,1,0,0:0:0:0:
64,192,278810,1,0,0:0:0:0:
192,192,278885,1,0,0:0:0:0:
448,192,278885,1,0,0:0:0:0:
320,192,278885,1,0,0:0:0:0:
64,192,278960,1,0,0:0:0:0:
192,192,279035,1,0,0:0:0:0:
320,192,279110,1,0,0:0:0:0:
448,192,279185,1,0,0:0:0:0:
192,192,279185,1,0,0:0:0:0:
64,192,279185,1,0,0:0:0:0:
320,192,279260,1,0,0:0:0:0:
448,192,279335,1,0,0:0:0:0:
64,192,279410,1,0,0:0:0:0:
192,192,279485,1,0,0:0:0:0:
320,192,279485,1,0,0:0:0:0:
448,192,279485,1,0,0:0:0:0:
64,192,279560,1,0,0:0:0:0:
192,192,279635,1,0,0:0:0:0:
320,192,279635,1,0,0:0:0:0:
448,192,279710,1,0,0:0:0:0:
64,192,279785,1,0,0:0:0:0:
192,192,279785,1,0,0:0:0:0:
320,192,279860,1,0,0:0:0:0:
448,192,279935,1,0,0:0:0:0:
192,192,280010,1,0,0:0:0:0:
64,192,280085,1,0,0:0:0:0:
448,192,280085,1,0,0:0:0:0:
320,192,280085,1,0,0:0:0:0:
192,192,280160,1,0,0:0:0:0:
64,192,280235,1,0,0:0:0:0:
320,192,280310,1,0,0:0:0:0:
448,192,280385,1,0,0:0:0:0:
192,192,280385,1,0,0:0:0:0:
64,192,280385,1,0,0:0:0:0:
320,192,280460,1,0,0:0:0:0:
448,192,280535,1,0,0:0:0:0:
64,192,280610,1,0,0:0:0:0:
192,192,280685,1,0,0:0:0:0:
320,192,280685,1,0,0:0:0:0:
448,192,280685,1,0,0:0:0:0:
64,192,280760,1,0,0:0:0:0:
448,192,280835,1,0,0:0:0:0:
192,192,280835,1,0,0:0:0:0:
320,192,280910,1,0,0:0:0:0:
64,192,280910,1,0,0:0:0:0:
192,192,280985,1,0,0:0:0:0:
448,192,280985,1,0,0:0:0:0:
320,192,281060,1,0,0:0:0:0:
192,192,281135,1,0,0:0:0:0:
64,192,281135,1,0,0:0:0:0:
320,192,281210,1,0,0:0:0:0:
448,192,281210,1,0,0:0:0:0:
64,192,281285,1,0,0:0:0:0:
192,192,281285,1,0,0:0:0:0:
448,192,281360,1,0,0:0:0:0:
320,192,281435,1,0,0:0:0:0:
64,192,281435,1,0,0:0:0:0:
192,192,281510,1,0,0:0:0:0:
448,192,281510,1,0,0:0:0:0:
64,192,281585,1,0,0:0:0:0:
320,192,281585,1,0,0:0:0:0:
448,192,281660,1,0,0:0:0:0:
320,192,281735,1,0,0:0:0:0:
192,192,281735,1,0,0:0:0:0:
64,192,281810,1,0,0:0:0:0:
448,192,281810,1,0,0:0:0:0:
192,192,281885,1,0,0:0:0:0:
320,192,281885,1,0,0:0:0:0:
64,192,281960,1,0,0:0:0:0:
192,192,282035,1,0,0:0:0:0:
448,192,282035,1,0,0:0:0:0:
64,192,282110,1,0,0:0:0:0:
320,192,282110,1,0,0:0:0:0:
192,192,282185,1,0,0:0:0:0:
448,192,282185,1,0,0:0:0:0:
64,192,282260,1,0,0:0:0:0:
320,192,282335,1,0,0:0:0:0:
448,192,282335,1,0,0:0:0:0:
192,192,282410,1,0,0:0:0:0:
64,192,282410,1,0,0:0:0:0:
448,192,282485,1,0,0:0:0:0:
320,192,282485,1,0,0:0:0:0:
192,192,282560,1,0,0:0:0:0:
320,192,282635,1,0,0:0:0:0:
64,192,282635,1,0,0:0:0:0:
192,192,282710,1,0,0:0:0:0:
448,192,282710,1,0,0:0:0:0:
64,192,282785,1,0,0:0:0:0:
320,192,282785,1,0,0:0:0:0:
192,192,282860,1,0,0:0:0:0:
448,192,282935,1,0,0:0:0:0:
64,192,282935,1,0,0:0:0:0:
320,192,282935,1,0,0:0:0:0:
192,192,283010,1,0,0:0:0:0:
448,192,283085,1,0,0:0:0:0:
64,192,283085,1,0,0:0:0:0:
320,192,283160,1,0,0:0:0:0:
192,192,283235,1,0,0:0:0:0:
448,192,283235,1,0,0:0:0:0:
64,192,283235,1,0,0:0:0:0:
320,192,283310,1,0,0:0:0:0:
64,192,283385,1,0,0:0:0:0:
192,192,283385,1,0,0:0:0:0:
448,192,283460,1,0,0:0:0:0:
320,192,283535,1,0,0:0:0:0:
448,192,283610,1,0,0:0:0:0:
64,192,283685,1,0,0:0:0:0:
320,192,283685,1,0,0:0:0:0:
192,192,283685,1,0,0:0:0:0:
448,192,283760,1,0,0:0:0:0:
64,192,283835,1,0,0:0:0:0:
192,192,283910,1,0,0:0:0:0:
448,192,283985,1,0,0:0:0:0:
64,192,283985,1,0,0:0:0:0:
320,192,283985,1,0,0:0:0:0:
192,192,284060,1,0,0:0:0:0:
320,192,284135,1,0,0:0:0:0:
448,192,284210,1,0,0:0:0:0:
192,192,284285,1,0,0:0:0:0:
320,192,284285,1,0,0:0:0:0:
64,192,284285,1,0,0:0:0:0:
448,192,284360,1,0,0:0:0:0:
320,192,284435,1,0,0:0:0:0:
64,192,284435,1,0,0:0:0:0:
192,192,284510,1,0,0:0:0:0:
64,192,284585,1,0,0:0:0:0:
448,192,284585,1,0,0:0:0:0:
192,192,284660,1,0,0:0:0:0:
320,192,284735,1,0,0:0:0:0:
64,192,284810,1,0,0:0:0:0:
192,192,284885,1,0,0:0:0:0:
320,192,284885,1,0,0:0:0:0:
448,192,284885,1,0,0:0:0:0:
64,192,284960,1,0,0:0:0:0:
448,192,285035,1,0,0:0:0:0:
320,192,285110,1,0,0:0:0:0:
448,192,285185,1,0,0:0:0:0:
64,192,285185,1,0,0:0:0:0:
192,192,285185,1,0,0:0:0:0:
320,192,285260,1,0,0:0:0:0:
192,192,285335,1,0,0:0:0:0:
448,192,285410,1,0,0:0:0:0:
192,192,285485,1,0,0:0:0:0:
320,192,285485,1,0,0:0:0:0:
64,192,285485,1,0,0:0:0:0:
448,192,285560,1,0,0:0:0:0:
192,192,285635,1,0,0:0:0:0:
64,192,285635,1,0,0:0:0:0:
320,192,285710,1,0,0:0:0:0:
448,192,285785,1,0,0:0:0:0:
64,192,285785,1,0,0:0:0:0:
320,192,285860,1,0,0:0:0:0:
192,192,285935,1,0,0:0:0:0:
64,192,286010,1,0,0:0:0:0:
320,192,286085,1,0,0:0:0:0:
192,192,286085,1,0,0:0:0:0:
448,192,286085,1,0,0:0:0:0:
64,192,286160,1,0,0:0:0:0:
448,192,286235,1,0,0:0:0:0:
192,192,286310,1,0,0:0:0:0:
448,192,286385,1,0,0:0:0:0:
64,192,286385,1,0,0:0:0:0:
320,192,286385,1,0,0:0:0:0:
192,192,286460,1,0,0:0:0:0:
320,192,286535,1,0,0:0:0:0:
64,192,286610,1,0,0:0:0:0:
192,192,286685,1,0,0:0:0:0:
320,192,286685,1,0,0:0:0:0:
448,192,286685,1,0,0:0:0:0:
64,192,286760,1,0,0:0:0:0:
448,192,286835,1,0,0:0:0:0:
320,192,286835,1,0,0:0:0:0:
192,192,286910,1,0,0:0:0:0:
64,192,286985,1,0,0:0:0:0:
448,192,286985,1,0,0:0:0:0:
320,192,287060,1,0,0:0:0:0:
192,192,287135,1,0,0:0:0:0:
448,192,287210,1,0,0:0:0:0:
64,192,287285,1,0,0:0:0:0:
320,192,287285,1,0,0:0:0:0:
192,192,287360,1,0,0:0:0:0:
448,192,287435,1,0,0:0:0:0:
64,192,287510,1,0,0:0:0:0:
448,192,287585,1,0,0:0:0:0:
192,192,287585,1,0,0:0:0:0:
320,192,287585,1,0,0:0:0:0:
64,192,287660,1,0,0:0:0:0:
320,192,287735,1,0,0:0:0:0:
192,192,287735,1,0,0:0:0:0:
64,192,287810,1,0,0:0:0:0:
320,192,287885,1,0,0:0:0:0:
192,192,287885,1,0,0:0:0:0:
448,192,287885,1,0,0:0:0:0:
64,192,287960,1,0,0:0:0:0:
448,192,288035,1,0,0:0:0:0:
192,192,288035,1,0,0:0:0:0:
320,192,288110,1,0,0:0:0:0:
64,192,288185,1,0,0:0:0:0:
448,192,288185,1,0,0:0:0:0:
320,192,288260,1,0,0:0:0:0:
192,192,288335,1,0,0:0:0:0:
64,192,288410,1,0,0:0:0:0:
192,192,288485,1,0,0:0:0:0:
320,192,288485,1,0,0:0:0:0:
448,192,288485,1,0,0:0:0:0:
64,192,288560,1,0,0:0:0:0:
448,192,288635,1,0,0:0:0:0:
320,192,288710,1,0,0:0:0:0:
64,192,288785,1,0,0:0:0:0:
448,192,288785,1,0,0:0:0:0:
192,192,288785,1,0,0:0:0:0:
320,192,288860,1,0,0:0:0:0:
192,192,288935,1,0,0:0:0:0:
448,192,289010,1,0,0:0:0:0:
320,192,289085,1,0,0:0:0:0:
192,192,289085,1,0,0:0:0:0:
64,192,289085,1,0,0:0:0:0:
448,192,289160,1,0,0:0:0:0:
64,192,289235,1,0,0:0:0:0:
192,192,289235,1,0,0:0:0:0:
320,192,289310,1,0,0:0:0:0:
64,192,289385,1,0,0:0:0:0:
448,192,289385,1,0,0:0:0:0:
320,192,289460,1,0,0:0:0:0:
192,192,289535,1,0,0:0:0:0:
64,192,289610,1,0,0:0:0:0:
448,192,289685,1,0,0:0:0:0:
192,192,289685,1,0,0:0:0:0:
320,192,289685,1,0,0:0:0:0:
64,192,289760,1,0,0:0:0:0:
448,192,289835,1,0,0:0:0:0:
320,192,289910,1,0,0:0:0:0:
448,192,289985,1,0,0:0:0:0:
64,192,289985,1,0,0:0:0:0:
192,192,289985,1,0,0:0:0:0:
320,192,290060,1,0,0:0:0:0:
192,192,290135,1,0,0:0:0:0:
64,192,290210,1,0,0:0:0:0:
192,192,290285,1,0,0:0:0:0:
320,192,290285,1,0,0:0:0:0:
448,192,290285,1,0,0:0:0:0:
64,192,290360,1,0,0:0:0:0:
320,192,290435,1,0,0:0:0:0:
448,192,290435,1,0,0:0:0:0:
192,192,290510,1,0,0:0:0:0:
64,192,290585,1,0,0:0:0:0:
320,192,290585,1,0,0:0:0:0:
448,192,290585,1,0,0:0:0:0:
192,192,290660,1,0,0:0:0:0:
448,192,290735,1,0,0:0:0:0:
64,192,290735,1,0,0:0:0:0:
320,192,290810,1,0,0:0:0:0:
64,192,290885,1,0,0:0:0:0:
192,192,290885,1,0,0:0:0:0:
448,192,290960,1,0,0:0:0:0:
192,192,291035,1,0,0:0:0:0:
320,192,291035,1,0,0:0:0:0:
64,192,291035,1,0,0:0:0:0:
448,192,291110,1,0,0:0:0:0:
192,192,291185,1,0,0:0:0:0:
320,192,291185,1,0,0:0:0:0:
448,192,291260,1,0,0:0:0:0:
320,192,291335,1,0,0:0:0:0:
192,192,291335,1,0,0:0:0:0:
64,192,291335,1,0,0:0:0:0:
448,192,291410,1,0,0:0:0:0:
64,192,291485,1,0,0:0:0:0:
320,192,291485,1,0,0:0:0:0:
192,192,291560,1,0,0:0:0:0:
320,192,291635,1,0,0:0:0:0:
64,192,291635,1,0,0:0:0:0:
448,192,291635,1,0,0:0:0:0:
192,192,291710,1,0,0:0:0:0:
64,192,291785,1,0,0:0:0:0:
448,192,291860,1,0,0:0:0:0:
64,192,291935,1,0,0:0:0:0:
192,192,291935,1,0,0:0:0:0:
320,192,291935,1,0,0:0:0:0:
448,192,292010,1,0,0:0:0:0:
320,192,292085,1,0,0:0:0:0:
64,192,292160,1,0,0:0:0:0:
448,192,292235,1,0,0:0:0:0:
320,192,292235,1,0,0:0:0:0:
192,192,292235,1,0,0:0:0:0:
64,192,292310,1,0,0:0:0:0:
192,192,292385,1,0,0:0:0:0:
448,192,292460,1,0,0:0:0:0:
192,192,292535,1,0,0:0:0:0:
64,192,292535,1,0,0:0:0:0:
320,192,292535,1,0,0:0:0:0:
448,192,292610,1,0,0:0:0:0:
320,192,292685,1,0,0:0:0:0:
192,192,292760,1,0,0:0:0:0:
320,192,292835,1,0,0:0:0:0:
448,192,292835,1,0,0:0:0:0:
64,192,292835,1,0,0:0:0:0:
192,192,292910,1,0,0:0:0:0:
64,192,292985,1,0,0:0:0:0:
320,192,293060,1,0,0:0:0:0:
448,192,293135,1,0,0:0:0:0:
192,192,293135,1,0,0:0:0:0:
64,192,293210,1,0,0:0:0:0:
448,192,293285,1,0,0:0:0:0:
320,192,293285,1,0,0:0:0:0:
192,192,293360,1,0,0:0:0:0:
64,192,293435,1,0,0:0:0:0:
448,192,293435,1,0,0:0:0:0:
320,192,293510,1,0,0:0:0:0:
192,192,293585,1,0,0:0:0:0:
64,192,293585,1,0,0:0:0:0:
320,192,293660,1,0,0:0:0:0:
448,192,293735,1,0,0:0:0:0:
192,192,293735,1,0,0:0:0:0:
64,192,293810,1,0,0:0:0:0:
448,192,293885,1,0,0:0:0:0:
320,192,293885,1,0,0:0:0:0:
192,192,293960,1,0,0:0:0:0:
448,192,294035,1,0,0:0:0:0:
320,192,294035,1,0,0:0:0:0:
64,192,294035,1,0,0:0:0:0:
192,192,294110,1,0,0:0:0:0:
448,192,294185,1,0,0:0:0:0:
64,192,294260,1,0,0:0:0:0:
320,192,294335,1,0,0:0:0:0:
192,192,294335,1,0,0:0:0:0:
448,192,294410,1,0,0:0:0:0:
320,192,294485,1,0,0:0:0:0:
64,192,294485,1,0,0:0:0:0:
192,192,294560,1,0,0:0:0:0:
320,192,294635,1,0,0:0:0:0:
448,192,294635,1,0,0:0:0:0:
64,192,294710,1,0,0:0:0:0:
192,192,294785,1,0,0:0:0:0:
320,192,294785,1,0,0:0:0:0:
448,192,294860,1,0,0:0:0:0:
64,192,294935,1,0,0:0:0:0:
192,192,294935,1,0,0:0:0:0:
320,192,295010,1,0,0:0:0:0:
448,192,295085,1,0,0:0:0:0:
64,192,295085,1,0,0:0:0:0:
192,192,295160,1,0,0:0:0:0:
448,192,295235,1,0,0:0:0:0:
64,192,295235,1,0,0:0:0:0:
320,192,295235,1,0,0:0:0:0:
192,192,295310,1,0,0:0:0:0:
448,192,295385,1,0,0:0:0:0:
320,192,295460,1,0,0:0:0:0:
64,192,295535,1,0,0:0:0:0:
192,192,295535,1,0,0:0:0:0:
320,192,295610,1,0,0:0:0:0:
448,192,295685,1,0,0:0:0:0:
64,192,295685,1,0,0:0:0:0:
192,192,295760,1,0,0:0:0:0:
448,192,295835,1,0,0:0:0:0:
64,192,295835,1,0,0:0:0:0:
320,192,295910,1,0,0:0:0:0:
192,192,295985,1,0,0:0:0:0:
64,192,295985,1,0,0:0:0:0:
320,192,296060,1,0,0:0:0:0:
448,192,296135,1,0,0:0:0:0:
192,192,296135,1,0,0:0:0:0:
64,192,296210,1,0,0:0:0:0:
448,192,296285,1,0,0:0:0:0:
320,192,296285,1,0,0:0:0:0:
192,192,296360,1,0,0:0:0:0:
448,192,296435,1,0,0:0:0:0:
320,192,296435,1,0,0:0:0:0:
64,192,296435,1,0,0:0:0:0:
192,192,296510,1,0,0:0:0:0:
320,192,296585,1,0,0:0:0:0:
64,192,296585,1,0,0:0:0:0:
448,192,296660,1,0,0:0:0:0:
64,192,296735,1,0,0:0:0:0:
192,192,296735,1,0,0:0:0:0:
320,192,296810,1,0,0:0:0:0:
192,192,296885,1,0,0:0:0:0:
448,192,296885,1,0,0:0:0:0:
320,192,296960,1,0,0:0:0:0:
192,192,297035,1,0,0:0:0:0:
448,192,297035,1,0,0:0:0:0:
64,192,297035,1,0,0:0:0:0:
320,192,297110,1,0,0:0:0:0:
64,192,297185,1,0,0:0:0:0:
448,192,297260,1,0,0:0:0:0:
64,192,297335,1,0,0:0:0:0:
320,192,297335,1,0,0:0:0:0:
192,192,297335,1,0,0:0:0:0:
448,192,297410,1,0,0:0:0:0:
192,192,297485,1,0,0:0:0:0:
320,192,297560,1,0,0:0:0:0:
192,192,297635,1,0,0:0:0:0:
448,192,297635,1,0,0:0:0:0:
64,192,297635,1,0,0:0:0:0:
320,192,297710,1,0,0:0:0:0:
64,192,297785,1,0,0:0:0:0:
448,192,297860,1,0,0:0:0:0:
192,192,297935,1,0,0:0:0:0:
64,192,297935,1,0,0:0:0:0:
320,192,298010,1,0,0:0:0:0:
192,192,298085,1,0,0:0:0:0:
448,192,298085,1,0,0:0:0:0:
64,192,298160,1,0,0:0:0:0:
320,192,298235,1,0,0:0:0:0:
192,192,298235,1,0,0:0:0:0:
448,192,298310,1,0,0:0:0:0:
320,192,298385,1,0,0:0:0:0:
64,192,298385,1,0,0:0:0:0:
448,192,298460,1,0,0:0:0:0:
192,192,298535,1,0,0:0:0:0:
320,192,298535,1,0,0:0:0:0:
64,192,298610,1,0,0:0:0:0:
192,192,298685,1,0,0:0:0:0:
448,192,298685,1,0,0:0:0:0:
320,192,298760,1,0,0:0:0:0:
192,192,298835,1,0,0:0:0:0:
448,192,298835,1,0,0:0:0:0:
64,192,298835,1,0,0:0:0:0:
320,192,298910,1,0,0:0:0:0:
64,192,298985,1,0,0:0:0:0:
448,192,299060,1,0,0:0:0:0:
192,192,299135,1,0,0:0:0:0:
320,192,299135,1,0,0:0:0:0:
64,192,299210,1,0,0:0:0:0:
192,192,299285,1,0,0:0:0:0:
448,192,299285,1,0,0:0:0:0:
320,192,299360,1,0,0:0:0:0:
192,192,299435,1,0,0:0:0:0:
64,192,299435,1,0,0:0:0:0:
448,192,299510,1,0,0:0:0:0:
320,192,299585,1,0,0:0:0:0:
64,192,299585,1,0,0:0:0:0:
448,192,299660,1,0,0:0:0:0:
192,192,299735,1,0,0:0:0:0:
64,192,299735,1,0,0:0:0:0:
320,192,299810,1,0,0:0:0:0:
448,192,299885,1,0,0:0:0:0:
192,192,299885,1,0,0:0:0:0:
64,192,299960,1,0,0:0:0:0:
448,192,300035,1,0,0:0:0:0:
320,192,300035,1,0,0:0:0:0:
192,192,300110,1,0,0:0:0:0:
64,192,300110,1,0,0:0:0:0:
320,192,300185,1,0,0:0:0:0:
448,192,300185,1,0,0:0:0:0:
192,192,300260,1,0,0:0:0:0:
320,192,300335,1,0,0:0:0:0:
64,192,300335,1,0,0:0:0:0:
192,192,300410,1,0,0:0:0:0:
448,192,300410,1,0,0:0:0:0:
320,192,300485,1,0,0:0:0:0:
64,192,300485,1,0,0:0:0:0:
192,192,300560,1,0,0:0:0:0:
448,192,300635,1,0,0:0:0:0:
64,192,300635,1,0,0:0:0:0:
320,192,300710,1,0,0:0:0:0:
192,192,300710,1,0,0:0:0:0:
64,192,300785,1,0,0:0:0:0:
448,192,300785,1,0,0:0:0:0:
320,192,300860,1,0,0:0:0:0:
64,192,300935,1,0,0:0:0:0:
192,192,300935,1,0,0:0:0:0:
448,192,301010,1,0,0:0:0:0:
320,192,301010,1,0,0:0:0:0:
192,192,301085,1,0,0:0:0:0:
64,192,301085,1,0,0:0:0:0:
448,192,301160,1,0,0:0:0:0:
320,192,301235,1,0,0:0:0:0:
192,192,301235,1,0,0:0:0:0:
64,192,301310,1,0,0:0:0:0:
448,192,301310,1,0,0:0:0:0:
192,192,301385,1,0,0:0:0:0:
320,192,301385,1,0,0:0:0:0:
448,192,301460,1,0,0:0:0:0:
64,192,301535,1,0,0:0:0:0:
320,192,301535,1,0,0:0:0:0:
192,192,301610,1,0,0:0:0:0:
448,192,301610,1,0,0:0:0:0:
320,192,301685,1,0,0:0:0:0:
64,192,301685,1,0,0:0:0:0:
192,192,301760,1,0,0:0:0:0:
320,192,301835,1,0,0:0:0:0:
448,192,301835,1,0,0:0:0:0:
64,192,301910,1,0,0:0:0:0:
192,192,301910,1,0,0:0:0:0:
448,192,301985,1,0,0:0:0:0:
320,192,301985,1,0,0:0:0:0:
64,192,302060,1,0,0:0:0:0:
192,192,302135,1,0,0:0:0:0:
448,192,302135,1,0,0:0:0:0:
320,192,302210,1,0,0:0:0:0:
64,192,302210,1,0,0:0:0:0:
192,192,302285,1,0,0:0:0:0:
448,192,302285,1,0,0:0:0:0:
320,192,302360,1,0,0:0:0:0:
448,192,302435,1,0,0:0:0:0:
192,192,302435,1,0,0:0:0:0:
64,192,302435,1,0,0:0:0:0:
320,192,302510,1,0,0:0:0:0:
64,192,302585,1,0,0:0:0:0:
192,192,302585,1,0,0:0:0:0:
448,192,302660,1,0,0:0:0:0:
320,192,302735,1,0,0:0:0:0:
192,192,302810,1,0,0:0:0:0:
448,192,302885,1,0,0:0:0:0:
320,192,302885,1,0,0:0:0:0:
64,192,302885,1,0,0:0:0:0:
192,192,302960,1,0,0:0:0:0:
64,192,303035,1,0,0:0:0:0:
448,192,303110,1,0,0:0:0:0:
320,192,303185,1,0,0:0:0:0:
192,192,303185,1,0,0:0:0:0:
64,192,303260,1,0,0:0:0:0:
320,192,303335,1,0,0:0:0:0:
448,192,303335,1,0,0:0:0:0:
192,192,303410,1,0,0:0:0:0:
64,192,303485,1,0,0:0:0:0:
448,192,303485,1,0,0:0:0:0:
320,192,303560,1,0,0:0:0:0:
64,192,303635,1,0,0:0:0:0:
192,192,303635,1,0,0:0:0:0:
448,192,303710,1,0,0:0:0:0:
64,192,303785,1,0,0:0:0:0:
320,192,303785,1,0,0:0:0:0:
192,192,303860,1,0,0:0:0:0:
320,192,303935,1,0,0:0:0:0:
448,192,304010,1,0,0:0:0:0:
320,192,304085,1,0,0:0:0:0:
192,192,304085,1,0,0:0:0:0:
64,192,304085,1,0,0:0:0:0:
448,192,304160,1,0,0:0:0:0:
192,192,304235,1,0,0:0:0:0:
64,192,304310,1,0,0:0:0:0:
320,192,304385,1,0,0:0:0:0:
448,192,304385,1,0,0:0:0:0:
64,192,304460,1,0,0:0:0:0:
192,192,304535,1,0,0:0:0:0:
320,192,304535,1,0,0:0:0:0:
448,192,304610,1,0,0:0:0:0:
192,192,304685,1,0,0:0:0:0:
64,192,304685,1,0,0:0:0:0:
320,192,304760,1,0,0:0:0:0:
448,192,304835,1,0,0:0:0:0:
64,192,304835,1,0,0:0:0:0:
192,192,304910,1,0,0:0:0:0:
320,192,304985,1,0,0:0:0:0:
448,192,304985,1,0,0:0:0:0:
192,192,305060,1,0,0:0:0:0:
64,192,305135,1,0,0:0:0:0:
448,192,305210,1,0,0:0:0:0:
192,192,305285,1,0,0:0:0:0:
320,192,305285,1,0,0:0:0:0:
64,192,305285,1,0,0:0:0:0:
448,192,305360,1,0,0:0:0:0:
320,192,305435,1,0,0:0:0:0:
192,192,305510,1,0,0:0:0:0:
320,192,305585,1,0,0:0:0:0:
64,192,305585,1,0,0:0:0:0:
448,192,305660,1,0,0:0:0:0:
192,192,305735,1,0,0:0:0:0:
64,192,305735,1,0,0:0:0:0:
320,192,305810,1,0,0:0:0:0:
448,192,305885,1,0,0:0:0:0:
192,192,305885,1,0,0:0:0:0:
64,192,305960,1,0,0:0:0:0:
448,192,306035,1,0,0:0:0:0:
320,192,306035,1,0,0:0:0:0:
192,192,306110,1,0,0:0:0:0:
64,192,306185,1,0,0:0:0:0:
448,192,306185,1,0,0:0:0:0:
320,192,306260,1,0,0:0:0:0:
64,192,306335,1,0,0:0:0:0:
192,192,306410,1,0,0:0:0:0:
448,192,306485,1,0,0:0:0:0:
64,192,306485,1,0,0:0:0:0:
320,192,306485,1,0,0:0:0:0:
192,192,306560,1,0,0:0:0:0:
448,192,306635,1,0,0:0:0:0:
320,192,306710,1,0,0:0:0:0:
192,192,306785,1,0,0:0:0:0:
64,192,306785,1,0,0:0:0:0:
448,192,306860,1,0,0:0:0:0:
320,192,306935,1,0,0:0:0:0:
192,192,306935,1,0,0:0:0:0:
64,192,307010,1,0,0:0:0:0:
320,192,307085,1,0,0:0:0:0:
448,192,307085,1,0,0:0:0:0:
64,192,307160,1,0,0:0:0:0:
192,192,307235,1,0,0:0:0:0:
320,192,307235,1,0,0:0:0:0:
448,192,307310,1,0,0:0:0:0:
192,192,307385,1,0,0:0:0:0:
64,192,307385,1,0,0:0:0:0:
448,192,307460,1,0,0:0:0:0:
320,192,307535,1,0,0:0:0:0:
192,192,307610,1,0,0:0:0:0:
448,192,307685,1,0,0:0:0:0:
320,192,307685,1,0,0:0:0:0:
64,192,307685,1,0,0:0:0:0:
192,192,307760,1,0,0:0:0:0:
64,192,307835,1,0,0:0:0:0:
448,192,307910,1,0,0:0:0:0:
320,192,307985,1,0,0:0:0:0:
192,192,307985,1,0,0:0:0:0:
64,192,308060,1,0,0:0:0:0:
320,192,308135,1,0,0:0:0:0:
448,192,308135,1,0,0:0:0:0:
64,192,308210,1,0,0:0:0:0:
192,192,308285,1,0,0:0:0:0:
320,192,308285,1,0,0:0:0:0:
448,192,308360,1,0,0:0:0:0:
64,192,308435,1,0,0:0:0:0:
192,192,308435,1,0,0:0:0:0:
320,192,308510,1,0,0:0:0:0:
448,192,308585,1,0,0:0:0:0:
192,192,308585,1,0,0:0:0:0:
64,192,308660,1,0,0:0:0:0:
320,192,308735,1,0,0:0:0:0:
448,192,308810,1,0,0:0:0:0:
64,192,308885,1,0,0:0:0:0:
320,192,308885,1,0,0:0:0:0:
192,192,308885,1,0,0:0:0:0:
448,192,308960,1,0,0:0:0:0:
192,192,309035,1,0,0:0:0:0:
64,192,309110,1,0,0:0:0:0:
320,192,309185,1,0,0:0:0:0:
448,192,309185,1,0,0:0:0:0:
192,192,309260,1,0,0:0:0:0:
64,192,309335,1,0,0:0:0:0:
320,192,309335,1,0,0:0:0:0:
448,192,309410,1,0,0:0:0:0:
192,192,309485,1,0,0:0:0:0:
320,192,309485,1,0,0:0:0:0:
64,192,309560,1,0,0:0:0:0:
448,192,309635,1,0,0:0:0:0:
192,192,309635,1,0,0:0:0:0:
64,192,309710,1,0,0:0:0:0:
192,192,309785,1,0,0:0:0:0:
320,192,309785,1,0,0:0:0:0:
448,192,309860,1,0,0:0:0:0:
64,192,309935,1,0,0:0:0:0:
320,192,310010,1,0,0:0:0:0:
64,192,310085,1,0,0:0:0:0:
448,192,310085,1,0,0:0:0:0:
192,192,310085,1,0,0:0:0:0:
320,192,310160,1,0,0:0:0:0:
448,192,310235,1,0,0:0:0:0:
192,192,310310,1,0,0:0:0:0:
64,192,310385,1,0,0:0:0:0:
320,192,310385,1,0,0:0:0:0:
192,192,310460,1,0,0:0:0:0:
448,192,310535,1,0,0:0:0:0:
64,192,310535,1,0,0:0:0:0:
320,192,310610,1,0,0:0:0:0:
448,192,310685,1,0,0:0:0:0:
192,192,310685,1,0,0:0:0:0:
64,192,310760,1,0,0:0:0:0:
320,192,310835,1,0,0:0:0:0:
448,192,310835,1,0,0:0:0:0:
192,192,310910,1,0,0:0:0:0:
320,192,310985,1,0,0:0:0:0:
64,192,310985,1,0,0:0:0:0:
448,192,311060,1,0,0:0:0:0:
192,192,311135,1,0,0:0:0:0:
320,192,311210,1,0,0:0:0:0:
64,192,311285,1,0,0:0:0:0:
448,192,311285,1,0,0:0:0:0:
192,192,311285,1,0,0:0:0:0:
320,192,311360,1,0,0:0:0:0:
64,192,311435,1,0,0:0:0:0:
448,192,311510,1,0,0:0:0:0:
192,192,311585,1,0,0:0:0:0:
320,192,311585,1,0,0:0:0:0:
64,192,311660,1,0,0:0:0:0:
192,192,311735,1,0,0:0:0:0:
448,192,311735,1,0,0:0:0:0:
64,192,311810,1,0,0:0:0:0:
320,192,311885,1,0,0:0:0:0:
448,192,311885,1,0,0:0:0:0:
192,192,311960,1,0,0:0:0:0:
64,192,312035,1,0,0:0:0:0:
448,192,312035,1,0,0:0:0:0:
320,192,312035,1,0,0:0:0:0:
192,192,312110,1,0,0:0:0:0:
448,192,312185,1,0,0:0:0:0:
320,192,312185,1,0,0:0:0:0:
64,192,312260,1,0,0:0:0:0:
192,192,312335,1,0,0:0:0:0:
64,192,312410,1,0,0:0:0:0:
192,192,312485,1,0,0:0:0:0:
448,192,312485,1,0,0:0:0:0:
320,192,312485,1,0,0:0:0:0:
64,192,312560,1,0,0:0:0:0:
448,192,312635,1,0,0:0:0:0:
320,192,312710,1,0,0:0:0:0:
192,192,312785,1,0,0:0:0:0:
448,192,312785,1,0,0:0:0:0:
64,192,312860,1,0,0:0:0:0:
320,192,312935,1,0,0:0:0:0:
192,192,312935,1,0,0:0:0:0:
64,192,313010,1,0,0:0:0:0:
320,192,313085,1,0,0:0:0:0:
448,192,313085,1,0,0:0:0:0:
192,192,313160,1,0,0:0:0:0:
64,192,313235,1,0,0:0:0:0:
448,192,313235,1,0,0:0:0:0:
320,192,313310,1,0,0:0:0:0:
64,192,313385,1,0,0:0:0:0:
192,192,313385,1,0,0:0:0:0:
448,192,313460,1,0,0:0:0:0:
320,192,313535,1,0,0:0:0:0:
192,192,313610,1,0,0:0:0:0:
64,192,313685,1,0,0:0:0:0:
320,192,313685,1,0,0:0:0:0:
448,192,313685,1,0,0:0:0:0:
192,192,313760,1,0,0:0:0:0:
64,192,313835,1,0,0:0:0:0:
448,192,313910,1,0,0:0:0:0:
64,192,313985,1,0,0:0:0:0:
320,192,313985,1,0,0:0:0:0:
192,192,314060,1,0,0:0:0:0:
448,192,314135,1,0,0:0:0:0:
320,192,314135,1,0,0:0:0:0:
64,192,314210,1,0,0:0:0:0:
192,192,314285,1,0,0:0:0:0:
320,192,314285,1,0,0:0:0:0:
448,192,314360,1,0,0:0:0:0:
64,192,314435,1,0,0:0:0:0:
192,192,314435,1,0,0:0:0:0:
448,192,314510,1,0,0:0:0:0:
64,192,314585,1,0,0:0:0:0:
320,192,314585,1,0,0:0:0:0:
192,192,314660,1,0,0:0:0:0:
448,192,314735,1,0,0:0:0:0:
320,192,314810,1,0,0:0:0:0:
192,192,314885,1,0,0:0:0:0:
448,192,314885,1,0,0:0:0:0:
64,192,314885,1,0,0:0:0:0:
320,192,314960,1,0,0:0:0:0:
64,192,315035,1,0,0:0:0:0:
192,192,315110,1,0,0:0:0:0:
448,192,315185,1,0,0:0:0:0:
320,192,315185,1,0,0:0:0:0:
64,192,315260,1,0,0:0:0:0:
192,192,315335,1,0,0:0:0:0:
320,192,315335,1,0,0:0:0:0:
448,192,315410,1,0,0:0:0:0:
64,192,315485,1,0,0:0:0:0:
192,192,315485,1,0,0:0:0:0:
448,192,315560,1,0,0:0:0:0:
320,192,315635,1,0,0:0:0:0:
192,192,315635,1,0,0:0:0:0:
64,192,315710,1,0,0:0:0:0:
448,192,315785,1,0,0:0:0:0:
320,192,315785,1,0,0:0:0:0:
64,192,315860,1,0,0:0:0:0:
192,192,315935,1,0,0:0:0:0:
320,192,316010,1,0,0:0:0:0:
448,192,316085,1,0,0:0:0:0:
64,192,316085,1,0,0:0:0:0:
192,192,316085,1,0,0:0:0:0:
320,192,316160,1,0,0:0:0:0:
448,192,316235,1,0,0:0:0:0:
192,192,316310,1,0,0:0:0:0:
64,192,316385,1,0,0:0:0:0:
448,192,316385,1,0,0:0:0:0:
320,192,316460,1,0,0:0:0:0:
64,192,316535,1,0,0:0:0:0:
192,192,316535,1,0,0:0:0:0:
448,192,316610,1,0,0:0:0:0:
320,192,316685,1,0,0:0:0:0:
192,192,316760,1,0,0:0:0:0:
448,192,316835,1,0,0:0:0:0:
64,192,316835,1,0,0:0:0:0:
320,192,316910,1,0,0:0:0:0:
64,192,316985,1,0,0:0:0:0:
192,192,316985,1,0,0:0:0:0:
448,192,317060,1,0,0:0:0:0:
320,192,317135,1,0,0:0:0:0:
192,192,317210,1,0,0:0:0:0:
320,192,317285,1,0,0:0:0:0:
448,192,317285,1,0,0:0:0:0:
64,192,317285,1,0,0:0:0:0:
192,192,317360,1,0,0:0:0:0:
64,192,317435,1,0,0:0:0:0:
448,192,317510,1,0,0:0:0:0:
320,192,317585,1,0,0:0:0:0:
192,192,317585,1,0,0:0:0:0:
64,192,317660,1,0,0:0:0:0:
320,192,317735,1,0,0:0:0:0:
448,192,317735,1,0,0:0:0:0:
192,192,317810,1,0,0:0:0:0:
64,192,317885,1,0,0:0:0:0:
448,192,317885,1,0,0:0:0:0:
320,192,317960,1,0,0:0:0:0:
192,192,318035,1,0,0:0:0:0:
448,192,318035,1,0,0:0:0:0:
64,192,318110,1,0,0:0:0:0:
320,192,318185,1,0,0:0:0:0:
192,192,318185,1,0,0:0:0:0:
64,192,318260,1,0,0:0:0:0:
448,192,318335,1,0,0:0:0:0:
320,192,318410,1,0,0:0:0:0:
448,192,318485,1,0,0:0:0:0:
64,192,318485,1,0,0:0:0:0:
192,192,318485,1,0,0:0:0:0:
320,192,318560,1,0,0:0:0:0:
192,192,318635,1,0,0:0:0:0:
64,192,318710,1,0,0:0:0:0:
448,192,318785,1,0,0:0:0:0:
320,192,318785,1,0,0:0:0:0:
192,192,318860,1,0,0:0:0:0:
448,192,318935,1,0,0:0:0:0:
64,192,318935,1,0,0:0:0:0:
320,192,319010,1,0,0:0:0:0:
448,192,319085,1,0,0:0:0:0:
192,192,319085,1,0,0:0:0:0:
64,192,319160,1,0,0:0:0:0:
192,192,319235,1,0,0:0:0:0:
320,192,319235,1,0,0:0:0:0:
64,192,319310,1,0,0:0:0:0:
448,192,319385,1,0,0:0:0:0:
320,192,319385,1,0,0:0:0:0:
192,192,319460,1,0,0:0:0:0:
448,192,319535,1,0,0:0:0:0:
64,192,319535,1,0,0:0:0:0:
320,192,319610,1,0,0:0:0:0:
192,192,319685,1,0,0:0:0:0:
64,192,319685,1,0,0:0:0:0:
448,192,319760,1,0,0:0:0:0:
320,192,319835,1,0,0:0:0:0:
192,192,319835,1,0,0:0:0:0:
64,192,319910,1,0,0:0:0:0:
448,192,319985,1,0,0:0:0:0:
320,192,319985,1,0,0:0:0:0:
192,192,320060,1,0,0:0:0:0:
64,192,320135,1,0,0:0:0:0:
448,192,320135,1,0,0:0:0:0:
192,192,320210,1,0,0:0:0:0:
320,192,320285,1,0,0:0:0:0:
64,192,320285,1,0,0:0:0:0:
448,192,320360,1,0,0:0:0:0:
192,192,320435,1,0,0:0:0:0:
320,192,320510,1,0,0:0:0:0:
64,192,320585,1,0,0:0:0:0:
448,192,320660,1,0,0:0:0:0:
192,192,320735,1,0,0:0:0:0:
320,192,320810,1,0,0:0:0:0:
64,192,320885,1,0,0:0:0:0:
448,192,320960,1,0,0:0:0:0:
192,192,321035,1,0,0:0:0:0:
320,192,321110,1,0,0:0:0:0:
448,192,321185,1,0,0:0:0:0:
64,192,321260,1,0,0:0:0:0:
320,192,321335,1,0,0:0:0:0:
192,192,321410,1,0,0:0:0:0:
64,192,321485,1,0,0:0:0:0:
448,192,321485,1,0,0:0:0:0:
320,192,321560,1,0,0:0:0:0:
192,192,321635,1,0,0:0:0:0:
64,192,321635,1,0,0:0:0:0:
448,192,321635,1,0,0:0:0:0:
320,192,321710,1,0,0:0:0:0:
192,192,321785,1,0,0:0:0:0:
64,192,321860,1,0,0:0:0:0:
448,192,321935,1,0,0:0:0:0:
320,192,322010,1,0,0:0:0:0:
192,192,322085,1,0,0:0:0:0:
448,192,322160,1,0,0:0:0:0:
64,192,322235,1,0,0:0:0:0:
192,192,322310,1,0,0:0:0:0:
320,192,322385,1,0,0:0:0:0:
64,192,322460,1,0,0:0:0:0:
448,192,322535,1,0,0:0:0:0:
320,192,322610,1,0,0:0:0:0:
192,192,322685,1,0,0:0:0:0:
64,192,322760,1,0,0:0:0:0:
448,192,322835,1,0,0:0:0:0:
320,192,322835,1,0,0:0:0:0:
192,192,322910,1,0,0:0:0:0:
64,192,322910,1,0,0:0:0:0:
448,192,322985,1,0,0:0:0:0:
320,192,322985,1,0,0:0:0:0:
192,192,323060,1,0,0:0:0:0:
64,192,323060,1,0,0:0:0:0:
320,192,323135,1,0,0:0:0:0:
448,192,323135,1,0,0:0:0:0:
192,192,323210,1,0,0:0:0:0:
448,192,323285,1,0,0:0:0:0:
320,192,323285,1,0,0:0:0:0:
64,192,323285,1,0,0:0:0:0:
192,192,323360,1,0,0:0:0:0:
320,192,323435,1,0,0:0:0:0:
64,192,323435,1,0,0:0:0:0:
448,192,323510,1,0,0:0:0:0:
192,192,323510,1,0,0:0:0:0:
64,192,323585,1,0,0:0:0:0:
320,192,323585,1,0,0:0:0:0:
448,192,323660,1,0,0:0:0:0:
320,192,323735,1,0,0:0:0:0:
64,192,323735,1,0,0:0:0:0:
192,192,323735,1,0,0:0:0:0:
448,192,323810,1,0,0:0:0:0:
192,192,323885,1,0,0:0:0:0:
64,192,323885,1,0,0:0:0:0:
448,192,323960,1,0,0:0:0:0:
320,192,324035,1,0,0:0:0:0:
64,192,324035,1,0,0:0:0:0:
192,192,324035,1,0,0:0:0:0:
