osu file format v14

[General]
AudioFilename: audio.mp3
AudioLeadIn: 0
PreviewTime: 56747
Countdown: 0
SampleSet: None
StackLeniency: 0.4
Mode: 0
LetterboxInBreaks: 0
WidescreenStoryboard: 0

[Editor]
Bookmarks: 19247,26897,27347,27797,28847,48047,54272,54572,54722,56447,62447,72047,72872,76847,79247,98447,108047,116447,132872,136847,165647,184847,206447,224447,244847,250847,253247,259547,264047,302447,319247,324047
DistanceSpacing: 1.8
BeatDivisor: 4
GridSize: 8
TimelineZoom: 1.5

[Metadata]
Title:Wind God Girl
TitleUnicode:風神少女
Artist:Demetori
ArtistUnicode:Demetori
Creator:LwL
Version:Extra Stage
Source:東方Project
Tags:il mondo dove e finite tempo aya shameimaru touhou kaeitsuka 東方花映塚 phantasmagoria of flower view 東方文花帖 bunkachou bohemian archive in japanese red shoot the bullet
BeatmapID:1289218
BeatmapSetID:610586

[Difficulty]
HPDrainRate:6
CircleSize:4.5
OverallDifficulty:9
ApproachRate:9.4
SliderMultiplier:2
SliderTickRate:2

[Events]
//Background and Video events
0,0,"windgirlbg.png",0,0
//Break Periods
2,247,1757
2,2647,4307
2,5047,6557
2,185047,186707
2,187447,188957
2,189872,191207
2,192247,193607
//Storyboard Layer 0 (Background)
//Storyboard Layer 1 (Fail)
//Storyboard Layer 2 (Pass)
//Storyboard Layer 3 (Foreground)
//Storyboard Sound Samples

[TimingPoints]
47,300,4,3,1,60,1,0
56747,-90.9090909090909,4,3,1,60,0,0
57122,-83.3333333333333,4,3,1,60,0,0
57347,-76.9230769230769,4,3,1,60,0,0
57647,-76.9230769230769,4,3,1,60,0,1
76847,-200,4,3,1,60,0,0
78047,-100,4,3,1,60,0,0
79247,-100,4,3,1,60,0,0
93647,-83.3333333333333,4,3,1,60,0,0
94847,-90.9090909090909,4,3,1,60,0,0
95447,-100,4,3,1,60,0,0
117647,-76.9230769230769,4,3,1,60,0,1
136847,-100,4,3,1,60,0,0
165647,-76.9230769230769,4,3,1,60,0,1
184847,-100,4,3,1,60,0,0
191747,-200,4,3,1,60,0,0
194147,-100,4,3,1,60,0,0
194447,-200,6,3,1,60,0,0
195347,-166.666666666667,6,3,1,60,0,0
195497,-142.857142857143,6,3,1,60,0,0
195647,-125,6,3,1,60,0,0
195797,-111.111111111111,6,3,1,60,0,0
195947,-100,6,3,1,60,0,0
196397,-133.333333333333,6,3,1,60,0,0
205847,-100,6,3,1,60,0,0
225647,-83.3333333333333,6,3,1,60,0,1
244847,-100,6,3,1,60,0,0
253547,-90.9090909090909,6,3,1,60,0,0
253847,-83.3333333333333,6,3,1,60,0,0
254147,-76.9230769230769,6,3,1,60,0,0
254447,-76.9230769230769,6,3,1,60,0,1
302447,-100,6,3,1,60,0,0

[Colours]
Combo1 : 128,0,255
Combo2 : 255,51,0
Combo3 : 202,28,9
Combo4 : 255,128,0
Combo5 : 108,108,255
Combo6 : 0,128,128

[HitObjects]
256,192,47,5,0,0:0:0:0:
263,104,2297,5,0,0:0:0:0:
247,283,2447,1,0,0:0:0:0:
256,192,4847,5,0,0:0:0:0:
168,184,7097,5,0,0:0:0:0:
347,200,7247,1,0,0:0:0:0:
100,144,8447,5,0,0:0:0:0:
102,158,8522,1,0,0:0:0:0:
104,173,8597,1,0,0:0:0:0:
106,188,8672,1,0,0:0:0:0:
109,203,8747,1,0,0:0:0:0:
111,218,8822,1,0,0:0:0:0:
112,232,8897,5,0,0:0:0:0:
139,220,8972,1,0,0:0:0:0:
168,214,9047,1,0,0:0:0:0:
198,212,9122,1,0,0:0:0:0:
228,214,9197,1,0,0:0:0:0:
257,222,9272,1,0,0:0:0:0:
285,233,9347,5,0,0:0:0:0:
267,192,9422,1,0,0:0:0:0:
263,148,9497,1,0,0:0:0:0:
274,104,9572,1,0,0:0:0:0:
297,66,9647,6,0,P|349:26|401:22,1,100,0|0,0:0|0:0,0:0:0:0:
396,19,9872,1,0,0:0:0:0:
410,20,9947,1,0,0:0:0:0:
480,180,10097,2,0,P|428:220|376:224,1,100,0|0,0:0|0:0,0:0:0:0:
381,227,10322,1,0,0:0:0:0:
367,226,10397,1,0,0:0:0:0:
263,148,10547,6,0,P|213:137|153:161,1,100,0|0,0:0|0:0,0:0:0:0:
80,336,10847,2,0,B|68:348|68:348|40:248,1,100,0|0,0:0|0:0,0:0:0:0:
41,253,11072,1,0,0:0:0:0:
37,239,11147,1,0,0:0:0:0:
132,82,11297,2,0,B|144:70|144:70|172:170,1,100,0|0,0:0|0:0,0:0:0:0:
171,165,11522,1,0,0:0:0:0:
175,179,11597,1,0,0:0:0:0:
28,52,11747,6,0,B|16:40|16:40|116:12,1,100,0|0,0:0|0:0,0:0:0:0:
312,200,12047,2,0,B|324:212|324:212|224:240,1,100,0|0,0:0|0:0,0:0:0:0:
229,238,12272,1,0,0:0:0:0:
215,243,12347,1,0,0:0:0:0:
156,92,12497,2,0,B|146:78|146:78|249:67,1,100,0|0,0:0|0:0,0:0:0:0:
244,68,12722,1,0,0:0:0:0:
258,66,12797,1,0,0:0:0:0:
388,272,12947,6,0,L|412:140,1,100,0|0,0:0|0:0,0:0:0:0:
132,84,13247,2,0,L|108:216,1,100,0|0,0:0|0:0,0:0:0:0:
111,196,13472,1,0,0:0:0:0:
108,211,13547,1,0,0:0:0:0:
308,208,13697,2,0,L|332:76,1,100,0|0,0:0|0:0,0:0:0:0:
327,94,13922,1,0,0:0:0:0:
330,79,13997,1,0,0:0:0:0:
132,84,14147,6,0,B|88:88|88:88|32:60,1,100,0|0,0:0|0:0,0:0:0:0:
214,187,14447,2,0,B|258:183|258:183|314:211,1,100,0|0,0:0|0:0,0:0:0:0:
321,215,14672,1,0,0:0:0:0:
334,222,14747,1,0,0:0:0:0:
204,364,14897,2,0,B|160:368|160:368|104:340,1,100,0|0,0:0|0:0,0:0:0:0:
97,336,15122,1,0,0:0:0:0:
84,329,15197,1,0,0:0:0:0:
50,135,15347,6,0,B|78:101|78:101|137:81,1,100,0|0,0:0|0:0,0:0:0:0:
389,156,15647,2,0,B|360:189|360:189|301:209,1,100,0|0,0:0|0:0,0:0:0:0:
293,211,15872,1,0,0:0:0:0:
278,215,15947,1,0,0:0:0:0:
364,68,16097,2,0,B|408:64|408:64|464:92,1,100,0|0,0:0|0:0,0:0:0:0:
471,95,16322,1,0,0:0:0:0:
484,102,16397,1,0,0:0:0:0:
400,227,16547,6,0,B|356:231|356:231|300:203,1,100,0|0,0:0|0:0,0:0:0:0:
284,32,16847,5,0,0:0:0:0:
254,27,16922,1,0,0:0:0:0:
225,33,16997,1,0,0:0:0:0:
200,49,17072,1,0,0:0:0:0:
182,73,17147,1,0,0:0:0:0:
174,102,17222,1,0,0:0:0:0:
176,132,17297,1,0,0:0:0:0:
189,159,17372,1,0,0:0:0:0:
210,179,17447,1,0,0:0:0:0:
231,199,17522,1,0,0:0:0:0:
244,226,17597,1,0,0:0:0:0:
246,256,17672,1,0,0:0:0:0:
238,285,17747,1,0,0:0:0:0:
220,309,17822,1,0,0:0:0:0:
195,325,17897,1,0,0:0:0:0:
166,331,17972,1,0,0:0:0:0:
137,327,18047,5,0,0:0:0:0:
128,298,18122,1,0,0:0:0:0:
119,269,18197,1,0,0:0:0:0:
110,241,18272,1,0,0:0:0:0:
101,212,18347,1,0,0:0:0:0:
92,183,18422,1,0,0:0:0:0:
83,155,18497,5,0,0:0:0:0:
112,159,18572,1,0,0:0:0:0:
142,164,18647,1,0,0:0:0:0:
172,169,18722,1,0,0:0:0:0:
201,174,18797,1,0,0:0:0:0:
231,178,18872,1,0,0:0:0:0:
260,183,18947,5,0,0:0:0:0:
263,228,19022,1,0,0:0:0:0:
283,268,19097,1,0,0:0:0:0:
317,296,19172,1,0,0:0:0:0:
360,309,19247,6,0,P|420:316|496:276,1,100,0|0,0:0|0:0,0:0:0:0:
470,298,19472,1,0,0:0:0:0:
482,289,19547,1,0,0:0:0:0:
382,163,19697,2,0,P|322:156|246:196,1,100,0|0,0:0|0:0,0:0:0:0:
272,174,19922,1,0,0:0:0:0:
260,183,19997,1,0,0:0:0:0:
100,252,20147,6,0,P|76:208|100:128,1,100,0|0,0:0|0:0,0:0:0:0:
292,71,20447,2,0,B|312:68|312:68|288:155,1,100,0|0,0:0|0:0,0:0:0:0:
286,159,20672,1,0,0:0:0:0:
282,173,20747,1,0,0:0:0:0:
176,348,20897,2,0,B|156:351|156:351|180:264,1,100,0|0,0:0|0:0,0:0:0:0:
182,260,21122,1,0,0:0:0:0:
186,246,21197,1,0,0:0:0:0:
360,336,21347,6,0,B|380:339|380:339|356:252,1,100,0|0,0:0|0:0,0:0:0:0:
108,83,21647,2,0,B|88:80|88:80|112:167,1,100,0|0,0:0|0:0,0:0:0:0:
113,171,21872,1,0,0:0:0:0:
117,185,21947,1,0,0:0:0:0:
336,176,22097,2,0,P|320:116|284:72,1,100,0|0,0:0|0:0,0:0:0:0:
286,76,22322,1,0,0:0:0:0:
272,70,22397,1,0,0:0:0:0:
19,206,22547,6,0,L|141:179,1,100,0|0,0:0|0:0,0:0:0:0:
433,154,22847,2,0,L|311:181,1,100,0|0,0:0|0:0,0:0:0:0:
320,178,23072,1,0,0:0:0:0:
305,181,23147,1,0,0:0:0:0:
52,116,23297,2,0,L|174:89,1,100,0|0,0:0|0:0,0:0:0:0:
164,91,23522,1,0,0:0:0:0:
179,88,23597,1,0,0:0:0:0:
250,266,23747,5,0,0:0:0:0:
205,269,23822,1,0,0:0:0:0:
161,259,23897,1,0,0:0:0:0:
123,236,23972,1,0,0:0:0:0:
93,203,24047,2,0,B|80:148|80:148|20:80,1,100,0|0,0:0|0:0,0:0:0:0:
40,104,24272,1,0,0:0:0:0:
30,94,24347,1,0,0:0:0:0:
252,112,24497,2,0,B|265:167|265:167|325:235,1,100,0|0,0:0|0:0,0:0:0:0:
304,210,24722,1,0,0:0:0:0:
314,220,24797,1,0,0:0:0:0:
456,76,24947,6,0,B|401:88|401:88|333:149,1,100,0|0,0:0|0:0,0:0:0:0:
288,316,25247,2,0,B|343:303|343:303|411:243,1,100,0|0,0:0|0:0,0:0:0:0:
386,264,25472,1,0,0:0:0:0:
398,254,25547,1,0,0:0:0:0:
252,112,25697,2,0,B|222:160|222:160|216:250,1,100,0|0,0:0|0:0,0:0:0:0:
218,218,25922,1,0,0:0:0:0:
217,233,25997,1,0,0:0:0:0:
343,365,26147,2,0,B|372:316|372:316|378:226,1,100,0|0,0:0|0:0,0:0:0:0:
376,84,26447,5,0,0:0:0:0:
345,51,26522,1,0,0:0:0:0:
305,30,26597,1,0,0:0:0:0:
261,22,26672,1,0,0:0:0:0:
217,29,26747,1,0,0:0:0:0:
177,49,26822,1,0,0:0:0:0:
146,81,26897,5,0,0:0:0:0:
178,111,26972,1,0,0:0:0:0:
199,151,27047,1,0,0:0:0:0:
207,195,27122,1,0,0:0:0:0:
200,239,27197,1,0,0:0:0:0:
180,279,27272,1,0,0:0:0:0:
148,310,27347,5,0,0:0:0:0:
178,342,27422,1,0,0:0:0:0:
218,363,27497,1,0,0:0:0:0:
262,371,27572,1,0,0:0:0:0:
306,364,27647,1,0,0:0:0:0:
346,344,27722,1,0,0:0:0:0:
378,313,27797,5,0,0:0:0:0:
346,283,27872,1,0,0:0:0:0:
325,243,27947,1,0,0:0:0:0:
317,199,28022,1,0,0:0:0:0:
324,155,28097,1,0,0:0:0:0:
344,115,28172,1,0,0:0:0:0:
376,84,28247,5,0,0:0:0:0:
405,83,28322,1,0,0:0:0:0:
435,89,28397,1,0,0:0:0:0:
461,103,28472,1,0,0:0:0:0:
483,124,28547,1,0,0:0:0:0:
499,149,28622,1,0,0:0:0:0:
508,177,28697,1,0,0:0:0:0:
510,207,28772,1,0,0:0:0:0:
503,236,28847,6,0,B|456:296|456:296|396:248|328:240,1,200,0|0,0:0|0:0,0:0:0:0:
152,320,29297,1,0,0:0:0:0:
180,113,29447,2,0,B|229:56|229:56|316:98|374:27|374:27|437:105|393:180,1,400,0|0,0:0|0:0,0:0:0:0:
205,243,30197,1,0,0:0:0:0:
372,32,30347,1,0,0:0:0:0:
427,296,30497,1,0,0:0:0:0:
190,169,30647,1,0,0:0:0:0:
390,105,30797,2,0,P|448:128|468:183,1,100,0|0,0:0|0:0,0:0:0:0:
300,250,31097,1,0,0:0:0:0:
217,26,31247,6,0,B|159:71|159:71|106:40|35:61,1,200,0|0,0:0|0:0,0:0:0:0:
90,240,31697,1,0,0:0:0:0:
389,109,31847,2,0,B|423:149|476:171|476:171|434:219|473:278|473:278|436:304|387:265|387:265|364:304|294:312,1,400,0|0,0:0|0:0,0:0:0:0:
211,158,32597,2,0,P|243:119|290:104,1,100,0|0,0:0|0:0,0:0:0:0:
376,194,32897,2,0,P|325:198|282:175,1,100,0|0,0:0|0:0,0:0:0:0:
359,50,33197,1,0,0:0:0:0:
458,204,33347,1,0,0:0:0:0:
437,243,33422,1,0,0:0:0:0:
404,274,33497,1,0,0:0:0:0:
364,293,33572,1,0,0:0:0:0:
319,298,33647,6,0,B|259:278|259:278|201:329|122:292,1,200,0|0,0:0|0:0,0:0:0:0:
106,94,34097,1,0,0:0:0:0:
346,167,34247,2,0,B|417:195|417:195|421:123|496:107|496:107|470:20|326:37,1,400,0|0,0:0|0:0,0:0:0:0:
227,206,34997,1,0,0:0:0:0:
491,105,35147,1,0,0:0:0:0:
213,61,35297,1,0,0:0:0:0:
432,239,35447,1,0,0:0:0:0:
332,36,35597,2,0,P|292:78|278:132,1,100,0|0,0:0|0:0,0:0:0:0:
471,177,35897,1,0,0:0:0:0:
213,61,36047,6,0,B|168:119|168:119|199:172|178:243,1,200,0|0,0:0|0:0,0:0:0:0:
42,356,36497,1,0,0:0:0:0:
316,370,36647,2,0,B|334:336|390:314|390:314|360:273|407:192,1,200,0|0,0:0|0:0,0:0:0:0:
416,170,37022,1,0,0:0:0:0:
420,125,37097,1,0,0:0:0:0:
407,83,37172,1,0,0:0:0:0:
377,50,37247,5,0,0:0:0:0:
347,53,37322,1,0,0:0:0:0:
317,55,37397,1,0,0:0:0:0:
287,58,37472,1,0,0:0:0:0:
257,61,37547,2,0,L|169:71,1,50,0|0,0:0|0:0,0:0:0:0:
227,0,37697,5,0,0:0:0:0:
197,2,37772,1,0,0:0:0:0:
167,5,37847,5,0,0:0:0:0:
123,17,37922,1,0,0:0:0:0:
87,43,37997,1,0,0:0:0:0:
61,80,38072,1,0,0:0:0:0:
49,123,38147,2,0,L|51:182,3,50,0|0|0|0,0:0|0:0|0:0|0:0,0:0:0:0:
194,245,38447,6,0,B|254:225|254:225|312:276|391:239,1,200,0|0,0:0|0:0,0:0:0:0:
377,50,38897,1,0,0:0:0:0:
194,176,39047,2,0,B|118:167|118:167|132:237|64:272|64:272|112:350|246:296,1,400,0|0,0:0|0:0,0:0:0:0:
304,108,39797,1,0,0:0:0:0:
42,194,39947,1,0,0:0:0:0:
312,251,40097,1,0,0:0:0:0:
162,21,40247,1,0,0:0:0:0:
111,231,40397,2,0,P|161:240|223:226,1,100,0|0,0:0|0:0,0:0:0:0:
112,76,40697,1,0,0:0:0:0:
196,307,40847,6,0,B|262:287|262:287|317:326|397:296,1,200,0|0,0:0|0:0,0:0:0:0:
422,120,41297,1,0,0:0:0:0:
217,56,41447,1,0,0:0:0:0:
334,241,41597,2,0,L|440:217,1,100,0|0,0:0|0:0,0:0:0:0:
225,162,41897,2,0,L|331:138,1,100,0|0,0:0|0:0,0:0:0:0:
92,87,42197,5,0,0:0:0:0:
154,71,42347,1,0,0:0:0:0:
183,64,42422,1,0,0:0:0:0:
212,57,42497,1,0,0:0:0:0:
241,50,42572,1,0,0:0:0:0:
270,43,42647,1,0,0:0:0:0:
299,36,42722,1,0,0:0:0:0:
328,29,42797,1,0,0:0:0:0:
357,22,42872,1,0,0:0:0:0:
386,15,42947,2,0,L|433:0,1,50,0|0,0:0|0:0,0:0:0:0:
455,172,43097,5,0,0:0:0:0:
270,280,43247,2,0,B|212:235|212:235|159:266|88:245,1,200,0|0,0:0|0:0,0:0:0:0:
119,78,43697,1,0,0:0:0:0:
300,216,43847,2,0,B|371:188|371:188|375:260|450:276|450:276|424:363|280:346,1,400,0|0,0:0|0:0,0:0:0:0:
194,169,44597,1,0,0:0:0:0:
448,279,44747,1,0,0:0:0:0:
348,23,44897,1,0,0:0:0:0:
261,284,45047,1,0,0:0:0:0:
416,166,45197,2,0,P|385:111|340:82,1,100,0|0,0:0|0:0,0:0:0:0:
233,222,45497,1,0,0:0:0:0:
71,88,45647,6,0,B|26:146|26:146|57:199|36:270,1,200,0|0,0:0|0:0,0:0:0:0:
160,146,46097,1,0,0:0:0:0:
333,281,46247,1,0,0:0:0:0:
364,64,46397,2,0,L|263:45,1,100,0|0,0:0|0:0,0:0:0:0:
434,164,46697,6,0,B|366:149|348:166|353:225,1,100,0|0,0:0|0:0,0:0:0:0:
354,238,46922,1,0,0:0:0:0:
340,280,46997,1,0,0:0:0:0:
312,315,47072,1,0,0:0:0:0:
273,338,47147,2,0,P|250:346|225:350,1,50,0|0,0:0|0:0,0:0:0:0:
126,226,47297,6,0,P|149:218|174:214,1,50,0|0,0:0|0:0,0:0:0:0:
60,364,47447,1,0,0:0:0:0:
44,338,47522,1,0,0:0:0:0:
31,311,47597,1,0,0:0:0:0:
23,282,47672,1,0,0:0:0:0:
18,252,47747,1,0,0:0:0:0:
17,223,47822,1,0,0:0:0:0:
20,193,47897,1,0,0:0:0:0:
27,164,47972,1,0,0:0:0:0:
37,136,48047,5,0,0:0:0:0:
51,137,48122,1,0,0:0:0:0:
66,138,48197,1,0,0:0:0:0:
66,138,48497,5,0,0:0:0:0:
80,136,48572,1,0,0:0:0:0:
95,135,48647,1,0,0:0:0:0:
110,133,48722,1,0,0:0:0:0:
125,132,48797,1,0,0:0:0:0:
125,132,49097,5,0,0:0:0:0:
126,147,49172,1,0,0:0:0:0:
127,162,49247,1,0,0:0:0:0:
129,177,49322,1,0,0:0:0:0:
130,192,49397,1,0,0:0:0:0:
130,192,49697,5,0,0:0:0:0:
143,198,49772,1,0,0:0:0:0:
157,205,49847,1,0,0:0:0:0:
170,210,49922,1,0,0:0:0:0:
185,215,49997,1,0,0:0:0:0:
199,219,50072,1,0,0:0:0:0:
214,222,50147,1,0,0:0:0:0:
229,224,50222,1,0,0:0:0:0:
241,227,50297,1,0,0:0:0:0:
369,115,50447,5,0,0:0:0:0:
401,281,50597,2,0,L|455:288,2,50,0|0|0,0:0|0:0|0:0,0:0:0:0:
241,227,50897,1,0,0:0:0:0:
238,212,50972,1,0,0:0:0:0:
235,197,51047,1,0,0:0:0:0:
232,182,51122,1,0,0:0:0:0:
230,167,51197,1,0,0:0:0:0:
230,167,51497,5,0,0:0:0:0:
232,152,51572,1,0,0:0:0:0:
235,137,51647,1,0,0:0:0:0:
238,122,51722,1,0,0:0:0:0:
240,107,51797,1,0,0:0:0:0:
382,42,51947,6,0,L|465:38,2,50,0|0|0,0:0|0:0|0:0,0:0:0:0:
143,57,52247,1,0,0:0:0:0:
357,163,52397,1,0,0:0:0:0:
386,169,52472,1,0,0:0:0:0:
416,169,52547,1,0,0:0:0:0:
445,163,52622,1,0,0:0:0:0:
472,150,52697,2,0,P|501:132|518:97,1,50,0|0,0:0|0:0,0:0:0:0:
320,87,52847,5,0,0:0:0:0:
214,301,52997,2,0,L|221:355,2,50,0|0|0,0:0|0:0|0:0,0:0:0:0:
82,103,53297,2,0,L|28:96,2,50,0|0|0,0:0|0:0|0:0,0:0:0:0:
303,212,53597,2,0,L|357:205,2,50,0|0|0,0:0|0:0|0:0,0:0:0:0:
181,180,53897,1,0,0:0:0:0:
269,90,54047,1,0,0:0:0:0:
283,92,54122,1,0,0:0:0:0:
298,95,54197,5,0,0:0:0:0:
402,211,54347,2,0,L|350:205,1,50,0|0,0:0|0:0,0:0:0:0:
435,14,54497,1,0,0:0:0:0:
473,266,54647,1,0,0:0:0:0:
181,180,54797,1,0,0:0:0:0:
166,175,54872,1,0,0:0:0:0:
151,174,54947,2,0,P|114:174|69:184,1,50,0|0,0:0|0:0,0:0:0:0:
176,338,55097,6,0,P|200:339|225:337,1,50,0|0,0:0|0:0,0:0:0:0:
277,124,55247,1,0,0:0:0:0:
286,95,55322,1,0,0:0:0:0:
300,69,55397,1,0,0:0:0:0:
321,47,55472,1,0,0:0:0:0:
345,30,55547,2,0,P|385:18|423:19,1,50,0|0,0:0|0:0,0:0:0:0:
426,194,55697,2,0,P|403:203|379:207,1,50,0|0,0:0|0:0,0:0:0:0:
198,111,55847,5,0,0:0:0:0:
157,92,55922,1,0,0:0:0:0:
112,88,55997,1,0,0:0:0:0:
69,101,56072,1,0,0:0:0:0:
33,127,56147,1,0,0:0:0:0:
8,164,56222,1,0,0:0:0:0:
0,208,56297,1,0,0:0:0:0:
3,252,56372,1,0,0:0:0:0:
24,292,56447,2,0,L|98:334,3,50,0|0|0|0,0:0|0:0|0:0|0:0,0:0:0:0:
166,178,56747,5,0,0:0:0:0:
198,173,56822,1,0,0:0:0:0:
231,169,56897,2,0,L|285:161,1,55.0000016784668,0|0,0:0|0:0,0:0:0:0:
358,230,57047,1,0,0:0:0:0:
325,235,57122,1,0,0:0:0:0:
292,240,57197,2,0,L|230:253,1,59.9999981689454,0|0,0:0|0:0,0:0:0:0:
251,82,57347,1,0,0:0:0:0:
289,76,57422,1,0,0:0:0:0:
328,71,57497,2,0,L|409:62,1,64.9999970245363,0|0,0:0|0:0,0:0:0:0:
483,188,57647,6,0,B|492:243|492:243|469:354,1,129.999994049073,0|0,0:0|0:0,0:0:0:0:
310,350,57947,1,0,0:0:0:0:
157,154,58097,2,0,B|212:145|212:145|323:168,1,129.999994049073,0|0,0:0|0:0,0:0:0:0:
132,354,58397,2,0,B|77:363|77:363|-34:340,1,129.999994049073,0|0,0:0|0:0,0:0:0:0:
39,104,58697,1,0,0:0:0:0:
272,263,58847,6,0,B|324:243|324:243|408:167,1,129.999994049073,0|0,0:0|0:0,0:0:0:0:
323,30,59147,1,0,0:0:0:0:
151,236,59297,2,0,B|170:288|170:288|246:372,1,129.999994049073,0|0,0:0|0:0,0:0:0:0:
283,122,59597,2,0,B|263:69|263:69|187:-14,1,129.999994049073,0|0,0:0|0:0,0:0:0:0:
27,185,59897,1,0,0:0:0:0:
296,211,60047,6,0,P|343:239|295:260,1,129.999994049073,0|0,0:0|0:0,0:0:0:0:
156,163,60347,1,0,0:0:0:0:
345,32,60497,2,0,P|387:90|372:183,1,129.999994049073,0|0,0:0|0:0,0:0:0:0:
339,375,60797,2,0,P|297:317|312:224,1,129.999994049073,0|0,0:0|0:0,0:0:0:0:
485,112,61097,1,0,0:0:0:0:
228,56,61247,6,0,B|173:73|161:98|161:98|182:137|182:137|130:172|147:208|147:208|157:237|153:297,1,259.999988098145,0|0,0:0|0:0,0:0:0:0:
163,271,61622,1,0,0:0:0:0:
175,286,61697,1,0,0:0:0:0:
293,165,61847,1,0,0:0:0:0:
305,180,61922,1,0,0:0:0:0:
317,195,61997,2,0,B|326:250|326:250|303:361,1,129.999994049073,0|0,0:0|0:0,0:0:0:0:
74,312,62297,1,0,0:0:0:0:
237,87,62447,6,0,B|188:59|188:59|76:43,1,129.999994049073,0|0,0:0|0:0,0:0:0:0:
3,177,62747,1,0,0:0:0:0:
231,295,62897,2,0,B|278:266|278:266|349:177,1,129.999994049073,0|0,0:0|0:0,0:0:0:0:
79,184,63197,2,0,B|65:238|65:238|78:350,1,129.999994049073,0|0,0:0|0:0,0:0:0:0:
320,351,63497,1,0,0:0:0:0:
237,87,63647,6,0,B|291:73|291:73|403:86,1,129.999994049073,0|0,0:0|0:0,0:0:0:0:
418,244,63947,1,0,0:0:0:0:
163,142,64097,2,0,B|154:86|154:86|177:-23,1,129.999994049073,0|0,0:0|0:0,0:0:0:0:
424,116,64397,2,0,B|433:172|433:172|410:281,1,129.999994049073,0|0,0:0|0:0,0:0:0:0:
171,276,64697,1,0,0:0:0:0:
281,18,64847,5,0,0:0:0:0:
300,22,64922,1,0,0:0:0:0:
319,26,64997,2,0,L|436:51,1,64.9999970245363,0|0,0:0|0:0,0:0:0:0:
273,90,65147,5,0,0:0:0:0:
254,86,65222,1,0,0:0:0:0:
235,82,65297,2,0,L|118:57,1,64.9999970245363,0|0,0:0|0:0,0:0:0:0:
251,161,65447,5,0,0:0:0:0:
270,165,65522,1,0,0:0:0:0:
289,169,65597,2,0,L|406:194,1,64.9999970245363,0|0,0:0|0:0,0:0:0:0:
224,229,65747,5,0,0:0:0:0:
205,225,65822,1,0,0:0:0:0:
186,221,65897,2,0,L|69:196,1,64.9999970245363,0|0,0:0|0:0,0:0:0:0:
202,300,66047,5,0,0:0:0:0:
221,304,66122,1,0,0:0:0:0:
240,308,66197,2,0,L|357:333,1,64.9999970245363,0|0,0:0|0:0,0:0:0:0:
175,368,66347,5,0,0:0:0:0:
156,364,66422,1,0,0:0:0:0:
137,360,66497,1,0,0:0:0:0:
117,355,66572,1,0,0:0:0:0:
98,351,66647,5,0,0:0:0:0:
66,328,66722,1,0,0:0:0:0:
41,298,66797,1,0,0:0:0:0:
23,263,66872,1,0,0:0:0:0:
16,225,66947,1,0,0:0:0:0:
17,187,67022,1,0,0:0:0:0:
29,149,67097,1,0,0:0:0:0:
49,116,67172,1,0,0:0:0:0:
77,89,67247,6,0,B|116:71|116:71|154:99|220:90,1,129.999994049073,0|0,0:0|0:0,0:0:0:0:
356,30,67547,1,0,0:0:0:0:
435,295,67697,2,0,B|396:313|396:313|358:285|292:294,1,129.999994049073,0|0,0:0|0:0,0:0:0:0:
40,332,67997,2,0,B|79:350|79:350|117:322|183:331,1,129.999994049073,0|0,0:0|0:0,0:0:0:0:
446,380,68297,1,0,0:0:0:0:
150,244,68447,6,0,B|112:204|112:204|126:172|109:160|109:160|131:108,1,129.999994049073,0|0,0:0|0:0,0:0:0:0:
275,68,68747,1,0,0:0:0:0:
345,313,68897,1,0,0:0:0:0:
469,91,69047,2,0,L|404:83,1,64.9999970245363,0|0,0:0|0:0,0:0:0:0:
237,213,69197,2,0,L|366:227,1,129.999994049073,0|0,0:0|0:0,0:0:0:0:
496,16,69497,1,0,0:0:0:0:
213,101,69647,6,0,P|167:73|224:46,1,129.999994049073,0|0,0:0|0:0,0:0:0:0:
345,144,69947,1,0,0:0:0:0:
166,332,70097,1,0,0:0:0:0:
108,133,70247,1,0,0:0:0:0:
320,290,70397,2,0,P|415:290|450:218,1,129.999994049073,0|0,0:0|0:0,0:0:0:0:
351,16,70697,5,0,0:0:0:0:
108,133,70847,1,0,0:0:0:0:
374,151,70997,2,0,B|338:180|338:180|225:202,1,129.999994049073,0|0,0:0|0:0,0:0:0:0:
58,29,71297,1,0,0:0:0:0:
351,16,71447,1,0,0:0:0:0:
368,24,71522,1,0,0:0:0:0:
386,32,71597,2,0,L|450:62,1,64.9999970245363,0|0,0:0|0:0,0:0:0:0:
468,195,71747,1,0,0:0:0:0:
450,186,71822,1,0,0:0:0:0:
432,178,71897,2,0,L|368:148,1,64.9999970245363,0|0,0:0|0:0,0:0:0:0:
187,78,72047,5,0,0:0:0:0:
155,100,72122,1,0,0:0:0:0:
131,131,72197,1,0,0:0:0:0:
117,167,72272,1,0,0:0:0:0:
114,206,72347,1,0,0:0:0:0:
122,244,72422,1,0,0:0:0:0:
147,275,72497,5,0,0:0:0:0:
177,250,72572,1,0,0:0:0:0:
215,243,72647,1,0,0:0:0:0:
254,245,72722,1,0,0:0:0:0:
290,260,72797,5,0,0:0:0:0:
293,221,72872,1,0,0:0:0:0:
315,189,72947,1,0,0:0:0:0:
344,163,73022,1,0,0:0:0:0:
380,148,73097,5,0,0:0:0:0:
396,185,73172,1,0,0:0:0:0:
412,222,73247,5,0,0:0:0:0:
458,199,73322,1,0,0:0:0:0:
487,157,73397,1,0,0:0:0:0:
491,106,73472,1,0,0:0:0:0:
470,59,73547,1,0,0:0:0:0:
428,29,73622,1,0,0:0:0:0:
377,24,73697,5,0,0:0:0:0:
384,72,73772,1,0,0:0:0:0:
367,121,73847,1,0,0:0:0:0:
327,154,73922,1,0,0:0:0:0:
277,163,73997,5,0,0:0:0:0:
316,196,74072,1,0,0:0:0:0:
334,244,74147,1,0,0:0:0:0:
325,295,74222,1,0,0:0:0:0:
295,334,74297,5,0,0:0:0:0:
344,342,74372,1,0,0:0:0:0:
393,350,74447,5,0,0:0:0:0:
428,303,74522,1,0,0:0:0:0:
464,257,74597,2,0,L|503:205,1,64.9999970245363,0|0,0:0|0:0,0:0:0:0:
334,244,74747,5,0,0:0:0:0:
369,197,74822,1,0,0:0:0:0:
405,151,74897,2,0,L|455:86,1,64.9999970245363,0|0,0:0|0:0,0:0:0:0:
275,138,75047,6,0,L|314:86,1,64.9999970245363,0|0,0:0|0:0,0:0:0:0:
503,205,75197,2,0,L|453:270,3,64.9999970245363,0|0|0|0,0:0|0:0|0:0|0:0,0:0:0:0:
334,244,75497,2,0,L|373:192,5,64.9999970245363,0|0|0|0|0|0,0:0|0:0|0:0|0:0|0:0|0:0,0:0:0:0:
314,86,75947,5,0,0:0:0:0:
272,54,76022,1,0,0:0:0:0:
223,39,76097,1,0,0:0:0:0:
171,42,76172,1,0,0:0:0:0:
124,63,76247,1,0,0:0:0:0:
87,99,76322,1,0,0:0:0:0:
65,146,76397,1,0,0:0:0:0:
61,198,76472,1,0,0:0:0:0:
74,247,76547,1,0,0:0:0:0:
105,289,76622,1,0,0:0:0:0:
148,318,76697,1,0,0:0:0:0:
198,330,76772,1,0,0:0:0:0:
250,323,76847,6,0,B|375:283|386:194|386:194|276:212|215:194|205:142,1,400,0|0,0:0|0:0,0:0:0:0:
290,94,78197,1,0,0:0:0:0:
166,32,78347,1,0,0:0:0:0:
179,227,78497,1,0,0:0:0:0:
377,95,78647,1,0,0:0:0:0:
377,95,78722,1,0,0:0:0:0:
377,95,78797,2,0,L|417:66,1,50,0|0,0:0|0:0,0:0:0:0:
179,227,78947,1,0,0:0:0:0:
250,296,79247,6,0,P|305:319|382:316,1,100,0|0,0:0|0:0,0:0:0:0:
359,322,79472,1,0,0:0:0:0:
373,320,79547,1,0,0:0:0:0:
476,175,79697,2,0,P|421:152|344:155,1,100,0|0,0:0|0:0,0:0:0:0:
367,149,79922,1,0,0:0:0:0:
353,151,79997,1,0,0:0:0:0:
231,211,80147,6,0,P|181:205|136:184,1,100,0|0,0:0|0:0,0:0:0:0:
223,33,80447,2,0,B|235:21|235:21|263:121,1,100,0|0,0:0|0:0,0:0:0:0:
262,116,80672,1,0,0:0:0:0:
266,130,80747,1,0,0:0:0:0:
179,281,80897,2,0,B|167:293|167:293|139:193,1,100,0|0,0:0|0:0,0:0:0:0:
140,198,81122,1,0,0:0:0:0:
136,184,81197,1,0,0:0:0:0:
313,298,81347,6,0,B|325:310|325:310|225:338,1,100,0|0,0:0|0:0,0:0:0:0:
21,157,81647,2,0,B|9:145|9:145|109:117,1,100,0|0,0:0|0:0,0:0:0:0:
103,120,81872,1,0,0:0:0:0:
117,117,81947,1,0,0:0:0:0:
304,202,82097,2,0,B|316:214|316:214|216:242,1,100,0|0,0:0|0:0,0:0:0:0:
222,239,82322,1,0,0:0:0:0:
208,242,82397,1,0,0:0:0:0:
21,157,82547,6,0,L|10:298,1,100,0|0,0:0|0:0,0:0:0:0:
304,202,82847,2,0,L|315:61,1,100,0|0,0:0|0:0,0:0:0:0:
312,87,83072,1,0,0:0:0:0:
313,72,83147,1,0,0:0:0:0:
136,40,83297,2,0,L|125:181,1,100,0|0,0:0|0:0,0:0:0:0:
128,155,83522,1,0,0:0:0:0:
127,170,83597,1,0,0:0:0:0:
244,303,83747,6,0,B|289:311|289:311|360:351,1,100,0|0,0:0|0:0,0:0:0:0:
127,258,84047,2,0,B|82:250|82:250|11:210,1,100,0|0,0:0|0:0,0:0:0:0:
25,211,84272,1,0,0:0:0:0:
15,199,84347,1,0,0:0:0:0:
146,100,84497,2,0,B|191:108|191:108|262:148,1,100,0|0,0:0|0:0,0:0:0:0:
248,147,84722,1,0,0:0:0:0:
257,159,84797,1,0,0:0:0:0:
60,144,84947,6,0,B|68:99|68:99|108:28,1,100,0|0,0:0|0:0,0:0:0:0:
354,114,85247,2,0,B|346:159|346:159|306:230,1,100,0|0,0:0|0:0,0:0:0:0:
311,218,85472,1,0,0:0:0:0:
302,230,85547,1,0,0:0:0:0:
188,122,85697,2,0,B|196:77|196:77|236:6,1,100,0|0,0:0|0:0,0:0:0:0:
231,18,85922,1,0,0:0:0:0:
240,6,85997,1,0,0:0:0:0:
232,209,86147,2,0,B|187:201|187:201|116:161,1,100,0|0,0:0|0:0,0:0:0:0:
338,29,86447,5,0,0:0:0:0:
351,35,86522,1,0,0:0:0:0:
365,41,86597,2,0,L|412:62,1,50,0|0,0:0|0:0,0:0:0:0:
310,128,86747,1,0,0:0:0:0:
323,134,86822,1,0,0:0:0:0:
337,140,86897,1,0,0:0:0:0:
350,146,86972,1,0,0:0:0:0:
364,152,87047,1,0,0:0:0:0:
377,158,87122,1,0,0:0:0:0:
391,164,87197,2,0,L|436:184,1,50,0|0,0:0|0:0,0:0:0:0:
380,317,87347,5,0,0:0:0:0:
366,311,87422,1,0,0:0:0:0:
352,305,87497,2,0,L|305:285,1,50,0|0,0:0|0:0,0:0:0:0:
256,190,87647,1,0,0:0:0:0:
283,201,87722,1,0,0:0:0:0:
311,212,87797,2,0,L|357:231,1,50,0|0,0:0|0:0,0:0:0:0:
296,355,87947,1,0,0:0:0:0:
268,343,88022,1,0,0:0:0:0:
241,333,88097,2,0,L|194:313,1,50,0|0,0:0|0:0,0:0:0:0:
143,219,88246,5,0,0:0:0:0:
171,231,88321,1,0,0:0:0:0:
197,240,88396,2,0,L|244:260,1,50,0|0,0:0|0:0,0:0:0:0:
183,384,88547,1,0,0:0:0:0:
155,372,88622,1,0,0:0:0:0:
128,362,88697,2,0,L|81:342,1,50,0|0,0:0|0:0,0:0:0:0:
58,153,88847,6,0,P|101:122|186:125,1,100,0|0,0:0|0:0,0:0:0:0:
161,116,89072,1,0,0:0:0:0:
175,120,89147,1,0,0:0:0:0:
331,221,89297,2,0,P|288:252|203:249,1,100,0|0,0:0|0:0,0:0:0:0:
228,258,89522,1,0,0:0:0:0:
214,254,89597,1,0,0:0:0:0:
284,77,89747,6,0,P|305:91|318:111,1,50,0|0,0:0|0:0,0:0:0:0:
141,185,89897,2,0,P|119:171|106:151,1,50,0|0,0:0|0:0,0:0:0:0:
317,21,90047,2,0,P|372:72|386:121,1,100,0|0,0:0|0:0,0:0:0:0:
386,108,90272,1,0,0:0:0:0:
387,122,90347,1,0,0:0:0:0:
306,331,90497,2,0,P|251:280|237:231,1,100,0|0,0:0|0:0,0:0:0:0:
237,244,90722,1,0,0:0:0:0:
236,230,90797,1,0,0:0:0:0:
381,93,90947,6,0,L|244:85,1,100,0|0,0:0|0:0,0:0:0:0:
49,128,91247,2,0,L|186:136,1,100,0|0,0:0|0:0,0:0:0:0:
162,133,91472,1,0,0:0:0:0:
177,134,91547,1,0,0:0:0:0:
335,20,91697,2,0,L|198:12,1,100,0|0,0:0|0:0,0:0:0:0:
221,15,91922,1,0,0:0:0:0:
206,14,91997,1,0,0:0:0:0:
116,199,92147,6,0,B|71:165|71:165|39:114,1,100,0|0,0:0|0:0,0:0:0:0:
281,87,92447,2,0,B|325:120|325:120|357:171,1,100,0|0,0:0|0:0,0:0:0:0:
352,172,92672,1,0,0:0:0:0:
354,186,92747,1,0,0:0:0:0:
194,77,92897,2,0,B|227:32|227:32|278:0,1,100,0|0,0:0|0:0,0:0:0:0:
279,6,93122,1,0,0:0:0:0:
293,4,93197,1,0,0:0:0:0:
425,118,93347,2,0,B|391:162|391:162|340:194,1,100,0|0,0:0|0:0,0:0:0:0:
75,218,93647,6,0,B|93:171|93:171|124:160|124:160|145:111,1,119.999996337891,0|0,0:0|0:0,0:0:0:0:
407,227,93947,2,0,B|389:274|389:274|358:285|358:285|337:334,1,119.999996337891,0|0,0:0|0:0,0:0:0:0:
243,52,94247,2,0,B|290:70|290:70|301:101|301:101|350:122,1,119.999996337891,0|0,0:0|0:0,0:0:0:0:
233,384,94547,2,0,B|186:366|186:366|175:335|175:335|126:314,1,119.999996337891,0|0,0:0|0:0,0:0:0:0:
138,126,94847,2,0,P|201:149|252:219,1,110.000003356934,0|0,0:0|0:0,0:0:0:0:
101,269,95147,2,0,P|38:246|-13:176,1,110.000003356934,0|0,0:0|0:0,0:0:0:0:
68,57,95447,1,0,0:0:0:0:
85,46,95522,1,0,0:0:0:0:
103,39,95597,1,0,0:0:0:0:
123,35,95672,1,0,0:0:0:0:
151,37,95747,5,0,0:0:0:0:
179,46,95822,1,0,0:0:0:0:
208,53,95897,1,0,0:0:0:0:
238,57,95972,1,0,0:0:0:0:
268,58,96047,5,0,0:0:0:0:
296,67,96122,1,0,0:0:0:0:
321,83,96197,1,0,0:0:0:0:
340,106,96272,1,0,0:0:0:0:
352,133,96347,1,0,0:0:0:0:
357,163,96422,1,0,0:0:0:0:
353,193,96497,5,0,0:0:0:0:
326,179,96572,1,0,0:0:0:0:
297,173,96647,1,0,0:0:0:0:
268,176,96722,1,0,0:0:0:0:
240,186,96797,5,0,0:0:0:0:
222,216,96872,1,0,0:0:0:0:
220,255,96947,1,0,0:0:0:0:
231,298,97022,1,0,0:0:0:0:
266,333,97097,1,0,0:0:0:0:
317,351,97172,1,0,0:0:0:0:
376,345,97247,6,0,L|424:332,1,50,0|0,0:0|0:0,0:0:0:0:
485,186,97397,2,0,L|436:198,1,50,0|0,0:0|0:0,0:0:0:0:
309,262,97547,2,0,L|364:248,1,50,0|0,0:0|0:0,0:0:0:0:
418,103,97697,2,0,L|369:115,1,50,0|0,0:0|0:0,0:0:0:0:
242,179,97847,2,0,L|255:130,1,50,0|0,0:0|0:0,0:0:0:0:
201,0,97997,2,0,L|185:54,3,50,0|0|0|0,0:0|0:0|0:0|0:0,0:0:0:0:
320,176,98297,1,0,0:0:0:0:
320,176,98447,6,0,B|304:260|216:252|216:252|172:284,1,200,0|0,0:0|0:0,0:0:0:0:
377,346,98897,1,0,0:0:0:0:
238,181,99047,2,0,B|177:88|279:26|279:26|302:88|356:63|356:63|421:103|421:184,1,400,0|0,0:0|0:0,0:0:0:0:
264,302,99797,1,0,0:0:0:0:
279,31,99947,1,0,0:0:0:0:
436,259,100097,1,0,0:0:0:0:
161,281,100247,1,0,0:0:0:0:
313,131,100397,2,0,P|360:184|376:240,1,100,0|0,0:0|0:0,0:0:0:0:
228,326,100697,1,0,0:0:0:0:
248,61,100847,6,0,B|183:78|183:78|169:146|119:211,1,200,0|0,0:0|0:0,0:0:0:0:
10,72,101297,1,0,0:0:0:0:
240,143,101447,2,0,B|262:197|304:194|304:194|307:226|332:265|332:265|377:248|401:268|401:268|487:261|453:208|453:208|470:173|467:132,1,400,0|0,0:0|0:0,0:0:0:0:
352,28,102197,2,0,P|309:74|298:120,1,100,0|0,0:0|0:0,0:0:0:0:
390,195,102497,2,0,P|387:132|363:91,1,100,0|0,0:0|0:0,0:0:0:0:
246,165,102797,1,0,0:0:0:0:
60,151,102947,1,0,0:0:0:0:
32,116,103022,1,0,0:0:0:0:
27,71,103097,1,0,0:0:0:0:
46,31,103172,1,0,0:0:0:0:
83,7,103247,6,0,B|149:0|149:0|186:59|255:103,1,200,0|0,0:0|0:0,0:0:0:0:
403,52,103697,1,0,0:0:0:0:
268,275,103847,2,0,B|175:336|113:234|113:234|175:211|150:157|150:157|190:92|271:92,1,400,0|0,0:0|0:0,0:0:0:0:
389,230,104597,1,0,0:0:0:0:
118,237,104747,1,0,0:0:0:0:
350,97,104897,1,0,0:0:0:0:
285,361,105047,1,0,0:0:0:0:
195,189,105197,2,0,P|247:161|320:174,1,100,0|0,0:0|0:0,0:0:0:0:
362,314,105497,1,0,0:0:0:0:
427,72,105647,6,0,B|384:20|384:20|316:36|252:21,1,200,0|0,0:0|0:0,0:0:0:0:
75,0,106097,1,0,0:0:0:0:
110,234,106247,2,0,P|166:217|208:156,1,100,0|0,0:0|0:0,0:0:0:0:
41,118,106547,1,0,0:0:0:0:
22,141,106622,1,0,0:0:0:0:
8,168,106697,1,0,0:0:0:0:
1,197,106772,1,0,0:0:0:0:
0,227,106847,1,0,0:0:0:0:
6,256,106922,1,0,0:0:0:0:
19,283,106997,1,0,0:0:0:0:
36,307,107072,1,0,0:0:0:0:
59,327,107147,1,0,0:0:0:0:
85,341,107222,1,0,0:0:0:0:
114,349,107297,1,0,0:0:0:0:
144,351,107372,1,0,0:0:0:0:
174,346,107447,5,0,0:0:0:0:
183,302,107522,1,0,0:0:0:0:
201,260,107597,1,0,0:0:0:0:
228,224,107672,1,0,0:0:0:0:
262,195,107747,1,0,0:0:0:0:
301,174,107822,1,0,0:0:0:0:
344,162,107897,1,0,0:0:0:0:
389,159,107972,1,0,0:0:0:0:
434,166,108047,5,0,0:0:0:0:
431,181,108122,1,0,0:0:0:0:
428,196,108197,1,0,0:0:0:0:
428,196,108497,5,0,0:0:0:0:
430,210,108572,1,0,0:0:0:0:
433,225,108647,1,0,0:0:0:0:
436,240,108722,1,0,0:0:0:0:
438,255,108797,1,0,0:0:0:0:
438,255,109097,5,0,0:0:0:0:
423,252,109172,1,0,0:0:0:0:
408,249,109247,1,0,0:0:0:0:
393,246,109322,1,0,0:0:0:0:
378,244,109397,1,0,0:0:0:0:
378,244,109697,5,0,0:0:0:0:
364,250,109772,1,0,0:0:0:0:
350,256,109847,1,0,0:0:0:0:
336,261,109922,1,0,0:0:0:0:
322,265,109997,1,0,0:0:0:0:
307,268,110072,1,0,0:0:0:0:
292,270,110147,1,0,0:0:0:0:
277,271,110222,1,0,0:0:0:0:
262,271,110297,1,0,0:0:0:0:
134,141,110447,5,0,0:0:0:0:
312,95,110597,2,0,L|367:44,2,50,0|0|0,0:0|0:0|0:0,0:0:0:0:
262,271,110897,1,0,0:0:0:0:
258,256,110972,1,0,0:0:0:0:
255,241,111047,1,0,0:0:0:0:
252,226,111122,1,0,0:0:0:0:
249,212,111197,1,0,0:0:0:0:
249,212,111497,5,0,0:0:0:0:
252,197,111572,1,0,0:0:0:0:
255,182,111647,1,0,0:0:0:0:
258,167,111722,1,0,0:0:0:0:
261,153,111797,1,0,0:0:0:0:
380,18,111947,6,0,L|463:14,2,50,0|0|0,0:0|0:0|0:0,0:0:0:0:
162,84,112247,1,0,0:0:0:0:
329,240,112397,1,0,0:0:0:0:
358,246,112472,1,0,0:0:0:0:
388,246,112547,1,0,0:0:0:0:
417,240,112622,1,0,0:0:0:0:
444,227,112697,2,0,P|473:209|490:174,1,50,0|0,0:0|0:0,0:0:0:0:
343,84,112847,5,0,0:0:0:0:
487,293,112997,2,0,L|447:341,2,50,0|0|0,0:0|0:0|0:0,0:0:0:0:
264,179,113297,2,0,L|312:219,2,50,0|0|0,0:0|0:0|0:0,0:0:0:0:
495,90,113597,2,0,L|447:130,2,50,0|0|0,0:0|0:0|0:0,0:0:0:0:
390,30,113897,1,0,0:0:0:0:
324,130,114047,1,0,0:0:0:0:
309,128,114122,1,0,0:0:0:0:
294,126,114197,5,0,0:0:0:0:
157,214,114347,2,0,L|205:225,1,50,0|0,0:0|0:0,0:0:0:0:
245,28,114497,1,0,0:0:0:0:
53,179,114647,1,0,0:0:0:0:
331,298,114797,1,0,0:0:0:0:
345,299,114872,1,0,0:0:0:0:
360,298,114947,2,0,P|384:294|408:286,1,50,0|0,0:0|0:0,0:0:0:0:
416,142,115097,2,0,P|391:146|367:154,1,50,0|0,0:0|0:0,0:0:0:0:
230,282,115247,5,0,0:0:0:0:
200,284,115322,1,0,0:0:0:0:
170,277,115397,1,0,0:0:0:0:
144,263,115472,1,0,0:0:0:0:
123,242,115547,2,0,P|108:222|100:198,1,50,0|0,0:0|0:0,0:0:0:0:
168,61,115697,2,0,P|182:81|191:104,1,50,0|0,0:0|0:0,0:0:0:0:
36,267,115847,5,0,0:0:0:0:
61,304,115922,1,0,0:0:0:0:
95,334,115997,1,0,0:0:0:0:
134,357,116072,1,0,0:0:0:0:
177,370,116147,1,0,0:0:0:0:
221,373,116222,1,0,0:0:0:0:
266,366,116297,1,0,0:0:0:0:
308,350,116372,1,0,0:0:0:0:
345,325,116447,1,0,0:0:0:0:
416,68,116747,5,0,0:0:0:0:
35,192,117047,1,0,0:0:0:0:
416,316,117347,1,0,0:0:0:0:
81,98,117647,6,0,B|129:70|129:70|241:54,1,129.999994049073,0|0,0:0|0:0,0:0:0:0:
139,216,117947,1,0,0:0:0:0:
312,61,118097,2,0,B|365:76|365:76|456:143,1,129.999994049073,0|0,0:0|0:0,0:0:0:0:
311,354,118397,2,0,B|257:338|257:338|166:271,1,129.999994049073,0|0,0:0|0:0,0:0:0:0:
443,273,118697,1,0,0:0:0:0:
160,364,118847,6,0,B|132:315|132:315|116:203,1,129.999994049073,0|0,0:0|0:0,0:0:0:0:
290,279,119147,1,0,0:0:0:0:
127,115,119297,2,0,B|142:61|142:61|209:-29,1,129.999994049073,0|0,0:0|0:0,0:0:0:0:
456,64,119597,2,0,B|440:117|440:117|373:208,1,129.999994049073,0|0,0:0|0:0,0:0:0:0:
259,2,119897,1,0,0:0:0:0:
290,279,120047,6,0,P|350:272|297:241,1,129.999994049073,0|0,0:0|0:0,0:0:0:0:
150,203,120347,1,0,0:0:0:0:
322,373,120497,2,0,P|397:340|421:261,1,129.999994049073,0|0,0:0|0:0,0:0:0:0:
316,84,120797,2,0,P|241:117|217:196,1,129.999994049073,0|0,0:0|0:0,0:0:0:0:
457,231,121097,1,0,0:0:0:0:
189,337,121247,6,0,B|160:303|160:303|191:286|201:267|201:267|169:258|153:238|153:238|171:211|171:211|164:195|140:181|153:143,1,259.999988098145,0|0,0:0|0:0,0:0:0:0:
160,128,121622,1,0,0:0:0:0:
169,110,121697,1,0,0:0:0:0:
316,84,121847,1,0,0:0:0:0:
431,286,121997,2,0,B|382:313|382:313|270:329,1,129.999994049073,0|0,0:0|0:0,0:0:0:0:
258,162,122297,1,0,0:0:0:0:
472,40,122447,6,0,B|423:12|423:12|311:-3,1,129.999994049073,0|0,0:0|0:0,0:0:0:0:
374,162,122747,1,0,0:0:0:0:
163,2,122897,2,0,B|109:17|109:17|18:84,1,129.999994049073,0|0,0:0|0:0,0:0:0:0:
260,221,123197,2,0,B|313:205|313:205|404:138,1,129.999994049073,0|0,0:0|0:0,0:0:0:0:
211,113,123497,1,0,0:0:0:0:
475,73,123647,6,0,B|502:121|502:121|518:233,1,129.999994049073,0|0,0:0|0:0,0:0:0:0:
352,250,123947,1,0,0:0:0:0:
138,68,124097,2,0,B|186:40|186:40|298:24,1,129.999994049073,0|0,0:0|0:0,0:0:0:0:
249,283,124397,2,0,B|200:310|200:310|88:326,1,129.999994049073,0|0,0:0|0:0,0:0:0:0:
211,113,124697,1,0,0:0:0:0:
432,263,124847,5,0,0:0:0:0:
435,243,124922,1,0,0:0:0:0:
439,224,124997,2,0,L|454:144,1,64.9999970245363,0|0,0:0|0:0,0:0:0:0:
363,215,125147,5,0,0:0:0:0:
366,195,125222,1,0,0:0:0:0:
370,176,125297,2,0,L|381:112,1,64.9999970245363,0|0,0:0|0:0,0:0:0:0:
294,167,125447,5,0,0:0:0:0:
297,147,125522,1,0,0:0:0:0:
301,128,125597,2,0,L|312:64,1,64.9999970245363,0|0,0:0|0:0,0:0:0:0:
210,68,125747,5,0,0:0:0:0:
213,87,125822,1,0,0:0:0:0:
217,107,125897,2,0,L|232:187,1,64.9999970245363,0|0,0:0|0:0,0:0:0:0:
141,116,126047,5,0,0:0:0:0:
144,136,126122,1,0,0:0:0:0:
148,155,126197,2,0,L|163:235,1,64.9999970245363,0|0,0:0|0:0,0:0:0:0:
72,164,126347,5,0,0:0:0:0:
75,184,126422,1,0,0:0:0:0:
79,203,126497,1,0,0:0:0:0:
82,222,126572,1,0,0:0:0:0:
86,241,126647,1,0,0:0:0:0:
89,260,126722,1,0,0:0:0:0:
117,310,126797,5,0,0:0:0:0:
133,319,126872,1,0,0:0:0:0:
151,325,126947,1,0,0:0:0:0:
189,327,127022,1,0,0:0:0:0:
228,323,127097,1,0,0:0:0:0:
266,313,127172,1,0,0:0:0:0:
301,296,127247,6,0,B|337:270|341:226|341:226|365:206|369:170,1,129.999994049073,0|0,0:0|0:0,0:0:0:0:
306,28,127547,1,0,0:0:0:0:
163,259,127697,1,0,0:0:0:0:
35,20,127847,1,0,0:0:0:0:
201,298,127997,2,0,B|237:272|241:228|241:228|265:208|269:172,1,129.999994049073,0|0,0:0|0:0,0:0:0:0:
90,144,128297,1,0,0:0:0:0:
335,85,128447,6,0,B|361:89|362:112|362:112|388:125|388:125|387:154|432:207,1,129.999994049073,0|0,0:0|0:0,0:0:0:0:
331,333,128747,1,0,0:0:0:0:
168,115,128897,1,0,0:0:0:0:
61,364,129047,1,0,0:0:0:0:
202,73,129197,2,0,B|240:95|247:139|247:139|273:157|280:192,1,129.999994049073,0|0,0:0|0:0,0:0:0:0:
104,236,129497,1,0,0:0:0:0:
384,227,129647,6,0,P|431:253|385:283,1,129.999994049073,0|0,0:0|0:0,0:0:0:0:
208,248,129947,1,0,0:0:0:0:
369,44,130097,1,0,0:0:0:0:
491,210,130247,1,0,0:0:0:0:
248,112,130397,2,0,P|170:111|86:178,1,129.999994049073,0|0,0:0|0:0,0:0:0:0:
296,331,130697,5,0,0:0:0:0:
448,111,130847,1,0,0:0:0:0:
251,365,130997,2,0,B|298:331|298:331|350:242,1,129.999994049073,0|0,0:0|0:0,0:0:0:0:
171,41,131297,1,0,0:0:0:0:
116,361,131447,2,0,B|69:327|69:327|17:238,1,129.999994049073,0|0,0:0|0:0,0:0:0:0:
301,64,131747,2,0,B|348:98|348:98|400:187,1,129.999994049073,0|0,0:0|0:0,0:0:0:0:
134,254,132047,5,0,0:0:0:0:
110,223,132122,1,0,0:0:0:0:
98,186,132197,1,0,0:0:0:0:
99,147,132272,1,0,0:0:0:0:
112,110,132347,1,0,0:0:0:0:
136,80,132422,1,0,0:0:0:0:
169,59,132497,5,0,0:0:0:0:
200,84,132572,1,0,0:0:0:0:
236,98,132647,1,0,0:0:0:0:
275,100,132722,1,0,0:0:0:0:
312,91,132797,5,0,0:0:0:0:
314,129,132872,1,0,0:0:0:0:
332,162,132947,1,0,0:0:0:0:
360,190,133022,1,0,0:0:0:0:
396,206,133097,5,0,0:0:0:0:
415,172,133172,1,0,0:0:0:0:
434,138,133247,5,0,0:0:0:0:
472,173,133322,1,0,0:0:0:0:
493,220,133397,1,0,0:0:0:0:
492,272,133472,1,0,0:0:0:0:
472,319,133547,1,0,0:0:0:0:
433,354,133622,1,0,0:0:0:0:
385,371,133697,5,0,0:0:0:0:
350,332,133772,1,0,0:0:0:0:
306,304,133847,1,0,0:0:0:0:
257,290,133922,1,0,0:0:0:0:
204,289,133997,5,0,0:0:0:0:
223,242,134072,1,0,0:0:0:0:
222,190,134147,1,0,0:0:0:0:
200,143,134222,1,0,0:0:0:0:
162,109,134297,5,0,0:0:0:0:
122,143,134372,1,0,0:0:0:0:
83,177,134447,5,0,0:0:0:0:
57,119,134522,1,0,0:0:0:0:
70,56,134597,1,0,0:0:0:0:
116,12,134672,1,0,0:0:0:0:
180,4,134747,2,0,P|211:11|237:31,1,64.9999970245363,0|0,0:0|0:0,0:0:0:0:
222,190,134897,5,0,0:0:0:0:
279,216,134972,1,0,0:0:0:0:
342,204,135047,1,0,0:0:0:0:
386,157,135122,1,0,0:0:0:0:
393,92,135197,2,0,P|386:61|367:35,1,64.9999970245363,0|0,0:0|0:0,0:0:0:0:
201,110,135347,5,0,0:0:0:0:
153,149,135422,1,0,0:0:0:0:
137,211,135497,1,0,0:0:0:0:
159,272,135572,1,0,0:0:0:0:
216,305,135647,2,0,P|247:311|279:304,1,64.9999970245363,0|0,0:0|0:0,0:0:0:0:
330,154,135797,5,0,0:0:0:0:
393,155,135872,1,0,0:0:0:0:
446,191,135947,1,0,0:0:0:0:
461,226,136022,1,0,0:0:0:0:
468,264,136097,2,0,L|433:331,1,64.9999970245363,0|0,0:0|0:0,0:0:0:0:
249,362,136247,2,0,L|284:295,1,64.9999970245363,0|0,0:0|0:0,0:0:0:0:
483,312,136397,2,0,L|448:379,3,64.9999970245363,0|0|0|0,0:0|0:0|0:0|0:0,0:0:0:0:
446,191,136697,1,0,0:0:0:0:
157,268,136847,5,0,0:0:0:0:
157,268,137147,1,0,0:0:0:0:
116,176,137297,1,0,0:0:0:0:
208,135,137447,1,0,0:0:0:0:
249,227,137597,1,0,0:0:0:0:
157,268,137747,1,0,0:0:0:0:
116,176,137897,1,0,0:0:0:0:
394,287,138047,5,0,0:0:0:0:
394,287,138347,1,0,0:0:0:0:
435,195,138497,1,0,0:0:0:0:
343,154,138647,1,0,0:0:0:0:
302,246,138797,1,0,0:0:0:0:
394,287,138947,1,0,0:0:0:0:
435,195,139097,1,0,0:0:0:0:
157,306,139247,5,0,0:0:0:0:
157,306,139547,1,0,0:0:0:0:
65,347,139697,1,0,0:0:0:0:
24,255,139847,1,0,0:0:0:0:
116,214,139997,1,0,0:0:0:0:
157,306,140147,1,0,0:0:0:0:
65,347,140297,1,0,0:0:0:0:
176,69,140447,5,0,0:0:0:0:
176,69,140747,1,0,0:0:0:0:
217,161,140897,1,0,0:0:0:0:
273,22,141047,1,0,0:0:0:0:
332,160,141197,1,0,0:0:0:0:
273,22,141347,1,0,0:0:0:0:
274,172,141497,1,0,0:0:0:0:
166,273,141647,6,0,P|106:273|68:237,1,100,0|0,0:0|0:0,0:0:0:0:
58,150,141947,2,0,P|118:150|156:186,1,100,0|0,0:0|0:0,0:0:0:0:
345,273,142247,6,0,P|406:273|444:237,1,100,0|0,0:0|0:0,0:0:0:0:
454,150,142547,2,0,P|393:150|355:186,1,100,0|0,0:0|0:0,0:0:0:0:
167,245,142847,6,0,P|106:244|68:208,1,100,0|0,0:0|0:0,0:0:0:0:
58,122,143147,2,0,P|118:122|156:158,1,100,0|0,0:0|0:0,0:0:0:0:
346,245,143447,6,0,P|406:244|444:208,1,100,0|0,0:0|0:0,0:0:0:0:
454,122,143747,2,0,P|393:122|355:158,1,100,0|0,0:0|0:0,0:0:0:0:
168,217,144047,5,0,0:0:0:0:
130,192,144122,1,0,0:0:0:0:
98,160,144197,1,0,0:0:0:0:
75,122,144272,1,0,0:0:0:0:
62,79,144347,2,0,L|71:16,3,50,0|0|0|0,0:0|0:0|0:0|0:0,0:0:0:0:
225,78,144647,2,0,L|232:128,3,50,0|0|0|0,0:0|0:0|0:0|0:0,0:0:0:0:
388,79,144947,2,0,L|395:30,3,50,0|0|0|0,0:0|0:0|0:0|0:0,0:0:0:0:
494,193,145247,5,0,0:0:0:0:
481,236,145322,1,0,0:0:0:0:
457,273,145397,1,0,0:0:0:0:
423,303,145472,1,0,0:0:0:0:
382,322,145547,2,0,L|300:329,3,50,0|0|0|0,0:0|0:0|0:0|0:0,0:0:0:0:
270,216,145847,2,0,L|352:223,3,50,0|0|0|0,0:0|0:0|0:0|0:0,0:0:0:0:
382,110,146147,2,0,L|300:117,3,50,0|0|0|0,0:0|0:0|0:0|0:0,0:0:0:0:
269,4,146447,5,0,0:0:0:0:
158,110,146597,1,0,0:0:0:0:
152,124,146672,1,0,0:0:0:0:
148,138,146747,1,0,0:0:0:0:
146,153,146822,1,0,0:0:0:0:
144,168,146897,2,0,P|143:192|147:217,1,50,0|0,0:0|0:0,0:0:0:0:
350,222,147047,5,0,0:0:0:0:
268,164,147197,1,0,0:0:0:0:
445,67,147347,5,0,0:0:0:0:
345,56,147497,1,0,0:0:0:0:
148,217,147647,5,0,0:0:0:0:
268,164,147797,1,0,0:0:0:0:
271,149,147872,1,0,0:0:0:0:
273,134,147947,1,0,0:0:0:0:
273,119,148022,1,0,0:0:0:0:
272,103,148097,2,0,P|269:78|261:54,1,50,0|0,0:0|0:0,0:0:0:0:
85,25,148247,5,0,0:0:0:0:
190,57,148397,1,0,0:0:0:0:
6,177,148547,5,0,0:0:0:0:
112,152,148697,1,0,0:0:0:0:
343,222,148847,5,0,0:0:0:0:
294,86,148997,1,0,0:0:0:0:
281,79,149072,1,0,0:0:0:0:
267,73,149147,1,0,0:0:0:0:
253,67,149222,1,0,0:0:0:0:
239,63,149297,2,0,P|214:58|189:56,1,50,0|0,0:0|0:0,0:0:0:0:
120,240,149447,5,0,0:0:0:0:
234,202,149597,1,0,0:0:0:0:
39,331,149747,5,0,0:0:0:0:
156,355,149897,1,0,0:0:0:0:
353,204,150047,5,0,0:0:0:0:
329,320,150197,1,0,0:0:0:0:
338,331,150272,1,0,0:0:0:0:
348,342,150347,1,0,0:0:0:0:
359,352,150422,1,0,0:0:0:0:
371,359,150497,2,0,P|393:372|417:378,1,50,0|0,0:0|0:0,0:0:0:0:
459,156,150647,6,0,L|415:130,1,50,0|0,0:0|0:0,0:0:0:0:
260,169,150797,2,0,L|303:194,1,50,0|0,0:0|0:0,0:0:0:0:
472,112,150947,2,0,L|428:86,1,50,0|0,0:0|0:0,0:0:0:0:
273,125,151097,2,0,L|316:150,1,50,0|0,0:0|0:0,0:0:0:0:
485,68,151247,5,0,0:0:0:0:
460,50,151322,1,0,0:0:0:0:
433,38,151397,2,0,P|408:32|384:28,1,50,0|0,0:0|0:0,0:0:0:0:
286,81,151547,1,0,0:0:0:0:
256,83,151622,1,0,0:0:0:0:
226,80,151697,2,0,P|201:73|178:64,1,50,0|0,0:0|0:0,0:0:0:0:
82,21,151847,5,0,0:0:0:0:
64,45,151922,1,0,0:0:0:0:
52,72,151997,2,0,P|45:96|41:120,1,50,0|0,0:0|0:0,0:0:0:0:
95,220,152147,1,0,0:0:0:0:
98,249,152222,1,0,0:0:0:0:
109,277,152297,2,0,P|121:298|136:318,1,50,0|0,0:0|0:0,0:0:0:0:
306,334,152447,5,0,0:0:0:0:
331,317,152522,1,0,0:0:0:0:
356,301,152597,2,0,L|398:274,1,50,0|0,0:0|0:0,0:0:0:0:
408,132,152747,1,0,0:0:0:0:
382,148,152822,1,0,0:0:0:0:
358,165,152897,2,0,L|315:191,1,50,0|0,0:0|0:0,0:0:0:0:
239,337,153047,5,0,0:0:0:0:
264,320,153122,1,0,0:0:0:0:
289,304,153197,2,0,L|331:277,1,50,0|0,0:0|0:0,0:0:0:0:
341,135,153347,1,0,0:0:0:0:
315,151,153422,1,0,0:0:0:0:
291,168,153497,2,0,L|248:194,1,50,0|0,0:0|0:0,0:0:0:0:
96,177,153647,5,0,0:0:0:0:
89,163,153722,1,0,0:0:0:0:
85,149,153797,1,0,0:0:0:0:
83,134,153872,1,0,0:0:0:0:
112,99,153947,1,0,0:0:0:0:
126,98,154022,1,0,0:0:0:0:
140,95,154097,1,0,0:0:0:0:
154,89,154172,1,0,0:0:0:0:
161,44,154247,5,0,0:0:0:0:
168,32,154322,1,0,0:0:0:0:
178,21,154397,1,0,0:0:0:0:
190,12,154472,1,0,0:0:0:0:
233,24,154547,1,0,0:0:0:0:
240,34,154622,1,0,0:0:0:0:
250,46,154697,2,0,L|287:79,1,50,0|0,0:0|0:0,0:0:0:0:
247,286,154847,5,0,0:0:0:0:
89,222,154997,1,0,0:0:0:0:
297,162,155147,1,0,0:0:0:0:
247,286,155297,1,0,0:0:0:0:
181,143,155447,5,0,0:0:0:0:
194,105,155522,1,0,0:0:0:0:
219,75,155597,1,0,0:0:0:0:
254,54,155672,1,0,0:0:0:0:
293,46,155747,1,0,0:0:0:0:
317,76,155822,1,0,0:0:0:0:
332,113,155897,1,0,0:0:0:0:
332,153,155972,1,0,0:0:0:0:
320,189,156047,6,0,P|297:234|263:271,3,100,0|0|0|0,0:0|0:0|0:0|0:0,0:0:0:0:
94,236,156647,1,0,0:0:0:0:
74,97,156797,1,0,0:0:0:0:
238,157,156947,1,0,0:0:0:0:
290,26,157097,1,0,0:0:0:0:
405,160,157247,6,0,P|407:209|396:258,3,100,0|0|0|0,0:0|0:0|0:0|0:0,0:0:0:0:
194,301,157847,1,0,0:0:0:0:
238,157,157997,1,0,0:0:0:0:
349,320,158147,1,0,0:0:0:0:
459,217,158297,1,0,0:0:0:0:
233,233,158447,6,0,P|186:217|136:210,3,100,0|0|0|0,0:0|0:0|0:0|0:0,0:0:0:0:
314,25,159047,6,0,L|362:38,1,50,0|0,0:0|0:0,0:0:0:0:
386,195,159197,2,0,L|372:243,1,50,0|0,0:0|0:0,0:0:0:0:
190,316,159347,2,0,L|141:302,1,50,0|0,0:0|0:0,0:0:0:0:
118,146,159497,2,0,L|131:97,1,50,0|0,0:0|0:0,0:0:0:0:
365,107,159647,6,0,P|411:124|454:150,3,100,0|0|0|0,0:0|0:0|0:0|0:0,0:0:0:0:
299,350,160247,6,0,L|251:335,1,50,0|0,0:0|0:0,0:0:0:0:
122,227,160397,2,0,L|169:241,1,50,0|0,0:0|0:0,0:0:0:0:
305,384,160547,2,0,L|257:369,1,50,0|0,0:0|0:0,0:0:0:0:
128,261,160697,2,0,L|209:285,1,50,0|0,0:0|0:0,0:0:0:0:
335,271,160847,5,0,0:0:0:0:
340,246,160922,1,0,0:0:0:0:
345,222,160997,1,0,0:0:0:0:
236,170,161147,1,0,0:0:0:0:
230,145,161222,1,0,0:0:0:0:
225,121,161297,1,0,0:0:0:0:
411,165,161447,1,0,0:0:0:0:
416,140,161522,1,0,0:0:0:0:
421,116,161597,1,0,0:0:0:0:
312,64,161747,1,0,0:0:0:0:
306,39,161822,1,0,0:0:0:0:
301,15,161897,1,0,0:0:0:0:
81,52,162047,5,0,0:0:0:0:
74,86,162122,1,0,0:0:0:0:
67,120,162197,1,0,0:0:0:0:
200,119,162347,1,0,0:0:0:0:
207,153,162422,1,0,0:0:0:0:
214,187,162497,1,0,0:0:0:0:
16,243,162647,1,0,0:0:0:0:
9,277,162722,1,0,0:0:0:0:
2,311,162797,1,0,0:0:0:0:
135,310,162947,1,0,0:0:0:0:
142,344,163022,1,0,0:0:0:0:
149,378,163097,1,0,0:0:0:0:
349,337,163247,5,0,0:0:0:0:
385,311,163322,1,0,0:0:0:0:
414,277,163397,1,0,0:0:0:0:
432,236,163472,1,0,0:0:0:0:
439,191,163547,1,0,0:0:0:0:
434,147,163622,1,0,0:0:0:0:
417,105,163697,1,0,0:0:0:0:
389,70,163772,1,0,0:0:0:0:
353,43,163847,1,0,0:0:0:0:
328,79,163922,1,0,0:0:0:0:
293,107,163997,1,0,0:0:0:0:
252,126,164072,1,0,0:0:0:0:
207,133,164147,1,0,0:0:0:0:
163,127,164222,1,0,0:0:0:0:
122,110,164297,1,0,0:0:0:0:
87,82,164372,1,0,0:0:0:0:
61,47,164447,5,0,0:0:0:0:
53,91,164522,1,0,0:0:0:0:
45,135,164597,1,0,0:0:0:0:
38,180,164672,1,0,0:0:0:0:
30,224,164747,1,0,0:0:0:0:
23,268,164822,1,0,0:0:0:0:
15,313,164897,1,0,0:0:0:0:
57,297,164972,1,0,0:0:0:0:
99,281,165047,1,0,0:0:0:0:
141,266,165122,1,0,0:0:0:0:
183,250,165197,1,0,0:0:0:0:
225,234,165272,1,0,0:0:0:0:
268,219,165347,1,0,0:0:0:0:
15,313,165647,5,0,0:0:0:0:
98,132,165797,2,0,P|129:127|160:136,1,64.9999970245363,0|0,0:0|0:0,0:0:0:0:
214,289,165947,1,0,0:0:0:0:
176,298,166022,1,0,0:0:0:0:
138,292,166097,2,0,P|105:274|95:238,1,64.9999970245363,0|0,0:0|0:0,0:0:0:0:
264,148,166247,5,0,0:0:0:0:
301,157,166322,1,0,0:0:0:0:
332,181,166397,1,0,0:0:0:0:
352,214,166472,1,0,0:0:0:0:
358,252,166547,2,0,P|358:284|373:313,1,64.9999970245363,0|0,0:0|0:0,0:0:0:0:
488,383,166697,5,0,0:0:0:0:
502,347,166772,1,0,0:0:0:0:
506,308,166847,1,0,0:0:0:0:
499,270,166922,1,0,0:0:0:0:
482,235,166997,2,0,P|459:211|445:182,1,64.9999970245363,0|0,0:0|0:0,0:0:0:0:
483,36,167147,5,0,0:0:0:0:
447,22,167222,1,0,0:0:0:0:
408,18,167297,1,0,0:0:0:0:
370,25,167372,1,0,0:0:0:0:
334,41,167447,2,0,P|311:64|282:78,1,64.9999970245363,0|0,0:0|0:0,0:0:0:0:
129,65,167597,6,0,P|152:42|181:28,1,64.9999970245363,0|0,0:0|0:0,0:0:0:0:
286,184,167747,1,0,0:0:0:0:
284,196,167822,1,0,0:0:0:0:
282,208,167897,1,0,0:0:0:0:
280,220,167972,1,0,0:0:0:0:
279,232,168047,6,0,B|226:360|55:302|55:302|137:206|31:48,1,519.99997619629,0|0,0:0|0:0,0:0:0:0:
471,31,168947,1,0,0:0:0:0:
413,212,169097,2,0,B|341:264|291:236|291:236|345:127|182:24|182:24|199:155|124:277,1,649.999970245363,0|0,0:0|0:0,0:0:0:0:
120,286,169922,1,0,0:0:0:0:
117,305,169997,1,0,0:0:0:0:
122,323,170072,1,0,0:0:0:0:
134,338,170147,1,0,0:0:0:0:
151,347,170222,1,0,0:0:0:0:
169,348,170297,2,0,P|198:336|222:313,1,64.9999970245363,0|0,0:0|0:0,0:0:0:0:
318,134,170447,6,0,P|380:150|415:203,1,129.999994049073,0|0,0:0|0:0,0:0:0:0:
129,268,170747,1,0,0:0:0:0:
121,122,170897,1,0,0:0:0:0:
325,230,171047,5,0,0:0:0:0:
353,272,171122,1,0,0:0:0:0:
400,294,171197,1,0,0:0:0:0:
451,287,171272,1,0,0:0:0:0:
490,255,171347,1,0,0:0:0:0:
507,206,171422,1,0,0:0:0:0:
496,156,171497,2,0,P|478:129|451:112,1,64.9999970245363,0|0,0:0|0:0,0:0:0:0:
285,303,171647,5,0,0:0:0:0:
250,269,171722,1,0,0:0:0:0:
238,224,171797,1,0,0:0:0:0:
253,180,171872,1,0,0:0:0:0:
287,149,171947,1,0,0:0:0:0:
332,144,172022,1,0,0:0:0:0:
375,160,172097,2,0,P|398:182|407:213,1,64.9999970245363,0|0,0:0|0:0,0:0:0:0:
393,326,172247,5,0,0:0:0:0:
403,342,172322,1,0,0:0:0:0:
418,354,172397,1,0,0:0:0:0:
437,359,172472,1,0,0:0:0:0:
456,358,172547,1,0,0:0:0:0:
474,350,172622,1,0,0:0:0:0:
488,336,172697,1,0,0:0:0:0:
496,319,172772,1,0,0:0:0:0:
497,299,172847,6,0,B|513:195|369:147|401:59,1,259.999988098145,0|0,0:0|0:0,0:0:0:0:
113,68,173447,2,0,B|143:147|-1:195|15:299,1,259.999988098145,0|0,0:0|0:0,0:0:0:0:
394,312,174047,5,0,0:0:0:0:
382,182,174197,1,0,0:0:0:0:
244,56,174347,1,0,0:0:0:0:
231,199,174497,1,0,0:0:0:0:
28,352,174647,1,0,0:0:0:0:
10,156,174797,1,0,0:0:0:0:
310,27,174947,1,0,0:0:0:0:
290,242,175097,1,0,0:0:0:0:
49,91,175247,6,0,L|62:18,2,64.9999970245363,0|0|0,0:0|0:0|0:0,0:0:0:0:
255,119,175547,2,0,L|242:46,2,64.9999970245363,0|0|0,0:0|0:0|0:0,0:0:0:0:
48,285,175847,2,0,L|61:212,2,64.9999970245363,0|0|0,0:0|0:0|0:0,0:0:0:0:
254,313,176147,2,0,L|241:240,2,64.9999970245363,0|0|0,0:0|0:0|0:0,0:0:0:0:
424,37,176447,2,0,L|497:50,2,64.9999970245363,0|0|0,0:0|0:0|0:0,0:0:0:0:
359,262,176747,2,0,L|432:249,2,64.9999970245363,0|0|0,0:0|0:0|0:0,0:0:0:0:
199,40,177047,2,0,L|272:53,2,64.9999970245363,0|0|0,0:0|0:0|0:0,0:0:0:0:
54,206,177347,5,0,0:0:0:0:
51,218,177422,1,0,0:0:0:0:
48,230,177497,1,0,0:0:0:0:
53,281,177572,1,0,0:0:0:0:
84,322,177647,1,0,0:0:0:0:
175,229,177797,1,0,0:0:0:0:
13,84,177947,5,0,0:0:0:0:
26,61,178022,1,0,0:0:0:0:
45,44,178097,1,0,0:0:0:0:
69,33,178172,1,0,0:0:0:0:
94,30,178247,5,0,0:0:0:0:
108,43,178322,1,0,0:0:0:0:
123,55,178397,1,0,0:0:0:0:
141,65,178472,1,0,0:0:0:0:
159,71,178547,1,0,0:0:0:0:
178,75,178622,1,0,0:0:0:0:
197,76,178697,1,0,0:0:0:0:
217,74,178772,1,0,0:0:0:0:
236,71,178847,6,0,L|318:33,3,64.9999970245363,0|0|0|0,0:0|0:0|0:0|0:0,0:0:0:0:
304,123,179147,2,0,L|363:151,3,64.9999970245363,0|0|0|0,0:0|0:0|0:0|0:0,0:0:0:0:
294,202,179447,2,0,B|206:199|174:160|174:160|100:183|126:298,1,259.999988098145,0|0,0:0|0:0,0:0:0:0:
128,276,179822,1,0,0:0:0:0:
135,286,179897,1,0,0:0:0:0:
142,296,179972,1,0,0:0:0:0:
150,305,180047,5,0,0:0:0:0:
204,325,180122,1,0,0:0:0:0:
262,327,180197,2,0,P|295:326|326:317,1,64.9999970245363,0|0,0:0|0:0,0:0:0:0:
363,151,180347,1,0,0:0:0:0:
308,130,180422,1,0,0:0:0:0:
249,127,180497,2,0,P|217:128|186:137,1,64.9999970245363,0|0,0:0|0:0,0:0:0:0:
43,207,180647,5,0,0:0:0:0:
22,152,180722,1,0,0:0:0:0:
19,93,180797,2,0,P|19:60|28:29,1,64.9999970245363,0|0,0:0|0:0,0:0:0:0:
228,72,180947,1,0,0:0:0:0:
249,127,181022,1,0,0:0:0:0:
251,186,181097,2,0,P|251:218|261:248,1,64.9999970245363,0|0,0:0|0:0,0:0:0:0:
278,382,181247,5,0,0:0:0:0:
328,369,181322,1,0,0:0:0:0:
368,336,181397,2,0,P|385:309|395:278,1,64.9999970245363,0|0,0:0|0:0,0:0:0:0:
341,141,181547,1,0,0:0:0:0:
291,154,181622,1,0,0:0:0:0:
250,186,181697,2,0,P|233:213|223:244,1,64.9999970245363,0|0,0:0|0:0,0:0:0:0:
161,374,181847,5,0,0:0:0:0:
113,352,181922,1,0,0:0:0:0:
77,315,181997,2,0,P|60:286|53:255,1,64.9999970245363,0|0,0:0|0:0,0:0:0:0:
150,127,182147,2,0,P|166:155|173:186,1,64.9999970245363,0|0,0:0|0:0,0:0:0:0:
21,63,182297,2,0,P|37:34|60:12,1,64.9999970245363,0|0,0:0|0:0,0:0:0:0:
218,39,182447,5,0,0:0:0:0:
268,48,182522,1,0,0:0:0:0:
307,82,182597,1,0,0:0:0:0:
323,131,182672,1,0,0:0:0:0:
312,181,182747,1,0,0:0:0:0:
301,231,182822,1,0,0:0:0:0:
317,280,182897,1,0,0:0:0:0:
356,314,182972,1,0,0:0:0:0:
406,323,183047,5,0,0:0:0:0:
374,362,183122,1,0,0:0:0:0:
325,379,183197,1,0,0:0:0:0:
274,368,183272,1,0,0:0:0:0:
236,333,183347,2,0,P|220:306|196:284,1,64.9999970245363,0|0,0:0|0:0,0:0:0:0:
153,125,183497,2,0,P|169:152|193:174,1,64.9999970245363,0|0,0:0|0:0,0:0:0:0:
85,323,183647,5,0,0:0:0:0:
42,274,183722,1,0,0:0:0:0:
20,213,183797,1,0,0:0:0:0:
22,148,183872,1,0,0:0:0:0:
47,89,183947,1,0,0:0:0:0:
92,42,184022,1,0,0:0:0:0:
151,15,184097,1,0,0:0:0:0:
215,12,184172,1,0,0:0:0:0:
277,31,184247,5,0,0:0:0:0:
231,84,184322,1,0,0:0:0:0:
206,151,184397,1,0,0:0:0:0:
209,222,184472,1,0,0:0:0:0:
236,287,184547,1,0,0:0:0:0:
286,339,184622,1,0,0:0:0:0:
350,369,184697,1,0,0:0:0:0:
421,372,184772,1,0,0:0:0:0:
489,351,184847,1,0,0:0:0:0:
256,192,187247,5,0,0:0:0:0:
263,104,189497,5,0,0:0:0:0:
247,283,189647,1,0,0:0:0:0:
256,192,191747,6,0,L|351:200,1,75,0|0,0:0|0:0,0:0:0:0:
256,192,192047,1,0,0:0:0:0:
256,192,194147,6,0,L|256:117,1,50,0|0,0:0|0:0,0:0:0:0:
348,192,194297,2,0,L|348:267,1,50,0|0,0:0|0:0,0:0:0:0:
168,192,194447,6,0,B|138:146|176:76|176:76|217:91|257:65,1,200,0|0,0:0|0:0,0:0:0:0:
309,21,195197,1,0,0:0:0:0:
365,90,195347,1,0,0:0:0:0:
261,106,195497,1,0,0:0:0:0:
357,34,195647,1,0,0:0:0:0:
375,167,195797,1,0,0:0:0:0:
226,186,195947,1,0,0:0:0:0:
201,169,196022,1,0,0:0:0:0:
183,145,196097,1,0,0:0:0:0:
307,230,196247,5,0,0:0:0:0:
319,80,196397,2,0,P|218:35|106:99,1,225.000008583069,0|0,0:0|0:0,0:0:0:0:
116,94,196922,1,0,0:0:0:0:
113,108,196997,2,0,L|98:187,1,75.0000028610231,0|0,0:0|0:0,0:0:0:0:
120,79,197297,5,0,0:0:0:0:
196,161,197447,2,0,P|297:206|361:184,1,150.000005722046,0|0,0:0|0:0,0:0:0:0:
414,122,197897,1,0,0:0:0:0:
305,88,198047,5,0,0:0:0:0:
355,308,198197,2,0,L|432:236,1,75.0000028610231,0|0,0:0|0:0,0:0:0:0:
328,334,198497,5,0,0:0:0:0:
253,191,198647,2,0,L|268:112,1,75.0000028610231,0|0,0:0|0:0,0:0:0:0:
442,82,198947,2,0,L|428:155,1,75.0000028610231,0|0,0:0|0:0,0:0:0:0:
266,117,199247,1,0,0:0:0:0:
280,114,199322,1,0,0:0:0:0:
295,111,199397,2,0,L|374:96,1,75.0000028610231,0|0,0:0|0:0,0:0:0:0:
266,117,199697,5,0,0:0:0:0:
300,248,199847,2,0,P|264:297|89:212,1,300.000011444092,0|0,0:0|0:0,0:0:0:0:
300,248,200597,2,0,L|340:160,1,75.0000028610231,0|0,0:0|0:0,0:0:0:0:
286,282,200897,5,0,0:0:0:0:
213,140,201047,2,0,L|134:155,1,75.0000028610231,0|0,0:0|0:0,0:0:0:0:
104,329,201347,2,0,L|177:315,1,75.0000028610231,0|0,0:0|0:0,0:0:0:0:
139,153,201647,1,0,0:0:0:0:
136,167,201722,1,0,0:0:0:0:
133,182,201797,2,0,L|119:255,1,75.0000028610231,0|0,0:0|0:0,0:0:0:0:
139,153,202097,5,0,0:0:0:0:
290,212,202247,2,0,P|354:157|360:85,1,150.000005722046,0|0,0:0|0:0,0:0:0:0:
285,12,202697,1,0,0:0:0:0:
251,120,202847,5,0,0:0:0:0:
473,72,202997,2,0,L|408:4,1,75.0000028610231,0|0,0:0|0:0,0:0:0:0:
497,100,203297,5,0,0:0:0:0:
318,147,203447,2,0,L|331:220,1,75.0000028610231,0|0,0:0|0:0,0:0:0:0:
507,256,203747,2,0,L|492:177,1,75.0000028610231,0|0,0:0|0:0,0:0:0:0:
331,220,204047,1,0,0:0:0:0:
345,223,204122,1,0,0:0:0:0:
360,226,204197,2,0,L|439:241,1,75.0000028610231,0|0,0:0|0:0,0:0:0:0:
331,220,204497,5,0,0:0:0:0:
417,97,204647,2,0,P|406:55|382:28,1,75.0000028610231,0|0,0:0|0:0,0:0:0:0:
372,25,204872,1,0,0:0:0:0:
357,22,204947,1,0,0:0:0:0:
256,71,205097,1,0,0:0:0:0:
417,97,205247,5,0,0:0:0:0:
227,181,205397,2,0,L|198:275,1,75.0000028610231,0|0,0:0|0:0,0:0:0:0:
242,125,205697,5,0,0:0:0:0:
362,284,205847,2,0,P|390:232|381:170,1,100,0|0,0:0|0:0,0:0:0:0:
269,33,206147,2,0,P|241:85|250:147,1,100,0|0,0:0|0:0,0:0:0:0:
432,65,206447,5,0,0:0:0:0:
340,104,206597,1,0,0:0:0:0:
269,33,206747,1,0,0:0:0:0:
340,104,206897,1,0,0:0:0:0:
157,197,207047,1,0,0:0:0:0:
119,105,207197,1,0,0:0:0:0:
190,33,207347,1,0,0:0:0:0:
119,105,207497,1,0,0:0:0:0:
235,257,207647,6,0,L|303:268,2,50,0|0|0,0:0|0:0|0:0,0:0:0:0:
190,33,207947,1,0,0:0:0:0:
283,68,208097,1,0,0:0:0:0:
194,167,208247,1,0,0:0:0:0:
235,257,208397,1,0,0:0:0:0:
343,185,208547,1,0,0:0:0:0:
436,220,208697,1,0,0:0:0:0:
276,347,208847,5,0,0:0:0:0:
235,257,208997,1,0,0:0:0:0:
135,247,209147,1,0,0:0:0:0:
235,257,209297,1,0,0:0:0:0:
335,116,209447,1,0,0:0:0:0:
245,157,209597,1,0,0:0:0:0:
235,257,209747,1,0,0:0:0:0:
245,157,209897,1,0,0:0:0:0:
405,276,210047,5,0,0:0:0:0:
314,319,210197,1,0,0:0:0:0:
340,191,210347,1,0,0:0:0:0:
245,157,210497,1,0,0:0:0:0:
416,200,210647,1,0,0:0:0:0:
510,166,210797,1,0,0:0:0:0:
401,93,210947,1,0,0:0:0:0:
444,2,211097,1,0,0:0:0:0:
340,191,211247,5,0,0:0:0:0:
241,203,211397,1,0,0:0:0:0:
215,300,211547,1,0,0:0:0:0:
241,203,211697,1,0,0:0:0:0:
36,214,211847,1,0,0:0:0:0:
50,312,211997,1,0,0:0:0:0:
146,339,212147,1,0,0:0:0:0:
50,312,212297,1,0,0:0:0:0:
199,175,212447,6,0,L|273:223,2,50,0|0|0,0:0|0:0|0:0,0:0:0:0:
416,158,212747,1,0,0:0:0:0:
328,205,212897,1,0,0:0:0:0:
309,72,213047,1,0,0:0:0:0:
214,47,213197,1,0,0:0:0:0:
199,175,213347,1,0,0:0:0:0:
113,225,213497,1,0,0:0:0:0:
257,305,213647,5,0,0:0:0:0:
293,211,213797,1,0,0:0:0:0:
392,195,213947,1,0,0:0:0:0:
293,211,214097,1,0,0:0:0:0:
183,79,214247,1,0,0:0:0:0:
199,175,214397,1,0,0:0:0:0:
293,211,214547,1,0,0:0:0:0:
199,175,214697,1,0,0:0:0:0:
364,241,214847,6,0,L|423:258,1,50,0|0,0:0|0:0,0:0:0:0:
447,182,214997,2,0,L|388:165,1,50,0|0,0:0|0:0,0:0:0:0:
323,141,215147,2,0,L|385:91,1,50,0|0,0:0|0:0,0:0:0:0:
342,41,215297,2,0,L|280:91,1,50,0|0,0:0|0:0,0:0:0:0:
293,211,215447,2,0,L|294:272,1,50,0|0,0:0|0:0,0:0:0:0:
214,275,215597,2,0,L|212:213,1,50,0|0,0:0|0:0,0:0:0:0:
206,145,215747,2,0,L|141:191,1,50,0|0,0:0|0:0,0:0:0:0:
104,137,215897,2,0,L|144:107,1,50,0|0,0:0|0:0,0:0:0:0:
303,72,216047,5,0,0:0:0:0:
316,77,216122,1,0,0:0:0:0:
329,84,216197,1,0,0:0:0:0:
342,93,216272,1,0,0:0:0:0:
352,104,216347,1,0,0:0:0:0:
362,115,216422,1,0,0:0:0:0:
370,128,216497,1,0,0:0:0:0:
376,142,216572,1,0,0:0:0:0:
381,156,216647,1,0,0:0:0:0:
383,171,216722,1,0,0:0:0:0:
384,186,216797,1,0,0:0:0:0:
383,201,216872,1,0,0:0:0:0:
380,215,216947,1,0,0:0:0:0:
376,229,217022,1,0,0:0:0:0:
369,243,217097,1,0,0:0:0:0:
361,256,217172,1,0,0:0:0:0:
351,267,217247,5,0,0:0:0:0:
340,256,217322,1,0,0:0:0:0:
328,247,217397,1,0,0:0:0:0:
315,239,217472,1,0,0:0:0:0:
301,233,217547,1,0,0:0:0:0:
287,229,217622,1,0,0:0:0:0:
272,227,217697,1,0,0:0:0:0:
257,226,217772,1,0,0:0:0:0:
242,228,217847,1,0,0:0:0:0:
228,231,217922,1,0,0:0:0:0:
213,236,217997,1,0,0:0:0:0:
200,243,218072,1,0,0:0:0:0:
188,252,218147,2,0,L|146:298,1,50,0|0,0:0|0:0,0:0:0:0:
179,364,218297,2,0,L|212:327,1,50,0|0,0:0|0:0,0:0:0:0:
115,224,218447,5,0,0:0:0:0:
111,209,218522,1,0,0:0:0:0:
109,194,218597,1,0,0:0:0:0:
109,179,218672,1,0,0:0:0:0:
110,164,218747,1,0,0:0:0:0:
112,149,218822,1,0,0:0:0:0:
115,135,218897,1,0,0:0:0:0:
120,120,218972,1,0,0:0:0:0:
126,107,219047,1,0,0:0:0:0:
134,94,219122,1,0,0:0:0:0:
142,81,219197,1,0,0:0:0:0:
152,70,219272,1,0,0:0:0:0:
162,59,219347,1,0,0:0:0:0:
174,49,219422,1,0,0:0:0:0:
186,41,219497,1,0,0:0:0:0:
199,33,219572,1,0,0:0:0:0:
213,27,219647,5,0,0:0:0:0:
217,41,219722,1,0,0:0:0:0:
223,55,219797,1,0,0:0:0:0:
230,68,219872,1,0,0:0:0:0:
238,80,219947,1,0,0:0:0:0:
247,92,220022,1,0,0:0:0:0:
258,103,220097,1,0,0:0:0:0:
269,113,220172,1,0,0:0:0:0:
281,122,220247,1,0,0:0:0:0:
294,129,220322,1,0,0:0:0:0:
308,136,220397,1,0,0:0:0:0:
322,141,220472,1,0,0:0:0:0:
336,143,220547,2,0,L|385:151,1,50,0|0,0:0|0:0,0:0:0:0:
435,89,220697,2,0,L|385:80,1,50,0|0,0:0|0:0,0:0:0:0:
420,326,220847,5,0,0:0:0:0:
184,277,220997,1,0,0:0:0:0:
385,151,221147,1,0,0:0:0:0:
275,362,221297,1,0,0:0:0:0:
485,174,221447,5,0,0:0:0:0:
269,55,221597,1,0,0:0:0:0:
344,281,221747,1,0,0:0:0:0:
392,49,221897,1,0,0:0:0:0:
420,326,222047,5,0,0:0:0:0:
184,277,222197,1,0,0:0:0:0:
403,178,222347,1,0,0:0:0:0:
187,69,222497,1,0,0:0:0:0:
331,260,222647,5,0,0:0:0:0:
102,335,222797,1,0,0:0:0:0:
243,140,222947,2,0,L|177:144,1,50,0|0,0:0|0:0,0:0:0:0:
2,154,223097,1,0,0:0:0:0:
266,65,223247,5,0,0:0:0:0:
218,300,223397,1,0,0:0:0:0:
86,100,223547,1,0,0:0:0:0:
321,149,223697,1,0,0:0:0:0:
74,207,223847,5,0,0:0:0:0:
266,65,223997,1,0,0:0:0:0:
29,30,224147,1,0,0:0:0:0:
172,222,224297,1,0,0:0:0:0:
430,108,224447,5,0,0:0:0:0:
213,344,224647,1,0,0:0:0:0:
172,27,224847,1,0,0:0:0:0:
442,200,225047,1,0,0:0:0:0:
192,279,225247,1,0,0:0:0:0:
295,37,225447,1,0,0:0:0:0:
415,272,225647,6,0,B|352:247|299:273|299:273|289:248|240:217,1,179.999994506836,0|0,0:0|0:0,0:0:0:0:
180,150,225947,2,0,B|242:124|294:141|294:141|365:161|435:124,1,239.999992675781,0|0,0:0|0:0,0:0:0:0:
294,14,226397,1,0,0:0:0:0:
163,39,226547,1,0,0:0:0:0:
156,48,226622,1,0,0:0:0:0:
149,58,226697,1,0,0:0:0:0:
172,236,226847,6,0,B|210:290|268:306|268:306|286:268|328:230,1,179.999994506836,0|0,0:0|0:0,0:0:0:0:
279,156,227147,2,0,B|341:133|397:153|397:153|390:195|403:250,1,179.999994506836,0|0,0:0|0:0,0:0:0:0:
488,260,227447,1,0,0:0:0:0:
372,49,227597,1,0,0:0:0:0:
232,288,227747,1,0,0:0:0:0:
396,212,227897,1,0,0:0:0:0:
147,44,228047,6,0,B|104:110|41:108|41:108|78:187|60:229,1,239.999992675781,0|0,0:0|0:0,0:0:0:0:
65,225,228422,1,0,0:0:0:0:
66,236,228497,1,0,0:0:0:0:
168,298,228647,1,0,0:0:0:0:
301,107,228797,6,0,B|366:112|409:155|409:155|385:189|373:245,1,179.999994506836,0|0,0:0|0:0,0:0:0:0:
367,309,229097,2,0,B|301:303|258:260|258:260|282:226|261:171|200:142|200:142|173:197|110:180,1,359.999989013672,0|0,0:0|0:0,0:0:0:0:
117,181,229622,1,0,0:0:0:0:
105,178,229697,1,0,0:0:0:0:
39,77,229847,1,0,0:0:0:0:
51,74,229922,1,0,0:0:0:0:
63,71,229997,1,0,0:0:0:0:
182,79,230147,1,0,0:0:0:0:
185,91,230222,1,0,0:0:0:0:
189,103,230297,1,0,0:0:0:0:
379,259,230447,6,0,P|417:225|417:169,1,59.9999981689454,0|0,0:0|0:0,0:0:0:0:
355,138,230597,2,0,B|402:98|468:96|468:96|445:42|476:-3,1,179.999994506836,0|0,0:0|0:0,0:0:0:0:
360,24,230897,2,0,B|313:64|247:66|247:66|287:138|191:184|191:184|211:240|269:238,1,359.999989013672,0|0,0:0|0:0,0:0:0:0:
263,239,231422,1,0,0:0:0:0:
274,241,231497,1,0,0:0:0:0:
485,174,231647,6,0,L|470:108,2,59.9999981689454,0|0|0,0:0|0:0|0:0,0:0:0:0:
175,44,231947,2,0,L|190:110,2,59.9999981689454,0|0|0,0:0|0:0|0:0,0:0:0:0:
381,289,232247,2,0,P|357:308|301:314,1,59.9999981689454,0|0,0:0|0:0,0:0:0:0:
120,223,232397,2,0,P|140:201|151:173,1,59.9999981689454,0|0,0:0|0:0,0:0:0:0:
386,61,232547,2,0,P|405:84|411:141,1,59.9999981689454,0|0,0:0|0:0,0:0:0:0:
323,229,232697,2,0,P|302:209|274:198,1,59.9999981689454,0|0,0:0|0:0,0:0:0:0:
55,109,232847,6,0,B|11:56|23:8|23:8|56:30|128:45|146:8|146:8|153:75|209:88|209:88|235:57|270:65,1,419.999987182618,0|0,0:0|0:0,0:0:0:0:
386,61,233447,2,0,B|428:103|366:149|366:149|326:127|268:223|268:223|336:260|320:324|320:324|267:305|218:328,1,419.999987182618,0|0,0:0|0:0,0:0:0:0:
146,331,234047,2,0,B|71:320|32:296|32:296|89:255|79:197|79:197|113:164|191:161|191:161|146:106|190:43,1,479.999985351563,0|0,0:0|0:0,0:0:0:0:
229,25,234722,1,0,0:0:0:0:
276,16,234797,1,0,0:0:0:0:
324,20,234872,1,0,0:0:0:0:
368,37,234947,1,0,0:0:0:0:
406,66,235022,1,0,0:0:0:0:
435,105,235097,1,0,0:0:0:0:
451,150,235172,1,0,0:0:0:0:
455,197,235247,6,0,B|443:270|389:292|389:292|352:225|312:201|312:201|259:225|246:270|210:268|210:268|195:212|126:179|126:179|122:206|103:237,1,539.999983520508,0|0,0:0|0:0,0:0:0:0:
7,160,235997,2,0,B|10:89|65:64|65:64|105:82|143:76,1,179.999994506836,0|0,0:0|0:0,0:0:0:0:
240,42,236297,2,0,L|273:112,1,59.9999981689454,0|0,0:0|0:0,0:0:0:0:
222,208,236447,2,0,L|189:138,1,59.9999981689454,0|0,0:0|0:0,0:0:0:0:
263,54,236597,2,0,L|296:124,1,59.9999981689454,0|0,0:0|0:0,0:0:0:0:
245,220,236747,2,0,L|212:150,1,59.9999981689454,0|0,0:0|0:0,0:0:0:0:
286,66,236897,2,0,L|319:136,1,59.9999981689454,0|0,0:0|0:0,0:0:0:0:
268,232,237047,2,0,L|235:162,1,59.9999981689454,0|0,0:0|0:0,0:0:0:0:
309,78,237197,6,0,B|331:139|399:146|399:146|400:185|418:253,1,179.999994506836,0|0,0:0|0:0,0:0:0:0:
450,319,237497,2,0,P|475:293|481:249,1,59.9999981689454,0|0,0:0|0:0,0:0:0:0:
332,291,237647,6,0,B|264:304|240:360|240:360|196:360|128:320|128:320|180:268|148:244,1,299.999990844727,0|0,0:0|0:0,0:0:0:0:
66,252,238097,2,0,B|99:182|155:177|155:177|139:137|140:85,1,179.999994506836,0|0,0:0|0:0,0:0:0:0:
155,30,238397,2,0,B|225:62|230:119|230:119|270:103|322:104,1,179.999994506836,0|0,0:0|0:0,0:0:0:0:
344,175,238697,2,0,P|311:189|255:179,1,59.9999981689454,0|0,0:0|0:0,0:0:0:0:
376,90,238847,6,0,B|405:43|482:64|482:64|447:147|479:179|479:179|430:237|472:288|472:288|429:339|359:314,1,479.999985351563,0|0,0:0|0:0,0:0:0:0:
221,185,239597,2,0,B|145:151|109:187|109:187|71:162|67:119,1,179.999994506836,0|0,0:0|0:0,0:0:0:0:
48,52,239897,2,0,P|15:64|-8:99,1,59.9999981689454,0|0,0:0|0:0,0:0:0:0:
135,75,240047,2,0,B|223:79|244:42|244:42|315:58|343:142,1,239.999992675781,0|0,0:0|0:0,0:0:0:0:
336,128,240422,1,0,0:0:0:0:
339,139,240497,1,0,0:0:0:0:
320,257,240647,1,0,0:0:0:0:
71,140,240797,6,0,B|52:196|102:249|102:249|127:220|176:218,1,179.999994506836,0|0,0:0|0:0,0:0:0:0:
239,251,241097,2,0,P|217:281|152:294,1,59.9999981689454,0|0,0:0|0:0,0:0:0:0:
221,161,241247,2,0,B|286:146|327:195|327:195|358:135|411:108|411:108|416:157|479:197,1,299.999990844727,0|0,0:0|0:0,0:0:0:0:
499,97,241697,2,0,B|475:21|403:22|403:22|369:52|324:31,1,179.999994506836,0|0,0:0|0:0,0:0:0:0:
276,74,241997,2,0,B|217:50|158:78|158:78|132:50|71:70,1,179.999994506836,0|0,0:0|0:0,0:0:0:0:
46,133,242297,2,0,P|19:106|19:56,1,59.9999981689454,0|0,0:0|0:0,0:0:0:0:
139,151,242447,2,0,B|171:193|115:253|115:253|135:305|215:298|215:298|231:254|263:263,1,299.999990844727,0|0,0:0|0:0,0:0:0:0:
400,330,242897,6,0,P|418:245|312:126,1,239.999992675781,0|0,0:0|0:0,0:0:0:0:
305,127,243272,1,0,0:0:0:0:
281,128,243347,1,0,0:0:0:0:
257,133,243422,1,0,0:0:0:0:
235,141,243497,6,0,P|188:137|214:24,1,179.999994506836,0|0,0:0|0:0,0:0:0:0:
234,10,243797,1,0,0:0:0:0:
281,3,243872,1,0,0:0:0:0:
328,10,243947,1,0,0:0:0:0:
372,30,244022,1,0,0:0:0:0:
408,62,244097,1,0,0:0:0:0:
433,103,244172,1,0,0:0:0:0:
446,149,244247,5,0,0:0:0:0:
399,137,244322,1,0,0:0:0:0:
351,139,244397,1,0,0:0:0:0:
306,154,244472,1,0,0:0:0:0:
267,181,244547,1,0,0:0:0:0:
237,219,244622,1,0,0:0:0:0:
219,263,244697,5,0,0:0:0:0:
264,276,244772,1,0,0:0:0:0:
310,290,244847,5,0,0:0:0:0:
325,289,244922,1,0,0:0:0:0:
340,287,244997,1,0,0:0:0:0:
340,287,245297,5,0,0:0:0:0:
354,288,245372,1,0,0:0:0:0:
369,289,245447,1,0,0:0:0:0:
384,291,245522,1,0,0:0:0:0:
399,292,245597,1,0,0:0:0:0:
399,292,245897,5,0,0:0:0:0:
400,277,245972,1,0,0:0:0:0:
401,262,246047,1,0,0:0:0:0:
403,247,246122,1,0,0:0:0:0:
404,232,246197,1,0,0:0:0:0:
404,232,246497,5,0,0:0:0:0:
389,228,246572,1,0,0:0:0:0:
375,223,246647,1,0,0:0:0:0:
361,218,246722,1,0,0:0:0:0:
347,213,246797,1,0,0:0:0:0:
333,207,246872,1,0,0:0:0:0:
319,200,246947,1,0,0:0:0:0:
306,193,247022,1,0,0:0:0:0:
293,186,247097,1,0,0:0:0:0:
306,6,247247,5,0,0:0:0:0:
143,84,247397,2,0,L|65:80,2,50,0|0|0,0:0|0:0|0:0,0:0:0:0:
293,186,247697,5,0,0:0:0:0:
291,200,247772,1,0,0:0:0:0:
290,215,247847,1,0,0:0:0:0:
288,230,247922,1,0,0:0:0:0:
287,245,247997,1,0,0:0:0:0:
287,245,248297,5,0,0:0:0:0:
273,247,248372,1,0,0:0:0:0:
258,248,248447,1,0,0:0:0:0:
243,250,248522,1,0,0:0:0:0:
228,251,248597,1,0,0:0:0:0:
103,121,248747,6,0,L|131:52,2,50,0|0|0,0:0|0:0|0:0,0:0:0:0:
76,344,249047,1,0,0:0:0:0:
194,158,249197,1,0,0:0:0:0:
219,141,249272,1,0,0:0:0:0:
246,129,249347,1,0,0:0:0:0:
275,120,249422,1,0,0:0:0:0:
304,117,249497,2,0,P|329:115|354:118,1,50,0|0,0:0|0:0,0:0:0:0:
393,268,249647,5,0,0:0:0:0:
292,39,249797,2,0,L|224:37,2,50,0|0|0,0:0|0:0|0:0,0:0:0:0:
141,266,250097,2,0,L|108:325,2,50,0|0|0,0:0|0:0|0:0,0:0:0:0:
393,268,250397,2,0,L|425:327,2,50,0|0|0,0:0|0:0|0:0,0:0:0:0:
464,170,250697,1,0,0:0:0:0:
343,157,250847,1,0,0:0:0:0:
328,158,250922,1,0,0:0:0:0:
313,157,250997,5,0,0:0:0:0:
224,24,251147,2,0,B|249:16|249:16|272:20,1,50,0|0,0:0|0:0,0:0:0:0:
252,223,251297,1,0,0:0:0:0:
30,107,251447,1,0,0:0:0:0:
328,78,251597,1,0,0:0:0:0:
342,75,251672,1,0,0:0:0:0:
356,75,251747,2,0,P|380:77|405:82,1,50,0|0,0:0|0:0,0:0:0:0:
412,246,251897,2,0,P|388:244|363:239,1,50,0|0,0:0|0:0,0:0:0:0:
198,163,252047,5,0,0:0:0:0:
169,170,252122,1,0,0:0:0:0:
142,184,252197,1,0,0:0:0:0:
119,203,252272,1,0,0:0:0:0:
102,224,252347,2,0,P|90:244|81:286,1,50,0|0,0:0|0:0,0:0:0:0:
238,373,252497,2,0,P|250:353|259:311,1,50,0|0,0:0|0:0,0:0:0:0:
43,152,252647,5,0,0:0:0:0:
74,119,252722,1,0,0:0:0:0:
111,94,252797,1,0,0:0:0:0:
152,75,252872,1,0,0:0:0:0:
195,65,252947,1,0,0:0:0:0:
240,63,253022,1,0,0:0:0:0:
285,69,253097,1,0,0:0:0:0:
327,83,253172,1,0,0:0:0:0:
366,106,253247,2,0,L|412:137,3,50,0|0|0|0,0:0|0:0|0:0|0:0,0:0:0:0:
325,287,253547,5,0,0:0:0:0:
292,282,253622,1,0,0:0:0:0:
259,278,253697,2,0,L|181:268,1,55.0000016784668,0|0,0:0|0:0,0:0:0:0:
144,171,253847,1,0,0:0:0:0:
179,175,253922,1,0,0:0:0:0:
215,179,253997,2,0,L|291:190,1,59.9999981689454,0|0,0:0|0:0,0:0:0:0:
236,368,254147,1,0,0:0:0:0:
236,368,254447,5,0,0:0:0:0:
286,377,254522,1,0,0:0:0:0:
335,362,254597,1,0,0:0:0:0:
338,343,254672,1,0,0:0:0:0:
341,323,254747,2,0,L|349:258,1,64.9999970245363,0|0,0:0|0:0,0:0:0:0:
205,93,254897,1,0,0:0:0:0:
158,113,254972,1,0,0:0:0:0:
130,157,255047,2,0,P|127:189|134:220,1,64.9999970245363,0|0,0:0|0:0,0:0:0:0:
339,110,255197,5,0,0:0:0:0:
340,90,255272,1,0,0:0:0:0:
336,70,255347,2,0,P|323:41|300:18,1,64.9999970245363,0|0,0:0|0:0,0:0:0:0:
210,249,255497,2,0,P|242:252|273:243,1,64.9999970245363,0|0,0:0|0:0,0:0:0:0:
496,257,255647,5,0,0:0:0:0:
505,307,255722,1,0,0:0:0:0:
490,356,255797,1,0,0:0:0:0:
471,359,255872,1,0,0:0:0:0:
451,362,255947,2,0,L|386:370,1,64.9999970245363,0|0,0:0|0:0,0:0:0:0:
210,249,256097,1,0,0:0:0:0:
230,202,256172,1,0,0:0:0:0:
273,174,256247,2,0,P|306:171|337:178,1,64.9999970245363,0|0,0:0|0:0,0:0:0:0:
259,363,256397,5,0,0:0:0:0:
211,382,256472,1,0,0:0:0:0:
160,370,256547,2,0,P|135:349|117:321,1,64.9999970245363,0|0,0:0|0:0,0:0:0:0:
118,151,256697,2,0,P|142:171|160:199,1,64.9999970245363,0|0,0:0|0:0,0:0:0:0:
337,295,256847,5,0,0:0:0:0:
354,287,256922,1,0,0:0:0:0:
401,308,256997,1,0,0:0:0:0:
418,300,257072,1,0,0:0:0:0:
435,289,257147,2,0,P|458:267|473:239,1,64.9999970245363,0|0,0:0|0:0,0:0:0:0:
359,106,257297,5,0,0:0:0:0:
347,120,257372,1,0,0:0:0:0:
296,125,257447,1,0,0:0:0:0:
284,139,257522,1,0,0:0:0:0:
272,153,257597,1,0,0:0:0:0:
260,167,257672,1,0,0:0:0:0:
208,174,257747,5,0,0:0:0:0:
171,211,257822,1,0,0:0:0:0:
135,249,257897,1,0,0:0:0:0:
99,286,257972,1,0,0:0:0:0:
63,324,258047,5,0,0:0:0:0:
35,297,258122,1,0,0:0:0:0:
15,263,258197,1,0,0:0:0:0:
5,226,258272,1,0,0:0:0:0:
5,187,258347,1,0,0:0:0:0:
56,148,258422,1,0,0:0:0:0:
120,137,258497,1,0,0:0:0:0:
181,156,258572,1,0,0:0:0:0:
228,200,258647,5,0,0:0:0:0:
275,244,258722,1,0,0:0:0:0:
336,263,258797,1,0,0:0:0:0:
400,252,258872,1,0,0:0:0:0:
451,214,258947,1,0,0:0:0:0:
451,174,259022,1,0,0:0:0:0:
440,136,259097,2,0,P|425:108|402:85,1,64.9999970245363,0|0,0:0|0:0,0:0:0:0:
181,156,259247,5,0,0:0:0:0:
162,174,259322,1,0,0:0:0:0:
141,188,259397,1,0,0:0:0:0:
117,198,259472,1,0,0:0:0:0:
70,163,259547,2,0,P|33:151|5:118,1,64.9999970245363,0|0,0:0|0:0,0:0:0:0:
157,30,259697,1,0,0:0:0:0:
182,27,259772,1,0,0:0:0:0:
208,30,259847,2,0,P|251:52|283:95,1,64.9999970245363,0|0,0:0|0:0,0:0:0:0:
212,333,259997,6,0,P|260:352|358:305,1,129.999994049073,0|0,0:0|0:0,0:0:0:0:
113,95,260297,1,0,0:0:0:0:
446,102,260447,1,0,0:0:0:0:
439,159,260522,1,0,0:0:0:0:
407,207,260597,1,0,0:0:0:0:
357,236,260672,1,0,0:0:0:0:
299,238,260747,2,0,P|268:228|241:210,1,64.9999970245363,0|0,0:0|0:0,0:0:0:0:
75,201,260897,1,0,0:0:0:0:
81,143,260972,1,0,0:0:0:0:
112,95,261047,2,0,P|137:74|168:64,1,64.9999970245363,0|0,0:0|0:0,0:0:0:0:
326,0,261197,5,0,0:0:0:0:
362,45,261272,1,0,0:0:0:0:
374,101,261347,2,0,P|366:144|325:187,1,64.9999970245363,0|0,0:0|0:0,0:0:0:0:
151,217,261497,2,0,P|153:184|168:155,1,64.9999970245363,0|0,0:0|0:0,0:0:0:0:
300,366,261647,5,0,0:0:0:0:
365,367,261722,1,0,0:0:0:0:
425,342,261797,1,0,0:0:0:0:
470,296,261872,1,0,0:0:0:0:
494,237,261947,1,0,0:0:0:0:
494,172,262022,1,0,0:0:0:0:
468,113,262097,1,0,0:0:0:0:
422,68,262172,1,0,0:0:0:0:
362,45,262247,5,0,0:0:0:0:
363,110,262322,1,0,0:0:0:0:
338,170,262397,1,0,0:0:0:0:
292,215,262472,1,0,0:0:0:0:
233,239,262547,1,0,0:0:0:0:
209,180,262622,1,0,0:0:0:0:
163,133,262697,2,0,P|135:119|103:111,1,64.9999970245363,0|0,0:0|0:0,0:0:0:0:
379,348,262847,5,0,0:0:0:0:
262,350,262997,2,0,L|197:351,1,64.9999970245363,0|0,0:0|0:0,0:0:0:0:
455,173,263147,5,0,0:0:0:0:
338,170,263297,2,0,L|273:168,1,64.9999970245363,0|0,0:0|0:0,0:0:0:0:
276,39,263447,5,0,0:0:0:0:
225,32,263522,1,0,0:0:0:0:
174,42,263597,1,0,0:0:0:0:
129,68,263672,1,0,0:0:0:0:
94,106,263747,1,0,0:0:0:0:
74,153,263822,1,0,0:0:0:0:
68,205,263897,2,0,P|72:237|88:265,1,64.9999970245363,0|0,0:0|0:0,0:0:0:0:
334,297,264047,6,0,B|348:249|348:249|331:123,1,129.999994049073,0|0,0:0|0:0,0:0:0:0:
225,32,264347,1,0,0:0:0:0:
88,265,264497,2,0,B|136:279|136:279|262:262,1,129.999994049073,0|0,0:0|0:0,0:0:0:0:
283,106,264797,2,0,B|331:92|331:92|457:109,1,129.999994049073,0|0,0:0|0:0,0:0:0:0:
500,335,265097,1,0,0:0:0:0:
254,228,265247,6,0,B|217:262|217:262|169:380,1,129.999994049073,0|0,0:0|0:0,0:0:0:0:
355,363,265547,1,0,0:0:0:0:
283,106,265697,2,0,B|235:92|235:92|109:109,1,129.999994049073,0|0,0:0|0:0,0:0:0:0:
60,333,265997,2,0,B|108:347|108:347|234:330,1,129.999994049073,0|0,0:0|0:0,0:0:0:0:
232,172,266297,1,0,0:0:0:0:
463,276,266447,6,0,P|480:333|423:316,1,129.999994049073,0|0,0:0|0:0,0:0:0:0:
362,188,266747,1,0,0:0:0:0:
155,102,266897,2,0,P|127:171|174:257,1,129.999994049073,0|0,0:0|0:0,0:0:0:0:
347,308,267197,2,0,P|375:239|328:153,1,129.999994049073,0|0,0:0|0:0,0:0:0:0:
192,34,267497,1,0,0:0:0:0:
462,23,267647,6,0,B|457:47|474:66|474:66|455:73|448:89|448:89|453:104|475:127|475:127|459:145|443:172|443:172|470:202|431:276,1,259.999988098145,0|0,0:0|0:0,0:0:0:0:
439,262,268022,1,0,0:0:0:0:
432,280,268097,1,0,0:0:0:0:
308,240,268247,1,0,0:0:0:0:
72,304,268397,2,0,B|58:256|58:256|75:130,1,129.999994049073,0|0,0:0|0:0,0:0:0:0:
308,240,268697,1,0,0:0:0:0:
85,104,268847,6,0,B|143:49|143:49|191:33,1,129.999994049073,0|0,0:0|0:0,0:0:0:0:
355,76,269147,1,0,0:0:0:0:
210,260,269297,2,0,B|155:201|155:201|139:153,1,129.999994049073,0|0,0:0|0:0,0:0:0:0:
355,76,269597,2,0,B|409:134|409:134|425:182,1,129.999994049073,0|0,0:0|0:0,0:0:0:0:
225,57,269897,1,0,0:0:0:0:
153,340,270047,6,0,B|232:336|232:336|277:314,1,129.999994049073,0|0,0:0|0:0,0:0:0:0:
348,171,270347,1,0,0:0:0:0:
110,60,270497,6,0,B|72:130|72:130|69:180,1,129.999994049073,0|0,0:0|0:0,0:0:0:0:
381,265,270797,2,0,B|418:194|418:194|421:144,1,129.999994049073,0|0,0:0|0:0,0:0:0:0:
186,181,271097,2,0,B|189:260|189:260|211:305,1,129.999994049073,0|0,0:0|0:0,0:0:0:0:
367,67,271397,5,0,0:0:0:0:
319,45,271472,1,0,0:0:0:0:
269,33,271547,1,0,0:0:0:0:
217,30,271622,1,0,0:0:0:0:
165,36,271697,1,0,0:0:0:0:
116,51,271772,1,0,0:0:0:0:
69,74,271847,5,0,0:0:0:0:
117,91,271922,1,0,0:0:0:0:
161,118,271997,1,0,0:0:0:0:
200,152,272072,1,0,0:0:0:0:
232,193,272147,5,0,0:0:0:0:
184,210,272222,1,0,0:0:0:0:
140,237,272297,1,0,0:0:0:0:
101,271,272372,1,0,0:0:0:0:
69,312,272447,5,0,0:0:0:0:
116,333,272522,1,0,0:0:0:0:
166,345,272597,1,0,0:0:0:0:
218,348,272672,1,0,0:0:0:0:
270,342,272747,1,0,0:0:0:0:
319,327,272822,1,0,0:0:0:0:
367,305,272897,1,0,0:0:0:0:
407,272,272972,1,0,0:0:0:0:
437,229,273047,2,0,P|455:190|457:152,1,64.9999970245363,0|0,0:0|0:0,0:0:0:0:
325,62,273197,5,0,0:0:0:0:
275,78,273272,1,0,0:0:0:0:
234,109,273347,1,0,0:0:0:0:
203,151,273422,1,0,0:0:0:0:
170,191,273497,1,0,0:0:0:0:
126,217,273572,1,0,0:0:0:0:
75,229,273647,6,0,B|37:207|37:207|39:160|-6:111,1,129.999994049073,0|0,0:0|0:0,0:0:0:0:
163,61,273947,1,0,0:0:0:0:
428,184,274097,2,0,B|406:221|406:221|359:219|286:214|310:265,1,129.999994049073,0|0,0:0|0:0,0:0:0:0:
75,229,274397,2,0,B|96:191|96:191|143:193|192:147,1,129.999994049073,0|0,0:0|0:0,0:0:0:0:
283,369,274697,1,0,0:0:0:0:
256,87,274847,6,0,P|202:52|121:78,1,129.999994049073,0|0,0:0|0:0,0:0:0:0:
75,229,275147,1,0,0:0:0:0:
329,210,275297,2,0,P|386:180|404:97,1,129.999994049073,0|0,0:0|0:0,0:0:0:0:
140,62,275597,2,0,P|82:91|64:174,1,129.999994049073,0|0,0:0|0:0,0:0:0:0:
283,77,275897,1,0,0:0:0:0:
75,229,276047,2,0,P|77:277|137:255,1,129.999994049073,0|0,0:0|0:0,0:0:0:0:
140,62,276347,1,0,0:0:0:0:
388,112,276497,6,0,B|418:147|418:147|446:252,1,129.999994049073,0|0,0:0|0:0,0:0:0:0:
188,374,276797,2,0,B|158:339|158:339|130:234,1,129.999994049073,0|0,0:0|0:0,0:0:0:0:
299,55,277097,1,0,0:0:0:0:
325,313,277247,1,0,0:0:0:0:
89,207,277397,2,0,B|104:163|104:163|181:86,1,129.999994049073,0|0,0:0|0:0,0:0:0:0:
261,347,277697,1,0,0:0:0:0:
480,208,277847,2,0,B|464:164|464:164|387:87,1,129.999994049073,0|0,0:0|0:0,0:0:0:0:
162,180,278147,2,0,B|177:223|177:223|254:300,1,129.999994049073,0|0,0:0|0:0,0:0:0:0:
220,35,278447,5,0,0:0:0:0:
181,41,278522,1,0,0:0:0:0:
146,59,278597,1,0,0:0:0:0:
118,86,278672,1,0,0:0:0:0:
99,120,278747,1,0,0:0:0:0:
90,157,278822,1,0,0:0:0:0:
100,196,278897,5,0,0:0:0:0:
138,186,278972,1,0,0:0:0:0:
175,196,279047,1,0,0:0:0:0:
210,214,279122,1,0,0:0:0:0:
236,243,279197,5,0,0:0:0:0:
255,209,279272,1,0,0:0:0:0:
289,189,279347,1,0,0:0:0:0:
326,178,279422,1,0,0:0:0:0:
365,180,279497,5,0,0:0:0:0:
364,220,279572,1,0,0:0:0:0:
363,260,279647,5,0,0:0:0:0:
414,259,279722,1,0,0:0:0:0:
458,233,279797,1,0,0:0:0:0:
483,188,279872,1,0,0:0:0:0:
484,137,279947,1,0,0:0:0:0:
459,92,280022,1,0,0:0:0:0:
415,66,280097,5,0,0:0:0:0:
401,112,280172,1,0,0:0:0:0:
364,150,280247,1,0,0:0:0:0:
314,163,280322,1,0,0:0:0:0:
265,150,280397,5,0,0:0:0:0:
287,196,280472,1,0,0:0:0:0:
283,247,280547,1,0,0:0:0:0:
253,289,280622,1,0,0:0:0:0:
209,312,280697,2,0,P|165:325|112:327,1,64.9999970245363,0|0,0:0|0:0,0:0:0:0:
72,185,280847,6,0,P|130:143|212:131,1,129.999994049073,0|0,0:0|0:0,0:0:0:0:
238,132,281072,1,0,0:0:0:0:
288,141,281147,1,0,0:0:0:0:
335,165,281222,1,0,0:0:0:0:
372,201,281297,2,0,P|402:244|413:283,1,64.9999970245363,0|0,0:0|0:0,0:0:0:0:
282,357,281447,2,0,P|252:314|241:275,1,64.9999970245363,0|0,0:0|0:0,0:0:0:0:
406,255,281597,5,0,0:0:0:0:
381,300,281672,1,0,0:0:0:0:
343,335,281747,2,0,P|302:354|236:356,1,64.9999970245363,0|0,0:0|0:0,0:0:0:0:
129,231,281897,2,0,P|170:212|236:210,1,64.9999970245363,0|0,0:0|0:0,0:0:0:0:
282,357,282047,5,0,0:0:0:0:
233,342,282122,1,0,0:0:0:0:
189,314,282197,1,0,0:0:0:0:
153,276,282272,1,0,0:0:0:0:
129,231,282347,1,0,0:0:0:0:
116,180,282422,1,0,0:0:0:0:
116,129,282497,1,0,0:0:0:0:
129,78,282572,1,0,0:0:0:0:
154,33,282647,5,0,0:0:0:0:
201,78,282722,1,0,0:0:0:0:
253,117,282797,2,0,P|307:147|342:153,1,64.9999970245363,0|0,0:0|0:0,0:0:0:0:
380,28,282947,1,0,0:0:0:0:
186,155,283097,1,0,0:0:0:0:
468,207,283247,6,0,B|443:163|443:163|342:86,1,129.999994049073,0|0,0:0|0:0,0:0:0:0:
203,96,283547,1,0,0:0:0:0:
270,358,283697,2,0,B|313:333|313:333|390:232,1,129.999994049073,0|0,0:0|0:0,0:0:0:0:
296,108,283997,2,0,B|320:64|320:64|421:-12,1,129.999994049073,0|0,0:0|0:0,0:0:0:0:
512,224,284297,1,0,0:0:0:0:
270,214,284447,6,0,B|255:262|255:262|272:389,1,129.999994049073,0|0,0:0|0:0,0:0:0:0:
425,281,284747,1,0,0:0:0:0:
278,93,284897,2,0,B|228:96|228:96|115:155,1,129.999994049073,0|0,0:0|0:0,0:0:0:0:
145,382,285197,2,0,B|194:378|194:378|307:319,1,129.999994049073,0|0,0:0|0:0,0:0:0:0:
223,177,285497,1,0,0:0:0:0:
475,151,285647,6,0,P|518:192|460:206,1,129.999994049073,0|0,0:0|0:0,0:0:0:0:
343,126,285947,1,0,0:0:0:0:
121,155,286097,2,0,P|131:229|215:279,1,129.999994049073,0|0,0:0|0:0,0:0:0:0:
390,237,286397,2,0,P|380:163|296:112,1,129.999994049073,0|0,0:0|0:0,0:0:0:0:
119,77,286697,1,0,0:0:0:0:
450,0,286847,6,0,B|445:23|462:42|462:42|443:49|436:65|436:65|441:80|463:103|463:103|447:121|431:148|431:148|458:179|419:252,1,259.999988098145,0|0,0:0|0:0,0:0:0:0:
427,238,287222,1,0,0:0:0:0:
420,256,287297,1,0,0:0:0:0:
296,216,287447,1,0,0:0:0:0:
60,280,287597,2,0,B|46:232|46:232|63:105,1,129.999994049073,0|0,0:0|0:0,0:0:0:0:
296,216,287897,1,0,0:0:0:0:
73,80,288047,6,0,B|131:25|131:25|179:9,1,129.999994049073,0|0,0:0|0:0,0:0:0:0:
343,52,288347,1,0,0:0:0:0:
198,236,288497,2,0,B|143:177|143:177|127:129,1,129.999994049073,0|0,0:0|0:0,0:0:0:0:
343,52,288797,2,0,B|397:110|397:110|413:158,1,129.999994049073,0|0,0:0|0:0,0:0:0:0:
213,33,289097,1,0,0:0:0:0:
141,316,289247,6,0,B|220:312|220:312|265:290,1,129.999994049073,0|0,0:0|0:0,0:0:0:0:
336,148,289547,1,0,0:0:0:0:
98,36,289697,6,0,B|60:106|60:106|56:156,1,129.999994049073,0|0,0:0|0:0,0:0:0:0:
369,241,289997,2,0,B|406:169|406:169|409:120,1,129.999994049073,0|0,0:0|0:0,0:0:0:0:
174,157,290297,2,0,B|177:236|177:236|198:281,1,129.999994049073,0|0,0:0|0:0,0:0:0:0:
445,313,290597,5,0,0:0:0:0:
469,267,290672,1,0,0:0:0:0:
476,216,290747,1,0,0:0:0:0:
424,214,290822,1,0,0:0:0:0:
372,209,290897,2,0,P|327:193|306:179,1,64.9999970245363,0|0,0:0|0:0,0:0:0:0:
206,61,291047,5,0,0:0:0:0:
162,88,291122,1,0,0:0:0:0:
130,129,291197,1,0,0:0:0:0:
174,157,291272,1,0,0:0:0:0:
216,187,291347,2,0,P|247:223|258:246,1,64.9999970245363,0|0,0:0|0:0,0:0:0:0:
212,368,291497,5,0,0:0:0:0:
263,376,291572,1,0,0:0:0:0:
315,376,291647,1,0,0:0:0:0:
377,359,291722,1,0,0:0:0:0:
433,326,291797,1,0,0:0:0:0:
478,279,291872,1,0,0:0:0:0:
508,222,291947,5,0,0:0:0:0:
446,233,292022,1,0,0:0:0:0:
395,195,292097,1,0,0:0:0:0:
390,132,292172,1,0,0:0:0:0:
433,86,292247,5,0,0:0:0:0:
384,44,292322,1,0,0:0:0:0:
322,52,292397,1,0,0:0:0:0:
286,104,292472,1,0,0:0:0:0:
299,165,292547,5,0,0:0:0:0:
362,153,292622,1,0,0:0:0:0:
412,191,292697,1,0,0:0:0:0:
417,254,292772,1,0,0:0:0:0:
376,307,292847,6,0,B|334:321|295:299|295:299|265:307|233:290,1,129.999994049073,0|0,0:0|0:0,0:0:0:0:
153,157,293147,1,0,0:0:0:0:
424,172,293297,1,0,0:0:0:0:
182,25,293447,1,0,0:0:0:0:
455,201,293597,2,0,B|420:229|377:221|377:221|351:239|315:234,1,129.999994049073,0|0,0:0|0:0,0:0:0:0:
327,54,293897,1,0,0:0:0:0:
112,185,294047,6,0,B|96:206|112:223|112:223|102:250|102:250|124:270|129:339,1,129.999994049073,0|0,0:0|0:0,0:0:0:0:
290,358,294347,1,0,0:0:0:0:
251,88,294497,1,0,0:0:0:0:
503,189,294647,1,0,0:0:0:0:
197,82,294797,2,0,B|185:124|211:160|211:160|206:191|225:221,1,129.999994049073,0|0,0:0|0:0,0:0:0:0:
382,128,295097,1,0,0:0:0:0:
177,320,295247,6,0,P|162:371|215:360,1,129.999994049073,0|0,0:0|0:0,0:0:0:0:
317,210,295547,1,0,0:0:0:0:
59,180,295697,1,0,0:0:0:0:
90,384,295847,1,0,0:0:0:0:
192,143,295997,2,0,P|246:87|353:75,1,129.999994049073,0|0,0:0|0:0,0:0:0:0:
313,331,296297,5,0,0:0:0:0:
50,283,296447,1,0,0:0:0:0:
369,324,296597,2,0,B|311:333|311:333|212:307,1,129.999994049073,0|0,0:0|0:0,0:0:0:0:
196,38,296897,1,0,0:0:0:0:
462,225,297047,2,0,B|471:167|471:167|445:68,1,129.999994049073,0|0,0:0|0:0,0:0:0:0:
121,146,297347,2,0,B|111:203|111:203|137:302,1,129.999994049073,0|0,0:0|0:0,0:0:0:0:
375,151,297647,5,0,0:0:0:0:
380,112,297722,1,0,0:0:0:0:
372,74,297797,1,0,0:0:0:0:
352,40,297872,1,0,0:0:0:0:
322,15,297947,1,0,0:0:0:0:
286,1,298022,1,0,0:0:0:0:
247,0,298097,5,0,0:0:0:0:
232,36,298172,1,0,0:0:0:0:
208,67,298247,1,0,0:0:0:0:
175,88,298322,1,0,0:0:0:0:
139,98,298397,5,0,0:0:0:0:
157,133,298472,1,0,0:0:0:0:
157,170,298547,1,0,0:0:0:0:
147,209,298622,1,0,0:0:0:0:
124,240,298697,5,0,0:0:0:0:
90,221,298772,1,0,0:0:0:0:
57,200,298847,5,0,0:0:0:0:
41,250,298922,1,0,0:0:0:0:
47,300,298997,1,0,0:0:0:0:
73,345,299072,1,0,0:0:0:0:
114,376,299147,1,0,0:0:0:0:
166,387,299222,1,0,0:0:0:0:
216,377,299297,5,0,0:0:0:0:
227,327,299372,1,0,0:0:0:0:
251,280,299447,1,0,0:0:0:0:
286,243,299522,1,0,0:0:0:0:
332,216,299597,5,0,0:0:0:0:
292,185,299672,1,0,0:0:0:0:
267,139,299747,1,0,0:0:0:0:
263,88,299822,1,0,0:0:0:0:
278,39,299897,5,0,0:0:0:0:
330,48,299972,1,0,0:0:0:0:
381,61,300047,2,0,L|405:127,2,64.9999970245363,0|0|0,0:0|0:0|0:0,0:0:0:0:
321,139,300272,2,0,L|297:205,2,64.9999970245363,0|0|0,0:0|0:0|0:0,0:0:0:0:
381,217,300497,2,0,L|405:283,2,64.9999970245363,0|0|0,0:0|0:0|0:0,0:0:0:0:
325,281,300722,2,0,L|259:305,2,64.9999970245363,0|0|0,0:0|0:0|0:0,0:0:0:0:
247,221,300947,2,0,L|181:197,2,64.9999970245363,0|0|0,0:0|0:0|0:0,0:0:0:0:
169,281,301172,5,0,0:0:0:0:
105,288,301247,1,0,0:0:0:0:
47,261,301322,1,0,0:0:0:0:
12,207,301397,1,0,0:0:0:0:
12,142,301472,1,0,0:0:0:0:
45,88,301547,5,0,0:0:0:0:
89,60,301622,1,0,0:0:0:0:
140,52,301697,1,0,0:0:0:0:
190,65,301772,1,0,0:0:0:0:
231,97,301847,1,0,0:0:0:0:
255,142,301922,1,0,0:0:0:0:
265,193,301997,1,0,0:0:0:0:
289,238,302072,1,0,0:0:0:0:
330,270,302147,1,0,0:0:0:0:
380,283,302222,1,0,0:0:0:0:
431,275,302297,2,0,P|461:254|487:216,1,64.9999970245363,0|0,0:0|0:0,0:0:0:0:
318,88,302447,6,0,P|376:57|428:62,1,100,0|0,0:0|0:0,0:0:0:0:
423,59,302672,1,0,0:0:0:0:
437,62,302747,1,0,0:0:0:0:
478,232,302897,2,0,P|419:262|367:257,1,100,0|0,0:0|0:0,0:0:0:0:
373,261,303122,1,0,0:0:0:0:
359,257,303197,1,0,0:0:0:0:
270,163,303347,6,0,P|222:143|159:156,1,100,0|0,0:0|0:0,0:0:0:0:
57,316,303647,2,0,B|43:325|43:325|32:222,1,100,0|0,0:0|0:0,0:0:0:0:
33,228,303872,1,0,0:0:0:0:
32,213,303947,1,0,0:0:0:0:
152,75,304097,2,0,B|165:65|165:65|176:168,1,100,0|0,0:0|0:0,0:0:0:0:
176,164,304322,1,0,0:0:0:0:
177,178,304397,1,0,0:0:0:0:
55,27,304547,6,0,B|45:13|45:13|148:2,1,100,0|0,0:0|0:0,0:0:0:0:
309,223,304847,2,0,B|318:236|318:236|215:247,1,100,0|0,0:0|0:0,0:0:0:0:
221,245,305072,1,0,0:0:0:0:
206,248,305147,1,0,0:0:0:0:
175,89,305297,2,0,B|167:73|167:73|270:80,1,100,0|0,0:0|0:0,0:0:0:0:
265,81,305522,1,0,0:0:0:0:
279,81,305597,1,0,0:0:0:0:
371,307,305747,6,0,L|417:181,1,100,0|0,0:0|0:0,0:0:0:0:
152,77,306047,2,0,L|105:202,1,100,0|0,0:0|0:0,0:0:0:0:
112,184,306272,1,0,0:0:0:0:
106,198,306347,1,0,0:0:0:0:
304,230,306497,2,0,L|350:104,1,100,0|0,0:0|0:0,0:0:0:0:
342,120,306722,1,0,0:0:0:0:
348,107,306797,1,0,0:0:0:0:
152,77,306947,6,0,B|107:73|107:73|57:35,1,100,0|0,0:0|0:0,0:0:0:0:
215,193,307247,2,0,B|259:196|259:196|309:234,1,100,0|0,0:0|0:0,0:0:0:0:
315,239,307472,1,0,0:0:0:0:
327,248,307547,1,0,0:0:0:0:
175,365,307697,2,0,B|130:361|130:361|80:323,1,100,0|0,0:0|0:0,0:0:0:0:
73,320,307922,1,0,0:0:0:0:
63,309,307997,1,0,0:0:0:0:
62,113,308147,6,0,B|95:84|95:84|157:74,1,100,0|0,0:0|0:0,0:0:0:0:
393,192,308447,2,0,B|358:219|358:219|297:228,1,100,0|0,0:0|0:0,0:0:0:0:
289,231,308672,1,0,0:0:0:0:
274,232,308747,1,0,0:0:0:0:
384,102,308897,2,0,B|428:105|428:105|478:143,1,100,0|0,0:0|0:0,0:0:0:0:
484,147,309122,1,0,0:0:0:0:
496,156,309197,1,0,0:0:0:0:
391,265,309347,2,0,B|346:261|346:261|296:223,1,100,0|0,0:0|0:0,0:0:0:0:
232,31,309647,5,0,0:0:0:0:
219,37,309722,1,0,0:0:0:0:
205,43,309797,2,0,L|158:64,1,50,0|0,0:0|0:0,0:0:0:0:
260,130,309947,1,0,0:0:0:0:
247,136,310022,1,0,0:0:0:0:
233,142,310097,1,0,0:0:0:0:
220,148,310172,1,0,0:0:0:0:
206,154,310247,1,0,0:0:0:0:
193,160,310322,1,0,0:0:0:0:
179,166,310397,2,0,L|134:186,1,50,0|0,0:0|0:0,0:0:0:0:
106,320,310547,5,0,0:0:0:0:
130,323,310622,1,0,0:0:0:0:
154,328,310697,2,0,L|216:340,1,50,0|0,0:0|0:0,0:0:0:0:
346,244,310847,5,0,0:0:0:0:
321,239,310922,1,0,0:0:0:0:
296,234,310997,1,0,0:0:0:0:
272,229,311072,1,0,0:0:0:0:
247,225,311147,2,0,L|157:204,1,50,0|0,0:0|0:0,0:0:0:0:
262,105,311297,1,0,0:0:0:0:
237,100,311372,1,0,0:0:0:0:
212,95,311447,1,0,0:0:0:0:
188,90,311522,1,0,0:0:0:0:
163,86,311597,2,0,L|73:65,1,50,0|0,0:0|0:0,0:0:0:0:
31,157,311747,5,0,0:0:0:0:
55,160,311822,1,0,0:0:0:0:
79,165,311897,2,0,L|141:177,1,50,0|0,0:0|0:0,0:0:0:0:
150,320,312047,6,0,P|90:327|14:287,1,100,0|0,0:0|0:0,0:0:0:0:
40,309,312272,1,0,0:0:0:0:
28,300,312347,1,0,0:0:0:0:
128,174,312497,2,0,P|188:167|264:207,1,100,0|0,0:0|0:0,0:0:0:0:
238,185,312722,1,0,0:0:0:0:
250,194,312797,1,0,0:0:0:0:
410,263,312947,6,0,P|434:219|410:139,1,100,0|0,0:0|0:0,0:0:0:0:
218,82,313247,2,0,B|198:79|198:79|222:166,1,100,0|0,0:0|0:0,0:0:0:0:
224,170,313472,1,0,0:0:0:0:
228,184,313547,1,0,0:0:0:0:
334,359,313697,2,0,B|354:362|354:362|330:275,1,100,0|0,0:0|0:0,0:0:0:0:
328,271,313922,1,0,0:0:0:0:
324,257,313997,1,0,0:0:0:0:
150,347,314147,6,0,B|130:350|130:350|154:263,1,100,0|0,0:0|0:0,0:0:0:0:
402,94,314447,2,0,B|422:91|422:91|398:178,1,100,0|0,0:0|0:0,0:0:0:0:
397,182,314672,1,0,0:0:0:0:
393,196,314747,1,0,0:0:0:0:
174,187,314897,2,0,P|190:127|226:83,1,100,0|0,0:0|0:0,0:0:0:0:
224,87,315122,1,0,0:0:0:0:
238,81,315197,1,0,0:0:0:0:
491,217,315347,6,0,L|369:190,1,100,0|0,0:0|0:0,0:0:0:0:
77,165,315647,2,0,L|199:192,1,100,0|0,0:0|0:0,0:0:0:0:
190,189,315872,1,0,0:0:0:0:
205,192,315947,1,0,0:0:0:0:
458,127,316097,2,0,L|336:100,1,100,0|0,0:0|0:0,0:0:0:0:
346,102,316322,1,0,0:0:0:0:
331,99,316397,1,0,0:0:0:0:
278,268,316547,2,0,L|356:240,1,50,0|0,0:0|0:0,0:0:0:0:
418,294,316697,2,0,L|340:322,1,50,0|0,0:0|0:0,0:0:0:0:
417,214,316847,2,0,B|430:159|430:159|490:91,1,100,0|0,0:0|0:0,0:0:0:0:
470,115,317072,1,0,0:0:0:0:
480,105,317147,1,0,0:0:0:0:
258,123,317297,2,0,B|245:178|245:178|185:246,1,100,0|0,0:0|0:0,0:0:0:0:
206,221,317522,1,0,0:0:0:0:
196,231,317597,1,0,0:0:0:0:
54,87,317747,6,0,B|109:99|109:99|177:160,1,100,0|0,0:0|0:0,0:0:0:0:
222,327,318047,2,0,B|167:314|167:314|99:254,1,100,0|0,0:0|0:0,0:0:0:0:
124,275,318272,1,0,0:0:0:0:
112,265,318347,1,0,0:0:0:0:
258,123,318497,2,0,B|288:171|288:171|294:261,1,100,0|0,0:0|0:0,0:0:0:0:
292,229,318722,1,0,0:0:0:0:
293,244,318797,1,0,0:0:0:0:
167,376,318947,2,0,B|138:327|138:327|132:237,1,100,0|0,0:0|0:0,0:0:0:0:
367,274,319247,5,0,0:0:0:0:
383,255,319322,1,0,0:0:0:0:
387,231,319397,1,0,0:0:0:0:
379,208,319472,1,0,0:0:0:0:
360,192,319547,5,0,0:0:0:0:
335,167,319622,1,0,0:0:0:0:
324,134,319697,1,0,0:0:0:0:
331,100,319772,1,0,0:0:0:0:
352,73,319847,5,0,0:0:0:0:
334,32,319922,1,0,0:0:0:0:
298,6,319997,1,0,0:0:0:0:
254,2,320072,1,0,0:0:0:0:
213,20,320147,1,0,0:0:0:0:
173,50,320222,1,0,0:0:0:0:
125,58,320297,1,0,0:0:0:0:
78,41,320372,1,0,0:0:0:0:
44,5,320447,5,0,0:0:0:0:
30,63,320522,1,0,0:0:0:0:
15,121,320597,2,0,L|-2:213,3,50,0|0|0|0,0:0|0:0|0:0|0:0,0:0:0:0:
156,210,320897,2,0,L|138:301,3,50,0|0|0|0,0:0|0:0|0:0|0:0,0:0:0:0:
292,310,321197,2,0,L|298:261,1,50,0|0,0:0|0:0,0:0:0:0:
229,126,321347,6,0,P|251:82|333:94,1,100,0|0,0:0|0:0,0:0:0:0:
350,100,321572,1,0,0:0:0:0:
358,159,321647,2,0,L|341:219,3,50,0|0|0|0,0:0|0:0|0:0|0:0,0:0:0:0:
450,274,321947,5,0,0:0:0:0:
466,255,322022,1,0,0:0:0:0:
472,231,322097,1,0,0:0:0:0:
465,207,322172,1,0,0:0:0:0:
447,190,322247,1,0,0:0:0:0:
430,171,322322,1,0,0:0:0:0:
424,147,322397,1,0,0:0:0:0:
431,123,322472,1,0,0:0:0:0:
449,106,322547,1,0,0:0:0:0:
465,87,322622,1,0,0:0:0:0:
471,63,322697,1,0,0:0:0:0:
464,39,322772,1,0,0:0:0:0:
446,22,322847,5,0,0:0:0:0:
389,2,322922,1,0,0:0:0:0:
329,3,322997,1,0,0:0:0:0:
273,23,323072,1,0,0:0:0:0:
227,62,323147,1,0,0:0:0:0:
197,113,323222,1,0,0:0:0:0:
185,171,323297,5,0,0:0:0:0:
236,141,323372,1,0,0:0:0:0:
295,131,323447,1,0,0:0:0:0:
354,141,323522,1,0,0:0:0:0:
407,169,323597,1,0,0:0:0:0:
446,215,323672,1,0,0:0:0:0:
466,271,323747,5,0,0:0:0:0:
396,267,323822,1,0,0:0:0:0:
327,276,323897,1,0,0:0:0:0:
261,300,323972,1,0,0:0:0:0:
184,347,324047,1,0,0:0:0:0:
