osu file format v14

[General]
AudioFilename: audio.mp3
AudioLeadIn: 0
PreviewTime: 176087
Countdown: 0
SampleSet: None
StackLeniency: 0.2
Mode: 0
LetterboxInBreaks: 0
WidescreenStoryboard: 0

[Editor]
Bookmarks: 22460,51141,69602,75867,100261,121360,163559,164053,197845,220922,229493,265097,298558,307295,349492,369273,412790
DistanceSpacing: 1.4
BeatDivisor: 4
GridSize: 32
TimelineZoom: 1.5

[Metadata]
Title:View of The River Styx
TitleUnicode:彼岸帰航 ~ View of The River Styx
Artist:Demetori
ArtistUnicode:Demetori
Creator:Moonlit
Version:Swift As A Coursing Deathstream
Source:
Tags:
BeatmapID:1698700
BeatmapSetID:809504

[Difficulty]
HPDrainRate:5
CircleSize:4.3
OverallDifficulty:9.1
ApproachRate:9.5
SliderMultiplier:2
SliderTickRate:1

[Events]
//Background and Video events
0,0,"Konachan.com - 98484 sample.jpg",0,0
//Break Periods
2,221122,228968
2,232001,233254
2,234637,235891
//Storyboard Layer 0 (Background)
//Storyboard Layer 1 (Fail)
//Storyboard Layer 2 (Pass)
//Storyboard Layer 3 (Foreground)
//Storyboard Sound Samples

[TimingPoints]
43,329.67032967033,6,2,1,85,1,0
2021,329.67032967033,7,2,1,85,1,0
4328,329.67032967033,6,2,1,85,1,0
6306,329.67032967033,7,2,1,85,1,0
8613,329.67032967033,6,2,1,85,1,0
10591,329.67032967033,7,2,1,85,1,0
12898,329.67032967033,6,2,1,85,1,0
14876,329.67032967033,7,2,1,85,1,0
17185,329.67032967033,8,2,2,85,1,0
22450,326.086956521739,4,1,0,85,1,0
22460,329.67032967033,4,3,1,85,1,0
48834,329.67032967033,3,3,2,85,1,0
51141,329.67032967033,4,3,1,85,1,0
71250,-100,4,3,1,34,0,0
71415,-100,4,3,1,56,0,0
71745,-100,4,3,1,74,0,0
72075,-100,4,3,1,85,0,0
72240,329.67032967033,5,3,1,85,1,0
73889,329.67032967033,6,3,1,85,1,0
75867,329.67032967033,5,3,1,85,1,0
77515,-142.857142857143,4,3,1,85,0,0
77597,-142.857142857143,4,3,1,15,0,0
78669,-142.857142857143,4,3,1,85,0,0
79163,329.67032967033,4,3,1,85,1,0
79163,-100,4,3,1,85,0,0
142460,329.67032967033,6,3,1,85,1,0
144438,329.67032967033,8,3,1,56,1,0
146745,-100,4,3,1,85,0,0
149713,329.67032967033,5,3,1,85,1,0
151361,329.67032967033,8,3,1,56,1,0
153339,-100,4,3,1,70,0,0
153998,-100,4,3,1,85,0,0
154658,329.67032967033,6,3,1,85,1,0
156636,329.67032967033,8,3,2,56,1,0
158614,-100,4,3,1,85,0,0
161910,329.67032967033,5,3,1,85,1,0
163559,329.67032967033,8,3,1,56,1,0
165537,-100,4,3,1,85,0,0
166197,329.67032967033,4,3,1,85,1,0
218944,329.67032967033,3,3,1,85,1,0
220922,329.67032967033,13,3,1,56,1,0
229493,-166.666666666667,4,3,1,85,0,0
236911,-125,4,3,1,70,0,0
238064,329.67032967033,4,3,1,70,1,0
243338,-111.111111111111,4,3,1,85,0,0
247624,329.67032967033,4,3,1,85,1,0
252570,329.67032967033,4,3,1,85,1,0
262460,329.67032967033,4,3,1,85,1,0
263449,-125,4,3,1,85,0,0
265097,-100,4,3,1,85,0,0
307295,-200,4,3,1,85,0,0
317020,-125,4,3,1,85,0,0
317844,-125,4,3,1,65,0,0
327075,-100,4,3,1,85,0,0
328394,-100,4,3,1,85,0,0
369273,-100,4,3,1,85,0,0
412790,329.67032967033,6,3,1,85,1,0
414768,329.67032967033,8,3,1,85,1,0
420043,329.67032967033,6,3,1,85,1,0
422021,329.67032967033,8,3,1,85,1,0
424658,329.67032967033,6,3,1,85,1,0
428614,329.67032967033,8,3,1,85,1,0
433889,329.67032967033,7,3,1,85,1,0
436196,329.67032967033,5,3,1,85,1,0
436196,-125,4,3,1,85,0,0
447734,329.67032967033,6,3,2,85,1,0
448887,-125,4,3,1,65,0,0
455481,344.827586206897,4,2,2,85,1,0

[HitObjects]
88,88,22460,5,0,0:0:0:0:
92,112,22542,1,0,0:0:0:0:
96,136,22624,1,0,0:0:0:0:
124,283,22789,1,0,0:0:0:0:
232,131,22954,1,0,0:0:0:0:
236,155,23036,1,0,0:0:0:0:
240,179,23118,1,0,0:0:0:0:
350,37,23449,5,0,0:0:0:0:
354,61,23531,1,0,0:0:0:0:
358,85,23613,1,0,0:0:0:0:
386,232,23943,1,0,0:0:0:0:
268,326,24108,1,0,0:0:0:0:
240,179,24273,5,0,0:0:0:0:
236,155,24355,1,0,0:0:0:0:
232,131,24437,1,0,0:0:0:0:
228,107,24520,1,0,0:0:0:0:
224,83,24602,1,0,0:0:0:0:
220,59,24685,1,0,0:0:0:0:
216,34,24767,2,0,P|142:39|88:89,1,150
49,162,25097,5,0,0:0:0:0:
73,166,25179,1,0,0:0:0:0:
97,170,25261,1,0,0:0:0:0:
244,198,25426,1,0,0:0:0:0:
144,310,25591,1,0,0:0:0:0:
396,90,25921,5,0,0:0:0:0:
372,86,26003,1,0,0:0:0:0:
348,82,26085,1,0,0:0:0:0:
324,78,26169,1,0,0:0:0:0:
300,74,26251,1,0,0:0:0:0:
244,198,26580,1,0,0:0:0:0:
391,226,26745,1,0,0:0:0:0:
260,322,26910,5,0,0:0:0:0:
236,318,26992,1,0,0:0:0:0:
212,314,27074,1,0,0:0:0:0:
188,310,27157,1,0,0:0:0:0:
164,306,27239,1,0,0:0:0:0:
140,302,27322,1,0,0:0:0:0:
115,298,27404,2,0,P|119:224|169:170,1,150
243,131,27734,5,0,0:0:0:0:
247,155,27816,1,0,0:0:0:0:
251,179,27898,1,0,0:0:0:0:
279,326,28063,1,0,0:0:0:0:
391,226,28229,1,0,0:0:0:0:
387,202,28311,1,0,0:0:0:0:
383,178,28393,1,0,0:0:0:0:
42,338,28723,5,0,0:0:0:0:
38,314,28805,1,0,0:0:0:0:
34,290,28887,1,0,0:0:0:0:
112,156,29218,1,0,0:0:0:0:
210,269,29383,1,0,0:0:0:0:
266,130,29547,1,0,0:0:0:0:
289,112,29629,1,0,0:0:0:0:
315,98,29711,1,0,0:0:0:0:
344,87,29794,1,0,0:0:0:0:
373,83,29876,1,0,0:0:0:0:
403,83,29959,1,0,0:0:0:0:
432,95,30042,6,0,B|449:198|449:198|416:244,1,150
381,307,30372,5,0,0:0:0:0:
357,311,30454,1,0,0:0:0:0:
333,315,30536,1,0,0:0:0:0:
184,339,30701,1,0,0:0:0:0:
236,198,30866,1,0,0:0:0:0:
88,355,31196,5,0,0:0:0:0:
112,351,31278,1,0,0:0:0:0:
136,347,31360,1,0,0:0:0:0:
160,343,31443,1,0,0:0:0:0:
184,339,31525,1,0,0:0:0:0:
386,217,31855,1,0,0:0:0:0:
236,198,32020,1,0,0:0:0:0:
332,82,32185,5,0,0:0:0:0:
328,106,32267,1,0,0:0:0:0:
324,130,32349,1,0,0:0:0:0:
320,154,32432,1,0,0:0:0:0:
316,178,32514,1,0,0:0:0:0:
312,202,32597,1,0,0:0:0:0:
308,227,32679,2,0,B|210:213|210:213|164:247,1,150
148,164,33009,5,0,0:0:0:0:
144,140,33091,1,0,0:0:0:0:
140,116,33173,1,0,0:0:0:0:
175,321,33339,1,0,0:0:0:0:
231,114,33503,1,0,0:0:0:0:
235,90,33585,1,0,0:0:0:0:
239,66,33667,1,0,0:0:0:0:
272,350,33998,5,0,0:0:0:0:
283,328,34080,1,0,0:0:0:0:
295,307,34162,1,0,0:0:0:0:
365,167,34492,1,0,0:0:0:0:
456,285,34657,1,0,0:0:0:0:
512,149,34822,1,0,0:0:0:0:
425,25,34987,1,0,0:0:0:0:
401,21,35069,1,0,0:0:0:0:
377,17,35151,1,0,0:0:0:0:
353,13,35234,1,0,0:0:0:0:
329,9,35317,2,0,B|298:50|298:50|312:148,1,150
240,169,35646,5,0,0:0:0:0:
251,191,35728,1,0,0:0:0:0:
263,212,35810,1,0,0:0:0:0:
167,27,35976,1,0,0:0:0:0:
39,105,36141,1,0,0:0:0:0:
222,87,36470,5,0,0:0:0:0:
201,100,36552,1,0,0:0:0:0:
181,113,36634,1,0,0:0:0:0:
161,127,36717,1,0,0:0:0:0:
140,140,36799,1,0,0:0:0:0:
101,284,37130,1,0,0:0:0:0:
244,239,37295,1,0,0:0:0:0:
306,97,37460,1,0,0:0:0:0:
435,302,37624,5,0,0:0:0:0:
427,279,37706,1,0,0:0:0:0:
419,256,37788,1,0,0:0:0:0:
411,233,37871,1,0,0:0:0:0:
404,210,37953,1,0,0:0:0:0:
443,187,38036,1,0,0:0:0:0:
459,144,38119,1,0,0:0:0:0:
446,101,38201,1,0,0:0:0:0:
408,75,38284,5,0,0:0:0:0:
384,82,38366,1,0,0:0:0:0:
360,89,38449,1,0,0:0:0:0:
254,195,38613,1,0,0:0:0:0:
212,41,38778,1,0,0:0:0:0:
188,48,38860,1,0,0:0:0:0:
164,55,38943,1,0,0:0:0:0:
306,334,39273,5,0,0:0:0:0:
282,341,39355,1,0,0:0:0:0:
258,348,39438,1,0,0:0:0:0:
254,195,39767,1,0,0:0:0:0:
404,210,39932,1,0,0:0:0:0:
225,275,40097,5,0,0:0:0:0:
201,271,40179,1,0,0:0:0:0:
177,267,40261,1,0,0:0:0:0:
153,263,40344,1,0,0:0:0:0:
129,259,40426,1,0,0:0:0:0:
105,255,40509,1,0,0:0:0:0:
80,251,40591,2,0,P|85:177|135:123,1,150
116,41,40921,5,0,0:0:0:0:
140,48,41004,1,0,0:0:0:0:
164,55,41086,1,0,0:0:0:0:
307,10,41251,1,0,0:0:0:0:
279,157,41416,1,0,0:0:0:0:
427,61,41745,5,0,0:0:0:0:
423,85,41827,1,0,0:0:0:0:
419,109,41909,1,0,0:0:0:0:
415,133,41992,1,0,0:0:0:0:
411,157,42074,1,0,0:0:0:0:
252,282,42405,1,0,0:0:0:0:
260,132,42569,1,0,0:0:0:0:
340,235,42734,5,0,0:0:0:0:
354,254,42816,1,0,0:0:0:0:
368,273,42898,1,0,0:0:0:0:
383,292,42981,1,0,0:0:0:0:
397,311,43063,1,0,0:0:0:0:
413,330,43146,1,0,0:0:0:0:
427,350,43229,5,0,0:0:0:0:
381,328,43311,1,0,0:0:0:0:
330,327,43394,1,0,0:0:0:0:
282,343,43476,1,0,0:0:0:0:
251,382,43558,5,0,0:0:0:0:
226,375,43641,1,0,0:0:0:0:
202,367,43723,1,0,0:0:0:0:
143,312,43888,1,0,0:0:0:0:
152,189,44053,1,0,0:0:0:0:
156,213,44135,1,0,0:0:0:0:
163,239,44218,1,0,0:0:0:0:
38,367,44547,1,0,0:0:0:0:
57,351,44629,1,0,0:0:0:0:
76,333,44712,1,0,0:0:0:0:
248,281,45042,5,0,0:0:0:0:
73,246,45207,1,0,0:0:0:0:
199,102,45372,1,0,0:0:0:0:
18,70,45536,1,0,0:0:0:0:
15,94,45618,1,0,0:0:0:0:
13,118,45700,1,0,0:0:0:0:
11,142,45783,1,0,0:0:0:0:
8,166,45866,2,0,B|51:194|51:194|147:173,1,150
230,186,46196,5,0,0:0:0:0:
253,181,46278,1,0,0:0:0:0:
277,177,46360,1,0,0:0:0:0:
425,152,46525,1,0,0:0:0:0:
330,35,46690,1,0,0:0:0:0:
420,250,47020,5,0,0:0:0:0:
395,252,47102,1,0,0:0:0:0:
372,256,47184,1,0,0:0:0:0:
348,260,47267,1,0,0:0:0:0:
324,264,47349,1,0,0:0:0:0:
330,35,47679,1,0,0:0:0:0:
135,78,47844,6,0,B|126:130|126:130|146:172,1,100
159,193,48091,1,0,0:0:0:0:
170,215,48174,1,0,0:0:0:0:
338,134,48394,1,0,0:0:0:0:
505,53,48613,1,0,0:0:0:0:
505,53,49823,5,0,0:0:0:0:
338,134,49987,1,0,0:0:0:0:
392,316,50152,1,0,0:0:0:0:
492,261,50317,2,0,P|412:205|319:232,1,200
269,293,50729,1,0,0:0:0:0:
269,293,50812,2,0,P|277:206|252:147,1,150
193,98,51141,5,0,0:0:0:0:
154,231,51305,1,0,0:0:0:0:
52,134,51470,1,0,0:0:0:0:
176,310,51635,5,0,0:0:0:0:
133,156,51800,1,0,0:0:0:0:
176,310,51965,1,0,0:0:0:0:
20,270,52130,1,0,0:0:0:0:
231,209,52294,5,0,0:0:0:0:
107,248,52459,1,0,0:0:0:0:
231,209,52624,1,0,0:0:0:0:
208,337,52789,1,0,0:0:0:0:
282,148,52954,5,0,0:0:0:0:
184,268,53119,1,0,0:0:0:0:
282,148,53283,1,0,0:0:0:0:
341,289,53448,1,0,0:0:0:0:
167,162,53613,5,0,0:0:0:0:
269,238,53778,1,0,0:0:0:0:
167,162,53943,1,0,0:0:0:0:
285,107,54108,1,0,0:0:0:0:
87,156,54272,5,0,0:0:0:0:
241,166,54437,1,0,0:0:0:0:
87,156,54602,1,0,0:0:0:0:
175,34,54767,1,0,0:0:0:0:
156,247,54932,5,0,0:0:0:0:
166,118,55097,1,0,0:0:0:0:
156,247,55261,1,0,0:0:0:0:
44,180,55426,1,0,0:0:0:0:
191,317,55591,5,0,0:0:0:0:
121,176,55756,1,0,0:0:0:0:
191,317,55921,1,0,0:0:0:0:
282,185,56086,1,0,0:0:0:0:
84,284,56250,5,0,0:0:0:0:
206,229,56415,1,0,0:0:0:0:
307,310,56580,1,0,0:0:0:0:
187,360,56745,1,0,0:0:0:0:
315,202,56910,5,0,0:0:0:0:
235,303,57075,1,0,0:0:0:0:
315,202,57239,1,0,0:0:0:0:
387,310,57404,1,0,0:0:0:0:
315,122,57569,5,0,0:0:0:0:
314,282,57734,1,0,0:0:0:0:
315,122,57899,1,0,0:0:0:0:
452,203,58064,1,0,0:0:0:0:
430,75,58228,5,0,0:0:0:0:
365,204,58393,1,0,0:0:0:0:
430,75,58558,1,0,0:0:0:0:
284,77,58723,1,0,0:0:0:0:
365,204,58888,5,0,0:0:0:0:
359,119,59053,1,0,0:0:0:0:
365,204,59217,1,0,0:0:0:0:
354,31,59382,1,0,0:0:0:0:
212,125,59547,5,0,0:0:0:0:
291,252,59712,1,0,0:0:0:0:
212,125,59877,1,0,0:0:0:0:
139,256,60042,1,0,0:0:0:0:
307,154,60206,5,0,0:0:0:0:
215,213,60371,1,0,0:0:0:0:
119,158,60536,1,0,0:0:0:0:
219,317,60701,1,0,0:0:0:0:
212,125,60866,5,0,0:0:0:0:
212,125,61031,1,0,0:0:0:0:
42,243,61195,2,0,B|72:235|72:235|138:255,1,100
172,266,61443,1,0,0:0:0:0:
205,276,61525,1,0,0:0:0:0:
238,287,61608,1,0,0:0:0:0:
270,298,61690,5,0,0:0:0:0:
307,154,61855,1,0,0:0:0:0:
250,14,62020,1,0,0:0:0:0:
145,120,62184,5,0,0:0:0:0:
208,184,62349,1,0,0:0:0:0:
233,97,62514,1,0,0:0:0:0:
335,240,62679,1,0,0:0:0:0:
423,264,62844,5,0,0:0:0:0:
307,154,63009,1,0,0:0:0:0:
270,298,63174,1,0,0:0:0:0:
170,186,63338,1,0,0:0:0:0:
248,217,63503,5,0,0:0:0:0:
270,298,63668,1,0,0:0:0:0:
188,281,63833,1,0,0:0:0:0:
395,172,63998,5,0,0:0:0:0:
351,339,64162,1,0,0:0:0:0:
178,361,64327,1,0,0:0:0:0:
94,212,64492,1,0,0:0:0:0:
248,217,64657,1,0,0:0:0:0:
77,321,64822,5,0,0:0:0:0:
71,120,64987,1,0,0:0:0:0:
77,321,65151,1,0,0:0:0:0:
248,217,65316,1,0,0:0:0:0:
126,220,65481,5,0,0:0:0:0:
212,354,65646,1,0,0:0:0:0:
126,220,65811,1,0,0:0:0:0:
286,214,65976,1,0,0:0:0:0:
109,326,66141,5,0,0:0:0:0:
273,299,66305,1,0,0:0:0:0:
353,269,66470,5,0,0:0:0:0:
206,247,66634,1,0,0:0:0:0:
198,212,66717,1,0,0:0:0:0:
206,177,66800,1,0,0:0:0:0:
229,151,66882,1,0,0:0:0:0:
261,137,66965,5,0,0:0:0:0:
378,43,67130,1,0,0:0:0:0:
402,190,67294,1,0,0:0:0:0:
498,115,67459,5,0,0:0:0:0:
348,124,67624,1,0,0:0:0:0:
297,265,67789,1,0,0:0:0:0:
447,265,67954,1,0,0:0:0:0:
402,190,68119,5,0,0:0:0:0:
364,334,68283,1,0,0:0:0:0:
213,334,68448,1,0,0:0:0:0:
241,186,68613,1,0,0:0:0:0:
297,265,68778,5,0,0:0:0:0:
157,251,68943,1,0,0:0:0:0:
157,170,69108,1,0,0:0:0:0:
104,110,69272,1,0,0:0:0:0:
104,110,69355,1,0,0:0:0:0:
104,110,69437,1,0,0:0:0:0:
104,110,69520,1,0,0:0:0:0:
104,110,69602,5,0,0:0:0:0:
82,188,69767,1,0,0:0:0:0:
157,170,69932,1,0,0:0:0:0:
136,247,70097,1,0,0:0:0:0:
183,90,70261,5,0,0:0:0:0:
59,264,70426,1,0,0:0:0:0:
22,135,70591,5,0,0:0:0:0:
213,226,70756,1,0,0:0:0:0:
237,220,70838,1,0,0:0:0:0:
261,214,70921,6,0,B|437:162|437:162|430:171|430:182,1,200
453,251,71415,1,0,0:0:0:0:
512,195,71580,1,0,0:0:0:0:
478,86,71745,1,0,0:0:0:0:
369,20,71910,1,0,0:0:0:0:
188,9,72075,1,0,0:0:0:0:
11,119,72239,6,0,L|59:316,1,200
90,38,72734,2,0,L|113:135,1,100
152,290,73064,1,0,0:0:0:0:
264,248,73229,2,0,B|230:366|230:366|249:346,1,150
284,230,73558,5,0,0:0:0:0:
284,230,73888,6,0,P|243:168|252:95,1,150
269,73,74218,1,0,0:0:0:0:
467,57,74383,6,0,P|434:122|366:151,1,150
338,148,74713,1,0,0:0:0:0:
489,333,74878,6,0,P|471:286|436:251,1,100
409,240,75125,1,0,0:0:0:0:
382,239,75208,1,0,0:0:0:0:
186,343,75372,1,0,0:0:0:0:
366,151,75537,1,0,0:0:0:0:
166,238,75701,1,0,0:0:0:0:
282,352,75867,5,0,0:0:0:0:
299,316,75949,1,0,0:0:0:0:
297,276,76031,1,0,0:0:0:0:
277,240,76114,1,0,0:0:0:0:
242,219,76196,1,0,0:0:0:0:
201,219,76279,1,0,0:0:0:0:
166,238,76361,5,0,0:0:0:0:
203,260,76443,1,0,0:0:0:0:
243,260,76526,1,0,0:0:0:0:
277,240,76608,1,0,0:0:0:0:
294,203,76691,1,0,0:0:0:0:
291,163,76773,1,0,0:0:0:0:
263,133,76856,5,0,0:0:0:0:
247,96,76938,1,0,0:0:0:0:
255,57,77020,1,0,0:0:0:0:
286,31,77103,1,0,0:0:0:0:
325,36,77185,1,0,0:0:0:0:
420,168,77515,6,0,B|370:163|334:186|334:186|299:170|299:170|264:193|217:188,2,209.999993591309
395,261,78669,1,0,0:0:0:0:
397,267,78724,1,0,0:0:0:0:
399,273,78779,1,0,0:0:0:0:
396,296,78834,5,0,0:0:0:0:
233,283,79163,6,0,L|61:300,1,150
49,300,79492,1,0,0:0:0:0:
47,20,79657,2,0,P|115:88|99:184,1,200
308,204,80152,2,0,P|266:176|218:172,1,100
177,364,80481,6,0,P|250:363|302:312,1,150
314,279,80811,1,0,0:0:0:0:
179,260,80976,2,0,L|207:62,1,200
484,180,81470,2,0,P|450:217|404:231,1,100
207,61,81800,6,0,P|280:61|332:112,1,150
344,146,82130,1,0,0:0:0:0:
504,90,82294,2,0,P|453:92|411:70,1,100
145,172,82624,2,0,P|195:174|237:152,1,100
409,329,82954,2,0,P|341:259|246:273,1,200
305,366,83448,1,0,0:0:0:0:
500,278,83613,6,0,L|480:159,1,100
475,144,83860,1,0,0:0:0:0:
469,109,83942,1,0,0:0:0:0:
463,74,84024,1,0,0:0:0:0:
457,39,84108,1,0,0:0:0:0:
276,20,84272,1,0,0:0:0:0:
122,97,84437,6,0,B|107:142|107:142|128:242,1,150
137,277,84767,1,0,0:0:0:0:
222,124,84932,2,0,P|317:110|384:179,1,200
234,346,85426,2,0,P|224:297|240:250,1,100
496,295,85756,6,0,B|451:280|451:280|350:301,1,150
316,309,86086,1,0,0:0:0:0:
79,138,86250,2,0,L|121:333,1,200
222,124,86745,1,0,0:0:0:0:
222,321,86910,1,0,0:0:0:0:
144,71,87075,6,0,P|203:28|275:39,1,150
304,59,87405,1,0,0:0:0:0:
55,46,87569,2,0,P|54:95|79:138,1,100
337,228,87899,2,0,P|294:203|244:203,1,100
55,362,88228,6,0,B|59:308|103:277|103:277|145:249|154:196,1,200
247,333,88723,1,0,0:0:0:0:
222,124,88888,1,0,0:0:0:0:
222,124,88970,1,0,0:0:0:0:
222,124,89053,5,0,0:0:0:0:
244,113,89135,1,0,0:0:0:0:
268,108,89217,1,0,0:0:0:0:
293,110,89300,1,0,0:0:0:0:
315,119,89382,1,0,0:0:0:0:
341,161,89465,1,0,0:0:0:0:
389,172,89547,1,0,0:0:0:0:
434,150,89630,1,0,0:0:0:0:
440,100,89712,6,0,B|399:41|399:41|306:24,1,150
287,22,90042,1,0,0:0:0:0:
59,179,90206,2,0,P|154:192|221:123,1,200
92,0,90701,2,0,P|91:49|116:92,1,100
266,242,91031,6,0,L|438:259,1,150
450,259,91360,1,0,0:0:0:0:
508,83,91525,2,0,P|412:69|345:138,1,200
76,111,92020,2,0,P|118:85|167:85,1,100
144,180,92349,6,0,P|101:239|112:311,1,150
132,340,92679,1,0,0:0:0:0:
236,153,92844,2,0,P|211:110|168:85,1,100
194,259,93173,2,0,P|242:267|289:250,1,100
442,21,93503,2,0,L|466:219,1,200
484,360,93998,1,0,0:0:0:0:
364,194,94163,1,0,0:0:0:0:
364,194,94245,1,0,0:0:0:0:
364,194,94327,5,0,0:0:0:0:
349,173,94410,1,0,0:0:0:0:
327,160,94492,1,0,0:0:0:0:
302,155,94575,1,0,0:0:0:0:
277,158,94657,1,0,0:0:0:0:
194,259,94822,1,0,0:0:0:0:
360,296,94987,6,0,P|429:271|461:206,1,150
460,170,95317,1,0,0:0:0:0:
308,31,95481,2,0,P|294:126|363:193,1,200
282,351,95976,2,0,P|262:305|268:256,1,100
485,81,96305,6,0,L|386:92,1,100
350,96,96553,1,0,0:0:0:0:
315,99,96635,1,0,0:0:0:0:
43,29,96800,2,0,P|91:21|137:40,1,100
165,62,97047,1,0,0:0:0:0:
182,92,97130,1,0,0:0:0:0:
188,126,97212,1,0,0:0:0:0:
186,160,97294,5,0,0:0:0:0:
192,209,97377,1,0,0:0:0:0:
198,258,97459,1,0,0:0:0:0:
204,307,97542,1,0,0:0:0:0:
210,356,97624,6,0,L|359:365,1,150
394,372,97954,1,0,0:0:0:0:
192,209,98119,6,0,L|92:205,1,100
55,203,98367,1,0,0:0:0:0:
20,202,98449,1,0,0:0:0:0:
330,258,98613,5,0,0:0:0:0:
364,256,98695,1,0,0:0:0:0:
399,255,98777,1,0,0:0:0:0:
435,253,98861,1,0,0:0:0:0:
470,252,98943,2,0,L|439:151,1,100
433,129,99190,1,0,0:0:0:0:
425,99,99272,1,0,0:0:0:0:
263,21,99437,1,0,0:0:0:0:
185,182,99602,5,0,0:0:0:0:
196,133,99684,1,0,0:0:0:0:
235,102,99767,1,0,0:0:0:0:
284,101,99849,1,0,0:0:0:0:
325,129,99932,1,0,0:0:0:0:
353,138,100014,1,0,0:0:0:0:
382,133,100097,1,0,0:0:0:0:
406,116,100179,1,0,0:0:0:0:
424,88,100262,5,0,0:0:0:0:
420,112,100344,1,0,0:0:0:0:
416,136,100426,1,0,0:0:0:0:
388,283,100591,1,0,0:0:0:0:
269,183,100756,1,0,0:0:0:0:
265,207,100838,1,0,0:0:0:0:
261,231,100920,1,0,0:0:0:0:
284,101,101086,1,0,0:0:0:0:
162,37,101251,5,0,0:0:0:0:
158,61,101333,1,0,0:0:0:0:
154,85,101415,1,0,0:0:0:0:
126,232,101745,1,0,0:0:0:0:
244,326,101910,1,0,0:0:0:0:
272,179,102075,5,0,0:0:0:0:
276,155,102157,1,0,0:0:0:0:
280,131,102239,1,0,0:0:0:0:
284,107,102322,1,0,0:0:0:0:
288,83,102404,1,0,0:0:0:0:
292,59,102487,1,0,0:0:0:0:
296,34,102569,2,0,P|370:39|424:89,1,150
463,162,102899,5,0,0:0:0:0:
439,166,102981,1,0,0:0:0:0:
415,170,103063,1,0,0:0:0:0:
268,198,103228,1,0,0:0:0:0:
128,250,103393,2,0,P|72:187|92:106,1,150
116,90,103723,5,0,0:0:0:0:
140,86,103805,1,0,0:0:0:0:
164,82,103887,1,0,0:0:0:0:
188,78,103971,1,0,0:0:0:0:
212,74,104053,1,0,0:0:0:0:
268,198,104382,1,0,0:0:0:0:
121,226,104547,1,0,0:0:0:0:
252,322,104712,5,0,0:0:0:0:
276,318,104794,1,0,0:0:0:0:
300,314,104876,1,0,0:0:0:0:
324,310,104959,1,0,0:0:0:0:
348,306,105041,1,0,0:0:0:0:
372,302,105124,1,0,0:0:0:0:
397,298,105206,2,0,P|393:224|343:170,1,150
269,131,105536,5,0,0:0:0:0:
265,155,105618,1,0,0:0:0:0:
261,179,105700,1,0,0:0:0:0:
233,326,105865,1,0,0:0:0:0:
121,226,106031,1,0,0:0:0:0:
125,202,106113,1,0,0:0:0:0:
129,178,106195,1,0,0:0:0:0:
110,307,106360,1,0,0:0:0:0:
254,253,106525,5,0,0:0:0:0:
278,257,106607,1,0,0:0:0:0:
302,261,106689,1,0,0:0:0:0:
400,156,107020,1,0,0:0:0:0:
343,42,107185,1,0,0:0:0:0:
246,130,107349,1,0,0:0:0:0:
223,112,107431,1,0,0:0:0:0:
197,98,107513,1,0,0:0:0:0:
168,87,107596,1,0,0:0:0:0:
139,83,107678,1,0,0:0:0:0:
109,83,107761,1,0,0:0:0:0:
80,95,107844,6,0,B|63:198|63:198|96:244,1,150
131,307,108174,5,0,0:0:0:0:
155,311,108256,1,0,0:0:0:0:
179,315,108338,1,0,0:0:0:0:
328,339,108503,1,0,0:0:0:0:
399,194,108668,2,0,P|447:250|447:324,1,150
424,355,108998,5,0,0:0:0:0:
400,351,109080,1,0,0:0:0:0:
376,347,109162,1,0,0:0:0:0:
352,343,109245,1,0,0:0:0:0:
328,339,109327,1,0,0:0:0:0:
126,217,109657,1,0,0:0:0:0:
276,198,109822,1,0,0:0:0:0:
180,82,109987,5,0,0:0:0:0:
184,106,110069,1,0,0:0:0:0:
188,130,110151,1,0,0:0:0:0:
192,154,110234,1,0,0:0:0:0:
196,178,110316,1,0,0:0:0:0:
200,202,110399,1,0,0:0:0:0:
204,227,110481,2,0,B|302:213|302:213|348:247,1,150
364,164,110811,5,0,0:0:0:0:
368,140,110893,1,0,0:0:0:0:
372,116,110975,1,0,0:0:0:0:
337,321,111141,1,0,0:0:0:0:
281,114,111305,1,0,0:0:0:0:
277,90,111387,1,0,0:0:0:0:
273,66,111469,1,0,0:0:0:0:
240,350,111800,5,0,0:0:0:0:
229,328,111882,1,0,0:0:0:0:
217,307,111964,1,0,0:0:0:0:
230,208,112130,1,0,0:0:0:0:
133,173,112294,1,0,0:0:0:0:
125,269,112459,1,0,0:0:0:0:
39,36,112624,5,0,0:0:0:0:
63,30,112706,1,0,0:0:0:0:
87,25,112789,1,0,0:0:0:0:
111,21,112871,1,0,0:0:0:0:
135,17,112953,1,0,0:0:0:0:
159,13,113036,1,0,0:0:0:0:
183,9,113119,2,0,B|214:50|214:50|200:148,1,150
272,169,113448,5,0,0:0:0:0:
261,191,113530,1,0,0:0:0:0:
249,212,113612,1,0,0:0:0:0:
345,27,113778,1,0,0:0:0:0:
473,105,113943,1,0,0:0:0:0:
410,246,114108,1,0,0:0:0:0:
290,87,114272,5,0,0:0:0:0:
311,100,114354,1,0,0:0:0:0:
331,113,114436,1,0,0:0:0:0:
351,127,114519,1,0,0:0:0:0:
372,140,114601,1,0,0:0:0:0:
268,239,114767,1,0,0:0:0:0:
411,284,114932,1,0,0:0:0:0:
268,239,115097,1,0,0:0:0:0:
124,327,115261,1,0,0:0:0:0:
121,317,115344,1,0,0:0:0:0:
119,308,115426,5,0,0:0:0:0:
127,285,115508,1,0,0:0:0:0:
135,262,115590,1,0,0:0:0:0:
143,239,115673,1,0,0:0:0:0:
135,211,115755,1,0,0:0:0:0:
140,196,115838,1,0,0:0:0:0:
146,182,115920,1,0,0:0:0:0:
151,168,116003,1,0,0:0:0:0:
145,153,116086,5,0,0:0:0:0:
162,122,116168,1,0,0:0:0:0:
181,92,116251,1,0,0:0:0:0:
289,165,116415,1,0,0:0:0:0:
300,41,116580,1,0,0:0:0:0:
324,48,116662,1,0,0:0:0:0:
348,55,116745,1,0,0:0:0:0:
206,334,117075,5,0,0:0:0:0:
230,341,117157,1,0,0:0:0:0:
254,348,117240,1,0,0:0:0:0:
191,255,117404,1,0,0:0:0:0:
258,195,117569,1,0,0:0:0:0:
108,210,117734,1,0,0:0:0:0:
287,275,117899,5,0,0:0:0:0:
311,271,117981,1,0,0:0:0:0:
335,267,118063,1,0,0:0:0:0:
359,263,118146,1,0,0:0:0:0:
383,259,118228,1,0,0:0:0:0:
407,255,118311,1,0,0:0:0:0:
432,251,118393,2,0,P|427:177|377:123,1,150
396,41,118723,5,0,0:0:0:0:
372,48,118806,1,0,0:0:0:0:
348,55,118888,1,0,0:0:0:0:
205,10,119053,1,0,0:0:0:0:
233,157,119218,1,0,0:0:0:0:
140,286,119382,5,0,0:0:0:0:
209,159,119547,1,0,0:0:0:0:
277,27,119712,1,0,0:0:0:0:
84,175,119877,6,0,B|134:165|134:165|160:191|160:191|223:184|272:220,1,200
303,226,120289,1,0,0:0:0:0:
337,225,120371,1,0,0:0:0:0:
365,204,120454,1,0,0:0:0:0:
383,174,120536,1,0,0:0:0:0:
378,139,120619,1,0,0:0:0:0:
355,112,120701,5,0,0:0:0:0:
390,310,120866,1,0,0:0:0:0:
191,339,121031,1,0,0:0:0:0:
156,141,121196,1,0,0:0:0:0:
289,286,121360,6,0,P|212:227|120:255,1,200
44,92,121855,2,0,P|139:101|203:30,1,200
330,178,122349,2,0,P|332:127|310:85,1,100
191,339,122679,6,0,L|363:356,1,150
375,356,123008,1,0,0:0:0:0:
435,214,123173,2,0,P|340:197|271:264,1,200
87,317,123668,1,0,0:0:0:0:
137,142,123833,1,0,0:0:0:0:
271,264,123998,6,0,L|257:164,1,100
254,129,124245,1,0,0:0:0:0:
251,94,124327,1,0,0:0:0:0:
466,320,124492,2,0,P|422:292|375:290,1,100
65,205,124822,2,0,P|108:232|155:234,1,100
379,10,125152,2,0,L|355:212,1,200
191,339,125646,1,0,0:0:0:0:
0,128,125811,6,0,L|119:108,1,100
134,103,126058,1,0,0:0:0:0:
169,97,126140,1,0,0:0:0:0:
204,91,126222,1,0,0:0:0:0:
239,85,126306,1,0,0:0:0:0:
355,208,126470,1,0,0:0:0:0:
188,244,126635,6,0,P|124:208|53:228,1,150
27,252,126965,1,0,0:0:0:0:
195,355,127130,2,0,P|281:312|297:217,1,200
203,41,127624,2,0,P|201:92|222:134,1,100
512,131,127954,6,0,B|467:146|467:146|366:125,1,150
332,117,128284,1,0,0:0:0:0:
457,281,128448,2,0,P|361:289|297:217,1,200
458,10,128943,2,0,P|460:61|438:103,1,100
297,217,129272,6,0,L|117:252,1,150
115,253,129602,1,0,0:0:0:0:
157,45,129767,2,0,L|207:141,1,100
396,221,130097,2,0,L|287:216,1,100
33,324,130426,2,0,P|96:251|192:260,1,200
137,357,130921,1,0,0:0:0:0:
279,319,131086,5,0,0:0:0:0:
313,316,131168,1,0,0:0:0:0:
347,314,131250,1,0,0:0:0:0:
382,312,131333,1,0,0:0:0:0:
416,311,131415,2,0,B|399:272|399:272|408:253|408:253|389:204,1,100
455,64,131745,1,0,0:0:0:0:
285,92,131910,6,0,P|234:94|192:72,1,100
175,52,132157,1,0,0:0:0:0:
163,29,132239,1,0,0:0:0:0:
48,233,132404,2,0,P|143:247|210:179,1,200
339,290,132899,2,0,P|311:246|309:199,1,100
274,353,133228,6,0,L|436:299,1,150
450,297,133558,1,0,0:0:0:0:
301,90,133723,2,0,P|390:124|415:217,1,200
102,130,134217,1,0,0:0:0:0:
308,199,134382,1,0,0:0:0:0:
329,4,134547,6,0,P|256:11|210:67,1,150
200,101,134877,1,0,0:0:0:0:
351,283,135042,2,0,P|339:233|307:198,1,100
84,230,135371,2,0,P|132:245|179:234,1,100
432,209,135701,2,0,L|233:181,1,200
79,333,136195,1,0,0:0:0:0:
192,338,136360,1,0,0:0:0:0:
192,338,136442,1,0,0:0:0:0:
192,338,136525,5,0,0:0:0:0:
204,316,136607,1,0,0:0:0:0:
210,292,136689,1,0,0:0:0:0:
209,267,136772,1,0,0:0:0:0:
201,245,136854,1,0,0:0:0:0:
161,217,136937,1,0,0:0:0:0:
152,168,137019,1,0,0:0:0:0:
177,124,137102,1,0,0:0:0:0:
223,107,137184,6,0,B|258:75|258:75|359:55,1,150
394,49,137514,1,0,0:0:0:0:
459,316,137679,2,0,P|369:281|344:188,1,200
453,206,138173,1,0,0:0:0:0:
260,294,138338,1,0,0:0:0:0:
415,113,138503,6,0,P|348:83|280:108,1,150
254,132,138833,1,0,0:0:0:0:
167,337,138998,2,0,L|172:237,1,100
187,27,139327,5,0,0:0:0:0:
260,294,139492,1,0,0:0:0:0:
187,27,139657,1,0,0:0:0:0:
31,157,139822,5,0,0:0:0:0:
55,160,139904,1,0,0:0:0:0:
80,163,139986,1,0,0:0:0:0:
105,167,140069,1,0,0:0:0:0:
130,170,140152,1,0,0:0:0:0:
303,125,140316,1,0,0:0:0:0:
278,128,140399,1,0,0:0:0:0:
254,132,140482,1,0,0:0:0:0:
409,235,140646,2,0,P|460:237|502:215,1,100
371,323,140976,6,0,L|393:124,1,200
275,271,141470,1,0,0:0:0:0:
371,323,141635,1,0,0:0:0:0:
284,146,141800,1,0,0:0:0:0:
250,109,141882,1,0,0:0:0:0:
200,97,141965,1,0,0:0:0:0:
154,116,142047,1,0,0:0:0:0:
128,159,142130,1,0,0:0:0:0:
106,170,142212,1,0,0:0:0:0:
82,175,142295,1,0,0:0:0:0:
57,172,142377,1,0,0:0:0:0:
34,164,142459,5,0,0:0:0:0:
63,264,142789,1,0,0:0:0:0:
70,76,142954,1,0,0:0:0:0:
165,280,143284,1,0,0:0:0:0:
186,235,143366,1,0,0:0:0:0:
208,190,143449,1,0,0:0:0:0:
385,335,143778,6,0,P|412:331|441:315,3,50
385,248,144108,1,0,0:0:0:0:
364,260,144438,5,0,0:0:0:0:
340,249,144521,1,0,0:0:0:0:
316,246,144603,1,0,0:0:0:0:
291,253,144686,1,0,0:0:0:0:
270,267,144768,1,0,0:0:0:0:
254,288,144850,1,0,0:0:0:0:
191,239,144932,5,0,0:0:0:0:
193,213,145014,1,0,0:0:0:0:
204,190,145096,1,0,0:0:0:0:
221,170,145179,1,0,0:0:0:0:
243,160,145261,1,0,0:0:0:0:
267,156,145344,1,0,0:0:0:0:
355,152,145427,5,0,0:0:0:0:
351,128,145510,1,0,0:0:0:0:
341,106,145592,1,0,0:0:0:0:
321,89,145675,1,0,0:0:0:0:
298,78,145757,1,0,0:0:0:0:
272,76,145839,1,0,0:0:0:0:
191,91,145921,5,0,0:0:0:0:
169,104,146003,1,0,0:0:0:0:
145,113,146086,1,0,0:0:0:0:
120,116,146168,1,0,0:0:0:0:
95,111,146251,1,0,0:0:0:0:
72,101,146333,1,0,0:0:0:0:
52,84,146416,2,0,L|19:92,6,25
41,253,146745,2,0,L|141:231,1,100
445,251,147075,5,0,0:0:0:0:
212,342,147240,1,0,0:0:0:0:
241,93,147405,1,0,0:0:0:0:
300,222,147569,1,0,0:0:0:0:
300,222,147899,5,0,0:0:0:0:
241,93,148064,1,0,0:0:0:0:
212,342,148229,1,0,0:0:0:0:
329,129,148394,1,0,0:0:0:0:
445,251,148558,5,0,0:0:0:0:
443,363,148723,1,0,0:0:0:0:
406,178,148888,5,0,0:0:0:0:
344,316,149053,1,0,0:0:0:0:
414,89,149218,1,0,0:0:0:0:
198,216,149383,1,0,0:0:0:0:
439,273,149547,1,0,0:0:0:0:
240,92,149713,6,0,P|143:96|74:165,1,200
406,178,150207,2,0,P|452:194|503:191,1,100
322,29,150537,1,0,0:0:0:0:
324,78,150619,1,0,0:0:0:0:
327,128,150702,2,0,B|296:264|296:264|297:234|287:200,1,200
211,245,151361,5,0,0:0:0:0:
187,234,151444,1,0,0:0:0:0:
163,231,151526,1,0,0:0:0:0:
138,238,151609,1,0,0:0:0:0:
117,252,151691,1,0,0:0:0:0:
101,273,151773,1,0,0:0:0:0:
50,210,151855,5,0,0:0:0:0:
30,227,151937,1,0,0:0:0:0:
19,250,152019,1,0,0:0:0:0:
14,276,152102,1,0,0:0:0:0:
19,299,152184,1,0,0:0:0:0:
31,320,152267,1,0,0:0:0:0:
108,354,152350,5,0,0:0:0:0:
132,350,152433,1,0,0:0:0:0:
154,340,152515,1,0,0:0:0:0:
171,320,152598,1,0,0:0:0:0:
182,297,152680,1,0,0:0:0:0:
184,271,152762,1,0,0:0:0:0:
229,199,152844,5,0,0:0:0:0:
216,177,152926,1,0,0:0:0:0:
207,153,153009,1,0,0:0:0:0:
204,128,153091,1,0,0:0:0:0:
209,103,153174,1,0,0:0:0:0:
219,80,153256,1,0,0:0:0:0:
237,62,153339,5,0,0:0:0:0:
342,39,153503,1,0,0:0:0:0:
348,38,153558,1,0,0:0:0:0:
354,37,153613,1,0,0:0:0:0:
360,36,153668,1,0,0:0:0:0:
469,9,153833,1,0,0:0:0:0:
480,253,153998,5,0,0:0:0:0:
439,282,154080,1,0,0:0:0:0:
387,283,154163,1,0,0:0:0:0:
346,255,154245,1,0,0:0:0:0:
330,207,154328,1,0,0:0:0:0:
305,204,154410,1,0,0:0:0:0:
279,202,154493,1,0,0:0:0:0:
254,200,154575,1,0,0:0:0:0:
229,199,154657,5,0,0:0:0:0:
183,284,154987,1,0,0:0:0:0:
237,62,155152,1,0,0:0:0:0:
99,241,155482,1,0,0:0:0:0:
96,196,155564,1,0,0:0:0:0:
94,150,155647,1,0,0:0:0:0:
229,199,155811,1,0,0:0:0:0:
40,37,155976,1,0,0:0:0:0:
75,333,156306,5,0,0:0:0:0:
100,332,156636,5,0,0:0:0:0:
124,321,156719,1,0,0:0:0:0:
148,318,156801,1,0,0:0:0:0:
173,325,156884,1,0,0:0:0:0:
194,339,156966,1,0,0:0:0:0:
210,360,157048,1,0,0:0:0:0:
265,312,157130,5,0,0:0:0:0:
289,323,157213,1,0,0:0:0:0:
313,326,157295,1,0,0:0:0:0:
338,319,157378,1,0,0:0:0:0:
359,305,157460,1,0,0:0:0:0:
375,284,157542,1,0,0:0:0:0:
355,204,157625,5,0,0:0:0:0:
331,193,157708,1,0,0:0:0:0:
307,190,157790,1,0,0:0:0:0:
282,197,157873,1,0,0:0:0:0:
261,211,157955,1,0,0:0:0:0:
245,232,158037,1,0,0:0:0:0:
165,238,158119,5,0,0:0:0:0:
162,211,158202,1,0,0:0:0:0:
153,189,158284,1,0,0:0:0:0:
134,171,158367,1,0,0:0:0:0:
111,160,158449,1,0,0:0:0:0:
85,156,158531,1,0,0:0:0:0:
59,77,158614,5,0,0:0:0:0:
103,78,158696,1,0,0:0:0:0:
139,51,158778,1,0,0:0:0:0:
179,85,158861,1,0,0:0:0:0:
221,99,158943,1,0,0:0:0:0:
265,92,159025,1,0,0:0:0:0:
286,131,159108,1,0,0:0:0:0:
324,154,159190,1,0,0:0:0:0:
368,148,159272,5,0,0:0:0:0:
213,243,159438,1,0,0:0:0:0:
60,338,159603,1,0,0:0:0:0:
268,323,159767,1,0,0:0:0:0:
160,159,160015,1,0,0:0:0:0:
160,159,160097,1,0,0:0:0:0:
34,217,160262,5,0,0:0:0:0:
213,243,160428,1,0,0:0:0:0:
391,271,160593,1,0,0:0:0:0:
191,363,160756,1,0,0:0:0:0:
314,204,160921,5,0,0:0:0:0:
286,131,161031,1,0,0:0:0:0:
339,80,161141,1,0,0:0:0:0:
368,148,161251,5,0,0:0:0:0:
295,135,161361,1,0,0:0:0:0:
265,67,161471,1,0,0:0:0:0:
265,67,161581,1,0,0:0:0:0:
122,129,161745,1,0,0:0:0:0:
143,295,161910,5,0,0:0:0:0:
246,335,162239,1,0,0:0:0:0:
215,129,162404,1,0,0:0:0:0:
294,68,162734,1,0,0:0:0:0:
325,274,162899,5,0,0:0:0:0:
221,250,163118,1,0,0:0:0:0:
118,220,163338,1,0,0:0:0:0:
134,200,163559,5,0,0:0:0:0:
145,175,163642,1,0,0:0:0:0:
160,157,163724,1,0,0:0:0:0:
184,145,163807,1,0,0:0:0:0:
209,142,163889,1,0,0:0:0:0:
235,146,163971,1,0,0:0:0:0:
314,174,164053,5,0,0:0:0:0:
319,147,164136,1,0,0:0:0:0:
317,123,164218,1,0,0:0:0:0:
305,100,164301,1,0,0:0:0:0:
286,83,164383,1,0,0:0:0:0:
263,71,164465,1,0,0:0:0:0:
181,49,164548,5,0,0:0:0:0:
154,56,164631,1,0,0:0:0:0:
130,57,164713,1,0,0:0:0:0:
106,47,164796,1,0,0:0:0:0:
86,29,164877,2,0,P|63:22|38:23,1,50
97,246,165042,5,0,0:0:0:0:
100,218,165125,1,0,0:0:0:0:
98,194,165207,1,0,0:0:0:0:
85,171,165290,1,0,0:0:0:0:
66,155,165372,5,0,0:0:0:0:
115,149,165454,1,0,0:0:0:0:
165,145,165537,1,0,0:0:0:0:
339,184,165701,1,0,0:0:0:0:
297,359,165866,1,0,0:0:0:0:
123,320,166030,1,0,0:0:0:0:
260,273,166196,5,0,0:0:0:0:
285,262,166279,1,0,0:0:0:0:
308,259,166361,1,0,0:0:0:0:
334,266,166444,1,0,0:0:0:0:
354,281,166526,1,0,0:0:0:0:
370,302,166608,1,0,0:0:0:0:
421,287,166691,5,0,0:0:0:0:
425,261,166773,1,0,0:0:0:0:
422,236,166855,1,0,0:0:0:0:
410,212,166938,1,0,0:0:0:0:
392,197,167020,1,0,0:0:0:0:
367,186,167103,1,0,0:0:0:0:
348,144,167186,5,0,0:0:0:0:
322,152,167268,1,0,0:0:0:0:
297,153,167350,1,0,0:0:0:0:
272,144,167433,1,0,0:0:0:0:
254,128,167515,1,0,0:0:0:0:
240,105,167598,1,0,0:0:0:0:
203,120,167680,5,0,0:0:0:0:
178,109,167762,1,0,0:0:0:0:
153,105,167844,1,0,0:0:0:0:
127,111,167927,1,0,0:0:0:0:
107,124,168009,1,0,0:0:0:0:
90,145,168092,1,0,0:0:0:0:
86,172,168175,2,0,L|89:215,6,25
117,12,168504,2,0,B|168:8|168:8|212:27,1,100
55,180,168834,5,0,0:0:0:0:
228,107,168999,1,0,0:0:0:0:
228,107,169164,1,0,0:0:0:0:
102,304,169328,5,0,0:0:0:0:
306,127,169493,1,0,0:0:0:0:
243,308,169658,1,0,0:0:0:0:
436,270,169823,1,0,0:0:0:0:
291,52,169988,1,0,0:0:0:0:
331,232,170153,5,0,0:0:0:0:
212,27,170317,1,0,0:0:0:0:
243,308,170482,1,0,0:0:0:0:
146,121,170647,1,0,0:0:0:0:
53,307,170812,6,0,P|27:305|5:296,2,50
77,299,171059,1,0,0:0:0:0:
95,282,171142,1,0,0:0:0:0:
328,319,171306,1,0,0:0:0:0:
379,136,171471,5,0,0:0:0:0:
366,87,171554,1,0,0:0:0:0:
321,64,171636,1,0,0:0:0:0:
271,64,171718,1,0,0:0:0:0:
236,100,171801,1,0,0:0:0:0:
231,149,171883,1,0,0:0:0:0:
258,190,171966,5,0,0:0:0:0:
250,239,172048,1,0,0:0:0:0:
224,281,172131,1,0,0:0:0:0:
176,294,172213,1,0,0:0:0:0:
129,276,172295,1,0,0:0:0:0:
104,231,172378,1,0,0:0:0:0:
112,182,172460,5,0,0:0:0:0:
134,227,172543,1,0,0:0:0:0:
129,276,172625,1,0,0:0:0:0:
120,324,172707,1,0,0:0:0:0:
146,366,172790,1,0,0:0:0:0:
194,375,172872,1,0,0:0:0:0:
241,357,172955,5,0,0:0:0:0:
278,324,173037,1,0,0:0:0:0:
328,319,173120,1,0,0:0:0:0:
372,341,173202,1,0,0:0:0:0:
421,334,173284,1,0,0:0:0:0:
445,289,173367,1,0,0:0:0:0:
432,240,173449,5,0,0:0:0:0:
388,215,173532,1,0,0:0:0:0:
339,226,173614,1,0,0:0:0:0:
314,274,173697,1,0,0:0:0:0:
328,319,173779,5,0,0:0:0:0:
280,334,173861,1,0,0:0:0:0:
236,308,173944,1,0,0:0:0:0:
223,259,174026,1,0,0:0:0:0:
249,216,174109,5,0,0:0:0:0:
223,258,174191,1,0,0:0:0:0:
175,273,174273,1,0,0:0:0:0:
127,257,174356,1,0,0:0:0:0:
100,214,174438,1,0,0:0:0:0:
107,164,174521,1,0,0:0:0:0:
145,132,174603,5,0,0:0:0:0:
96,117,174686,1,0,0:0:0:0:
46,125,174768,1,0,0:0:0:0:
11,160,174850,1,0,0:0:0:0:
5,210,174933,1,0,0:0:0:0:
26,257,175015,1,0,0:0:0:0:
44,304,175098,2,0,L|35:340,6,25
100,214,175427,5,0,0:0:0:0:
203,341,176746,5,0,0:0:0:0:
237,345,176828,1,0,0:0:0:0:
272,349,176911,1,0,0:0:0:0:
306,353,176993,1,0,0:0:0:0:
341,357,177076,1,0,0:0:0:0:
134,333,177405,5,0,0:0:0:0:
168,337,177488,1,0,0:0:0:0:
203,341,177571,1,0,0:0:0:0:
341,357,177900,1,0,0:0:0:0:
167,246,178065,5,0,0:0:0:0:
200,241,178147,1,0,0:0:0:0:
235,235,178230,1,0,0:0:0:0:
269,230,178312,1,0,0:0:0:0:
304,225,178395,1,0,0:0:0:0:
98,256,178724,5,0,0:0:0:0:
132,251,178807,1,0,0:0:0:0:
167,246,178890,1,0,0:0:0:0:
304,225,179219,1,0,0:0:0:0:
112,164,179383,5,0,0:0:0:0:
142,150,179465,1,0,0:0:0:0:
174,135,179548,1,0,0:0:0:0:
206,122,179630,1,0,0:0:0:0:
238,108,179713,1,0,0:0:0:0:
47,191,180042,5,0,0:0:0:0:
79,177,180125,1,0,0:0:0:0:
112,164,180208,1,0,0:0:0:0:
238,108,180537,1,0,0:0:0:0:
33,86,180702,5,0,0:0:0:0:
70,92,180784,1,0,0:0:0:0:
102,78,180867,1,0,0:0:0:0:
123,50,180949,1,0,0:0:0:0:
125,14,181032,1,0,0:0:0:0:
438,135,181361,5,0,0:0:0:0:
403,141,181443,1,0,0:0:0:0:
371,127,181526,1,0,0:0:0:0:
350,99,181608,1,0,0:0:0:0:
348,63,181691,1,0,0:0:0:0:
348,63,182021,5,0,0:0:0:0:
359,93,182103,1,0,0:0:0:0:
371,127,182186,1,0,0:0:0:0:
381,160,182268,1,0,0:0:0:0:
392,192,182351,1,0,0:0:0:0:
494,37,182680,5,0,0:0:0:0:
464,48,182762,1,0,0:0:0:0:
430,60,182845,1,0,0:0:0:0:
392,192,183175,1,0,0:0:0:0:
275,109,183339,5,0,0:0:0:0:
245,120,183421,1,0,0:0:0:0:
211,132,183504,1,0,0:0:0:0:
178,142,183586,1,0,0:0:0:0:
146,153,183669,1,0,0:0:0:0:
301,255,183998,5,0,0:0:0:0:
290,225,184080,1,0,0:0:0:0:
278,191,184163,1,0,0:0:0:0:
146,153,184493,1,0,0:0:0:0:
52,324,184658,5,0,0:0:0:0:
82,313,184740,1,0,0:0:0:0:
116,301,184823,1,0,0:0:0:0:
149,291,184905,1,0,0:0:0:0:
181,280,184988,1,0,0:0:0:0:
26,178,185317,5,0,0:0:0:0:
37,208,185399,1,0,0:0:0:0:
49,242,185482,1,0,0:0:0:0:
181,280,185812,1,0,0:0:0:0:
162,122,185977,5,0,0:0:0:0:
131,89,186059,1,0,0:0:0:0:
89,71,186142,1,0,0:0:0:0:
44,69,186224,1,0,0:0:0:0:
2,84,186306,1,0,0:0:0:0:
301,255,186636,5,0,0:0:0:0:
332,222,186718,1,0,0:0:0:0:
374,204,186801,1,0,0:0:0:0:
419,202,186883,1,0,0:0:0:0:
461,217,186965,1,0,0:0:0:0:
360,373,187295,5,0,0:0:0:0:
325,368,187378,1,0,0:0:0:0:
290,363,187460,1,0,0:0:0:0:
255,358,187543,1,0,0:0:0:0:
220,354,187625,1,0,0:0:0:0:
476,311,187955,5,0,0:0:0:0:
441,306,188038,1,0,0:0:0:0:
406,302,188120,1,0,0:0:0:0:
308,286,188284,1,0,0:0:0:0:
196,249,188449,1,0,0:0:0:0:
334,82,188614,5,0,0:0:0:0:
347,114,188697,1,0,0:0:0:0:
360,147,188779,1,0,0:0:0:0:
373,180,188862,1,0,0:0:0:0:
387,212,188944,1,0,0:0:0:0:
222,12,189274,5,0,0:0:0:0:
235,45,189357,1,0,0:0:0:0:
249,77,189439,1,0,0:0:0:0:
263,108,189521,1,0,0:0:0:0:
279,138,189603,1,0,0:0:0:0:
308,286,189768,1,0,0:0:0:0:
95,250,189933,5,0,0:0:0:0:
116,222,190016,1,0,0:0:0:0:
138,194,190098,1,0,0:0:0:0:
160,167,190181,1,0,0:0:0:0:
181,139,190263,1,0,0:0:0:0:
90,381,190593,5,0,0:0:0:0:
112,354,190676,1,0,0:0:0:0:
133,326,190758,1,0,0:0:0:0:
196,249,190922,1,0,0:0:0:0:
284,170,191087,1,0,0:0:0:0:
103,98,191251,5,0,0:0:0:0:
61,96,191334,1,0,0:0:0:0:
29,119,191416,1,0,0:0:0:0:
16,157,191499,1,0,0:0:0:0:
28,194,191581,1,0,0:0:0:0:
284,170,191911,5,0,0:0:0:0:
242,172,191994,1,0,0:0:0:0:
210,149,192076,1,0,0:0:0:0:
197,111,192159,1,0,0:0:0:0:
209,74,192241,1,0,0:0:0:0:
406,49,192570,5,0,0:0:0:0:
400,88,192653,1,0,0:0:0:0:
395,127,192735,1,0,0:0:0:0:
390,166,192817,1,0,0:0:0:0:
385,206,192900,1,0,0:0:0:0:
314,352,193229,5,0,0:0:0:0:
309,313,193311,1,0,0:0:0:0:
304,273,193394,1,0,0:0:0:0:
285,175,193559,1,0,0:0:0:0:
408,304,193724,1,0,0:0:0:0:
218,338,193889,5,0,0:0:0:0:
179,332,193972,1,0,0:0:0:0:
140,327,194054,1,0,0:0:0:0:
101,322,194136,1,0,0:0:0:0:
61,317,194219,1,0,0:0:0:0:
1,167,194548,5,0,0:0:0:0:
40,162,194630,1,0,0:0:0:0:
80,157,194713,1,0,0:0:0:0:
179,139,194878,1,0,0:0:0:0:
61,317,195043,1,0,0:0:0:0:
274,331,195207,5,0,0:0:0:0:
268,292,195290,1,0,0:0:0:0:
263,253,195372,1,0,0:0:0:0:
258,214,195454,1,0,0:0:0:0:
253,174,195537,1,0,0:0:0:0:
340,16,195867,1,0,0:0:0:0:
345,55,195949,1,0,0:0:0:0:
350,95,196032,1,0,0:0:0:0:
54,165,196197,5,0,0:0:0:0:
91,151,196279,1,0,0:0:0:0:
128,137,196361,1,0,0:0:0:0:
165,123,196444,1,0,0:0:0:0:
203,114,196526,5,0,0:0:0:0:
226,123,196609,1,0,0:0:0:0:
244,139,196691,1,0,0:0:0:0:
252,162,196773,1,0,0:0:0:0:
252,187,196856,1,0,0:0:0:0:
288,172,196938,1,0,0:0:0:0:
325,186,197021,1,0,0:0:0:0:
341,222,197103,1,0,0:0:0:0:
327,259,197186,5,0,0:0:0:0:
331,283,197268,1,0,0:0:0:0:
346,302,197350,1,0,0:0:0:0:
370,308,197433,1,0,0:0:0:0:
393,299,197515,1,0,0:0:0:0:
406,277,197598,1,0,0:0:0:0:
428,266,197680,1,0,0:0:0:0:
452,270,197762,1,0,0:0:0:0:
470,287,197845,5,0,0:0:0:0:
450,246,197927,1,0,0:0:0:0:
440,201,198010,1,0,0:0:0:0:
452,158,198092,1,0,0:0:0:0:
483,125,198175,1,0,0:0:0:0:
480,80,198257,1,0,0:0:0:0:
454,43,198339,1,0,0:0:0:0:
409,34,198422,1,0,0:0:0:0:
369,55,198504,1,0,0:0:0:0:
349,96,198587,1,0,0:0:0:0:
359,139,198669,1,0,0:0:0:0:
352,183,198751,1,0,0:0:0:0:
315,210,198834,1,0,0:0:0:0:
271,197,198916,1,0,0:0:0:0:
251,156,198999,1,0,0:0:0:0:
254,111,199081,1,0,0:0:0:0:
226,75,199164,5,0,0:0:0:0:
185,55,199246,1,0,0:0:0:0:
140,51,199328,1,0,0:0:0:0:
100,72,199411,1,0,0:0:0:0:
71,106,199493,1,0,0:0:0:0:
89,147,199576,1,0,0:0:0:0:
86,191,199658,1,0,0:0:0:0:
60,227,199740,1,0,0:0:0:0:
16,238,199823,1,0,0:0:0:0:
44,203,199905,1,0,0:0:0:0:
86,191,199988,1,0,0:0:0:0:
129,199,200070,1,0,0:0:0:0:
161,230,200153,1,0,0:0:0:0:
195,258,200235,1,0,0:0:0:0:
238,268,200317,1,0,0:0:0:0:
280,253,200400,1,0,0:0:0:0:
310,220,200482,5,0,0:0:0:0:
303,175,200565,1,0,0:0:0:0:
300,130,200647,1,0,0:0:0:0:
311,86,200729,1,0,0:0:0:0:
337,49,200812,1,0,0:0:0:0:
379,34,200894,1,0,0:0:0:0:
423,43,200977,1,0,0:0:0:0:
456,73,201059,1,0,0:0:0:0:
462,117,201142,1,0,0:0:0:0:
449,160,201224,1,0,0:0:0:0:
414,188,201306,1,0,0:0:0:0:
368,188,201389,1,0,0:0:0:0:
328,167,201471,1,0,0:0:0:0:
300,130,201554,1,0,0:0:0:0:
261,107,201636,1,0,0:0:0:0:
216,105,201718,1,0,0:0:0:0:
173,120,201801,5,0,0:0:0:0:
128,124,201883,1,0,0:0:0:0:
83,116,201966,1,0,0:0:0:0:
42,97,202048,1,0,0:0:0:0:
10,64,202131,1,0,0:0:0:0:
54,58,202213,1,0,0:0:0:0:
91,82,202295,1,0,0:0:0:0:
113,121,202378,1,0,0:0:0:0:
112,165,202460,1,0,0:0:0:0:
96,207,202543,1,0,0:0:0:0:
92,251,202625,1,0,0:0:0:0:
111,291,202707,1,0,0:0:0:0:
149,314,202790,1,0,0:0:0:0:
193,307,202872,1,0,0:0:0:0:
225,275,202955,1,0,0:0:0:0:
230,230,203037,1,0,0:0:0:0:
205,191,203120,5,0,0:0:0:0:
197,235,203202,1,0,0:0:0:0:
212,276,203284,1,0,0:0:0:0:
247,304,203367,1,0,0:0:0:0:
291,308,203449,1,0,0:0:0:0:
334,295,203532,1,0,0:0:0:0:
359,258,203614,1,0,0:0:0:0:
364,213,203697,1,0,0:0:0:0:
347,171,203779,1,0,0:0:0:0:
307,150,203861,1,0,0:0:0:0:
281,112,203944,1,0,0:0:0:0:
281,67,204026,1,0,0:0:0:0:
308,31,204109,1,0,0:0:0:0:
349,14,204191,1,0,0:0:0:0:
392,23,204273,1,0,0:0:0:0:
428,49,204356,1,0,0:0:0:0:
441,91,204438,5,0,0:0:0:0:
430,135,204521,1,0,0:0:0:0:
393,161,204603,1,0,0:0:0:0:
375,202,204686,1,0,0:0:0:0:
386,245,204768,1,0,0:0:0:0:
392,289,204850,1,0,0:0:0:0:
371,329,204933,1,0,0:0:0:0:
327,339,205015,1,0,0:0:0:0:
285,321,205098,1,0,0:0:0:0:
252,290,205180,1,0,0:0:0:0:
207,287,205262,1,0,0:0:0:0:
169,312,205345,1,0,0:0:0:0:
162,356,205427,1,0,0:0:0:0:
122,378,205510,1,0,0:0:0:0:
77,372,205592,1,0,0:0:0:0:
56,331,205675,1,0,0:0:0:0:
64,287,205757,5,0,0:0:0:0:
49,244,205839,1,0,0:0:0:0:
54,199,205922,1,0,0:0:0:0:
78,161,206004,1,0,0:0:0:0:
117,139,206087,1,0,0:0:0:0:
161,137,206169,1,0,0:0:0:0:
205,130,206251,1,0,0:0:0:0:
237,98,206334,1,0,0:0:0:0:
257,58,206416,1,0,0:0:0:0:
299,41,206499,1,0,0:0:0:0:
343,44,206581,1,0,0:0:0:0:
376,74,206664,1,0,0:0:0:0:
385,117,206746,1,0,0:0:0:0:
379,161,206828,1,0,0:0:0:0:
406,196,206911,1,0,0:0:0:0:
448,209,206993,1,0,0:0:0:0:
491,196,207076,5,0,0:0:0:0:
446,189,207158,1,0,0:0:0:0:
406,196,207240,1,0,0:0:0:0:
381,233,207323,1,0,0:0:0:0:
378,277,207405,1,0,0:0:0:0:
385,321,207488,1,0,0:0:0:0:
360,358,207570,1,0,0:0:0:0:
317,374,207653,1,0,0:0:0:0:
273,364,207735,1,0,0:0:0:0:
239,334,207817,1,0,0:0:0:0:
236,288,207900,1,0,0:0:0:0:
259,249,207982,1,0,0:0:0:0:
300,231,208065,1,0,0:0:0:0:
312,187,208147,1,0,0:0:0:0:
289,148,208229,1,0,0:0:0:0:
244,138,208312,1,0,0:0:0:0:
204,159,208394,5,0,0:0:0:0:
193,202,208477,1,0,0:0:0:0:
213,241,208559,1,0,0:0:0:0:
259,249,208642,1,0,0:0:0:0:
297,272,208724,1,0,0:0:0:0:
317,311,208806,1,0,0:0:0:0:
317,356,208889,1,0,0:0:0:0:
276,336,208971,1,0,0:0:0:0:
230,335,209054,1,0,0:0:0:0:
195,363,209136,1,0,0:0:0:0:
151,372,209218,1,0,0:0:0:0:
105,369,209301,1,0,0:0:0:0:
66,345,209383,1,0,0:0:0:0:
60,300,209466,1,0,0:0:0:0:
36,261,209548,1,0,0:0:0:0:
40,215,209631,1,0,0:0:0:0:
17,176,209713,5,0,0:0:0:0:
31,133,209795,1,0,0:0:0:0:
70,110,209878,1,0,0:0:0:0:
114,111,209960,1,0,0:0:0:0:
149,138,210043,1,0,0:0:0:0:
170,177,210125,1,0,0:0:0:0:
211,193,210207,1,0,0:0:0:0:
167,205,210290,1,0,0:0:0:0:
147,245,210372,1,0,0:0:0:0:
154,289,210455,1,0,0:0:0:0:
189,316,210537,1,0,0:0:0:0:
234,312,210620,1,0,0:0:0:0:
266,281,210702,1,0,0:0:0:0:
306,261,210784,1,0,0:0:0:0:
348,275,210867,1,0,0:0:0:0:
365,316,210949,1,0,0:0:0:0:
343,355,211032,5,0,0:0:0:0:
341,310,211114,1,0,0:0:0:0:
368,273,211197,1,0,0:0:0:0:
410,259,211279,1,0,0:0:0:0:
447,234,211361,1,0,0:0:0:0:
462,191,211444,1,0,0:0:0:0:
443,150,211526,1,0,0:0:0:0:
399,161,211609,1,0,0:0:0:0:
354,160,211691,1,0,0:0:0:0:
316,135,211773,1,0,0:0:0:0:
302,91,211856,1,0,0:0:0:0:
309,46,211938,1,0,0:0:0:0:
343,16,212021,1,0,0:0:0:0:
387,8,212103,1,0,0:0:0:0:
429,22,212186,1,0,0:0:0:0:
452,59,212268,1,0,0:0:0:0:
449,103,212350,5,0,0:0:0:0:
420,138,212433,1,0,0:0:0:0:
375,143,212515,1,0,0:0:0:0:
331,130,212598,1,0,0:0:0:0:
302,91,212680,1,0,0:0:0:0:
270,59,212762,1,0,0:0:0:0:
224,54,212845,1,0,0:0:0:0:
252,88,212927,1,0,0:0:0:0:
246,132,213010,1,0,0:0:0:0:
214,164,213092,1,0,0:0:0:0:
169,169,213175,1,0,0:0:0:0:
130,145,213257,1,0,0:0:0:0:
120,101,213339,1,0,0:0:0:0:
24,357,213669,5,0,0:0:0:0:
34,308,213751,1,0,0:0:0:0:
66,269,213834,1,0,0:0:0:0:
111,249,213916,1,0,0:0:0:0:
161,244,213999,1,0,0:0:0:0:
208,259,214081,1,0,0:0:0:0:
243,294,214164,5,0,0:0:0:0:
195,278,214246,1,0,0:0:0:0:
175,232,214328,1,0,0:0:0:0:
185,182,214411,1,0,0:0:0:0:
225,153,214493,1,0,0:0:0:0:
275,151,214576,1,0,0:0:0:0:
317,177,214658,5,0,0:0:0:0:
267,169,214740,1,0,0:0:0:0:
239,127,214823,1,0,0:0:0:0:
256,80,214905,1,0,0:0:0:0:
301,58,214988,1,0,0:0:0:0:
347,75,215070,1,0,0:0:0:0:
366,121,215153,5,0,0:0:0:0:
408,146,215235,1,0,0:0:0:0:
457,149,215317,1,0,0:0:0:0:
495,181,215400,1,0,0:0:0:0:
501,230,215482,1,0,0:0:0:0:
468,268,215565,1,0,0:0:0:0:
420,283,215647,5,0,0:0:0:0:
371,271,215729,1,0,0:0:0:0:
337,233,215812,1,0,0:0:0:0:
290,214,215894,1,0,0:0:0:0:
240,225,215977,5,0,0:0:0:0:
288,242,216059,1,0,0:0:0:0:
337,233,216142,1,0,0:0:0:0:
365,191,216224,1,0,0:0:0:0:
357,141,216306,5,0,0:0:0:0:
394,106,216389,1,0,0:0:0:0:
443,112,216471,1,0,0:0:0:0:
466,156,216554,1,0,0:0:0:0:
453,204,216636,1,0,0:0:0:0:
432,249,216718,1,0,0:0:0:0:
436,299,216801,5,0,0:0:0:0:
404,260,216883,1,0,0:0:0:0:
353,261,216966,1,0,0:0:0:0:
325,302,217048,1,0,0:0:0:0:
337,350,217131,1,0,0:0:0:0:
382,370,217213,1,0,0:0:0:0:
426,348,217295,5,0,0:0:0:0:
378,330,217378,1,0,0:0:0:0:
337,350,217460,1,0,0:0:0:0:
288,364,217543,1,0,0:0:0:0:
239,351,217625,1,0,0:0:0:0:
207,312,217707,1,0,0:0:0:0:
211,261,217790,5,0,0:0:0:0:
260,254,217872,1,0,0:0:0:0:
286,211,217955,1,0,0:0:0:0:
274,162,218037,1,0,0:0:0:0:
231,135,218120,1,0,0:0:0:0:
182,147,218202,1,0,0:0:0:0:
158,190,218284,5,0,0:0:0:0:
205,174,218367,1,0,0:0:0:0:
210,124,218449,1,0,0:0:0:0:
182,82,218532,1,0,0:0:0:0:
198,34,218614,5,0,0:0:0:0:
222,29,218697,1,0,0:0:0:0:
246,25,218779,1,0,0:0:0:0:
270,21,218861,1,0,0:0:0:0:
294,17,218944,6,0,B|439:49|439:49|408:103,1,200
294,367,219438,2,0,B|439:333|439:333|406:295,1,200
439,191,219850,1,0,0:0:0:0:
420,207,219933,1,0,0:0:0:0:
85,177,220922,5,0,0:0:0:0:
174,283,229493,6,0,B|193:305|223:313|223:313|250:298|280:319|280:319|317:325|332:351|332:351|362:357|385:338|385:338|394:307|376:284|376:284|346:276|331:245|331:245|345:216|330:186|330:186|331:156|307:134|307:134|335:120|351:94|351:94|355:60|334:37|334:37|305:19|274:29|274:29|251:47|240:80,1,719.999978027344
226,116,231553,1,0,0:0:0:0:
190,144,231636,1,0,0:0:0:0:
146,155,231718,1,0,0:0:0:0:
100,151,231801,1,0,0:0:0:0:
114,104,233779,6,0,B|89:86|89:86|90:115,1,59.9999981689454
215,248,234273,2,0,B|240:230|240:230|238:259,1,59.9999981689454
243,147,236416,6,0,P|272:151|299:165,1,59.9999981689454
317,184,236911,5,0,0:0:0:0:
328,217,236993,1,0,0:0:0:0:
328,252,237075,1,0,0:0:0:0:
260,361,237240,1,0,0:0:0:0:
132,373,237405,1,0,0:0:0:0:
43,281,237570,1,0,0:0:0:0:
58,154,237735,1,0,0:0:0:0:
177,179,237900,1,0,0:0:0:0:
288,131,238064,6,0,P|338:129|384:104,1,100
431,287,238393,2,0,L|445:188,1,100
397,16,238723,2,0,B|370:45|370:45|381:109,1,100
431,287,239053,5,0,0:0:0:0:
288,131,239217,1,0,0:0:0:0:
344,279,239382,1,0,0:0:0:0:
359,190,239547,1,0,0:0:0:0:
381,361,239712,1,0,0:0:0:0:
277,220,239877,2,0,B|244:196|244:196|181:214,1,100
224,384,240206,5,0,0:0:0:0:
230,284,240371,1,0,0:0:0:0:
224,384,240536,1,0,0:0:0:0:
120,282,240701,6,0,P|97:238|95:188,1,100
236,59,241031,2,0,P|209:100|167:127,1,100
57,15,241360,2,0,B|110:9|110:9|150:40,1,100
85,97,241690,1,0,0:0:0:0:
189,217,241855,1,0,0:0:0:0:
39,246,242020,5,0,0:0:0:0:
107,188,242184,1,0,0:0:0:0:
189,217,242349,2,0,L|205:333,1,100
207,335,242596,1,0,0:0:0:0:
212,369,242679,5,0,0:0:0:0:
180,134,242844,1,0,0:0:0:0:
119,273,243009,1,0,0:0:0:0:
274,246,243173,1,0,0:0:0:0:
332,103,243338,5,0,0:0:0:0:
332,103,243503,1,0,0:0:0:0:
396,321,243668,1,0,0:0:0:0:
440,216,243833,1,0,0:0:0:0:
309,13,243998,5,0,0:0:0:0:
189,217,244162,1,0,0:0:0:0:
318,149,244327,1,0,0:0:0:0:
312,296,244492,1,0,0:0:0:0:
405,139,244657,5,0,0:0:0:0:
396,321,244822,1,0,0:0:0:0:
272,224,244987,1,0,0:0:0:0:
435,239,245151,1,0,0:0:0:0:
356,233,245316,5,0,0:0:0:0:
356,233,245481,1,0,0:0:0:0:
283,88,245646,1,0,0:0:0:0:
189,217,245811,1,0,0:0:0:0:
170,17,245976,5,0,0:0:0:0:
278,184,246140,1,0,0:0:0:0:
59,71,246305,1,0,0:0:0:0:
183,123,246470,1,0,0:0:0:0:
119,273,246635,5,0,0:0:0:0:
4,214,246800,1,0,0:0:0:0:
20,352,246965,1,0,0:0:0:0:
183,123,247129,2,0,L|244:137,2,44.999998626709
442,182,247459,1,0,0:0:0:0:
297,330,247624,5,0,0:0:0:0:
297,330,247788,1,0,0:0:0:0:
339,144,247953,1,0,0:0:0:0:
224,270,248118,1,0,0:0:0:0:
390,305,248283,5,0,0:0:0:0:
211,367,248448,1,0,0:0:0:0:
250,172,248613,1,0,0:0:0:0:
321,245,248777,1,0,0:0:0:0:
65,289,248942,5,0,0:0:0:0:
224,270,249107,1,0,0:0:0:0:
139,328,249272,1,0,0:0:0:0:
158,234,249437,1,0,0:0:0:0:
64,179,249602,5,0,0:0:0:0:
194,129,249766,1,0,0:0:0:0:
72,9,249931,1,0,0:0:0:0:
110,95,250096,1,0,0:0:0:0:
65,289,250261,5,0,0:0:0:0:
253,263,250426,1,0,0:0:0:0:
175,352,250591,1,0,0:0:0:0:
152,210,250755,1,0,0:0:0:0:
339,243,250920,5,0,0:0:0:0:
339,243,251085,1,0,0:0:0:0:
440,353,251250,1,0,0:0:0:0:
487,210,251415,1,0,0:0:0:0:
480,170,251497,1,0,0:0:0:0:
472,130,251580,5,0,0:0:0:0:
428,272,251744,1,0,0:0:0:0:
293,339,251909,5,0,0:0:0:0:
350,211,252074,1,0,0:0:0:0:
285,86,252239,1,0,0:0:0:0:
500,215,252404,1,0,0:0:0:0:
500,215,252734,5,0,0:0:0:0:
428,272,252899,1,0,0:0:0:0:
429,149,253229,5,0,0:0:0:0:
350,211,253394,1,0,0:0:0:0:
253,236,253559,1,0,0:0:0:0:
409,39,253888,5,0,0:0:0:0:
328,97,254053,1,0,0:0:0:0:
228,92,254218,1,0,0:0:0:0:
228,92,254548,5,0,0:0:0:0:
253,188,254712,1,0,0:0:0:0:
155,165,254877,1,0,0:0:0:0:
328,97,255042,5,0,0:0:0:0:
328,97,255372,1,0,0:0:0:0:
291,366,255537,2,0,B|282:307|282:307|264:281|264:281|256:222,1,150
252,187,255866,5,0,0:0:0:0:
155,165,256031,1,0,0:0:0:0:
109,354,256196,2,0,P|158:350|204:331,1,100
312,85,256526,5,0,0:0:0:0:
409,62,256691,1,0,0:0:0:0:
455,251,256856,2,0,P|405:247|359:228,1,100
219,45,257185,5,0,0:0:0:0:
162,173,257350,1,0,0:0:0:0:
227,298,257515,1,0,0:0:0:0:
12,169,257680,1,0,0:0:0:0:
12,169,258010,5,0,0:0:0:0:
84,112,258175,1,0,0:0:0:0:
83,235,258505,5,0,0:0:0:0:
162,173,258670,1,0,0:0:0:0:
259,148,258835,1,0,0:0:0:0:
103,345,259164,5,0,0:0:0:0:
184,287,259329,1,0,0:0:0:0:
284,292,259493,2,0,B|332:312|332:312|385:306,1,100
333,117,259824,5,0,0:0:0:0:
259,196,259988,1,0,0:0:0:0:
357,219,260153,1,0,0:0:0:0:
184,287,260318,5,0,0:0:0:0:
184,287,260646,5,0,0:0:0:0:
441,184,260811,2,0,P|456:139|428:100,1,100
406,88,261059,1,0,0:0:0:0:
381,90,261141,5,0,0:0:0:0:
283,39,261306,1,0,0:0:0:0:
209,120,261471,1,0,0:0:0:0:
274,207,261635,1,0,0:0:0:0:
299,205,261718,1,0,0:0:0:0:
323,203,261800,5,0,0:0:0:0:
408,272,261965,1,0,0:0:0:0:
347,364,262130,1,0,0:0:0:0:
261,294,262295,1,0,0:0:0:0:
298,121,262460,5,0,0:0:0:0:
119,313,262954,5,0,0:0:0:0:
99,104,263284,1,0,0:0:0:0:
79,77,263366,1,0,0:0:0:0:
28,64,263449,6,0,B|77:108|77:108|143:88|143:88|178:112|228:106|228:106|235:162|235:162|194:152|194:152|178:57,1,400
205,36,264355,1,0,0:0:0:0:
225,9,264438,6,0,L|281:21,1,40
346,38,264602,1,0,0:0:0:0:
373,54,264685,1,0,0:0:0:0:
388,81,264767,2,0,P|395:99|398:119,1,40
340,192,264932,1,0,0:0:0:0:
335,239,265014,1,0,0:0:0:0:
357,281,265097,5,0,0:0:0:0:
307,276,265179,1,0,0:0:0:0:
256,272,265262,1,0,0:0:0:0:
206,269,265344,1,0,0:0:0:0:
179,232,265427,1,0,0:0:0:0:
164,230,265509,1,0,0:0:0:0:
149,228,265591,1,0,0:0:0:0:
133,226,265674,1,0,0:0:0:0:
118,224,265756,6,0,L|99:165,1,50
55,293,265921,2,0,L|36:234,1,50
79,84,266086,2,0,L|60:25,1,50
16,153,266251,2,0,L|-3:94,1,50
167,114,266416,5,0,0:0:0:0:
195,121,266498,1,0,0:0:0:0:
224,127,266580,1,0,0:0:0:0:
253,134,266663,1,0,0:0:0:0:
281,141,266745,6,0,L|300:82,1,50
344,210,266910,2,0,L|363:151,1,50
255,226,267075,2,0,L|240:274,1,50
303,343,267240,2,0,L|318:295,1,50
414,283,267405,1,0,0:0:0:0:
419,269,267487,1,0,0:0:0:0:
424,255,267569,1,0,0:0:0:0:
429,240,267652,1,0,0:0:0:0:
434,226,267734,5,0,0:0:0:0:
442,186,267817,1,0,0:0:0:0:
426,149,267899,1,0,0:0:0:0:
390,130,267981,1,0,0:0:0:0:
349,131,268064,1,0,0:0:0:0:
340,143,268146,1,0,0:0:0:0:
335,157,268229,1,0,0:0:0:0:
334,171,268311,1,0,0:0:0:0:
336,185,268394,5,0,0:0:0:0:
330,224,268476,1,0,0:0:0:0:
308,257,268558,1,0,0:0:0:0:
269,269,268641,1,0,0:0:0:0:
230,257,268723,1,0,0:0:0:0:
219,234,268806,1,0,0:0:0:0:
203,214,268888,1,0,0:0:0:0:
179,206,268970,1,0,0:0:0:0:
153,208,269053,5,0,0:0:0:0:
116,224,269135,1,0,0:0:0:0:
94,257,269218,1,0,0:0:0:0:
94,296,269300,1,0,0:0:0:0:
117,328,269383,1,0,0:0:0:0:
154,342,269465,1,0,0:0:0:0:
193,336,269547,1,0,0:0:0:0:
227,315,269630,1,0,0:0:0:0:
245,279,269712,5,0,0:0:0:0:
248,264,269795,1,0,0:0:0:0:
251,249,269877,1,0,0:0:0:0:
254,234,269960,1,0,0:0:0:0:
278,207,270042,1,0,0:0:0:0:
281,192,270125,1,0,0:0:0:0:
284,177,270207,1,0,0:0:0:0:
287,162,270290,1,0,0:0:0:0:
316,124,270372,6,0,B|328:41|328:41|383:179|383:179|371:246|371:246|319:277|319:277|337:351|337:351|404:314,1,500
461,127,271361,2,0,L|420:28,1,100
248,27,271690,6,0,L|220:175,2,150
56,84,272350,2,0,B|39:48|39:48|19:156,2,150
244,277,273009,6,0,B|299:227|299:227|320:153,2,150
120,238,273668,2,0,B|52:317|52:317|66:374,2,150
169,342,274328,6,0,L|120:133,1,200
435,319,274822,2,0,B|333:317|333:317|243:277,1,200
393,76,275317,1,0,0:0:0:0:
381,113,275399,1,0,0:0:0:0:
371,151,275481,1,0,0:0:0:0:
361,190,275564,1,0,0:0:0:0:
353,228,275646,5,0,0:0:0:0:
243,151,275811,1,0,0:0:0:0:
243,151,275976,1,0,0:0:0:0:
282,216,276141,5,0,0:0:0:0:
208,221,276306,1,0,0:0:0:0:
273,76,276470,1,0,0:0:0:0:
250,286,276635,5,0,0:0:0:0:
127,63,276800,1,0,0:0:0:0:
329,145,276965,1,0,0:0:0:0:
243,151,277130,1,0,0:0:0:0:
489,51,277295,5,0,0:0:0:0:
432,275,277460,1,0,0:0:0:0:
363,75,277624,1,0,0:0:0:0:
512,355,277789,1,0,0:0:0:0:
350,246,277954,1,0,0:0:0:0:
363,75,278119,5,0,0:0:0:0:
136,225,278284,1,0,0:0:0:0:
337,358,278449,1,0,0:0:0:0:
282,216,278613,1,0,0:0:0:0:
44,355,278778,5,0,0:0:0:0:
80,148,278943,1,0,0:0:0:0:
182,312,279108,1,0,0:0:0:0:
201,7,279273,5,0,0:0:0:0:
329,145,279438,1,0,0:0:0:0:
136,225,279602,1,0,0:0:0:0:
83,243,279685,1,0,0:0:0:0:
32,222,279767,1,0,0:0:0:0:
9,171,279850,1,0,0:0:0:0:
28,119,279932,1,0,0:0:0:0:
177,363,280097,5,0,0:0:0:0:
202,302,280179,1,0,0:0:0:0:
260,274,280262,1,0,0:0:0:0:
322,288,280344,1,0,0:0:0:0:
375,326,280427,1,0,0:0:0:0:
439,320,280509,1,0,0:0:0:0:
474,266,280591,1,0,0:0:0:0:
439,56,280756,1,0,0:0:0:0:
376,35,280839,1,0,0:0:0:0:
320,67,280921,6,0,B|273:133|320:201|320:201|340:175|371:176|371:176|340:151|301:137|258:147|228:164|228:164|188:148|188:148|136:148|136:148|95:108|95:108|119:155|115:202,1,600
82,271,282075,6,0,B|110:282|142:283|165:272|186:239|186:239|217:257|249:242|249:242|274:278|318:288|318:288|352:285|383:257|383:257|407:283|401:324|401:324|374:312|374:312|345:326|345:326|320:318,1,500
216,368,283064,2,0,B|211:326|211:326|224:298|226:268|226:268|215:242|216:212|216:212|200:186|200:157|200:157|209:118,1,250
110,33,283558,6,0,P|186:91|278:62,1,200
323,161,284053,1,0,0:0:0:0:
125,242,284218,2,0,P|39:274|-7:343,2,150
369,360,284877,6,0,B|381:309|381:309|365:264,1,100
106,128,285207,2,0,B|94:77|94:77|109:32,1,100
133,40,285454,1,0,0:0:0:0:
156,47,285536,1,0,0:0:0:0:
263,100,285701,1,0,0:0:0:0:
259,220,285866,1,0,0:0:0:0:
149,269,286031,1,0,0:0:0:0:
372,165,286196,6,0,L|482:195,1,100
443,94,286443,2,0,L|362:174,1,100
300,162,286690,5,0,0:0:0:0:
263,100,286855,5,0,0:0:0:0:
259,220,287102,1,0,0:0:0:0:
371,164,287350,1,0,0:0:0:0:
313,38,287514,5,0,0:0:0:0:
193,161,287762,1,0,0:0:0:0:
354,240,288009,1,0,0:0:0:0:
223,71,288174,5,0,0:0:0:0:
165,257,288421,1,0,0:0:0:0:
371,164,288668,5,0,0:0:0:0:
473,362,288833,1,0,0:0:0:0:
249,348,288998,6,0,L|279:140,1,200
9,171,289492,2,0,B|58:165|58:165|101:192,1,100
108,217,289712,2,0,L|145:213,2,33.3333333333333
83,74,289987,1,0,0:0:0:0:
31,311,290152,6,0,B|78:290|135:302|135:302|171:333|171:333|198:329|219:343|219:343|220:316|244:294|244:294|268:255|268:255|285:222|317:218|343:237|346:275|327:304|294:302|268:283|266:244|266:244|236:218|235:168|263:137,1,600
317,71,291306,1,0,0:0:0:0:
356,71,291388,1,0,0:0:0:0:
391,88,291470,6,0,B|370:132|405:213|405:213|337:153|272:153|272:153|232:154|197:149|174:132|174:132|128:128|89:156|89:156|96:103|66:64|66:64|116:69|152:38|152:38|149:95|175:132|175:132|153:146|139:178,1,800
107,279,293036,1,0,0:0:0:0:
196,359,293284,1,0,0:0:0:0:
279,338,293449,6,0,B|364:280|364:280|244:309,1,200
231,289,293861,2,0,B|185:269|185:269|135:266,1,100
103,242,294108,6,0,B|154:244|154:244|310:201,1,200
297,204,294602,1,0,0:0:0:0:
262,179,294685,1,0,0:0:0:0:
245,141,294767,6,0,P|298:62|395:58,1,200
136,316,295262,1,0,0:0:0:0:
172,297,295345,1,0,0:0:0:0:
188,259,295427,2,0,P|135:180|38:176,1,200
290,312,295921,1,0,0:0:0:0:
324,333,296004,1,0,0:0:0:0:
364,328,296086,6,0,P|396:292|404:243,1,100
394,87,296416,1,0,0:0:0:0:
381,135,296498,1,0,0:0:0:0:
338,161,296580,1,0,0:0:0:0:
288,167,296663,1,0,0:0:0:0:
245,141,296745,5,0,0:0:0:0:
205,368,296910,1,0,0:0:0:0:
205,368,297075,1,0,0:0:0:0:
125,122,297240,5,0,0:0:0:0:
125,122,297405,1,0,0:0:0:0:
290,312,297569,5,0,0:0:0:0:
290,312,297734,1,0,0:0:0:0:
17,351,297899,5,0,0:0:0:0:
17,351,298064,1,0,0:0:0:0:
280,229,298229,5,0,0:0:0:0:
280,229,298394,1,0,0:0:0:0:
50,58,298558,5,0,0:0:0:0:
50,58,298723,1,0,0:0:0:0:
127,219,298888,1,0,0:0:0:0:
127,219,298970,1,0,0:0:0:0:
127,219,299053,1,0,0:0:0:0:
240,76,299218,1,0,0:0:0:0:
146,114,299383,5,0,0:0:0:0:
195,355,299547,1,0,0:0:0:0:
195,355,299712,1,0,0:0:0:0:
317,137,299877,1,0,0:0:0:0:
317,137,300042,1,0,0:0:0:0:
207,272,300207,5,0,0:0:0:0:
207,272,300372,1,0,0:0:0:0:
374,305,300536,1,0,0:0:0:0:
374,305,300701,5,0,0:0:0:0:
498,185,300866,1,0,0:0:0:0:
432,30,301031,1,0,0:0:0:0:
412,217,301196,1,0,0:0:0:0:
426,125,301361,1,0,0:0:0:0:
477,291,301525,1,0,0:0:0:0:
317,219,301690,2,0,L|212:239,1,100
172,324,301938,1,0,0:0:0:0:
147,298,302020,6,0,P|127:252|131:202,1,100
231,76,302350,1,0,0:0:0:0:
1,95,302514,2,0,P|47:179|142:184,1,200
218,237,303009,1,0,0:0:0:0:
97,97,303174,1,0,0:0:0:0:
326,43,303339,6,0,P|328:92|308:137,1,100
387,298,303668,1,0,0:0:0:0:
218,237,303833,2,0,P|171:254|138:291,1,100
254,370,304163,1,0,0:0:0:0:
308,137,304328,1,0,0:0:0:0:
59,223,304492,1,0,0:0:0:0:
59,223,304575,1,0,0:0:0:0:
59,223,304657,5,0,0:0:0:0:
191,82,304822,1,0,0:0:0:0:
138,291,304987,1,0,0:0:0:0:
308,137,305152,2,0,B|337:166|337:166|363:231,1,100
330,42,305481,1,0,0:0:0:0:
480,150,305646,1,0,0:0:0:0:
343,312,305811,1,0,0:0:0:0:
191,190,305976,6,0,L|212:60,1,100
204,81,306196,1,0,0:0:0:0:
201,71,306251,1,0,0:0:0:0:
198,61,306306,1,0,0:0:0:0:
129,34,306416,1,0,0:0:0:0:
62,62,306525,1,0,0:0:0:0:
54,135,306635,5,0,0:0:0:0:
227,268,306855,1,0,0:0:0:0:
450,318,307075,1,0,0:0:0:0:
267,122,307295,6,0,B|280:64|321:16|391:-7|458:16|485:90|485:90|503:146|476:215|405:226|334:207|334:207|333:151|365:109|391:105|391:105|431:127|464:177|458:238|436:277|405:295|405:295|356:306|296:295|251:269|245:200|245:200|218:194|200:168,1,1150
179,144,311168,1,0,0:0:0:0:
186,99,311251,1,0,0:0:0:0:
166,243,311910,1,0,0:0:0:0:
143,384,312569,6,0,B|76:350|62:279|95:236|174:238|206:269|215:329|215:329|157:326|134:292|124:247|124:203|140:163|173:148|213:152|213:152|255:162|293:200|310:244|307:312|307:312,1,750
52,200,315207,6,0,B|52:139|110:69|186:46|261:57|295:81|334:124,1,350
338,135,316443,1,0,0:0:0:0:
338,135,316525,1,0,0:0:0:0:
410,28,317020,5,0,0:0:0:0:
420,57,317102,1,0,0:0:0:0:
431,87,317185,1,0,0:0:0:0:
421,212,317350,1,0,0:0:0:0:
437,335,317514,1,0,0:0:0:0:
437,335,317844,6,0,P|397:338|360:324,1,80
355,317,318091,1,0,0:0:0:0:
349,311,318174,1,0,0:0:0:0:
332,277,318503,6,0,B|292:273|292:273|255:287,1,80
250,295,318750,1,0,0:0:0:0:
244,301,318833,1,0,0:0:0:0:
281,192,318998,1,0,0:0:0:0:
235,98,319163,6,0,P|202:75|163:68,1,80
154,72,319410,1,0,0:0:0:0:
146,74,319493,1,0,0:0:0:0:
327,55,319822,6,0,B|366:58|366:58|403:44,1,80
409,37,320069,1,0,0:0:0:0:
415,31,320152,1,0,0:0:0:0:
378,140,320317,1,0,0:0:0:0:
281,192,320481,6,0,L|46:248,1,240
71,328,321141,6,0,B|110:324|110:324|147:338,1,80
153,346,321388,1,0,0:0:0:0:
159,352,321471,1,0,0:0:0:0:
125,229,321636,1,0,0:0:0:0:
13,84,321800,5,0,0:0:0:0:
13,84,321965,1,0,0:0:0:0:
104,65,322130,1,0,0:0:0:0:
104,65,322460,6,0,B|140:81|140:81|164:112,1,80
166,121,322707,1,0,0:0:0:0:
168,129,322790,1,0,0:0:0:0:
125,229,322954,1,0,0:0:0:0:
247,287,323119,6,0,L|482:343,1,240
434,105,323778,6,0,B|411:137|411:137|404:176,1,80
408,184,324025,1,0,0:0:0:0:
410,192,324108,1,0,0:0:0:0:
497,257,324272,1,0,0:0:0:0:
501,37,324438,6,0,P|468:14|429:7,1,80
420,11,324685,1,0,0:0:0:0:
412,13,324768,1,0,0:0:0:0:
325,108,325097,6,0,B|285:104|285:104|248:118,1,80
243,124,325344,1,0,0:0:0:0:
237,130,325427,1,0,0:0:0:0:
322,331,325756,5,0,0:0:0:0:
323,321,326086,5,0,0:0:0:0:
287,294,326251,1,0,0:0:0:0:
355,241,326416,1,0,0:0:0:0:
258,211,326580,1,0,0:0:0:0:
368,155,326745,1,0,0:0:0:0:
234,125,326910,1,0,0:0:0:0:
333,19,327075,5,0,0:0:0:0:
169,194,327240,1,0,0:0:0:0:
368,155,327405,1,0,3:0:0:0:
138,90,327570,1,0,3:0:0:0:
285,231,327734,1,0,0:0:0:0:
210,1,327899,1,0,0:0:0:0:
44,174,328064,1,0,0:0:0:0:
49,197,328146,1,0,0:0:0:0:
55,220,328229,1,0,0:0:0:0:
61,243,328311,1,0,0:0:0:0:
67,272,328394,6,0,B|107:304|107:304|161:299,1,100
180,297,328641,1,0,0:0:0:0:
204,294,328723,1,0,0:0:0:0:
368,155,328888,1,0,0:0:0:0:
392,152,328970,1,0,0:0:0:0:
416,149,329053,1,0,0:0:0:0:
369,307,329218,1,0,0:0:0:0:
250,230,329383,1,0,0:0:0:0:
257,107,329547,1,0,0:0:0:0:
249,82,329630,1,0,0:0:0:0:
241,58,329712,5,0,0:0:0:0:
270,30,329795,1,0,0:0:0:0:
309,24,329877,1,0,0:0:0:0:
346,38,329960,1,0,0:0:0:0:
369,70,330042,1,0,0:0:0:0:
169,107,330207,1,0,0:0:0:0:
129,101,330290,1,0,0:0:0:0:
94,117,330372,1,0,0:0:0:0:
156,264,330536,1,0,0:0:0:0:
262,202,330701,1,0,0:0:0:0:
259,227,330784,1,0,0:0:0:0:
257,251,330866,1,0,0:0:0:0:
255,276,330949,1,0,0:0:0:0:
254,300,331031,5,0,0:0:0:0:
238,336,331113,1,0,0:0:0:0:
206,360,331196,1,0,0:0:0:0:
167,368,331278,1,0,0:0:0:0:
129,353,331361,1,0,0:0:0:0:
334,231,331525,1,0,0:0:0:0:
373,223,331607,1,0,0:0:0:0:
411,238,331690,1,0,0:0:0:0:
170,273,331855,1,0,0:0:0:0:
265,166,332020,1,0,0:0:0:0:
286,133,332102,1,0,0:0:0:0:
325,118,332185,1,0,0:0:0:0:
499,349,332350,5,0,0:0:0:0:
464,368,332432,1,0,0:0:0:0:
424,369,332515,1,0,0:0:0:0:
388,352,332597,1,0,0:0:0:0:
366,318,332680,1,0,0:0:0:0:
460,94,332844,1,0,0:0:0:0:
255,261,333009,6,0,L|303:249,1,50
512,275,333174,1,0,0:0:0:0:
203,108,333339,2,0,L|251:119,1,50
421,238,333504,1,0,0:0:0:0:
406,0,333668,5,0,0:0:0:0:
372,20,333750,1,0,0:0:0:0:
351,54,333833,1,0,0:0:0:0:
347,94,333915,1,0,0:0:0:0:
357,132,333998,1,0,0:0:0:0:
394,274,334163,1,0,0:0:0:0:
398,314,334245,1,0,0:0:0:0:
388,352,334328,1,0,0:0:0:0:
67,251,334492,2,0,B|111:226|165:245|165:245|220:264|260:247,1,200
281,231,334905,1,0,0:0:0:0:
292,208,334987,5,0,0:0:0:0:
253,196,335069,1,0,0:0:0:0:
224,169,335152,1,0,0:0:0:0:
209,132,335234,1,0,0:0:0:0:
210,92,335317,1,0,0:0:0:0:
119,337,335564,1,0,0:0:0:0:
142,344,335646,5,0,0:0:0:0:
318,308,335811,1,0,0:0:0:0:
300,120,335976,1,0,0:0:0:0:
296,95,336058,1,0,0:0:0:0:
292,70,336141,1,0,0:0:0:0:
289,45,336223,1,0,0:0:0:0:
284,20,336305,5,0,0:0:0:0:
244,19,336388,1,0,0:0:0:0:
207,34,336470,1,0,0:0:0:0:
180,63,336553,1,0,0:0:0:0:
168,102,336635,1,0,0:0:0:0:
47,176,336800,1,0,0:0:0:0:
48,215,336883,1,0,0:0:0:0:
67,251,336965,1,0,0:0:0:0:
219,181,337130,1,0,0:0:0:0:
56,38,337295,1,0,0:0:0:0:
56,38,337377,1,0,0:0:0:0:
56,38,337460,1,0,0:0:0:0:
219,181,337624,6,0,B|210:223|210:223|217:248|217:248|211:278,1,100
214,303,337872,1,0,0:0:0:0:
217,327,337954,1,0,0:0:0:0:
335,135,338119,1,0,0:0:0:0:
363,163,338201,1,0,0:0:0:0:
378,199,338284,1,0,0:0:0:0:
383,238,338366,1,0,0:0:0:0:
381,278,338449,1,0,0:0:0:0:
370,316,338531,1,0,0:0:0:0:
347,349,338613,1,0,0:0:0:0:
112,364,338778,1,0,0:0:0:0:
72,358,338861,1,0,0:0:0:0:
37,337,338943,5,0,0:0:0:0:
31,297,339025,1,0,0:0:0:0:
54,264,339108,1,0,0:0:0:0:
93,256,339190,1,0,0:0:0:0:
125,279,339273,1,0,0:0:0:0:
69,87,339520,1,0,0:0:0:0:
83,124,339603,5,0,0:0:0:0:
239,159,339767,1,0,0:0:0:0:
259,328,339932,1,0,0:0:0:0:
330,230,340097,1,0,0:0:0:0:
339,206,340179,1,0,0:0:0:0:
347,182,340262,5,0,0:0:0:0:
352,142,340344,1,0,0:0:0:0:
341,103,340427,1,0,0:0:0:0:
316,71,340509,1,0,0:0:0:0:
278,58,340591,1,0,0:0:0:0:
130,218,340756,1,0,0:0:0:0:
155,250,340838,1,0,0:0:0:0:
193,263,340920,1,0,0:0:0:0:
194,10,341086,1,0,0:0:0:0:
93,89,341251,1,0,0:0:0:0:
117,92,341333,1,0,0:0:0:0:
141,95,341416,1,0,0:0:0:0:
165,98,341498,1,0,0:0:0:0:
189,101,341581,5,0,0:0:0:0:
213,132,341663,1,0,0:0:0:0:
210,171,341746,1,0,0:0:0:0:
180,198,341828,1,0,0:0:0:0:
141,194,341911,1,0,0:0:0:0:
76,343,342157,1,0,0:0:0:0:
106,341,342240,5,0,0:0:0:0:
314,293,342405,1,0,0:0:0:0:
313,102,342569,1,0,0:0:0:0:
313,102,342652,1,0,0:0:0:0:
313,102,342734,1,0,0:0:0:0:
104,218,342899,5,0,0:0:0:0:
139,237,342981,1,0,0:0:0:0:
179,238,343064,1,0,0:0:0:0:
215,221,343146,1,0,0:0:0:0:
237,187,343229,1,0,0:0:0:0:
135,7,343393,1,0,0:0:0:0:
313,102,343558,6,0,L|264:113,1,50
46,101,343723,1,0,0:0:0:0:
340,261,343888,2,0,L|291:249,1,50
159,109,344053,1,0,0:0:0:0:
364,22,344218,5,0,0:0:0:0:
398,44,344301,1,0,0:0:0:0:
415,80,344383,1,0,0:0:0:0:
414,120,344466,1,0,0:0:0:0:
395,155,344548,1,0,0:0:0:0:
208,235,344712,1,0,0:0:0:0:
209,275,344795,1,0,0:0:0:0:
228,310,344877,1,0,0:0:0:0:
281,142,345042,1,0,0:0:0:0:
113,176,345207,1,0,0:0:0:0:
78,318,345372,1,0,0:0:0:0:
98,328,345454,1,0,0:0:0:0:
119,340,345536,5,0,0:0:0:0:
160,337,345619,1,0,0:0:0:0:
191,312,345701,1,0,0:0:0:0:
209,275,345784,1,0,0:0:0:0:
207,236,345866,1,0,0:0:0:0:
319,156,346031,1,0,0:0:0:0:
301,119,346114,1,0,0:0:0:0:
303,80,346196,1,0,0:0:0:0:
325,46,346278,1,0,0:0:0:0:
362,31,346361,5,0,0:0:0:0:
337,74,346443,1,0,0:0:0:0:
287,74,346525,1,0,0:0:0:0:
266,59,346608,1,0,0:0:0:0:
242,51,346690,1,0,0:0:0:0:
216,50,346773,1,0,0:0:0:0:
192,58,346855,5,0,0:0:0:0:
151,87,346938,1,0,0:0:0:0:
138,135,347020,1,0,0:0:0:0:
151,182,347102,1,0,0:0:0:0:
195,205,347185,1,0,0:0:0:0:
244,197,347267,1,0,0:0:0:0:
279,161,347350,5,0,0:0:0:0:
328,155,347432,1,0,0:0:0:0:
371,179,347514,1,0,0:0:0:0:
383,227,347597,1,0,0:0:0:0:
369,274,347679,1,0,0:0:0:0:
325,299,347762,1,0,0:0:0:0:
276,290,347844,5,0,0:0:0:0:
226,280,347927,1,0,0:0:0:0:
191,315,348009,1,0,0:0:0:0:
200,363,348091,1,0,0:0:0:0:
246,381,348174,1,0,0:0:0:0:
202,42,349492,5,0,0:0:0:0:
236,38,349574,1,0,0:0:0:0:
271,34,349657,1,0,0:0:0:0:
301,50,349739,1,0,0:0:0:0:
328,72,349822,1,0,0:0:0:0:
133,50,350151,5,0,0:0:0:0:
167,46,350234,1,0,0:0:0:0:
202,42,350317,1,0,0:0:0:0:
394,144,350646,1,0,0:0:0:0:
166,137,350811,5,0,0:0:0:0:
199,142,350893,1,0,0:0:0:0:
234,148,350976,1,0,0:0:0:0:
257,174,351058,1,0,0:0:0:0:
274,204,351141,1,0,0:0:0:0:
97,127,351470,5,0,0:0:0:0:
131,132,351553,1,0,0:0:0:0:
166,137,351636,1,0,0:0:0:0:
271,34,351965,1,0,0:0:0:0:
111,219,352129,5,0,0:0:0:0:
141,233,352211,1,0,0:0:0:0:
173,248,352294,1,0,0:0:0:0:
176,282,352376,1,0,0:0:0:0:
178,317,352459,1,0,0:0:0:0:
46,192,352788,5,0,0:0:0:0:
78,206,352871,1,0,0:0:0:0:
111,219,352954,1,0,0:0:0:0:
274,204,353283,1,0,0:0:0:0:
32,297,353448,5,0,0:0:0:0:
69,291,353530,1,0,0:0:0:0:
101,305,353613,1,0,0:0:0:0:
122,333,353695,1,0,0:0:0:0:
124,369,353778,1,0,0:0:0:0:
437,248,354107,5,0,0:0:0:0:
402,242,354189,1,0,0:0:0:0:
370,256,354272,1,0,0:0:0:0:
349,284,354354,1,0,0:0:0:0:
347,320,354437,1,0,0:0:0:0:
347,320,354767,5,0,0:0:0:0:
358,290,354849,1,0,0:0:0:0:
370,256,354932,1,0,0:0:0:0:
353,225,355014,1,0,0:0:0:0:
331,197,355097,1,0,0:0:0:0:
493,346,355426,5,0,0:0:0:0:
463,335,355508,1,0,0:0:0:0:
429,323,355591,1,0,0:0:0:0:
391,191,355921,1,0,0:0:0:0:
274,274,356085,5,0,0:0:0:0:
244,263,356167,1,0,0:0:0:0:
210,251,356250,1,0,0:0:0:0:
179,267,356332,1,0,0:0:0:0:
149,286,356415,1,0,0:0:0:0:
300,128,356744,5,0,0:0:0:0:
289,158,356826,1,0,0:0:0:0:
277,192,356909,1,0,0:0:0:0:
75,324,357239,1,0,0:0:0:0:
51,59,357404,5,0,0:0:0:0:
84,48,357486,1,0,0:0:0:0:
116,34,357569,1,0,0:0:0:0:
139,59,357651,1,0,0:0:0:0:
161,86,357734,1,0,0:0:0:0:
25,205,358063,5,0,0:0:0:0:
36,175,358145,1,0,0:0:0:0:
48,141,358228,1,0,0:0:0:0:
259,66,358558,1,0,0:0:0:0:
161,261,358723,5,0,0:0:0:0:
130,294,358805,1,0,0:0:0:0:
88,312,358888,1,0,0:0:0:0:
43,314,358970,1,0,0:0:0:0:
1,299,359052,1,0,0:0:0:0:
300,128,359382,5,0,0:0:0:0:
331,161,359464,1,0,0:0:0:0:
373,179,359547,1,0,0:0:0:0:
418,181,359629,1,0,0:0:0:0:
460,166,359711,1,0,0:0:0:0:
359,10,360041,5,0,0:0:0:0:
324,15,360124,1,0,0:0:0:0:
289,20,360206,1,0,0:0:0:0:
261,42,360289,1,0,0:0:0:0:
234,64,360371,1,0,0:0:0:0:
475,72,360701,5,0,0:0:0:0:
440,77,360784,1,0,0:0:0:0:
405,81,360866,1,0,0:0:0:0:
300,128,361030,1,0,0:0:0:0:
171,249,361195,1,0,0:0:0:0:
333,301,361360,5,0,0:0:0:0:
346,269,361443,1,0,0:0:0:0:
359,236,361525,1,0,0:0:0:0:
385,213,361608,1,0,0:0:0:0:
415,195,361690,1,0,0:0:0:0:
221,371,362020,5,0,0:0:0:0:
234,338,362103,1,0,0:0:0:0:
248,306,362185,1,0,0:0:0:0:
262,275,362267,1,0,0:0:0:0:
278,245,362349,1,0,0:0:0:0:
307,97,362514,1,0,0:0:0:0:
94,133,362679,5,0,0:0:0:0:
115,161,362762,1,0,0:0:0:0:
137,189,362844,1,0,0:0:0:0:
145,223,362927,1,0,0:0:0:0:
153,256,363009,1,0,0:0:0:0:
89,2,363339,5,0,0:0:0:0:
111,29,363422,1,0,0:0:0:0:
132,57,363504,1,0,0:0:0:0:
137,189,363668,1,0,0:0:0:0:
285,294,363833,1,0,0:0:0:0:
102,285,363997,5,0,0:0:0:0:
60,287,364080,1,0,0:0:0:0:
28,264,364162,1,0,0:0:0:0:
15,226,364245,1,0,0:0:0:0:
27,189,364327,1,0,0:0:0:0:
283,213,364657,5,0,0:0:0:0:
241,211,364740,1,0,0:0:0:0:
209,234,364822,1,0,0:0:0:0:
196,272,364905,1,0,0:0:0:0:
208,309,364987,1,0,0:0:0:0:
405,334,365316,5,0,0:0:0:0:
399,295,365399,1,0,0:0:0:0:
394,256,365481,1,0,0:0:0:0:
370,230,365563,1,0,0:0:0:0:
343,206,365646,1,0,0:0:0:0:
313,31,365975,5,0,0:0:0:0:
308,70,366057,1,0,0:0:0:0:
303,110,366140,1,0,0:0:0:0:
479,221,366305,1,0,0:0:0:0:
407,79,366470,1,0,0:0:0:0:
217,45,366635,5,0,0:0:0:0:
178,51,366718,1,0,0:0:0:0:
139,56,366800,1,0,0:0:0:0:
109,37,366882,1,0,0:0:0:0:
79,17,366965,1,0,0:0:0:0:
0,216,367294,5,0,0:0:0:0:
39,221,367376,1,0,0:0:0:0:
79,226,367459,1,0,0:0:0:0:
178,244,367624,1,0,0:0:0:0:
55,116,367789,1,0,0:0:0:0:
273,52,367953,5,0,0:0:0:0:
267,91,368036,1,0,0:0:0:0:
262,130,368118,1,0,0:0:0:0:
290,150,368200,1,0,0:0:0:0:
320,166,368283,1,0,0:0:0:0:
339,367,368613,1,0,0:0:0:0:
344,328,368695,1,0,0:0:0:0:
349,288,368778,1,0,0:0:0:0:
373,64,368943,5,0,3:0:0:0:
409,88,369025,1,0,3:0:0:0:
427,128,369108,1,0,3:0:0:0:
428,173,369190,1,0,3:0:0:0:
410,214,369273,6,0,L|365:217,4,33.3333333333333
349,288,369602,1,0,0:0:0:0:
328,273,369685,1,0,0:0:0:0:
305,257,369767,1,0,0:0:0:0:
255,266,369850,1,0,0:0:0:0:
229,225,369932,5,0,0:0:0:0:
210,201,370014,1,0,0:0:0:0:
180,194,370097,1,0,0:0:0:0:
150,198,370179,1,0,0:0:0:0:
121,188,370262,1,0,0:0:0:0:
108,160,370344,1,0,0:0:0:0:
108,129,370427,1,0,0:0:0:0:
127,106,370509,1,0,0:0:0:0:
154,89,370591,5,0,0:0:0:0:
203,80,370674,1,0,0:0:0:0:
247,101,370756,1,0,0:0:0:0:
269,145,370839,1,0,0:0:0:0:
262,194,370921,1,0,0:0:0:0:
228,228,371003,1,0,0:0:0:0:
224,277,371085,1,0,0:0:0:0:
253,316,371168,1,0,0:0:0:0:
301,327,371251,1,0,0:0:0:0:
335,292,371333,1,0,0:0:0:0:
339,243,371415,1,0,0:0:0:0:
310,204,371498,1,0,0:0:0:0:
262,194,371580,1,0,0:0:0:0:
215,213,371663,1,0,0:0:0:0:
167,198,371745,1,0,0:0:0:0:
137,156,371828,1,0,0:0:0:0:
148,107,371910,5,0,0:0:0:0:
132,59,371992,1,0,0:0:0:0:
83,44,372075,1,0,0:0:0:0:
39,68,372157,1,0,0:0:0:0:
33,118,372240,1,0,0:0:0:0:
57,161,372322,1,0,0:0:0:0:
75,207,372405,1,0,0:0:0:0:
82,256,372487,1,0,0:0:0:0:
65,302,372569,1,0,0:0:0:0:
49,253,372652,1,0,0:0:0:0:
75,207,372734,1,0,0:0:0:0:
123,192,372817,1,0,0:0:0:0:
166,215,372899,1,0,0:0:0:0:
209,238,372981,1,0,0:0:0:0:
257,223,373064,1,0,0:0:0:0:
283,177,373146,1,0,0:0:0:0:
267,128,373229,5,0,0:0:0:0:
256,176,373311,1,0,0:0:0:0:
273,223,373394,1,0,0:0:0:0:
314,250,373476,1,0,0:0:0:0:
363,251,373559,1,0,0:0:0:0:
397,216,373641,1,0,0:0:0:0:
408,167,373724,1,0,0:0:0:0:
387,123,373806,1,0,0:0:0:0:
346,96,373888,1,0,0:0:0:0:
335,47,373970,1,0,0:0:0:0:
366,7,374053,1,0,0:0:0:0:
415,0,374135,1,0,0:0:0:0:
456,28,374218,1,0,0:0:0:0:
468,76,374300,1,0,0:0:0:0:
437,116,374383,1,0,0:0:0:0:
387,123,374465,1,0,0:0:0:0:
346,96,374547,5,0,0:0:0:0:
298,111,374630,1,0,0:0:0:0:
266,149,374712,1,0,0:0:0:0:
254,198,374795,1,0,0:0:0:0:
261,247,374877,1,0,0:0:0:0:
285,290,374960,1,0,0:0:0:0:
325,319,375042,1,0,0:0:0:0:
374,326,375124,1,0,0:0:0:0:
419,305,375207,1,0,0:0:0:0:
370,292,375289,1,0,0:0:0:0:
325,319,375372,1,0,0:0:0:0:
291,355,375454,1,0,0:0:0:0:
241,362,375536,1,0,0:0:0:0:
193,345,375619,1,0,0:0:0:0:
170,300,375701,1,0,0:0:0:0:
173,249,375784,1,0,0:0:0:0:
209,214,375866,5,0,0:0:0:0:
258,207,375949,1,0,0:0:0:0:
299,234,376031,1,0,0:0:0:0:
311,282,376113,1,0,0:0:0:0:
294,329,376196,1,0,0:0:0:0:
246,315,376278,1,0,0:0:0:0:
195,311,376361,1,0,0:0:0:0:
148,329,376443,1,0,0:0:0:0:
114,366,376525,1,0,0:0:0:0:
64,376,376608,1,0,0:0:0:0:
25,345,376690,1,0,0:0:0:0:
17,295,376773,1,0,0:0:0:0:
45,254,376855,1,0,0:0:0:0:
95,252,376938,1,0,0:0:0:0:
138,227,377020,1,0,0:0:0:0:
147,178,377102,1,0,0:0:0:0:
118,136,377185,5,0,0:0:0:0:
108,87,377267,1,0,0:0:0:0:
146,54,377350,1,0,0:0:0:0:
195,59,377432,1,0,0:0:0:0:
212,105,377514,1,0,0:0:0:0:
207,155,377597,1,0,0:0:0:0:
249,180,377679,1,0,0:0:0:0:
297,166,377762,1,0,0:0:0:0:
307,117,377844,1,0,0:0:0:0:
345,84,377927,1,0,0:0:0:0:
394,83,378009,1,0,0:0:0:0:
439,103,378091,1,0,0:0:0:0:
463,147,378174,1,0,0:0:0:0:
456,196,378256,1,0,0:0:0:0:
432,240,378339,1,0,0:0:0:0:
385,256,378421,1,0,0:0:0:0:
336,246,378503,5,0,0:0:0:0:
302,208,378586,1,0,0:0:0:0:
256,188,378668,1,0,0:0:0:0:
205,188,378751,1,0,0:0:0:0:
161,211,378833,1,0,0:0:0:0:
133,253,378916,1,0,0:0:0:0:
127,302,378998,1,0,0:0:0:0:
137,350,379080,1,0,0:0:0:0:
176,381,379163,1,0,0:0:0:0:
224,370,379245,1,0,0:0:0:0:
253,329,379328,1,0,0:0:0:0:
253,279,379410,1,0,0:0:0:0:
231,234,379492,1,0,0:0:0:0:
256,188,379575,1,0,0:0:0:0:
300,165,379657,1,0,0:0:0:0:
349,174,379740,1,0,0:0:0:0:
382,210,379822,5,0,0:0:0:0:
331,209,379905,1,0,0:0:0:0:
300,165,379987,1,0,0:0:0:0:
297,115,380069,1,0,0:0:0:0:
335,82,380152,1,0,0:0:0:0:
383,94,380234,1,0,0:0:0:0:
418,129,380317,1,0,0:0:0:0:
465,143,380399,1,0,0:0:0:0:
505,114,380481,1,0,0:0:0:0:
507,63,380564,1,0,0:0:0:0:
462,62,380646,1,0,0:0:0:0:
428,104,380729,1,0,0:0:0:0:
440,152,380811,1,0,0:0:0:0:
459,197,380894,1,0,0:0:0:0:
448,245,380976,1,0,0:0:0:0:
413,281,381058,1,0,0:0:0:0:
363,288,381141,5,0,0:0:0:0:
326,254,381223,1,0,0:0:0:0:
276,242,381306,1,0,0:0:0:0:
231,263,381388,1,0,0:0:0:0:
204,304,381470,1,0,0:0:0:0:
237,342,381553,1,0,0:0:0:0:
286,340,381635,1,0,0:0:0:0:
311,296,381718,1,0,0:0:0:0:
296,248,381800,1,0,0:0:0:0:
252,223,381883,1,0,0:0:0:0:
202,218,381965,1,0,0:0:0:0:
155,235,382047,1,0,0:0:0:0:
122,273,382130,1,0,0:0:0:0:
119,322,382212,1,0,0:0:0:0:
82,357,382295,1,0,0:0:0:0:
32,350,382377,1,0,0:0:0:0:
7,305,382460,5,0,0:0:0:0:
9,255,382542,1,0,0:0:0:0:
38,214,382624,1,0,0:0:0:0:
79,186,382707,1,0,0:0:0:0:
128,180,382789,1,0,0:0:0:0:
172,204,382872,1,0,0:0:0:0:
199,245,382954,1,0,0:0:0:0:
206,294,383036,1,0,0:0:0:0:
194,343,383119,1,0,0:0:0:0:
168,300,383201,1,0,0:0:0:0:
161,250,383284,1,0,0:0:0:0:
172,204,383366,1,0,0:0:0:0:
205,166,383449,1,0,0:0:0:0:
250,145,383531,1,0,0:0:0:0:
299,150,383613,1,0,0:0:0:0:
345,168,383696,1,0,0:0:0:0:
371,210,383778,5,0,0:0:0:0:
418,225,383861,1,0,0:0:0:0:
460,199,383943,1,0,0:0:0:0:
465,149,384025,1,0,0:0:0:0:
435,108,384108,1,0,0:0:0:0:
385,100,384190,1,0,0:0:0:0:
337,117,384273,1,0,0:0:0:0:
287,120,384355,1,0,0:0:0:0:
252,82,384438,1,0,0:0:0:0:
252,32,384520,1,0,0:0:0:0:
290,0,384602,1,0,0:0:0:0:
339,10,384685,1,0,0:0:0:0:
365,52,384767,1,0,0:0:0:0:
356,101,384850,1,0,0:0:0:0:
324,139,384932,1,0,0:0:0:0:
285,166,385014,1,0,0:0:0:0:
285,216,385097,5,0,0:0:0:0:
310,258,385179,1,0,0:0:0:0:
358,270,385262,1,0,0:0:0:0:
400,243,385344,1,0,0:0:0:0:
407,193,385427,1,0,0:0:0:0:
452,172,385509,1,0,0:0:0:0:
497,192,385591,1,0,0:0:0:0:
503,241,385674,1,0,0:0:0:0:
477,283,385756,1,0,0:0:0:0:
462,331,385839,1,0,0:0:0:0:
419,356,385921,1,0,0:0:0:0:
369,355,386003,1,0,0:0:0:0:
330,322,386086,1,0,0:0:0:0:
282,306,386168,1,0,0:0:0:0:
231,307,386251,1,0,0:0:0:0:
186,328,386333,1,0,0:0:0:0:
159,370,386416,5,0,0:0:0:0:
143,322,386498,1,0,0:0:0:0:
157,274,386580,1,0,0:0:0:0:
193,238,386663,1,0,0:0:0:0:
203,189,386745,1,0,0:0:0:0:
186,141,386828,1,0,0:0:0:0:
147,109,386910,1,0,0:0:0:0:
97,111,386992,1,0,0:0:0:0:
56,140,387075,1,0,0:0:0:0:
47,188,387157,1,0,0:0:0:0:
65,234,387240,1,0,0:0:0:0:
111,252,387322,1,0,0:0:0:0:
160,243,387405,1,0,0:0:0:0:
197,210,387487,1,0,0:0:0:0:
246,201,387569,1,0,0:0:0:0:
291,222,387652,1,0,0:0:0:0:
318,263,387734,5,0,0:0:0:0:
363,283,387817,1,0,0:0:0:0:
409,266,387899,1,0,0:0:0:0:
417,217,387981,1,0,0:0:0:0:
385,177,388064,1,0,0:0:0:0:
335,175,388146,1,0,0:0:0:0:
300,138,388229,1,0,0:0:0:0:
305,88,388311,1,0,0:0:0:0:
349,63,388394,1,0,0:0:0:0:
299,63,388476,1,0,0:0:0:0:
270,103,388558,1,0,0:0:0:0:
238,142,388641,1,0,0:0:0:0:
188,148,388723,1,0,0:0:0:0:
143,124,388806,1,0,0:0:0:0:
126,77,388888,1,0,0:0:0:0:
144,31,388970,1,0,0:0:0:0:
188,7,389053,5,0,0:0:0:0:
170,53,389135,1,0,0:0:0:0:
147,97,389218,1,0,0:0:0:0:
121,139,389300,1,0,0:0:0:0:
132,187,389383,1,0,0:0:0:0:
172,215,389465,1,0,0:0:0:0:
221,218,389547,1,0,0:0:0:0:
262,189,389630,1,0,0:0:0:0:
281,143,389712,5,0,0:0:0:0:
284,92,389795,1,0,0:0:0:0:
326,65,389877,1,0,0:0:0:0:
376,67,389960,1,0,0:0:0:0:
407,105,390042,1,0,0:0:0:0:
417,127,390124,1,0,0:0:0:0:
426,150,390207,1,0,0:0:0:0:
435,172,390289,1,0,0:0:0:0:
445,194,390372,5,0,0:0:0:0:
461,230,390454,1,0,0:0:0:0:
458,269,390536,1,0,0:0:0:0:
436,303,390619,1,0,0:0:0:0:
400,320,390701,1,0,0:0:0:0:
359,315,390784,1,0,0:0:0:0:
326,292,390866,1,0,0:0:0:0:
290,272,390949,1,0,0:0:0:0:
250,274,391031,1,0,0:0:0:0:
232,291,391113,1,0,0:0:0:0:
220,313,391196,1,0,0:0:0:0:
216,337,391278,1,0,0:0:0:0:
221,361,391361,5,0,0:0:0:0:
246,330,391443,1,0,0:0:0:0:
232,291,391525,1,0,0:0:0:0:
199,266,391608,1,0,0:0:0:0:
160,276,391690,5,0,0:0:0:0:
119,274,391773,1,0,0:0:0:0:
90,245,391855,1,0,0:0:0:0:
83,205,391938,1,0,0:0:0:0:
104,171,392020,1,0,0:0:0:0:
113,209,392102,1,0,0:0:0:0:
90,245,392185,1,0,0:0:0:0:
52,258,392267,1,0,0:0:0:0:
33,293,392350,1,0,0:0:0:0:
42,331,392432,1,0,0:0:0:0:
75,352,392514,1,0,0:0:0:0:
115,347,392597,1,0,0:0:0:0:
145,321,392679,1,0,0:0:0:0:
182,305,392762,1,0,0:0:0:0:
221,307,392844,1,0,0:0:0:0:
252,331,392927,1,0,0:0:0:0:
262,369,393009,5,0,0:0:0:0:
226,341,393091,1,0,0:0:0:0:
220,295,393174,1,0,0:0:0:0:
239,254,393256,1,0,0:0:0:0:
278,230,393339,1,0,0:0:0:0:
322,230,393421,1,0,0:0:0:0:
356,258,393503,1,0,0:0:0:0:
373,299,393586,1,0,0:0:0:0:
369,343,393668,1,0,0:0:0:0:
403,372,393751,1,0,0:0:0:0:
447,379,393833,1,0,0:0:0:0:
487,358,393916,1,0,0:0:0:0:
498,314,393998,1,0,0:0:0:0:
474,275,394080,1,0,0:0:0:0:
454,234,394163,1,0,0:0:0:0:
456,189,394245,1,0,0:0:0:0:
481,151,394328,5,0,0:0:0:0:
491,199,394410,1,0,0:0:0:0:
454,234,394492,1,0,0:0:0:0:
403,235,394575,1,0,0:0:0:0:
359,211,394657,1,0,0:0:0:0:
327,171,394740,1,0,0:0:0:0:
311,123,394822,1,0,0:0:0:0:
317,73,394905,1,0,0:0:0:0:
344,31,394987,1,0,0:0:0:0:
392,21,395069,1,0,0:0:0:0:
436,43,395152,1,0,0:0:0:0:
455,88,395234,1,0,0:0:0:0:
434,134,395317,1,0,0:0:0:0:
384,137,395399,1,0,0:0:0:0:
340,161,395481,1,0,0:0:0:0:
313,203,395564,1,0,0:0:0:0:
316,252,395646,5,0,0:0:0:0:
339,302,395729,1,0,0:0:0:0:
392,312,395811,1,0,0:0:0:0:
439,284,395894,1,0,0:0:0:0:
445,229,395976,1,0,0:0:0:0:
430,176,396058,1,0,0:0:0:0:
384,137,396141,1,0,0:0:0:0:
329,135,396223,1,0,0:0:0:0:
282,164,396306,1,0,0:0:0:0:
257,212,396388,1,0,0:0:0:0:
213,245,396470,1,0,0:0:0:0:
157,247,396553,1,0,0:0:0:0:
109,220,396635,1,0,0:0:0:0:
81,172,396718,1,0,0:0:0:0:
80,117,396800,1,0,0:0:0:0:
113,72,396883,1,0,0:0:0:0:
163,51,396965,5,0,0:0:0:0:
200,64,397047,1,0,0:0:0:0:
221,98,397130,1,0,0:0:0:0:
217,137,397212,1,0,0:0:0:0:
186,163,397295,1,0,0:0:0:0:
155,189,397377,1,0,0:0:0:0:
151,228,397459,1,0,0:0:0:0:
172,262,397542,1,0,0:0:0:0:
209,275,397624,1,0,0:0:0:0:
248,264,397707,1,0,0:0:0:0:
287,265,397789,1,0,0:0:0:0:
317,291,397872,1,0,0:0:0:0:
330,328,397954,1,0,0:0:0:0:
316,365,398036,1,0,0:0:0:0:
279,382,398119,1,0,0:0:0:0:
239,377,398201,1,0,0:0:0:0:
208,351,398284,5,0,0:0:0:0:
208,291,398366,1,0,0:0:0:0:
194,232,398449,1,0,0:0:0:0:
152,188,398531,1,0,0:0:0:0:
94,171,398613,1,0,0:0:0:0:
34,182,398696,1,0,0:0:0:0:
11,237,398778,1,0,0:0:0:0:
28,294,398861,1,0,0:0:0:0:
83,315,398943,1,0,0:0:0:0:
139,295,399025,1,0,0:0:0:0:
177,248,399108,1,0,0:0:0:0:
231,223,399190,1,0,0:0:0:0:
290,230,399273,1,0,0:0:0:0:
339,263,399355,1,0,0:0:0:0:
399,259,399438,1,0,0:0:0:0:
444,219,399520,1,0,0:0:0:0:
445,159,399602,5,0,0:0:0:0:
421,97,399685,1,0,0:0:0:0:
365,63,399767,1,0,0:0:0:0:
299,69,399850,1,0,0:0:0:0:
253,115,399932,1,0,0:0:0:0:
238,178,400014,1,0,0:0:0:0:
261,239,400097,1,0,0:0:0:0:
314,274,400179,1,0,0:0:0:0:
379,267,400262,1,0,0:0:0:0:
425,221,400344,1,0,0:0:0:0:
488,237,400427,1,0,0:0:0:0:
506,298,400509,1,0,0:0:0:0:
462,345,400591,1,0,0:0:0:0:
397,335,400674,1,0,0:0:0:0:
347,292,400756,1,0,0:0:0:0:
281,285,400839,1,0,0:0:0:0:
224,316,400921,5,0,0:0:0:0:
256,254,401003,1,0,0:0:0:0:
266,184,401086,1,0,0:0:0:0:
237,120,401168,1,0,0:0:0:0:
176,83,401251,5,0,0:0:0:0:
192,129,401333,1,0,0:0:0:0:
184,178,401416,1,0,0:0:0:0:
142,205,401498,1,0,0:0:0:0:
92,199,401580,5,0,0:0:0:0:
51,196,401663,1,0,0:0:0:0:
19,219,401745,1,0,0:0:0:0:
10,258,401828,1,0,0:0:0:0:
25,294,401910,1,0,0:0:0:0:
58,315,401992,1,0,0:0:0:0:
97,309,402075,1,0,0:0:0:0:
136,312,402157,1,0,0:0:0:0:
171,331,402240,5,0,0:0:0:0:
205,334,402322,1,0,0:0:0:0:
238,322,402405,1,0,0:0:0:0:
255,291,402487,1,0,0:0:0:0:
249,256,402569,1,0,0:0:0:0:
246,220,402652,1,0,0:0:0:0:
262,189,402734,1,0,0:0:0:0:
296,179,402817,1,0,0:0:0:0:
330,183,402899,1,0,0:0:0:0:
354,207,402981,1,0,0:0:0:0:
361,241,403064,1,0,0:0:0:0:
351,274,403146,1,0,0:0:0:0:
359,308,403229,1,0,0:0:0:0:
382,333,403311,1,0,0:0:0:0:
416,340,403394,1,0,0:0:0:0:
449,330,403476,1,0,0:0:0:0:
469,301,403558,5,0,0:0:0:0:
477,256,403641,1,0,0:0:0:0:
466,212,403723,1,0,0:0:0:0:
433,180,403806,1,0,0:0:0:0:
388,172,403888,1,0,0:0:0:0:
346,188,403970,1,0,0:0:0:0:
319,224,404053,1,0,0:0:0:0:
314,268,404135,1,0,0:0:0:0:
329,310,404218,1,0,0:0:0:0:
340,266,404300,1,0,0:0:0:0:
319,224,404383,1,0,0:0:0:0:
275,213,404465,1,0,0:0:0:0:
233,230,404547,1,0,0:0:0:0:
210,269,404630,1,0,0:0:0:0:
179,302,404712,1,0,0:0:0:0:
135,308,404795,1,0,0:0:0:0:
93,290,404877,5,0,0:0:0:0:
72,243,404960,1,0,0:0:0:0:
79,193,405042,1,0,0:0:0:0:
120,164,405124,1,0,0:0:0:0:
170,165,405207,1,0,0:0:0:0:
208,196,405289,1,0,0:0:0:0:
258,194,405372,1,0,0:0:0:0:
290,156,405454,1,0,0:0:0:0:
294,106,405536,1,0,0:0:0:0:
255,74,405619,1,0,0:0:0:0:
205,78,405701,1,0,0:0:0:0:
170,114,405784,1,0,0:0:0:0:
170,165,405866,1,0,0:0:0:0:
201,204,405949,1,0,0:0:0:0:
207,253,406031,1,0,0:0:0:0:
182,296,406113,1,0,0:0:0:0:
135,308,406196,5,0,0:0:0:0:
85,284,406278,1,0,0:0:0:0:
57,236,406361,1,0,0:0:0:0:
53,181,406443,1,0,0:0:0:0:
56,126,406525,1,0,0:0:0:0:
107,104,406608,1,0,0:0:0:0:
153,132,406690,1,0,0:0:0:0:
166,187,406773,1,0,0:0:0:0:
133,230,406855,5,0,0:0:0:0:
124,224,406938,1,0,0:0:0:0:
115,218,407020,1,0,0:0:0:0:
106,212,407102,1,0,0:0:0:0:
63,193,407185,5,0,0:0:0:0:
54,187,407267,1,0,0:0:0:0:
45,181,407350,1,0,0:0:0:0:
36,175,407432,1,0,0:0:0:0:
28,123,407514,5,0,0:0:0:0:
69,59,407597,1,0,0:0:0:0:
139,37,407679,1,0,0:0:0:0:
202,77,407762,1,0,0:0:0:0:
225,148,407844,1,0,0:0:0:0:
189,214,407927,1,0,0:0:0:0:
118,240,408009,5,0,0:0:0:0:
156,175,408091,1,0,0:0:0:0:
225,148,408174,1,0,0:0:0:0:
296,169,408256,1,0,0:0:0:0:
344,226,408339,1,0,0:0:0:0:
341,300,408421,1,0,0:0:0:0:
296,359,408503,5,0,0:0:0:0:
237,374,408586,1,0,0:0:0:0:
182,350,408668,1,0,0:0:0:0:
152,297,408751,1,0,0:0:0:0:
165,238,408833,1,0,0:0:0:0:
215,205,408916,1,0,0:0:0:0:
274,207,408998,5,0,0:0:0:0:
320,265,409080,1,0,0:0:0:0:
394,274,409163,1,0,0:0:0:0:
454,230,409245,1,0,0:0:0:0:
466,155,409328,1,0,0:0:0:0:
420,95,409410,1,0,0:0:0:0:
347,78,409492,5,0,0:0:0:0:
305,122,409575,1,0,0:0:0:0:
245,129,409657,1,0,0:0:0:0:
190,102,409740,1,0,0:0:0:0:
169,45,409822,5,0,0:0:0:0:
111,27,409905,1,0,0:0:0:0:
53,42,409987,1,0,0:0:0:0:
26,95,410069,1,0,0:0:0:0:
42,153,410152,5,0,0:0:0:0:
107,188,410234,1,0,0:0:0:0:
177,160,410317,1,0,0:0:0:0:
245,129,410399,1,0,0:0:0:0:
313,159,410481,1,0,0:0:0:0:
328,233,410564,1,0,0:0:0:0:
281,291,410646,5,0,0:0:0:0:
205,299,410729,1,0,0:0:0:0:
169,233,410811,1,0,0:0:0:0:
177,160,410894,1,0,0:0:0:0:
135,97,410976,1,0,0:0:0:0:
63,74,411058,1,0,0:0:0:0:
0,116,411141,5,0,0:0:0:0:
43,157,411223,1,0,0:0:0:0:
103,163,411306,1,0,0:0:0:0:
147,123,411388,1,0,0:0:0:0:
155,63,411470,1,0,0:0:0:0:
203,26,411553,1,0,0:0:0:0:
262,28,411635,5,0,0:0:0:0:
300,74,411718,1,0,0:0:0:0:
288,132,411800,1,0,0:0:0:0:
239,167,411883,1,0,0:0:0:0:
177,160,411965,1,0,0:0:0:0:
120,178,412047,1,0,0:0:0:0:
100,235,412130,5,0,0:0:0:0:
114,292,412212,1,0,0:0:0:0:
167,320,412295,1,0,0:0:0:0:
225,309,412377,1,0,0:0:0:0:
257,257,412460,5,0,0:0:0:0:
306,255,412542,1,0,0:0:0:0:
346,283,412624,1,0,0:0:0:0:
357,331,412707,1,0,0:0:0:0:
331,373,412789,6,0,B|312:276|312:276|366:191,1,200
171,19,413284,2,0,B|225:103|225:103|205:201,1,200
13,91,413779,2,0,L|138:111,1,100
280,35,414108,6,0,B|310:78|310:78|304:135,1,100
485,133,414438,2,0,B|432:132|432:132|396:101,1,100
321,218,414768,6,0,L|221:352,1,150
210,366,415097,1,0,0:0:0:0:
225,97,415262,6,0,L|71:163,1,150
54,169,415591,1,0,0:0:0:0:
468,312,415757,6,0,B|458:238|458:238|491:171,1,150
508,141,416086,1,0,0:0:0:0:
313,0,416251,6,0,B|346:67|346:67|335:141,1,150
330,180,416580,1,0,0:0:0:0:
321,219,416663,1,0,0:0:0:0:
312,258,416746,1,0,0:0:0:0:
181,354,416910,1,0,0:0:0:0:
154,128,417075,1,0,0:0:0:0:
207,36,417405,5,0,0:0:0:0:
44,330,417570,1,0,0:0:0:0:
207,36,417735,1,0,0:0:0:0:
305,79,418229,5,0,0:0:0:0:
468,373,418394,1,0,0:0:0:0:
305,79,418559,1,0,0:0:0:0:
252,376,419053,5,0,0:0:0:0:
407,55,419218,1,0,0:0:0:0:
93,222,419383,1,0,0:0:0:0:
446,272,419548,1,0,0:0:0:0:
189,25,419713,1,0,0:0:0:0:
279,206,419877,1,0,0:0:0:0:
279,206,419960,1,0,0:0:0:0:
279,206,420043,6,0,B|217:126|217:126|119:110,1,200
37,369,420537,2,0,B|98:289|98:289|196:273,1,200
29,151,421032,2,0,B|24:100|24:100|42:54,1,100
147,364,421361,6,0,L|250:346,1,100
190,177,421691,2,0,B|187:220|187:220|198:239|198:239|194:280,1,100
390,346,422021,5,0,0:0:0:0:
392,326,422103,1,0,0:0:0:0:
394,306,422185,1,0,0:0:0:0:
396,286,422268,1,0,0:0:0:0:
400,266,422350,1,0,0:0:0:0:
402,246,422433,1,0,0:0:0:0:
378,223,422515,5,0,0:0:0:0:
380,203,422597,1,0,0:0:0:0:
382,183,422679,1,0,0:0:0:0:
384,163,422762,1,0,0:0:0:0:
388,143,422844,1,0,0:0:0:0:
390,123,422927,1,0,0:0:0:0:
420,84,423010,5,0,0:0:0:0:
401,91,423092,1,0,0:0:0:0:
381,95,423174,1,0,0:0:0:0:
360,93,423257,1,0,0:0:0:0:
340,88,423339,1,0,0:0:0:0:
321,79,423422,1,0,0:0:0:0:
293,37,423504,5,0,0:0:0:0:
274,30,423586,1,0,0:0:0:0:
254,26,423668,1,0,0:0:0:0:
233,28,423751,1,0,0:0:0:0:
213,33,423833,1,0,0:0:0:0:
194,42,423916,1,0,0:0:0:0:
186,60,423999,6,0,L|152:56,4,33.3333333333333
79,90,424328,1,0,0:0:0:0:
85,129,424411,1,0,0:0:0:0:
91,168,424493,1,0,0:0:0:0:
98,206,424575,1,0,0:0:0:0:
105,245,424658,5,0,0:0:0:0:
142,230,424740,1,0,0:0:0:0:
177,247,424822,1,0,0:0:0:0:
193,283,424905,1,0,0:0:0:0:
180,320,424987,1,0,0:0:0:0:
145,340,425070,1,0,0:0:0:0:
107,328,425152,1,0,0:0:0:0:
107,328,425482,5,0,0:0:0:0:
145,316,425564,1,0,0:0:0:0:
182,329,425647,1,0,0:0:0:0:
213,353,425729,1,0,0:0:0:0:
250,366,425811,1,0,0:0:0:0:
289,357,425894,1,0,0:0:0:0:
315,327,425976,1,0,0:0:0:0:
314,286,426059,1,0,0:0:0:0:
289,254,426141,1,0,0:0:0:0:
239,70,426306,1,0,0:0:0:0:
420,127,426471,1,0,0:0:0:0:
314,163,426636,5,0,0:0:0:0:
294,165,426718,1,0,0:0:0:0:
274,167,426800,1,0,0:0:0:0:
254,169,426883,1,0,0:0:0:0:
234,173,426965,1,0,0:0:0:0:
214,175,427048,1,0,0:0:0:0:
191,151,427130,5,0,0:0:0:0:
171,153,427212,1,0,0:0:0:0:
151,155,427294,1,0,0:0:0:0:
131,157,427377,1,0,0:0:0:0:
111,161,427459,1,0,0:0:0:0:
91,163,427542,1,0,0:0:0:0:
65,196,427625,6,0,B|73:157|73:157|30:51,1,150
48,21,427954,1,0,0:0:0:0:
186,36,428174,1,0,0:0:0:0:
259,40,428284,1,0,0:0:0:0:
312,90,428394,1,0,0:0:0:0:
314,163,428504,1,0,0:0:0:0:
273,224,428614,6,0,P|236:288|245:361,1,150
278,377,428943,1,0,0:0:0:0:
512,333,429108,2,0,L|342:301,1,150
356,270,429438,1,0,0:0:0:0:
161,217,429603,2,0,L|-9:249,1,150
5,280,429933,1,0,0:0:0:0:
290,24,430097,6,0,L|272:230,1,200
270,263,430509,1,0,0:0:0:0:
268,303,430592,1,0,0:0:0:0:
378,193,430756,1,0,0:0:0:0:
177,115,430921,1,0,0:0:0:0:
309,62,431086,1,0,0:0:0:0:
168,248,431251,5,0,0:0:0:0:
395,351,431416,1,0,0:0:0:0:
385,100,431581,1,0,0:0:0:0:
305,358,431745,5,0,0:0:0:0:
497,197,431910,1,0,0:0:0:0:
246,196,432075,1,0,0:0:0:0:
476,292,432240,5,0,0:0:0:0:
296,125,432405,1,0,0:0:0:0:
168,340,432570,1,0,0:0:0:0:
378,218,432734,5,0,0:0:0:0:
129,244,432899,1,0,0:0:0:0:
222,33,433064,1,0,0:0:0:0:
296,125,433229,5,0,0:0:0:0:
312,155,433311,1,0,0:0:0:0:
309,190,433394,1,0,0:0:0:0:
290,219,433476,1,0,0:0:0:0:
256,230,433559,1,0,0:0:0:0:
235,258,433641,1,0,0:0:0:0:
230,292,433723,1,0,0:0:0:0:
243,324,433806,1,0,0:0:0:0:
271,343,433888,5,0,0:0:0:0:
145,250,434218,1,0,0:0:0:0:
383,304,434383,1,0,0:0:0:0:
237,146,434713,1,0,0:0:0:0:
271,138,434795,1,0,0:0:0:0:
305,130,434878,1,0,0:0:0:0:
198,384,435042,1,0,0:0:0:0:
415,134,435537,5,0,0:0:0:0:
342,100,435647,1,0,0:0:0:0:
271,138,435757,1,0,0:0:0:0:
217,197,435867,1,0,0:0:0:0:
164,198,435976,1,0,0:0:0:0:
127,159,436086,1,0,0:0:0:0:
113,118,436196,6,0,L|83:289,1,160
218,91,436690,2,0,L|304:241,1,160
290,16,437185,6,0,L|371:46,1,80
512,85,437514,1,0,0:0:0:0:
435,335,437844,6,0,P|402:263|410:184,1,160
310,337,438338,2,0,P|271:317|228:314,2,80
297,229,438833,2,0,P|273:192|237:168,1,80
512,247,439163,1,0,0:0:0:0:
512,247,439327,1,0,0:0:0:0:
370,92,439492,6,0,P|446:80|502:133,1,160
244,171,439987,2,0,P|166:176|115:118,1,160
258,29,440481,2,0,P|240:64|205:82,1,80
67,215,440811,1,0,0:0:0:0:
121,22,440976,1,0,0:0:0:0:
176,266,441141,6,0,L|114:116,1,160
385,228,441635,2,0,L|447:78,1,160
463,43,442047,1,0,0:0:0:0:
479,6,442130,1,0,0:0:0:0:
349,67,442294,1,0,0:0:0:0:
282,194,442459,1,0,0:0:0:0:
282,338,442624,1,0,0:0:0:0:
425,327,442789,5,0,0:0:0:0:
425,327,442954,1,0,0:0:0:0:
358,372,443119,1,0,0:0:0:0:
260,265,443283,5,0,0:0:0:0:
24,310,443448,1,0,0:0:0:0:
63,80,443613,1,0,0:0:0:0:
299,35,443778,1,0,0:0:0:0:
165,182,444108,5,0,0:0:0:0:
229,363,444272,1,0,0:0:0:0:
409,252,444437,5,0,0:0:0:0:
409,252,444602,1,0,0:0:0:0:
399,174,444767,1,0,0:0:0:0:
268,133,444932,5,0,0:0:0:0:
504,88,445097,1,0,0:0:0:0:
465,318,445262,1,0,0:0:0:0:
229,363,445427,1,0,0:0:0:0:
333,224,445756,5,0,0:0:0:0:
263,268,446086,5,0,0:0:0:0:
263,268,446250,1,0,0:0:0:0:
211,206,446415,1,0,0:0:0:0:
301,69,446580,5,0,0:0:0:0:
384,259,446745,1,0,0:0:0:0:
191,338,446910,1,0,0:0:0:0:
108,148,447075,1,0,0:0:0:0:
297,185,447404,5,0,0:0:0:0:
115,254,447734,6,0,B|102:281|102:281|80:279|59:292|59:292|32:270,1,100
280,83,448228,2,0,B|292:110|292:110|315:108|336:121|336:121|363:99,1,100
429,172,448558,1,0,0:0:0:0:
348,9,448723,1,0,0:0:0:0:
297,185,448887,5,0,0:0:0:0:
43,147,449217,1,0,0:0:0:0:
217,69,449382,1,0,0:0:0:0:
355,105,449547,1,0,0:0:0:0:
429,172,449712,1,0,0:0:0:0:
