osu file format v14

[General]
AudioFilename: 05 U.N..mp3
AudioLeadIn: 0
PreviewTime: 101290
Countdown: 0
SampleSet: Normal
StackLeniency: 0.7
Mode: 0
LetterboxInBreaks: 1
WidescreenStoryboard: 0

[Editor]
Bookmarks: 83510,87095,235823,257042
DistanceSpacing: 1.3
BeatDivisor: 3
GridSize: 4
TimelineZoom: 1.7

[Metadata]
Title:U.N. Owen wa Kanojo nanoka?
TitleUnicode:U.N.オーエンは彼女なのか?
Artist:Demetori
ArtistUnicode:Demetori
Creator:Louis Cyphre
Version:Unknown
Source:東方Project
Tags:Flandre Scarlet EoSD embodiment of scarlet devil Eastern Lands metal toho ZUN BEGIERDE DES ZAUBERER lepidopodus lepidon onosakihito Nwolf Ntiger
BeatmapID:844718
BeatmapSetID:42247

[Difficulty]
HPDrainRate:6
CircleSize:4
OverallDifficulty:8
ApproachRate:9
SliderMultiplier:1.8
SliderTickRate:1

[Events]
//Background and Video events
0,0,"BGOMG.png",0,0
//Break Periods
2,77929,81813
2,142904,151178
2,266903,275467
//Storyboard Layer 0 (Background)
//Storyboard Layer 1 (Fail)
//Storyboard Layer 2 (Pass)
//Storyboard Layer 3 (Foreground)
//Storyboard Sound Samples

[TimingPoints]
9799,309.278350515464,4,1,1,75,1,0
10998,292.682926829268,4,1,1,65,1,0
96461,292.682926829268,3,1,1,65,1,0
99095,292.682926829268,4,1,1,65,1,0
103777,-100,4,1,1,65,0,1
112850,-100,4,1,1,40,0,1
113069,-100,4,1,1,65,0,1
131875,-100,4,1,1,65,0,0
161144,272.727272727273,4,1,0,75,1,0
162644,292.682926829268,4,1,1,65,1,0
205961,292.682926829268,3,1,1,65,1,0
208595,292.682926829268,4,1,1,65,1,0
209630,292.682926829268,4,1,1,65,1,0
229971,292.682926829268,4,1,1,65,1,0
233337,292.682926829268,4,1,1,65,1,1
233337,-100,4,1,1,65,0,1
261434,-100,4,1,1,65,0,0
266702,292.682926829268,4,1,1,65,1,0

[Colours]
Combo1 : 111,0,111
Combo2 : 223,0,0
Combo3 : 239,91,3
Combo4 : 37,175,3

[HitObjects]
88,88,9798,6,0,B|104:176,1,90,8|8,0:0|0:0,0:0:0:0:
280,288,10262,1,8,0:0:0:0:
456,324,10998,5,4,0:0:0:0:
388,252,11144,2,0,B|404:164|392:72,1,180,8|8,0:0|0:0,0:0:0:0:
284,64,11583,1,0,0:0:0:0:
72,48,11876,2,0,B|44:136|56:236,1,180,8|4,0:0|0:0,0:0:0:0:
104,324,12315,2,0,B|200:332|268:264,1,180,8|8,0:0|0:0,0:0:0:0:
408,60,12754,2,0,B|312:52|244:120,1,180,0|8,0:0|0:0,0:0:0:0:
380,284,13339,5,4,0:0:0:0:
472,232,13485,2,0,B|448:192|404:168|352:172|312:196,1,180,8|8,0:0|0:0,0:0:0:0:
40,152,13924,2,0,B|64:192|108:216|160:212|200:188,1,180,0|8,0:0|0:0,0:0:0:0:
132,108,14363,1,0,0:0:0:0:
208,180,14510,2,0,B|220:284,1,90,4|8,0:0|0:0,0:0:0:0:
116,300,14802,1,0,0:0:0:0:
224,288,14949,2,0,B|312:324|400:288,1,180,8|0,0:0|0:0,0:0:0:0:
476,108,15388,2,0,B|388:72|300:108,1,180,8|0,0:0|0:0,0:0:0:0:
196,84,15827,5,4,0:0:0:0:
64,248,16119,2,0,B|16:168|64:76,1,180,8|8,0:0|0:0,0:0:0:0:
300,108,16558,2,0,B|348:188|300:280,1,180,0|0,0:0|0:0,0:0:0:0:
196,256,16997,2,0,B|148:176|196:84,1,180,8|8,0:0|0:0,0:0:0:0:
448,136,17437,2,0,B|496:216|448:308,1,180,0|8,0:0|0:0,0:0:0:0:
240,344,18022,5,4,0:0:0:0:
208,244,18168,2,0,B|168:68,1,180,8|8,0:0|0:0,0:0:0:0:
276,68,18607,2,0,B|360:108|452:84,1,180,0|8,0:0|0:0,0:0:0:0:
468,188,19046,1,0,0:0:0:0:
364,204,19193,6,0,B|344:296,1,90,4|8,0:0|0:0,0:0:0:0:
248,336,19485,1,0,0:0:0:0:
208,236,19632,2,0,B|140:172|40:180,1,180,8|0,0:0|0:0,0:0:0:0:
28,76,20071,2,0,L|109:38,1,90,8|0,0:0|0:0,0:0:0:0:
172,116,20363,6,0,L|253:78,1,90,4|8,0:0|0:0,0:0:0:0:
472,88,20802,2,0,B|448:176|464:268,1,180,8|0,0:0|0:0,0:0:0:0:
396,348,21241,2,0,B|208:336,1,180,8|0,0:0|0:0,0:0:0:0:
132,268,21680,1,8,0:0:0:0:
68,64,21973,2,0,B|92:156,1,90,8|0,0:0|0:0,0:0:0:0:
280,244,22412,1,8,0:0:0:0:
392,64,22705,5,4,0:0:0:0:
460,144,22851,2,0,B|412:220|428:320,1,180,8|8,0:0|0:0,0:0:0:0:
324,340,23290,2,0,B|128:324,1,180,0|8,0:0|0:0,0:0:0:0:
64,256,23729,1,0,0:0:0:0:
48,152,23876,2,0,B|44:100,2,45,8|0|0,0:0|0:0|0:0,0:0:0:0:
140,204,24168,2,0,B|168:164,2,45,8|0|0,0:0|0:0|0:0,0:0:0:0:
208,272,24461,6,0,P|272:248|348:252,1,135,4|0,0:0|0:0,0:0:0:0:
346,252,24754,1,8,0:0:0:0:
354,254,24827,1,8,0:0:0:0:
362,257,24900,2,0,B|407:268,1,45,8|0,0:0|0:0,0:0:0:0:
476,304,25046,6,0,L|496:200,1,90,4|8,0:0|0:0,0:0:0:0:
236,76,25485,2,0,B|180:144|192:248,1,180,8|0,0:0|0:0,0:0:0:0:
140,340,25924,2,0,B|48:340,1,90,8|0,0:0|0:0,0:0:0:0:
16,240,26217,1,0,0:0:0:0:
120,252,26363,2,0,B|212:240|300:252,1,180,8|8,0:0|0:0,0:0:0:0:
408,252,26802,2,0,B|468:176,1,90
364,140,27095,2,0,B|400:96,2,45,8|0|0,0:0|0:0|0:0,0:0:0:0:
260,124,27388,6,0,P|171:132|87:98,1,180,4|0,0:0|0:0,0:0:0:0:
88,204,27827,2,0,B|52:288|64:384,1,180,8|8,0:0|0:0,0:0:0:0:
152,336,28266,2,0,B|204:340|236:304,1,90
336,288,28558,2,0,B|420:252|420:252|448:164,1,180,8|8,0:0|0:0,0:0:0:0:
176,96,28997,2,0,B|92:132|92:132|64:220,2,180,4|4|4,0:0|0:0|0:0,0:0:0:0:
172,204,29729,6,0,B|168:256|208:284,1,90,4|8,0:0|0:0,0:0:0:0:
340,180,30022,2,0,B|344:128|304:100,1,90,0|8,0:0|0:0,0:0:0:0:
163,208,30315,6,0,B|160:260|198:286,1,90,0|8,0:0|0:0,0:0:0:0:
348,175,30607,2,0,B|352:124|313:97,1,90,0|8,0:0|0:0,0:0:0:0:
208,116,30900,6,0,B|176:84|124:88,1,90,0|8,0:0|0:0,0:0:0:0:
304,268,31193,2,0,B|336:300|388:296,1,90,0|8,0:0|0:0,0:0:0:0:
212,104,31485,6,0,B|180:72|128:76,1,90,0|8,0:0|0:0,0:0:0:0:
300,280,31778,2,0,B|332:312|384:308,1,90,0|8,0:0|0:0,0:0:0:0:
168,240,32071,6,0,B|124:260|124:260|104:296,1,90,4|8,0:0|0:0,0:0:0:0:
344,144,32363,2,0,B|388:124|388:124|408:88,1,90,0|8,0:0|0:0,0:0:0:0:
160,232,32656,6,0,B|116:252|116:252|96:288,1,90,0|8,0:0|0:0,0:0:0:0:
352,152,32949,2,0,B|396:132|396:132|416:96,1,90,0|8,0:0|0:0,0:0:0:0:
484,176,33241,6,0,B|472:264,1,90,0|8,0:0|0:0,0:0:0:0:
388,332,33534,1,8,0:0:0:0:
296,284,33680,1,0,0:0:0:0:
196,324,33827,2,0,B|128:272|128:160,1,180,8|8,0:0|0:0,0:0:0:0:
84,76,34266,1,8,0:0:0:0:
308,100,34412,6,0,B|364:96|392:148|376:208|320:212,1,180,4|0,0:0|0:0,0:0:0:0:
204,284,34997,2,0,B|148:288|120:236|136:176|192:172,1,180,4|0,0:0|0:0,0:0:0:0:
352,100,35583,6,0,B|408:96|436:148|420:208|364:212,1,180,4|0,0:0|0:0,0:0:0:0:
160,284,36168,2,0,B|104:288|76:236|92:176|148:172,1,180,4|0,0:0|0:0,0:0:0:0:
388,100,36754,6,0,B|444:96|472:148|456:208|400:212,1,180,4|0,0:0|0:0,0:0:0:0:
124,284,37339,2,0,B|68:288|40:236|56:176|112:172,1,180,4|0,0:0|0:0,0:0:0:0:
424,100,37924,6,0,B|440:144|436:192,1,90,4|0,0:0|0:0,0:0:0:0:
256,192,38217,1,0,0:0:0:0:
87,283,38363,2,0,B|72:240|75:195,1,90,8|8,0:0|0:0,0:0:0:0:
308,216,39095,6,0,B|336:256|308:300,1,90,4|8,0:0|0:0,0:0:0:0:
204,168,39388,2,0,B|176:128|204:84,1,90,0|8,0:0|0:0,0:0:0:0:
313,186,39680,2,0,B|357:207|355:259,1,90,4|8,0:0|0:0,0:0:0:0:
198,197,39973,2,0,B|154:176|156:124,1,90,0|8,0:0|0:0,0:0:0:0:
302,158,40266,6,0,B|351:154|375:201,1,90,0|8,0:0|0:0,0:0:0:0:
209,225,40559,2,0,B|160:229|136:182,1,90,0|8,0:0|0:0,0:0:0:0:
279,140,40851,2,0,B|320:111|364:140,1,90,0|8,0:0|0:0,0:0:0:0:
232,243,41144,2,0,B|192:272|147:243,1,90,0|8,0:0|0:0,0:0:0:0:
44,264,41437,6,0,B|60:172,1,90,4|8,0:0|0:0,0:0:0:0:
468,120,41729,2,0,B|452:212,1,90,0|8,0:0|0:0,0:0:0:0:
64,256,42022,2,0,B|84:168,1,90,0|8,0:0|0:0,0:0:0:0:
448,128,42315,2,0,B|428:216,1,90,0|8,0:0|0:0,0:0:0:0:
88,244,42607,6,0,B|112:144,1,90,0|8,0:0|0:0,0:0:0:0:
424,140,42900,2,0,B|400:240,1,90,0|8,0:0|0:0,0:0:0:0:
312,284,43193,1,8,0:0:0:0:
220,228,43339,1,8,0:0:0:0:
208,216,43412,1,8,0:0:0:0:
196,204,43485,2,0,B|180:156|196:112,1,90,8|8,0:0|0:0,0:0:0:0:
264,36,43778,6,0,B|348:68,1,90,4|8,0:0|0:0,0:0:0:0:
492,92,44071,2,0,B|408:124,1,90,0|8,0:0|0:0,0:0:0:0:
260,148,44363,2,0,B|344:180,1,90,0|8,0:0|0:0,0:0:0:0:
492,208,44656,2,0,B|400:232,1,90,0|8,0:0|0:0,0:0:0:0:
260,148,44949,6,0,B|232:236,1,90,4|8,0:0|0:0,0:0:0:0:
128,348,45241,2,0,B|156:256,1,90,0|8,0:0|0:0,0:0:0:0:
196,92,45534,2,0,B|168:180,1,90,0|8,0:0|0:0,0:0:0:0:
64,292,45827,2,0,B|92:200,1,90,0|8,0:0|0:0,0:0:0:0:
40,112,46119,6,0,B|72:80|72:80|120:72,1,90,0|8,0:0|0:0,0:0:0:0:
216,168,46412,1,0,0:0:0:0:
208,184,46485,1,0,0:0:0:0:
200,200,46558,1,8,0:0:0:0:
384,240,46705,6,0,B|352:272|352:272|304:280,1,90,0|8,0:0|0:0,0:0:0:0:
216,168,46997,1,0,0:0:0:0:
224,152,47071,1,0,0:0:0:0:
232,136,47145,1,8,0:0:0:0:
336,148,47290,6,0,B|284:192|272:264,1,135,4|0,0:0|0:0,0:0:0:0:
260,280,47583,2,0,B|192:304|128:276,1,135,8|0,0:0|0:0,0:0:0:0:
52,244,47876,5,8,0:0:0:0:
55,235,47949,1,0,0:0:0:0:
58,227,48022,1,0,0:0:0:0:
61,218,48095,1,0,0:0:0:0:
64,210,48168,1,0,0:0:0:0:
67,202,48241,1,0,0:0:0:0:
70,193,48315,1,4,0:0:0:0:
164,128,48461,5,4,0:0:0:0:
472,284,48754,1,4,0:0:0:0:
108,60,49046,2,0,B|80:96|80:144,1,90,4|8,0:0|0:0,0:0:0:0:
348,256,49632,5,4,0:0:0:0:
40,100,49925,1,4,0:0:0:0:
404,324,50217,2,0,B|432:288|432:240,1,90,8|4,0:0|0:0,0:0:0:0:
124,324,50802,6,0,B|112:280|124:236,1,90,4|0,0:0|0:0,0:0:0:0:
128,40,51095,2,0,B|148:88,2,45,4|0|0,0:0|0:0|0:0,0:0:0:0:
224,84,51388,1,8,0:0:0:0:
48,216,51534,1,4,0:0:0:0:
340,236,51827,5,0,0:0:0:0:
384,332,51973,1,8,0:0:0:0:
234,226,52119,1,0,0:0:0:0:
401,149,52266,1,0,0:0:0:0:
280,320,52412,5,8,0:0:0:0:
297,137,52558,1,0,0:0:0:0:
448,244,52705,1,0,0:0:0:0:
384,332,52851,5,12,0:0:0:0:
234,226,52997,1,0,0:0:0:0:
401,149,53144,6,0,B|432:112,2,45,4|0|0,0:0|0:0|0:0,0:0:0:0:
340,236,53437,1,4,0:0:0:0:
336,240,53510,1,0,0:0:0:0:
332,244,53583,1,0,0:0:0:0:
188,312,53729,1,8,0:0:0:0:
188,136,53876,1,12,0:0:0:0:
364,48,54315,5,4,0:0:0:0:
360,56,54388,1,0,0:0:0:0:
356,64,54461,1,0,0:0:0:0:
148,48,54607,1,4,0:0:0:0:
152,56,54680,1,0,0:0:0:0:
156,64,54754,1,0,0:0:0:0:
132,168,54900,1,8,0:0:0:0:
380,168,55046,1,12,0:0:0:0:
364,336,55485,5,0,0:0:0:0:
360,328,55558,1,0,0:0:0:0:
356,320,55631,1,0,0:0:0:0:
148,336,55777,1,0,0:0:0:0:
152,328,55850,1,0,0:0:0:0:
156,320,55924,1,0,0:0:0:0:
132,216,56070,1,8,0:0:0:0:
380,216,56217,1,4,0:0:0:0:
24,188,56510,5,0,0:0:0:0:
80,100,56656,5,4,0:0:0:0:
136,192,56802,1,0,0:0:0:0:
80,284,56949,1,0,0:0:0:0:
156,84,57095,5,4,0:0:0:0:
212,192,57242,1,0,0:0:0:0:
156,304,57388,1,0,0:0:0:0:
232,72,57534,5,4,0:0:0:0:
288,192,57680,1,0,0:0:0:0:
232,312,57827,1,0,0:0:0:0:
308,60,57973,5,4,0:0:0:0:
364,192,58119,1,0,0:0:0:0:
308,324,58266,1,0,0:0:0:0:
404,104,58412,5,0,0:0:0:0:
424,120,58485,1,0,0:0:0:0:
440,144,58558,1,0,0:0:0:0:
452,168,58632,1,0,0:0:0:0:
456,192,58705,1,0,0:0:0:0:
452,216,58778,1,0,0:0:0:0:
440,240,58852,1,0,0:0:0:0:
424,264,58925,1,0,0:0:0:0:
404,280,58998,5,4,0:0:0:0:
196,324,59290,1,0,0:0:0:0:
132,236,59437,2,0,B|112:140|172:64,1,180,8|8,0:0|0:0,0:0:0:0:
276,48,59876,1,0,0:0:0:0:
72,100,60168,6,0,B|144:160|244:144,1,180,12|0,0:0|0:0,0:0:0:0:
348,124,60607,2,0,B|296:204|312:296,1,180,8|8,0:0|0:0,0:0:0:0:
412,332,61046,1,0,0:0:0:0:
440,120,61339,6,0,B|348:136|256:124,1,180,12|0,0:0|0:0,0:0:0:0:
44,219,61778,2,0,B|136:235|224:224,1,180,8|8,0:0|0:0,0:0:0:0:
308,292,62217,1,0,0:0:0:0:
440,120,62510,6,0,B|392:72|392:72|272:72,1,180,12|0,0:0|0:0,0:0:0:0:
67,120,62949,2,0,B|115:168|115:168|228:168,1,180,8|8,0:0|0:0,0:0:0:0:
300,248,63388,1,4,0:0:0:0:
456,104,63680,6,0,B|486:196|454:280,1,180,12|0,0:0|0:0,0:0:0:0:
224,348,64119,2,0,B|193:255|225:171,1,180,8|8,0:0|0:0,0:0:0:0:
296,92,64558,1,0,0:0:0:0:
84,60,64851,6,0,B|56:148|64:240,1,180,12|0,0:0|0:0,0:0:0:0:
284,144,65290,2,0,B|201:186|142:257,1,180,8|8,0:0|0:0,0:0:0:0:
360,352,65729,2,0,B|272:324|180:332,1,180,0|12,0:0|0:0,0:0:0:0:
384,256,66315,5,0,0:0:0:0:
452,172,66461,2,0,B|420:140|420:140|360:100|288:128,1,180,8|8,0:0|0:0,0:0:0:0:
60,212,66900,2,0,B|92:244|92:244|152:284|224:256,1,180,0|12,0:0|0:0,0:0:0:0:
28,100,67485,5,0,0:0:0:0:
128,64,67632,2,0,B|216:80,1,90,8|0,0:0|0:0,0:0:0:0:
388,84,67924,2,0,B|332:108,2,45,8|8|8,0:0|0:0|0:0,0:0:0:0:
228,176,68217,1,8,0:0:0:0:
360,196,68363,6,0,B|428:272|404:364,1,180,4|0,0:0|0:0,0:0:0:0:
180,352,68802,2,0,B|112:276|136:184,1,180,8|0,0:0|0:0,0:0:0:0:
272,272,69241,1,8,0:0:0:0:
420,116,69534,1,0,0:0:0:0:
212,68,69827,1,0,0:0:0:0:
72,228,70119,6,0,B|40:268|40:268|40:352|124:340,1,180,8|0,0:0|0:0,0:0:0:0:
196,264,70558,1,8,0:0:0:0:
216,264,70632,1,8,0:0:0:0:
236,264,70705,2,0,B|324:264|324:264|384:192,1,180,12|0,0:0|0:0,0:0:0:0:
312,44,71144,2,0,B|224:48|224:48|164:116,1,180,8|0,0:0|0:0,0:0:0:0:
272,156,71583,1,12,0:0:0:0:
404,324,71876,5,4,0:0:0:0:
414,315,71949,1,0,0:0:0:0:
419,302,72022,1,0,0:0:0:0:
421,288,72095,1,0,0:0:0:0:
417,274,72168,1,0,0:0:0:0:
411,261,72241,1,0,0:0:0:0:
403,249,72315,1,0,0:0:0:0:
392,240,72388,1,0,0:0:0:0:
384,229,72461,5,4,0:0:0:0:
377,217,72534,1,0,0:0:0:0:
375,203,72607,1,0,0:0:0:0:
375,189,72680,1,0,0:0:0:0:
378,175,72754,1,8,0:0:0:0:
384,163,72827,1,8,0:0:0:0:
392,152,72900,2,0,B|416:113,1,45,8|8,0:0|0:0,0:0:0:0:
456,52,73046,5,12,0:0:0:0:
256,192,73193,12,4,77729,0:0:0:0:
68,68,82413,5,4,0:0:0:0:
140,104,82706,1,0,0:0:0:0:
444,316,82998,5,4,0:0:0:0:
372,280,83291,1,0,0:0:0:0:
162,303,83584,5,4,0:0:0:0:
140,104,83877,1,0,0:0:0:0:
349,80,84169,1,4,0:0:0:0:
372,280,84461,2,0,B|433:347,2,90,4|0|4,0:0|0:0|0:0,0:0:0:0:
400,192,85047,1,0,0:0:0:0:
128,136,85340,5,4,0:0:0:0:
100,224,85632,1,0,0:0:0:0:
384,248,85925,6,0,B|384:300|348:328,1,90,4|0,0:0|0:0,0:0:0:0:
128,136,86218,2,0,B|128:84|164:56,1,90,4|0,0:0|0:0,0:0:0:0:
312,264,86511,5,8,0:0:0:0:
200,120,86657,1,8,0:0:0:0:
184,248,86803,1,8,0:0:0:0:
328,136,86949,1,8,0:0:0:0:
472,56,87095,6,0,B|456:152,1,90,4|0,0:0|0:0,0:0:0:0:
372,80,87388,2,0,B|352:184,1,90,8|0,0:0|0:0,0:0:0:0:
280,44,87680,2,0,B|260:132,1,90,4|0,0:0|0:0,0:0:0:0:
180,68,87973,2,0,B|160:160,1,90,8|0,0:0|0:0,0:0:0:0:
140,260,88266,5,4,0:0:0:0:
140,156,88412,1,0,0:0:0:0:
240,236,88558,1,8,0:0:0:0:
240,132,88704,1,0,0:0:0:0:
340,272,88851,1,4,0:0:0:0:
340,168,88997,1,0,0:0:0:0:
440,248,89143,1,8,0:0:0:0:
440,144,89289,1,0,0:0:0:0:
340,168,89437,6,0,B|352:124|340:72,1,90,4|0,0:0|0:0,0:0:0:0:
140,260,89729,2,0,B|128:304|140:356,1,90,8|0,0:0|0:0,0:0:0:0:
440,144,90022,2,0,B|451:102|439:54,1,90,4|0,0:0|0:0,0:0:0:0:
240,236,90315,2,0,B|228:280|240:325,1,90,8|0,0:0|0:0,0:0:0:0:
340,272,90607,5,4,0:0:0:0:
440,248,90754,1,0,0:0:0:0:
240,132,90900,1,8,0:0:0:0:
140,156,91047,1,0,0:0:0:0:
72,72,91193,6,0,B|32:96|32:148,1,90,8|0,0:0|0:0,0:0:0:0:
16,252,91485,1,8,0:0:0:0:
48,256,91558,1,8,0:0:0:0:
76,272,91632,1,8,0:0:0:0:
96,296,91705,1,8,0:0:0:0:
104,328,91778,6,0,B|156:328|188:296,1,90,12|0,0:0|0:0,0:0:0:0:
284,252,92071,1,8,0:0:0:0:
296,252,92144,1,0,0:0:0:0:
308,252,92217,1,8,0:0:0:0:
493,186,92363,6,0,B|412:224,1,90,4|0,0:0|0:0,0:0:0:0:
324,160,92656,1,8,0:0:0:0:
316,152,92729,1,0,0:0:0:0:
308,144,92802,1,8,0:0:0:0:
140,136,92949,6,0,B|172:96|228:96,1,90,4|0,0:0|0:0,0:0:0:0:
216,204,93241,1,8,0:0:0:0:
212,212,93315,1,0,0:0:0:0:
208,220,93388,1,8,0:0:0:0:
104,216,93534,6,0,B|76:252|88:300,1,90,4|0,0:0|0:0,0:0:0:0:
316,352,93827,2,0,B|344:316|332:268,1,90,8|0,0:0|0:0,0:0:0:0:
392,180,94119,5,4,0:0:0:0:
355,81,94266,1,0,0:0:0:0:
293,165,94412,1,8,0:0:0:0:
273,174,94485,1,0,0:0:0:0:
253,182,94558,1,8,0:0:0:0:
415,187,94705,5,4,0:0:0:0:
367,57,94852,1,0,0:0:0:0:
285,168,94998,1,8,0:0:0:0:
260,180,95071,1,0,0:0:0:0:
234,190,95144,1,8,0:0:0:0:
442,195,95290,5,4,0:0:0:0:
381,30,95437,1,0,0:0:0:0:
277,171,95583,1,8,0:0:0:0:
245,186,95656,1,0,0:0:0:0:
212,199,95729,1,8,0:0:0:0:
148,116,95876,6,0,B|56:152,1,90,8|8,0:0|0:0,0:0:0:0:
28,312,96168,2,0,B|116:280,1,90,8|8,0:0|0:0,0:0:0:0:
216,312,96461,1,4,0:0:0:0:
320,336,96607,5,0,0:0:0:0:
336,328,96680,1,0,0:0:0:0:
352,320,96754,1,0,0:0:0:0:
484,208,96900,1,0,0:0:0:0:
468,220,96973,1,0,0:0:0:0:
452,232,97046,1,0,0:0:0:0:
244,192,97339,6,0,B|208:164,2,45
76,112,97632,2,0,B|112:140,2,45
240,288,97924,2,0,B|244:192|332:144,1,180,4|8,0:0|0:0,0:0:0:0:
436,160,98363,1,8,0:0:0:0:
248,296,98510,1,8,0:0:0:0:
444,168,98656,2,0,B|440:264|352:312,1,180,4|0,0:0|0:0,0:0:0:0:
456,340,99095,5,4,0:0:0:0:
48,196,99388,1,4,0:0:0:0:
456,52,99680,5,4,0:0:0:0:
48,196,99973,1,4,0:0:0:0:
456,340,100266,5,4,0:0:0:0:
48,196,100559,1,4,0:0:0:0:
456,52,100851,5,4,0:0:0:0:
268,192,101144,1,4,0:0:0:0:
164,196,101290,6,0,B|100:248|104:360,1,180,8|8,0:0|0:0,0:0:0:0:
96,352,101656,1,8,0:0:0:0:
88,348,101729,2,0,B|24:280,1,90,8|8,0:0|0:0,0:0:0:0:
100,124,102022,5,0,0:0:0:0:
232,268,102168,1,8,0:0:0:0:
300,88,102315,1,0,0:0:0:0:
212,160,102461,5,4,0:0:0:0:
424,168,102754,1,8,0:0:0:0:
420,180,102827,1,8,0:0:0:0:
416,192,102900,1,8,0:0:0:0:
376,292,103046,1,8,0:0:0:0:
320,200,103193,5,0,0:0:0:0:
188,56,103339,1,8,0:0:0:0:
128,232,103486,1,0,0:0:0:0:
212,160,103632,1,8,0:0:0:0:
232,264,103778,6,0,B|264:360|372:352,1,180,4|8,0:0|0:0,0:0:0:0:
337,245,104217,1,0,0:0:0:0:
443,227,104363,2,0,B|411:131|303:139,1,180,4|8,0:0|0:0,0:0:0:0:
98,78,104948,6,0,B|62:166|94:254,1,180,4|8,0:0|0:0,0:0:0:0:
256,192,105388,1,0,0:0:0:0:
412,304,105534,2,0,B|448:216|416:128,1,180,0|8,0:0|0:0,0:0:0:0:
166,111,106119,6,0,B|212:100|256:112,1,90,4|0,0:0|0:0,0:0:0:0:
340,277,106412,2,0,B|296:292|252:276,1,90,8|8,0:0|0:0,0:0:0:0:
168,212,106705,1,4,0:0:0:0:
344,180,106851,1,8,0:0:0:0:
348,168,106924,1,8,0:0:0:0:
352,156,106997,1,8,0:0:0:0:
436,88,107144,1,0,0:0:0:0:
456,192,107290,6,0,B|476:232|468:280,1,90,4|0,0:0|0:0,0:0:0:0:
264,344,107583,2,0,B|244:304|252:256,1,90,4|4,0:0|0:0,0:0:0:0:
468,152,107876,2,0,B|508:232|488:328,1,180,4|8,0:0|0:0,0:0:0:0:
380,336,108315,1,8,0:0:0:0:
336,240,108461,6,0,B|336:192|308:144|264:132|216:144,1,180,4|8,0:0|0:0,0:0:0:0:
228,248,108900,1,0,0:0:0:0:
248,352,109046,2,0,B|204:364|152:352|124:304|128:255,1,180,4|8,0:0|0:0,0:0:0:0:
44,64,109632,6,0,B|136:88|224:56,1,180,4|8,0:0|0:0,0:0:0:0:
288,140,110071,1,0,0:0:0:0:
380,88,110216,2,0,B|444:160|432:256,1,180,4|12,0:0|0:0,0:0:0:0:
240,348,110802,6,0,B|152:324,1,90,4|4,0:0|0:0,0:0:0:0:
72,208,111095,2,0,B|160:240,1,90,8|0,0:0|0:0,0:0:0:0:
260,252,111388,1,4,0:0:0:0:
92,120,111534,2,0,B|144:140,2,45,0|0|8,0:0|0:0|0:0,0:0:0:0:
284,160,111827,1,0,0:0:0:0:
311,75,111973,5,8,0:0:0:0:
328,70,112046,1,0,0:0:0:0:
345,68,112119,1,0,0:0:0:0:
363,68,112193,1,0,0:0:0:0:
380,72,112266,1,0,0:0:0:0:
395,80,112339,1,0,0:0:0:0:
409,91,112412,1,0,0:0:0:0:
419,105,112485,1,0,0:0:0:0:
425,121,112558,1,0,0:0:0:0:
428,138,112632,1,0,0:0:0:0:
426,155,112705,1,0,0:0:0:0:
419,171,112778,1,0,0:0:0:0:
407,185,112851,2,0,B|428:232,2,45,8|8|8,0:0|0:0|0:0,0:0:0:0:
336,265,113144,6,0,B|256:308|160:300,1,180,4|8,0:0|0:0,0:0:0:0:
56,288,113583,1,0,0:0:0:0:
116,200,113729,2,0,B|124:156|112:112,1,90
204,56,114022,1,8,0:0:0:0:
220,72,114095,1,0,0:0:0:0:
228,96,114168,1,0,0:0:0:0:
328,132,114315,6,0,B|288:216,1,90,8|0,0:0|0:0,0:0:0:0:
352,360,114607,2,0,B|388:276,1,90,8|0,0:0|0:0,0:0:0:0:
324,112,114900,2,0,B|276:216,1,90,8|0,0:0|0:0,0:0:0:0:
380,360,115193,2,0,B|444:192,1,180,8|12,0:0|0:0,0:0:0:0:
428,88,115632,5,0,0:0:0:0:
324,112,115778,2,0,B|232:88,1,90,8|8,0:0|0:0,0:0:0:0:
148,144,116071,1,0,0:0:0:0:
52,96,116217,5,8,0:0:0:0:
48,112,116290,1,8,0:0:0:0:
44,128,116363,2,0,B|36:180|56:216,1,90,8|8,0:0|0:0,0:0:0:0:
167,343,116656,6,0,B|175:291|156:256,1,90,4|0,0:0|0:0,0:0:0:0:
136,56,116949,2,0,B|128:108|148:144,1,90,4|0,0:0|0:0,0:0:0:0:
240,368,117242,2,0,B|256:276|216:192,1,180,4|0,0:0|0:0,0:0:0:0:
256,96,117680,1,0,0:0:0:0:
360,72,117827,6,0,B|380:160,1,90,4|0,0:0|0:0,0:0:0:0:
484,144,118119,2,0,B|456:229,1,90,8|0,0:0|0:0,0:0:0:0:
412,368,118412,2,0,B|392:280,1,90
288,296,118704,2,0,B|315:210,1,90,8|0,0:0|0:0,0:0:0:0:
240,136,118997,6,0,B|160:96|64:120,1,180,4|8,0:0|0:0,0:0:0:0:
96,224,119437,1,0,0:0:0:0:
136,320,119583,2,0,B|232:312,1,90,8|0,0:0|0:0,0:0:0:0:
332,328,119876,2,0,B|284:244|328:156,1,180,8|12,0:0|0:0,0:0:0:0:
432,184,120315,5,0,0:0:0:0:
404,80,120461,2,0,B|320:40,1,90,8|8,0:0|0:0,0:0:0:0:
232,100,120754,1,0,0:0:0:0:
132,68,120900,2,8,B|80:72,2,45
136,176,121193,1,8,0:0:0:0:
300,352,121339,6,0,B|300:244|300:244|240:204,1,180,4|0,0:0|0:0,0:0:0:0:
404,340,121778,2,0,B|408:236|504:200,1,180,4|0,0:0|0:0,0:0:0:0:
476,96,122217,1,4,0:0:0:0:
372,96,122363,5,8,0:0:0:0:
352,104,122437,1,8,0:0:0:0:
332,112,122510,2,0,B|288:132|288:132|276:156|240:176|204:176|168:156,1,180,12|0,0:0|0:0,0:0:0:0:
208,60,122949,1,0,0:0:0:0:
104,80,123095,2,0,B|16:32,1,90,8|0,0:0|0:0,0:0:0:0:
32,144,123388,1,0,0:0:0:0:
32,160,123461,1,0,0:0:0:0:
32,176,123534,1,0,0:0:0:0:
96,260,123680,6,0,B|192:244|264:312,1,180,8|8,0:0|0:0,0:0:0:0:
368,324,124119,1,0,0:0:0:0:
428,236,124266,2,0,B|456:200|456:152,1,90,8|0,0:0|0:0,0:0:0:0:
280,60,124558,2,0,B|252:96|252:144,1,90,8|0,0:0|0:0,0:0:0:0:
148,164,124851,6,0,B|180:248,1,90,12|0,0:0|0:0,0:0:0:0:
60,344,125144,2,0,B|32:256,1,90,8|8,0:0|0:0,0:0:0:0:
44,152,125437,1,0,0:0:0:0:
28,48,125583,1,8,0:0:0:0:
28,44,125656,1,8,0:0:0:0:
28,40,125729,1,8,0:0:0:0:
132,64,125876,1,8,0:0:0:0:
228,112,126022,5,4,0:0:0:0:
240,128,126168,1,0,0:0:0:0:
476,192,126315,5,4,0:0:0:0:
464,176,126461,1,0,0:0:0:0:
295,336,126607,2,0,B|288:236|360:176,1,180,4|8,0:0|0:0,0:0:0:0:
404,340,127046,1,8,0:0:0:0:
296,348,127193,6,0,B|200:352,1,90,12|0,0:0|0:0,0:0:0:0:
46,268,127485,2,0,B|136:272,1,90
156,168,127778,2,0,B|144:68,1,90,12|0,0:0|0:0,0:0:0:0:
344,88,128071,2,0,B|356:188,1,90
252,128,128363,5,8,0:0:0:0:
264,232,128510,1,0,0:0:0:0:
368,260,128656,2,0,B|380:348,1,90,8|0,0:0|0:0,0:0:0:0:
272,344,128949,2,0,B|176:360|104:296,1,180,8|8,0:0|0:0,0:0:0:0:
64,200,129388,1,0,0:0:0:0:
88,96,129534,5,8,0:0:0:0:
108,64,129680,1,0,0:0:0:0:
152,149,129827,5,8,0:0:0:0:
208,100,129973,1,8,0:0:0:0:
180,224,130119,5,0,0:0:0:0:
284,176,130266,2,8,B|328:160,2,45
192,308,130558,1,8,0:0:0:0:
400,260,130705,5,4,0:0:0:0:
56,300,130997,1,4,0:0:0:0:
200,28,131290,1,4,0:0:0:0:
296,72,131437,6,0,B|324:112,1,45
336,120,131583,1,0,0:0:0:0:
336,136,131656,1,0,0:0:0:0:
336,152,131729,1,0,0:0:0:0:
336,168,131802,1,0,0:0:0:0:
336,188,131876,5,8,0:0:0:0:
268,268,132022,1,8,0:0:0:0:
200,348,132168,1,0,0:0:0:0:
124,272,132315,5,8,0:0:0:0:
120,264,132607,1,4,0:0:0:0:
88,48,133046,5,0,0:0:0:0:
164,124,133193,1,8,0:0:0:0:
244,196,133339,1,8,0:0:0:0:
332,140,133485,5,0,0:0:0:0:
336,136,133778,1,4,0:0:0:0:
96,324,134217,5,0,0:0:0:0:
36,240,134363,1,8,0:0:0:0:
48,136,134510,1,8,0:0:0:0:
28,32,134656,5,0,0:0:0:0:
32,36,134949,1,4,0:0:0:0:
240,72,135241,5,8,0:0:0:0:
244,84,135315,1,8,0:0:0:0:
248,96,135388,1,12,0:0:0:0:
352,124,135534,1,0,0:0:0:0:
200,192,135680,1,0,0:0:0:0:
320,232,135827,5,12,0:0:0:0:
420,164,135973,1,0,0:0:0:0:
200,276,136119,1,0,0:0:0:0:
324,240,136266,5,12,0:0:0:0:
448,244,136412,1,0,0:0:0:0:
248,340,136558,1,0,0:0:0:0:
328,248,136705,2,0,B|368:328,1,90,8|8,0:0|0:0,0:0:0:0:
372,336,136997,5,0,0:0:0:0:
376,344,137290,1,4,0:0:0:0:
60,296,137729,5,8,0:0:0:0:
16,200,137876,1,8,0:0:0:0:
160,44,138168,1,0,0:0:0:0:
156,52,138461,1,4,0:0:0:0:
360,104,138754,5,8,0:0:0:0:
352,112,138827,1,8,0:0:0:0:
344,120,138900,1,8,0:0:0:0:
364,224,139046,1,8,0:0:0:0:
276,284,139193,1,8,0:0:0:0:
184,236,139339,1,0,0:0:0:0:
180,232,139632,1,4,0:0:0:0:
48,156,139924,5,0,0:0:0:0:
44,144,139997,1,0,0:0:0:0:
40,132,140071,1,4,0:0:0:0:
52,28,140217,1,0,0:0:0:0:
144,84,140363,1,0,0:0:0:0:
340,60,140510,5,4,0:0:0:0:
256,124,140656,1,0,0:0:0:0:
240,228,140802,1,0,0:0:0:0:
40,208,140949,5,4,0:0:0:0:
140,248,141095,1,0,0:0:0:0:
200,336,141241,1,0,0:0:0:0:
464,348,141388,5,4,0:0:0:0:
391,272,141534,1,0,0:0:0:0:
401,164,141680,1,0,0:0:0:0:
308,92,141826,2,0,L|184:92,2,120,4|4|4,0:0|0:0|0:0,0:0:0:0:
460,56,142412,5,8,0:0:0:0:
460,56,142510,1,8,0:0:0:0:
460,56,142607,1,8,0:0:0:0:
460,56,142704,1,12,0:0:0:0:
72,84,151778,5,4,0:0:0:0:
76,92,151851,1,0,0:0:0:0:
80,100,151924,1,0,0:0:0:0:
84,108,151997,1,0,0:0:0:0:
88,116,152071,1,0,0:0:0:0:
404,140,152510,5,0,0:0:0:0:
296,320,152802,1,0,0:0:0:0:
336,220,152949,1,4,0:0:0:0:
336,220,153022,1,0,0:0:0:0:
336,220,153095,1,0,0:0:0:0:
336,220,153168,1,0,0:0:0:0:
336,220,153241,1,0,0:0:0:0:
40,340,153680,5,0,0:0:0:0:
152,160,153973,1,0,0:0:0:0:
96,252,154119,1,4,0:0:0:0:
96,252,154193,1,0,0:0:0:0:
96,252,154266,1,0,0:0:0:0:
96,252,154339,1,0,0:0:0:0:
96,252,154412,1,0,0:0:0:0:
412,272,154851,5,0,0:0:0:0:
412,272,155144,1,0,0:0:0:0:
356,180,155290,1,4,0:0:0:0:
356,180,155363,1,0,0:0:0:0:
356,180,155437,1,0,0:0:0:0:
356,180,155510,1,0,0:0:0:0:
356,180,155583,1,0,0:0:0:0:
160,264,155876,5,4,0:0:0:0:
160,264,155949,1,0,0:0:0:0:
160,264,156022,1,0,0:0:0:0:
160,264,156095,1,0,0:0:0:0:
160,264,156168,1,0,0:0:0:0:
304,108,156461,5,4,0:0:0:0:
304,108,156534,1,0,0:0:0:0:
304,108,156607,1,0,0:0:0:0:
304,108,156680,1,0,0:0:0:0:
304,108,156754,1,0,0:0:0:0:
56,312,157193,6,0,B|40:128,1,180
88,36,157632,1,4,0:0:0:0:
92,44,157705,1,0,0:0:0:0:
96,52,157778,1,0,0:0:0:0:
100,60,157851,1,0,0:0:0:0:
104,68,157924,1,0,0:0:0:0:
324,300,158363,6,0,B|348:120,1,180
436,60,158802,1,4,0:0:0:0:
443,76,158876,1,0,0:0:0:0:
448,93,158949,1,0,0:0:0:0:
451,110,159022,2,0,B|448:160,1,45
76,324,159388,5,4,0:0:0:0:
69,308,159460,1,0,0:0:0:0:
64,291,159535,1,0,0:0:0:0:
61,274,159608,2,0,B|64:224,1,45
31,128,159827,1,8,0:0:0:0:
41,117,159900,2,8,B|69:84,1,45
284,100,160266,5,4,0:0:0:0:
324,168,160558,1,4,0:0:0:0:
368,232,160851,1,4,0:0:0:0:
180,108,161144,6,0,B|272:264,2,180,0|4|4,0:0|0:0|0:0,0:0:0:0:
44,80,161962,6,0,B|138:233,1,180,0|4,0:0|0:0,0:0:0:0:
96,312,162439,6,0,B|24:196,1,135,4|4,0:0|0:0,0:0:0:0:
236,316,162936,5,0,0:0:0:0:
344,324,163083,2,0,B|376:240|352:144,1,180,8|0,0:0|0:0,0:0:0:0:
248,160,163522,2,0,B|344:156|436:96,1,180,8|8,0:0|0:0,0:0:0:0:
444,212,163961,1,0,0:0:0:0:
304,52,164253,1,8,0:0:0:0:
240,256,164546,1,0,0:0:0:0:
136,268,164692,6,0,B|100:184|124:92,1,180,8|0,0:0|0:0,0:0:0:0:
228,120,165131,1,8,0:0:0:0:
440,131,165424,2,0,B|476:216|451:308,1,180,8|0,0:0|0:0,0:0:0:0:
348,320,165863,6,0,B|252:336,1,90,8|0,0:0|0:0,0:0:0:0:
204,244,166156,2,0,B|224:204|208:156,1,90,0|8,0:0|0:0,0:0:0:0:
112,204,166448,1,0,0:0:0:0:
36,276,166595,2,0,B|8:248|-8:192|12:144|52:116,1,180,8|0,0:0|0:0,0:0:0:0:
136,52,167034,1,0,0:0:0:0:
376,332,167326,6,0,B|376:268|376:268|408:224|408:224|408:160,1,180,4|0,0:0|0:0,0:0:0:0:
264,46,167765,2,0,B|264:110|264:110|232:154|232:154|232:216,1,180,8|0,0:0|0:0,0:0:0:0:
132,256,168204,1,8,0:0:0:0:
52,56,168497,6,0,B|52:100|52:100|20:132|20:196|32:228,1,180,8|0,0:0|0:0,0:0:0:0:
244,348,168936,2,0,B|244:304|244:304|276:272|276:208|264:176,1,180,8|0,0:0|0:0,0:0:0:0:
164,140,169375,1,8,0:0:0:0:
364,72,169668,5,0,0:0:0:0:
368,68,169814,1,8,0:0:0:0:
444,268,170107,2,0,B|400:312|400:312|284:312,1,180,8|0,0:0|0:0,0:0:0:0:
60,288,170546,2,0,B|104:244|104:244|220:244,1,180,8|0,0:0|0:0,0:0:0:0:
320,204,170985,1,8,0:0:0:0:
224,156,171131,1,0,0:0:0:0:
324,116,171278,2,0,B|396:56|492:60,1,180,8|0,0:0|0:0,0:0:0:0:
448,160,171717,5,0,0:0:0:0:
444,176,171790,1,0,0:0:0:0:
440,192,171863,1,0,0:0:0:0:
436,208,171936,2,0,B|424:260,1,45,0|4,0:0|0:0,0:0:0:0:
320,272,172156,2,0,B|304:332,2,45,0|0|0,0:0|0:0|0:0,0:0:0:0:
224,232,172448,1,0,0:0:0:0:
124,264,172595,2,0,B|108:216|132:176,1,90,0|0,0:0|0:0,0:0:0:0:
124,72,172887,1,4,0:0:0:0:
224,108,173034,5,0,0:0:0:0:
236,104,173107,1,0,0:0:0:0:
248,100,173180,2,0,B|288:88|288:88|336:100,1,90
432,56,173473,1,0,0:0:0:0:
436,72,173546,1,0,0:0:0:0:
440,92,173619,2,0,B|452:144,2,45
372,176,173912,1,8,0:0:0:0:
452,244,174058,1,8,0:0:0:0:
448,260,174131,1,0,0:0:0:0:
444,276,174204,1,0,0:0:0:0:
340,292,174351,6,0,B|248:264|248:328|160:292,1,180,4|0,0:0|0:0,0:0:0:0:
104,72,174790,2,0,B|196:104|212:204,1,180,8|0,0:0|0:0,0:0:0:0:
108,216,175229,1,8,0:0:0:0:
292,108,175522,1,8,0:0:0:0:
292,108,175668,1,0,0:0:0:0:
464,232,175961,2,0,B|484:144|464:52,1,180,8|0,0:0|0:0,0:0:0:0:
360,32,176400,1,0,0:0:0:0:
292,108,176546,1,0,0:0:0:0:
188,100,176692,6,0,B|92:124|84:232,1,180,4|0,0:0|0:0,0:0:0:0:
200,212,177131,1,8,0:0:0:0:
212,324,177278,2,0,B|308:300|316:192,1,180,4|0,0:0|0:0,0:0:0:0:
444,180,177717,1,8,0:0:0:0:
200,340,178009,1,8,0:0:0:0:
188,44,178302,1,8,0:0:0:0:
240,136,178448,5,4,0:0:0:0:
336,188,178595,1,0,0:0:0:0:
240,248,178741,1,0,0:0:0:0:
152,188,178887,5,8,0:0:0:0:
328,284,179180,1,8,0:0:0:0:
332,84,179473,1,8,0:0:0:0:
336,188,179619,5,4,0:0:0:0:
240,136,179765,1,0,0:0:0:0:
240,248,179912,1,0,0:0:0:0:
140,288,180058,6,0,B|56:320,1,90,8|0,0:0|0:0,0:0:0:0:
68,168,180351,2,0,B|240:104,1,180,4|8,0:0|0:0,0:0:0:0:
488,208,180790,2,0,B|320:272,1,180,4|8,0:0|0:0,0:0:0:0:
52,156,181229,2,0,B|224:96,1,180,4|8,0:0|0:0,0:0:0:0:
320,56,181668,1,4,0:0:0:0:
324,56,181741,1,0,0:0:0:0:
328,56,181814,1,0,0:0:0:0:
424,104,181961,5,8,0:0:0:0:
412,124,182107,1,8,0:0:0:0:
400,144,182253,1,8,0:0:0:0:
388,164,182400,1,0,0:0:0:0:
376,184,182546,6,0,B|272:180|252:288,1,180,4|8,0:0|0:0,0:0:0:0:
360,288,182985,1,0,0:0:0:0:
452,232,183131,2,0,B|496:148,1,90
452,56,183424,2,0,B|364:76|272:56,1,180,8|0,0:0|0:0,0:0:0:0:
180,104,183863,1,0,0:0:0:0:
176,108,184009,1,0,0:0:0:0:
44,276,184302,1,0,0:0:0:0:
144,240,184448,1,0,0:0:0:0:
248,264,184595,1,0,0:0:0:0:
448,328,184887,6,0,B|424:148,1,180,4|0,0:0|0:0,0:0:0:0:
472,56,185326,1,8,0:0:0:0:
364,64,185473,2,0,B|272:40|188:80,1,180
100,256,186058,5,0,0:0:0:0:
104,260,186204,1,0,0:0:0:0:
108,264,186351,1,0,0:0:0:0:
288,340,186643,1,0,0:0:0:0:
284,336,186789,1,0,0:0:0:0:
280,332,186936,1,0,0:0:0:0:
492,56,187229,5,4,0:0:0:0:
412,236,187522,2,0,B|316:236,1,90
316,132,187814,2,0,B|232:100|140:132,1,180,0|8,0:0|0:0,0:0:0:0:
272,300,188400,2,0,B|364:332|448:300,1,180,0|8,0:0|0:0,0:0:0:0:
312,116,188985,2,0,B|228:80|135:115,1,180,0|8,0:0|0:0,0:0:0:0:
280,312,189570,6,0,B|372:344|456:312,1,180,4|0,0:0|0:0,0:0:0:0:
416,212,190009,2,0,B|464:40,1,180,8|0,0:0|0:0,0:0:0:0:
360,28,190448,2,0,B|284:68|184:52,1,180,4|0,0:0|0:0,0:0:0:0:
181,64,190887,1,8,0:0:0:0:
178,75,191034,1,0,0:0:0:0:
175,86,191180,1,8,0:0:0:0:
171,98,191326,5,8,0:0:0:0:
59,262,191473,1,8,0:0:0:0:
248,196,191619,1,8,0:0:0:0:
55,138,191765,1,8,0:0:0:0:
178,297,191912,5,4,0:0:0:0:
178,297,192058,1,8,0:0:0:0:
148,196,192204,1,0,0:0:0:0:
320,108,192351,5,4,0:0:0:0:
320,108,192497,1,8,0:0:0:0:
348,212,192643,1,0,0:0:0:0:
308,356,192790,5,4,0:0:0:0:
308,356,192936,1,8,0:0:0:0:
268,256,193083,1,0,0:0:0:0:
472,320,193229,6,0,B|436:228,1,90,4|0,0:0|0:0,0:0:0:0:
436,128,193522,1,8,0:0:0:0:
320,108,193668,2,0,B|232:92,1,90,8|0,0:0|0:0,0:0:0:0:
16,176,193961,6,0,B|104:192|144:296,1,180,8|4,0:0|0:0,0:0:0:0:
144,304,194400,1,8,0:0:0:0:
244,344,194546,1,0,0:0:0:0:
424,304,194692,5,4,0:0:0:0:
424,304,194839,1,8,0:0:0:0:
324,264,194985,1,0,0:0:0:0:
176,120,195131,5,4,0:0:0:0:
176,120,195278,1,8,0:0:0:0:
276,160,195424,1,0,0:0:0:0:
192,228,195570,6,0,B|148:316|40:300,1,180,0|8,0:0|0:0,0:0:0:0:
88,204,196009,2,0,B|76:160|84:112,1,90,8|0,0:0|0:0,0:0:0:0:
360,72,196302,2,0,B|372:116|364:164,1,90,8|0,0:0|0:0,0:0:0:0:
452,248,196595,6,0,B|472:344,1,90,4|8,0:0|0:0,0:0:0:0:
480,140,196887,1,0,0:0:0:0:
292,272,197034,6,0,B|292:360,1,90,4|8,0:0|0:0,0:0:0:0:
324,168,197326,1,0,0:0:0:0:
144,236,197473,6,0,B|104:328,1,90,4|8,0:0|0:0,0:0:0:0:
192,140,197765,1,0,0:0:0:0:
88,128,197912,2,0,B|68:84|88:40,1,90
192,56,198204,1,8,0:0:0:0:
300,60,198351,2,0,B|312:116|296:152|296:152|328:184|336:236,1,180,8|8,0:0|0:0,0:0:0:0:
136,344,198936,5,4,0:0:0:0:
240,328,199083,1,8,0:0:0:0:
124,340,199229,1,0,0:0:0:0:
326,234,199375,5,4,0:0:0:0:
176,256,199522,1,8,0:0:0:0:
343,239,199668,1,0,0:0:0:0:
139,163,199814,5,4,0:0:0:0:
356,132,199961,1,8,0:0:0:0:
115,156,200107,1,0,0:0:0:0:
320,40,200253,5,4,0:0:0:0:
148,60,200400,1,8,0:0:0:0:
356,132,200546,1,8,0:0:0:0:
140,164,200692,1,8,0:0:0:0:
343,239,200839,1,8,0:0:0:0:
176,256,200985,1,8,0:0:0:0:
400,324,201131,1,8,0:0:0:0:
144,352,201278,6,0,B|56:328|20:232,1,180,4|8,0:0|0:0,0:0:0:0:
24,216,201717,1,0,0:0:0:0:
28,200,201863,1,0,0:0:0:0:
32,184,202009,1,0,0:0:0:0:
36,168,202156,2,0,B|120:132|212:164,1,180,8|4,0:0|0:0,0:0:0:0:
308,84,202595,6,0,B|308:180,1,90
452,352,202887,2,0,B|448:168,1,180,8|0,0:0|0:0,0:0:0:0:
492,84,203326,1,8,0:0:0:0:
244,32,203619,1,4,0:0:0:0:
96,344,203912,5,8,0:0:0:0:
88,328,204058,1,0,0:0:0:0:
84,308,204204,1,0,0:0:0:0:
88,288,204351,1,0,0:0:0:0:
100,272,204497,1,8,0:0:0:0:
72,152,204790,5,0,0:0:0:0:
80,148,204863,1,0,0:0:0:0:
88,144,204936,1,0,0:0:0:0:
96,140,205009,1,0,0:0:0:0:
104,136,205083,1,0,0:0:0:0:
112,132,205156,1,0,0:0:0:0:
120,128,205229,2,0,B|164:104,2,45
24,228,205522,1,0,0:0:0:0:
480,192,205961,5,4,0:0:0:0:
40,44,206400,1,4,0:0:0:0:
480,340,206839,1,4,0:0:0:0:
40,192,207278,1,4,0:0:0:0:
480,192,207717,5,4,0:0:0:0:
40,340,208156,1,4,0:0:0:0:
480,44,208595,1,4,0:0:0:0:
256,192,209034,5,0,0:0:0:0:
256,184,209107,1,0,0:0:0:0:
264,192,209180,1,0,0:0:0:0:
256,200,209253,1,0,0:0:0:0:
248,192,209326,1,0,0:0:0:0:
256,184,209400,1,0,0:0:0:0:
264,192,209473,1,0,0:0:0:0:
256,200,209546,1,0,0:0:0:0:
248,192,209630,6,0,B|232:240|188:268,1,90,4|0,0:0|0:0,0:0:0:0:
128,348,209922,2,0,B|92:320|100:264,1,90,8|0,0:0|0:0,0:0:0:0:
136,180,210215,2,0,B|156:80,1,90,0|0,0:0|0:0,0:0:0:0:
260,108,210508,1,8,0:0:0:0:
360,76,210654,1,0,0:0:0:0:
356,184,210800,6,0,B|400:208|408:252,1,90
180,276,211093,2,0,B|136:252|128:208,1,90,8|0,0:0|0:0,0:0:0:0:
428,244,211386,2,0,B|384:324,1,90
108,216,211678,2,0,B|152:136,1,90,8|0,0:0|0:0,0:0:0:0:
260,108,211971,6,0,B|296:76|344:84,1,90
444,48,212264,2,0,B|432:152,1,90,8|0,0:0|0:0,0:0:0:0:
472,360,212556,6,0,B|456:264,1,90
360,316,212849,2,0,B|316:300|272:316,1,90,8|0,0:0|0:0,0:0:0:0:
168,344,213142,6,0,B|148:256,1,90
56,60,213434,2,0,B|76:156,1,90,8|0,0:0|0:0,0:0:0:0:
164,88,213727,2,0,B|212:96|256:80,1,90,0|0,0:0|0:0,0:0:0:0:
352,48,214020,1,0,0:0:0:0:
360,56,214093,1,0,0:0:0:0:
368,64,214166,1,0,0:0:0:0:
376,72,214239,1,0,0:0:0:0:
384,80,214312,6,0,B|408:176,1,90,4|0,0:0|0:0,0:0:0:0:
484,308,214605,2,0,B|468:263,2,45,8|0|0,0:0|0:0|0:0,0:0:0:0:
380,292,214898,2,0,B|344:324|296:308,1,90
124,312,215190,2,0,B|166:295,2,45,8|0|0,0:0|0:0|0:0,0:0:0:0:
104,208,215483,6,0,B|68:180|68:128,1,90
216,40,215776,2,0,B|200:92,2,45,8|0|0,0:0|0:0|0:0,0:0:0:0:
292,112,216069,2,0,B|392:92,1,90
500,192,216361,2,0,B|456:204,2,45,8|0|0,0:0|0:0|0:0,0:0:0:0:
472,296,216654,6,0,B|368:324,1,90
264,228,216947,2,0,B|308:216,2,45,8|0|0,0:0|0:0|0:0,0:0:0:0:
200,312,217239,2,0,B|152:292|152:232,1,90
156,80,217532,2,0,B|132:40,2,45,8|0|0,0:0|0:0|0:0,0:0:0:0:
300,128,217825,6,0,B|376:184,1,90
428,272,218117,1,8,0:0:0:0:
424,276,218190,1,0,0:0:0:0:
420,280,218264,1,0,0:0:0:0:
316,272,218410,5,8,0:0:0:0:
240,348,218556,1,8,0:0:0:0:
96,344,218703,1,8,0:0:0:0:
24,208,218849,1,8,0:0:0:0:
80,44,218995,6,0,B|96:84,2,45,4|0|0,0:0|0:0|0:0,0:0:0:0:
204,152,219288,2,0,B|188:112,2,45,4|0|0,0:0|0:0|0:0,0:0:0:0:
384,172,219581,6,0,B|368:132,2,45,4|0|0,0:0|0:0|0:0,0:0:0:0:
260,64,219873,2,0,B|276:104,2,45,4|0|0,0:0|0:0|0:0,0:0:0:0:
108,164,220166,6,0,B|124:204,2,45,4|0|0,0:0|0:0|0:0,0:0:0:0:
232,272,220459,2,0,B|216:232,2,45,4|0|0,0:0|0:0|0:0,0:0:0:0:
412,292,220751,6,0,B|396:252,2,45,4|0|0,0:0|0:0|0:0,0:0:0:0:
288,184,221044,2,0,B|304:224,2,45,4|0|0,0:0|0:0|0:0,0:0:0:0:
380,132,221337,6,0,B|332:120,2,45,4|0|0,0:0|0:0|0:0,0:0:0:0:
132,132,221630,2,0,B|180:120,2,45,4|0|0,0:0|0:0|0:0,0:0:0:0:
380,252,221922,2,0,B|332:264,2,45,4|0|0,0:0|0:0|0:0,0:0:0:0:
132,252,222215,2,0,B|180:264,2,45,4|0|0,0:0|0:0|0:0,0:0:0:0:
44,192,222508,5,4,0:0:0:0:
52,192,222581,1,0,0:0:0:0:
60,192,222654,1,0,0:0:0:0:
468,192,222800,1,0,0:0:0:0:
460,192,222873,1,4,0:0:0:0:
452,192,222947,1,0,0:0:0:0:
376,264,223093,5,12,0:0:0:0:
136,120,223239,1,8,0:0:0:0:
256,192,223386,1,8,0:0:0:0:
260,188,223459,1,0,0:0:0:0:
264,184,223532,1,0,0:0:0:0:
268,180,223605,1,0,0:0:0:0:
272,176,223678,6,0,B|304:144|304:144|352:144,1,90,4|0,0:0|0:0,0:0:0:0:
284,292,223971,2,0,B|252:324|252:324|204:324,1,90,8|0,0:0|0:0,0:0:0:0:
100,320,224264,2,0,B|92:272|60:240,1,90
56,136,224556,1,8,0:0:0:0:
56,124,224630,1,0,0:0:0:0:
56,112,224703,1,0,0:0:0:0:
200,40,224849,6,0,B|200:132,1,90
200,236,225142,1,8,0:0:0:0:
200,248,225215,1,0,0:0:0:0:
200,260,225288,1,0,0:0:0:0:
340,304,225434,2,0,B|340:212,1,90
340,108,225727,1,8,0:0:0:0:
340,96,225800,1,0,0:0:0:0:
340,84,225873,1,0,0:0:0:0:
484,48,226020,6,0,B|484:92|484:92|452:124,1,90
448,244,226312,1,8,0:0:0:0:
444,232,226386,1,0,0:0:0:0:
440,220,226459,1,0,0:0:0:0:
340,108,226605,6,0,B|308:139|308:139|308:184,1,90
226,272,226898,1,8,0:0:0:0:
238,266,226971,1,0,0:0:0:0:
249,260,227044,1,0,0:0:0:0:
60,272,227190,6,0,B|60:227|60:227|92:195,1,90
96,76,227483,1,8,0:0:0:0:
100,88,227556,1,0,0:0:0:0:
104,100,227630,1,0,0:0:0:0:
252,256,227776,5,0,0:0:0:0:
483,236,227922,2,0,B|452:268,1,45
446,274,228069,1,0,0:0:0:0:
442,282,228142,1,0,0:0:0:0:
439,290,228215,1,0,0:0:0:0:
437,298,228288,1,0,0:0:0:0:
436,307,228361,5,4,0:0:0:0:
96,192,228654,1,4,0:0:0:0:
456,164,228947,5,4,0:0:0:0:
116,49,229239,1,4,0:0:0:0:
220,64,229386,1,0,0:0:0:0:
224,72,229459,1,0,0:0:0:0:
228,80,229532,1,4,0:0:0:0:
444,312,229971,5,4,0:0:0:0:
240,252,230264,1,0,0:0:0:0:
240,252,230337,1,0,0:0:0:0:
240,252,230410,1,0,0:0:0:0:
188,344,230556,5,0,0:0:0:0:
227,147,230703,1,0,0:0:0:0:
311,329,230849,1,0,0:0:0:0:
136,230,230995,1,0,0:0:0:0:
336,208,231142,1,4,0:0:0:0:
488,60,231434,5,0,0:0:0:0:
488,60,231508,1,0,0:0:0:0:
488,60,231581,1,0,0:0:0:0:
428,152,231727,1,0,0:0:0:0:
455,296,231873,1,0,0:0:0:0:
311,330,232020,1,0,0:0:0:0:
277,185,232166,1,4,0:0:0:0:
272,180,232239,1,0,0:0:0:0:
268,176,232312,1,0,0:0:0:0:
164,164,232459,5,4,0:0:0:0:
60,144,232605,1,0,0:0:0:0:
132,64,232751,1,0,0:0:0:0:
164,164,232898,5,4,0:0:0:0:
351,207,233044,1,4,0:0:0:0:
221,350,233190,1,4,0:0:0:0:
244,248,233337,6,0,B|312:304,1,90,4|0,0:0|0:0,0:0:0:0:
416,336,233630,2,0,B|400:248|444:160,1,180,8|0,0:0|0:0,0:0:0:0:
336,164,234069,1,0,0:0:0:0:
288,68,234215,2,0,B|237:141|143:172,1,180,8|4,0:0|0:0,0:0:0:0:
288,332,234800,5,0,0:0:0:0:
352,248,234947,1,8,0:0:0:0:
456,220,235093,2,0,B|468:168|468:168|456:92|392:76,1,180,0|8,0:0|0:0,0:0:0:0:
180,52,235678,6,0,B|192:100|192:100|180:140,1,90,12|0,0:0|0:0,0:0:0:0:
124,360,235971,2,0,B|112:312|112:312|123:273,1,90,8|0,0:0|0:0,0:0:0:0:
80,176,236264,1,0,0:0:0:0:
220,240,236410,1,8,0:0:0:0:
232,248,236483,1,8,0:0:0:0:
244,256,236556,6,0,B|332:248,1,90,8|8,0:0|0:0,0:0:0:0:
464,64,236849,2,0,B|432:100|440:148,1,90,4|0,0:0|0:0,0:0:0:0:
224,124,237142,2,0,B|268:108|276:56,2,90
132,180,237581,2,0,B|96:280,1,90,8|0,0:0|0:0,0:0:0:0:
116,84,237873,1,8,0:0:0:0:
88,276,238020,6,0,B|188:264|256:332,1,180,4|8,0:0|0:0,0:0:0:0:
356,304,238459,1,0,0:0:0:0:
472,80,238605,2,0,B|376:104|360:208,1,180,4|8,0:0|0:0,0:0:0:0:
176,312,239190,5,0,0:0:0:0:
112,108,239483,1,0,0:0:0:0:
136,212,239630,1,8,0:0:0:0:
176,312,239776,1,0,0:0:0:0:
472,80,240069,1,8,0:0:0:0:
464,340,240361,6,0,B|440:252,1,90,12|0,0:0|0:0,0:0:0:0:
412,152,240654,1,8,0:0:0:0:
412,152,240800,2,0,B|380:120|380:120|336:120,1,90
200,256,241093,1,8,0:0:0:0:
204,264,241166,1,8,0:0:0:0:
208,272,241239,2,0,B|240:304|240:304|284:304,1,90,8|8,0:0|0:0,0:0:0:0:
160,176,241532,6,0,B|120:96|120:96|28:96,1,180,4|0,0:0|0:0,0:0:0:0:
56,200,241971,1,0,0:0:0:0:
48,308,242117,1,8,0:0:0:0:
48,308,242264,1,8,0:0:0:0:
48,308,242410,1,8,0:0:0:0:
48,308,242556,1,8,0:0:0:0:
148,344,242703,6,0,B|328:328,1,180,4|8,0:0|0:0,0:0:0:0:
432,316,243142,1,0,0:0:0:0:
372,228,243288,2,0,B|320:156|352:56,1,180,0|8,0:0|0:0,0:0:0:0:
436,120,243727,1,0,0:0:0:0:
248,96,243873,6,0,B|236:140|248:188|248:188|216:276,1,180,8|0,0:0|0:0,0:0:0:0:
156,184,244312,2,0,B|120:156|72:172,1,90,8|0,0:0|0:0,0:0:0:0:
100,272,244605,1,0,0:0:0:0:
180,344,244751,1,8,0:0:0:0:
200,348,244825,1,0,0:0:0:0:
224,348,244898,1,0,0:0:0:0:
328,332,245044,6,0,B|332:288|332:288|364:256,1,90,12|0,0:0|0:0,0:0:0:0:
468,59,245337,1,8,0:0:0:0:
468,59,245483,2,0,B|468:104|468:104|436:136,1,90
280,228,245776,1,8,0:0:0:0:
288,220,245849,1,8,0:0:0:0:
296,212,245922,2,0,B|316:172|300:124,1,90,8|8,0:0|0:0,0:0:0:0:
120,80,246215,6,0,B|100:120|116:168,1,90,4|0,0:0|0:0,0:0:0:0:
204,348,246508,2,0,B|224:304|208:256,1,90,4|0,0:0|0:0,0:0:0:0:
60,28,246800,2,0,B|19:108|51:204,1,180,4|0,0:0|0:0,0:0:0:0:
40,308,247239,1,0,0:0:0:0:
312,268,247386,6,0,B|232:312|137:280,1,180,4|8,0:0|0:0,0:0:0:0:
224,176,247825,1,0,0:0:0:0:
136,88,247971,2,0,B|220:44|310:75,1,180,0|8,0:0|0:0,0:0:0:0:
416,260,248556,6,0,B|388:84,1,180,8|0,0:0|0:0,0:0:0:0:
224,176,248995,1,8,0:0:0:0:
68,293,249142,2,0,B|40:116,1,180,0|8,0:0|0:0,0:0:0:0:
172,284,249727,6,0,B|256:312,1,90,12|0,0:0|0:0,0:0:0:0:
416,260,250020,1,8,0:0:0:0:
416,260,250166,2,0,B|328:232,1,90
216,84,250459,1,8,0:0:0:0:
224,88,250532,1,8,0:0:0:0:
232,92,250605,2,0,B|316:128,1,90,8|8,0:0|0:0,0:0:0:0:
144,44,250898,6,0,B|60:80|48:188,1,180,4|0,0:0|0:0,0:0:0:0:
36,292,251337,1,8,0:0:0:0:
136,252,251483,1,8,0:0:0:0:
236,288,251630,1,8,0:0:0:0:
252,292,251703,1,0,0:0:0:0:
268,296,251776,1,0,0:0:0:0:
284,300,251849,1,0,0:0:0:0:
304,304,251922,1,0,0:0:0:0:
320,308,251995,1,0,0:0:0:0:
336,312,252069,6,0,B|400:324|400:324|456:304|472:240,1,180,4|8,0:0|0:0,0:0:0:0:
368,212,252508,1,0,0:0:0:0:
400,112,252654,2,0,B|336:100|336:100|280:120|264:184,1,180,4|8,0:0|0:0,0:0:0:0:
156,192,253093,1,0,0:0:0:0:
60,240,253239,2,0,B|36:152,1,90,8|0,0:0|0:0,0:0:0:0:
124,92,253532,5,0,0:0:0:0:
192,288,253678,1,8,0:0:0:0:
128,84,253825,2,0,B|160:48|208:52,1,90
192,296,254117,2,0,B|160:332|112:328,1,90,8|0,0:0|0:0,0:0:0:0:
44,156,254410,6,0,B|31:204|60:240,1,90,8|0,0:0|0:0,0:0:0:0:
280,224,254703,2,0,B|292:175|264:140,1,90,8|0,0:0|0:0,0:0:0:0:
164,188,254995,1,0,0:0:0:0:
340,300,255142,1,8,0:0:0:0:
344,292,255215,1,8,0:0:0:0:
348,284,255288,2,0,B|384:200,1,90,8|8,0:0|0:0,0:0:0:0:
468,136,255581,6,0,B|440:100|440:100|392:96,1,90,4|0,0:0|0:0,0:0:0:0:
208,184,255873,2,0,B|236:220|236:220|284:224,1,90,4|0,0:0|0:0,0:0:0:0:
200,68,256166,2,0,B|152:32|152:32|32:32,1,180,4|8,0:0|0:0,0:0:0:0:
48,136,256605,1,8,0:0:0:0:
40,244,256751,6,0,B|64:332,1,90,4|0,0:0|0:0,0:0:0:0:
168,344,257044,2,0,B|240:288|340:296,1,180,8|0,0:0|0:0,0:0:0:0:
444,308,257483,1,0,0:0:0:0:
404,212,257630,2,0,B|432:32,1,180,8|8,0:0|0:0,0:0:0:0:
328,56,258069,1,0,0:0:0:0:
228,84,258215,5,0,0:0:0:0:
404,220,258361,1,8,0:0:0:0:
228,92,258508,2,0,B|228:184,1,90
140,344,258800,2,0,B|140:256,1,90,8|0,0:0|0:0,0:0:0:0:
63,89,259093,6,0,B|44:132|68:176,1,90,12|0,0:0|0:0,0:0:0:0:
300,256,259386,1,8,0:0:0:0:
304,244,259459,1,8,0:0:0:0:
309,233,259532,2,0,B|324:184|308:144,1,90,8|0,0:0|0:0,0:0:0:0:
188,160,259825,1,8,0:0:0:0:
444,128,259971,1,8,0:0:0:0:
440,140,260044,1,0,0:0:0:0:
436,152,260117,1,0,0:0:0:0:
476,248,260264,5,12,0:0:0:0:
36,136,260556,1,12,0:0:0:0:
57,303,260849,5,12,0:0:0:0:
454,80,261142,1,12,0:0:0:0:
337,259,261434,5,0,0:0:0:0:
188,273,261581,1,0,0:0:0:0:
174,124,261727,1,0,0:0:0:0:
323,110,261873,1,8,0:0:0:0:
328,105,262166,1,0,0:0:0:0:
245,86,262605,5,0,0:0:0:0:
361,181,262751,1,0,0:0:0:0:
266,297,262898,1,0,0:0:0:0:
150,202,263044,1,8,0:0:0:0:
143,202,263337,1,0,0:0:0:0:
256,192,263776,5,0,0:0:0:0:
256,192,263922,1,0,0:0:0:0:
256,192,264069,1,0,0:0:0:0:
143,202,264215,1,8,0:0:0:0:
368,181,264508,1,0,0:0:0:0:
52,144,264947,5,4,0:0:0:0:
152,117,265093,1,0,0:0:0:0:
152,117,265166,1,0,0:0:0:0:
152,117,265239,1,0,0:0:0:0:
362,143,265532,5,4,0:0:0:0:
262,170,265678,1,0,0:0:0:0:
262,170,265751,1,0,0:0:0:0:
262,170,265825,1,0,0:0:0:0:
93,298,266117,5,4,0:0:0:0:
193,271,266264,1,0,0:0:0:0:
193,271,266337,1,0,0:0:0:0:
193,271,266410,1,0,0:0:0:0:
400,316,266703,5,4,0:0:0:0:
88,328,276067,5,0,0:0:0:0:
36,236,276214,1,0,0:0:0:0:
88,144,276360,2,0,B|152:80,1,90
224,156,276653,2,0,B|312:184|404:144,1,180,8|0,0:0|0:0,0:0:0:0:
300,336,277239,5,0,0:0:0:0:
196,308,277384,1,0,0:0:0:0:
88,328,277532,2,0,B|40:244,1,90
84,152,277823,2,0,B|108:64|212:36,1,180,8|0,0:0|0:0,0:0:0:0:
416,84,278410,5,4,0:0:0:0:
484,164,278556,1,0,0:0:0:0:
424,256,278703,1,0,0:0:0:0:
320,232,278849,1,0,0:0:0:0:
312,124,278995,2,0,B|260:72|260:72|148:72,1,180,8|0,0:0|0:0,0:0:0:0:
32,320,279581,6,0,B|40:228,1,90
116,340,279873,2,0,B|124:248,1,90
200,316,280166,2,0,B|208:224,1,90
280,344,280459,2,0,B|288:252,1,90
388,288,280751,6,0,B|400:236|444:216,1,90,4|0,0:0|0:0,0:0:0:0:
464,116,281044,1,0,0:0:0:0:
464,116,281190,1,0,0:0:0:0:
360,140,281337,1,8,0:0:0:0:
360,140,281628,1,0,0:0:0:0:
64,64,281922,6,0,B|76:160,1,90,4|0,0:0|0:0,0:0:0:0:
48,256,282215,1,0,0:0:0:0:
136,312,282361,1,0,0:0:0:0:
220,248,282506,1,8,0:0:0:0:
220,248,282800,1,0,0:0:0:0:
424,304,283093,6,0,B|436:208,1,90,4|0,0:0|0:0,0:0:0:0:
412,112,283384,1,0,0:0:0:0:
312,144,283532,1,0,0:0:0:0:
224,84,283678,1,8,0:0:0:0:
224,84,283971,1,0,0:0:0:0:
36,188,284263,6,8,B|24:248,2,60
120,304,284654,2,8,B|136:240,2,60
252,252,285044,2,8,B|236:308,2,60
388,296,285434,5,0,0:0:0:0:
424,220,285580,1,4,0:0:0:0:
484,168,285727,1,0,0:0:0:0:
424,48,285873,5,8,0:0:0:0:
336,108,286020,1,8,0:0:0:0:
280,196,286166,1,8,0:0:0:0:
256,300,286312,2,0,B|152:328,1,90,8|4,0:0|0:0,0:0:0:0:
