osu file format v14

[General]
AudioFilename: audio.mp3
AudioLeadIn: 0
PreviewTime: 119696
Countdown: 0
SampleSet: None
StackLeniency: 0.7
Mode: 3
LetterboxInBreaks: 0
SpecialStyle: 0
WidescreenStoryboard: 1

[Editor]
DistanceSpacing: 1.5
BeatDivisor: 8
GridSize: 4
TimelineZoom: 2.899999

[Metadata]
Title:Todestrieb und Lebenstrieb
TitleUnicode:ハルトマンの妖怪少女 ~ Todestrieb und Lebenstrieb
Artist:Demetori
ArtistUnicode:Demetori
Creator:LostCool
Version:7K
Source:Touhou
Tags:komeiji koishi
BeatmapID:1419827
BeatmapSetID:671525

[Difficulty]
HPDrainRate:7
CircleSize:7
OverallDifficulty:0.5
ApproachRate:5
SliderMultiplier:1.4
SliderTickRate:1

[Events]
//Background and Video events
0,0,"bg.png",0,0
//Break Periods
2,138713,144949
//Storyboard Layer 0 (Background)
//Storyboard Layer 1 (Fail)
//Storyboard Layer 2 (Pass)
//Storyboard Layer 3 (Foreground)
//Storyboard Sound Samples

[TimingPoints]
4615,272.727272727273,7,1,0,0,1,0
10342,272.727272727273,4,1,0,0,1,0
12523,272.727272727273,7,1,0,0,1,0
14432,272.727272727273,4,1,0,0,1,0
16613,272.727272727273,7,1,0,0,1,0
18522,272.727272727273,4,1,0,0,1,0
20703,272.727272727273,7,1,0,0,1,0
22612,272.727272727273,4,1,0,0,1,0
24793,272.727272727273,7,1,0,0,1,0
26702,272.727272727273,4,1,0,0,1,0
37611,272.727272727273,7,1,0,0,1,0
39520,272.727272727273,4,1,0,0,1,0
41701,272.727272727273,7,1,0,0,1,0
43610,272.727272727273,4,1,0,0,1,0
45791,272.727272727273,7,1,0,0,1,0
47700,272.727272727273,4,1,0,0,1,0
49881,272.727272727273,7,1,0,0,1,0
51790,272.727272727273,4,1,0,0,1,0
53971,272.727272727273,6,1,0,0,1,0
55607,272.727272727273,4,1,0,0,1,0
58470,272.727272727273,6,1,0,0,1,0
60106,272.727272727273,4,1,0,0,1,0
63378,272.727272727273,5,1,0,0,1,0
67468,272.727272727273,3,1,0,0,1,0
69104,272.727272727273,6,1,0,0,1,0
70740,272.727272727273,5,1,0,0,1,0
73607,272.727272727273,4,1,0,0,1,0
74152,272.727272727273,4,1,0,0,1,0
76607,272.727272727273,4,1,0,0,1,0
77698,272.727272727273,3,1,0,0,1,0
78516,272.727272727273,5,1,0,0,1,0
82607,272.727272727273,6,1,0,0,1,0
84243,272.727272727273,4,1,0,0,1,0
85334,272.727272727273,4,1,0,0,1,0
102788,272.727272727273,7,1,0,0,1,0
104697,272.727272727273,4,1,0,0,1,0
111242,272.727272727273,7,1,0,0,1,0
113151,272.727272727273,4,1,0,0,1,0
133878,272.727272727273,4,1,0,0,1,0
135923,272.727272727273,4,1,0,0,1,0
136605,272.727272727273,3,1,0,0,1,0
137286,272.727272727273,4,1,0,0,1,0
138513,272.727272727273,7,1,0,0,1,0
146149,272.727272727273,4,1,0,0,1,0
172330,272.727272727273,7,1,0,0,1,0
174239,272.727272727273,4,1,0,0,1,0
175329,272.727272727273,5,1,0,0,1,0
176692,272.727272727273,7,1,0,0,1,0
178601,272.727272727273,5,1,0,0,1,0
181057,272.727272727273,7,1,0,0,1,0
182966,272.727272727273,4,1,0,0,1,0
184056,272.727272727273,5,1,0,0,1,0
185419,272.727272727273,7,1,0,0,1,0
187328,272.727272727273,5,1,0,0,1,0
188691,272.727272727273,6,1,0,0,1,0
190327,272.727272727273,4,1,0,0,1,0
203417,272.727272727273,7,1,0,0,1,0
205326,272.727272727273,4,1,0,0,1,0
207507,272.727272727273,7,1,0,0,1,0
209416,272.727272727273,4,1,0,0,1,0
233416,272.727272727273,3,1,0,0,1,0
238324,272.727272727273,4,1,0,0,1,0
256596,272.727272727273,3,1,0,0,1,0
257278,272.727272727273,3,1,0,0,1,0
257959,272.727272727273,4,1,0,0,1,0
259049,545.454545454546,4,1,0,0,1,0

[HitObjects]
36,192,11432,5,0,0:0:0:0:
109,192,11432,1,0,0:0:0:0:
182,192,11432,1,0,0:0:0:0:
256,192,11432,1,0,0:0:0:0:
329,192,11432,1,0,0:0:0:0:
109,192,11569,1,0,0:0:0:0:
36,192,11569,1,0,0:0:0:0:
182,192,11705,1,0,0:0:0:0:
256,192,11705,1,0,0:0:0:0:
329,192,11705,1,0,0:0:0:0:
402,192,11705,1,0,0:0:0:0:
475,192,11705,1,0,0:0:0:0:
402,192,11842,1,0,0:0:0:0:
475,192,11842,1,0,0:0:0:0:
329,192,11978,1,0,0:0:0:0:
256,192,11978,1,0,0:0:0:0:
182,192,11978,1,0,0:0:0:0:
109,192,11978,1,0,0:0:0:0:
36,192,11978,1,0,0:0:0:0:
36,192,12114,1,0,0:0:0:0:
182,192,12114,1,0,0:0:0:0:
109,192,12114,1,0,0:0:0:0:
182,192,12251,1,0,0:0:0:0:
256,192,12251,1,0,0:0:0:0:
329,192,12251,1,0,0:0:0:0:
475,192,12251,1,0,0:0:0:0:
402,192,12251,1,0,0:0:0:0:
475,192,12387,1,0,0:0:0:0:
329,192,12387,1,0,0:0:0:0:
402,192,12387,1,0,0:0:0:0:
36,192,12523,128,0,12613:0:0:0:0:
109,192,12523,128,0,12591:0:0:0:0:
329,192,12523,128,0,12591:0:0:0:0:
475,192,12523,128,0,12591:0:0:0:0:
182,192,12523,128,0,12591:0:0:0:0:
256,192,12523,128,0,12613:0:0:0:0:
109,192,12659,1,0,0:0:0:0:
329,192,12659,1,0,0:0:0:0:
475,192,12659,1,0,0:0:0:0:
182,192,12659,1,0,0:0:0:0:
36,192,12682,1,0,0:0:0:0:
256,192,12682,1,0,0:0:0:0:
256,192,12795,1,0,0:0:0:0:
36,192,12795,128,0,12932:0:0:0:0:
475,192,12795,128,0,12863:0:0:0:0:
329,192,12795,128,0,12898:0:0:0:0:
402,192,12795,1,0,0:0:0:0:
109,192,12818,128,0,12932:0:0:0:0:
182,192,12818,1,0,0:0:0:0:
475,192,12932,1,0,0:0:0:0:
256,192,12932,128,0,13136:0:0:0:0:
402,192,12932,128,0,13136:0:0:0:0:
329,192,12954,1,0,0:0:0:0:
256,192,13204,128,0,13477:0:0:0:0:
109,192,13204,128,0,13477:0:0:0:0:
36,192,13204,1,0,0:0:0:0:
182,192,13227,1,0,0:0:0:0:
402,192,13341,1,0,0:0:0:0:
475,192,13341,1,0,0:0:0:0:
36,192,13477,128,0,13545:0:0:0:0:
182,192,13477,128,0,13545:0:0:0:0:
329,192,13477,128,0,13545:0:0:0:0:
109,192,13613,128,0,13682:0:0:0:0:
256,192,13613,128,0,13682:0:0:0:0:
402,192,13613,128,0,13682:0:0:0:0:
182,192,13750,128,0,13818:0:0:0:0:
329,192,13750,128,0,13818:0:0:0:0:
475,192,13750,128,0,13818:0:0:0:0:
109,192,13750,1,0,0:0:0:0:
402,192,13750,1,0,0:0:0:0:
109,192,13886,128,0,13954:0:0:0:0:
36,192,13886,128,0,13988:0:0:0:0:
402,192,13886,128,0,13954:0:0:0:0:
475,192,13886,1,0,0:0:0:0:
256,192,13886,128,0,13954:0:0:0:0:
182,192,13886,1,0,0:0:0:0:
182,192,14023,128,0,14091:0:0:0:0:
329,192,14023,128,0,14091:0:0:0:0:
109,192,14023,128,0,14125:0:0:0:0:
475,192,14023,128,0,14091:0:0:0:0:
256,192,14023,1,0,0:0:0:0:
36,192,14023,1,0,0:0:0:0:
256,192,14159,128,0,14227:0:0:0:0:
402,192,14159,128,0,14227:0:0:0:0:
182,192,14159,128,0,14261:0:0:0:0:
36,192,14159,128,0,14227:0:0:0:0:
109,192,14159,1,0,0:0:0:0:
329,192,14159,1,0,0:0:0:0:
109,192,14295,128,0,14363:0:0:0:0:
256,192,14295,128,0,14398:0:0:0:0:
329,192,14295,128,0,14363:0:0:0:0:
475,192,14295,128,0,14363:0:0:0:0:
402,192,14295,1,0,0:0:0:0:
182,192,14295,1,0,0:0:0:0:
475,192,14432,128,0,14522:0:0:0:0:
402,192,14432,128,0,14500:0:0:0:0:
329,192,14432,128,0,14500:0:0:0:0:
256,192,14432,128,0,14522:0:0:0:0:
182,192,14432,128,0,14500:0:0:0:0:
36,192,14432,128,0,14500:0:0:0:0:
402,192,14568,1,0,0:0:0:0:
182,192,14568,1,0,0:0:0:0:
36,192,14568,1,0,0:0:0:0:
329,192,14568,1,0,0:0:0:0:
475,192,14591,1,0,0:0:0:0:
256,192,14591,1,0,0:0:0:0:
256,192,14704,1,0,0:0:0:0:
475,192,14704,128,0,14841:0:0:0:0:
36,192,14704,128,0,14772:0:0:0:0:
182,192,14704,128,0,14807:0:0:0:0:
402,192,14727,128,0,14841:0:0:0:0:
329,192,14727,1,0,0:0:0:0:
36,192,14841,1,0,0:0:0:0:
256,192,14841,128,0,15045:0:0:0:0:
109,192,14841,128,0,15045:0:0:0:0:
182,192,14863,1,0,0:0:0:0:
256,192,15113,128,0,15386:0:0:0:0:
402,192,15113,128,0,15386:0:0:0:0:
475,192,15113,1,0,0:0:0:0:
329,192,15136,1,0,0:0:0:0:
109,192,15250,1,0,0:0:0:0:
36,192,15250,1,0,0:0:0:0:
475,192,15386,128,0,15454:0:0:0:0:
329,192,15386,128,0,15454:0:0:0:0:
182,192,15386,128,0,15454:0:0:0:0:
402,192,15522,128,0,15591:0:0:0:0:
256,192,15522,128,0,15591:0:0:0:0:
109,192,15522,128,0,15591:0:0:0:0:
329,192,15659,128,0,15727:0:0:0:0:
182,192,15659,128,0,15727:0:0:0:0:
36,192,15659,128,0,15727:0:0:0:0:
402,192,15659,1,0,0:0:0:0:
109,192,15659,1,0,0:0:0:0:
402,192,15795,128,0,15897:0:0:0:0:
475,192,15795,128,0,15863:0:0:0:0:
109,192,15795,128,0,15863:0:0:0:0:
36,192,15795,1,0,0:0:0:0:
256,192,15795,128,0,15863:0:0:0:0:
329,192,15795,1,0,0:0:0:0:
329,192,15932,128,0,16034:0:0:0:0:
182,192,15932,128,0,16000:0:0:0:0:
402,192,15932,128,0,16000:0:0:0:0:
256,192,15932,1,0,0:0:0:0:
475,192,15932,1,0,0:0:0:0:
256,192,16068,128,0,16136:0:0:0:0:
109,192,16068,128,0,16136:0:0:0:0:
329,192,16068,128,0,16170:0:0:0:0:
475,192,16068,128,0,16182:0:0:0:0:
402,192,16068,1,0,0:0:0:0:
182,192,16068,1,0,0:0:0:0:
402,192,16204,128,0,16307:0:0:0:0:
256,192,16204,128,0,16307:0:0:0:0:
182,192,16204,128,0,16272:0:0:0:0:
36,192,16204,128,0,16272:0:0:0:0:
109,192,16204,1,0,0:0:0:0:
329,192,16204,1,0,0:0:0:0:
109,192,16341,128,0,16409:0:0:0:0:
182,192,16341,128,0,16443:0:0:0:0:
329,192,16341,128,0,16443:0:0:0:0:
256,192,16341,1,0,0:0:0:0:
36,192,16341,1,0,0:0:0:0:
475,192,16477,128,0,16545:0:0:0:0:
36,192,16477,128,0,16545:0:0:0:0:
109,192,16477,128,0,16579:0:0:0:0:
256,192,16477,128,0,16579:0:0:0:0:
182,192,16477,1,0,0:0:0:0:
182,192,16613,128,0,16681:0:0:0:0:
256,192,16613,128,0,16681:0:0:0:0:
109,192,16613,128,0,16817:0:0:0:0:
36,192,16613,128,0,16817:0:0:0:0:
402,192,16613,128,0,16681:0:0:0:0:
475,192,16613,128,0,16885:0:0:0:0:
182,192,16749,1,0,0:0:0:0:
329,192,16749,128,0,16817:0:0:0:0:
402,192,16749,128,0,16885:0:0:0:0:
256,192,16749,1,0,0:0:0:0:
256,192,16885,128,0,16953:0:0:0:0:
36,192,16885,1,0,0:0:0:0:
329,192,16885,128,0,16953:0:0:0:0:
109,192,16885,1,0,0:0:0:0:
182,192,17022,128,0,17226:0:0:0:0:
329,192,17022,128,0,17226:0:0:0:0:
36,192,17022,128,0,17056:0:0:0:0:
475,192,17022,1,0,0:0:0:0:
256,192,17022,1,0,0:0:0:0:
475,192,17158,128,0,17192:0:0:0:0:
36,192,17158,1,0,0:0:0:0:
109,192,17294,128,0,17499:0:0:0:0:
402,192,17294,128,0,17499:0:0:0:0:
36,192,17294,128,0,17328:0:0:0:0:
475,192,17294,1,0,0:0:0:0:
182,192,17294,1,0,0:0:0:0:
329,192,17294,1,0,0:0:0:0:
475,192,17431,128,0,17465:0:0:0:0:
36,192,17431,1,0,0:0:0:0:
256,192,17431,1,0,0:0:0:0:
36,192,17567,128,0,17703:0:0:0:0:
475,192,17567,128,0,17703:0:0:0:0:
182,192,17567,1,0,0:0:0:0:
329,192,17567,1,0,0:0:0:0:
109,192,17703,128,0,17840:0:0:0:0:
402,192,17703,128,0,17840:0:0:0:0:
256,192,17703,1,0,0:0:0:0:
36,192,17840,128,0,17908:0:0:0:0:
475,192,17840,128,0,17908:0:0:0:0:
182,192,17840,128,0,17976:0:0:0:0:
329,192,17840,128,0,17976:0:0:0:0:
402,192,17976,128,0,18044:0:0:0:0:
109,192,17976,128,0,18044:0:0:0:0:
36,192,17976,128,0,18044:0:0:0:0:
475,192,17976,128,0,18044:0:0:0:0:
256,192,17976,128,0,18044:0:0:0:0:
36,192,18113,128,0,18181:0:0:0:0:
475,192,18113,128,0,18181:0:0:0:0:
109,192,18113,128,0,18147:0:0:0:0:
402,192,18113,128,0,18147:0:0:0:0:
109,192,18249,128,0,18317:0:0:0:0:
402,192,18249,128,0,18317:0:0:0:0:
182,192,18249,128,0,18283:0:0:0:0:
329,192,18249,128,0,18283:0:0:0:0:
256,192,18249,1,0,0:0:0:0:
182,192,18385,128,0,18419:0:0:0:0:
329,192,18385,128,0,18419:0:0:0:0:
256,192,18385,1,0,0:0:0:0:
256,192,18522,128,0,18726:0:0:0:0:
109,192,18522,1,0,0:0:0:0:
402,192,18522,1,0,0:0:0:0:
36,192,18522,128,0,18612:0:0:0:0:
475,192,18522,128,0,18612:0:0:0:0:
182,192,18544,1,0,0:0:0:0:
329,192,18544,1,0,0:0:0:0:
475,192,18658,1,0,0:0:0:0:
36,192,18658,1,0,0:0:0:0:
182,192,18658,128,0,18726:0:0:0:0:
329,192,18658,128,0,18726:0:0:0:0:
402,192,18681,1,0,0:0:0:0:
109,192,18681,1,0,0:0:0:0:
256,192,18794,1,0,0:0:0:0:
182,192,18794,128,0,18862:0:0:0:0:
109,192,18794,128,0,18862:0:0:0:0:
36,192,18794,128,0,18862:0:0:0:0:
329,192,18794,128,0,18862:0:0:0:0:
402,192,18794,128,0,18862:0:0:0:0:
475,192,18794,128,0,18862:0:0:0:0:
182,192,18931,128,0,18976:0:0:0:0:
256,192,18953,128,0,18999:0:0:0:0:
329,192,18976,128,0,19022:0:0:0:0:
402,192,18999,128,0,19044:0:0:0:0:
475,192,18999,128,0,19567:0:0:0:0:
36,192,19067,128,0,19135:0:0:0:0:
109,192,19135,128,0,19203:0:0:0:0:
182,192,19203,128,0,19340:0:0:0:0:
109,192,19340,128,0,19408:0:0:0:0:
36,192,19340,128,0,19408:0:0:0:0:
402,192,19340,1,0,0:0:0:0:
329,192,19340,1,0,0:0:0:0:
182,192,19476,128,0,19544:0:0:0:0:
256,192,19476,128,0,19544:0:0:0:0:
329,192,19476,1,0,0:0:0:0:
402,192,19476,1,0,0:0:0:0:
256,192,19612,128,0,19647:0:0:0:0:
109,192,19612,128,0,19681:0:0:0:0:
182,192,19612,128,0,19647:0:0:0:0:
329,192,19612,128,0,19681:0:0:0:0:
475,192,19612,1,0,0:0:0:0:
182,192,19749,128,0,19817:0:0:0:0:
402,192,19749,128,0,19817:0:0:0:0:
36,192,19749,1,0,0:0:0:0:
256,192,19783,128,0,19817:0:0:0:0:
329,192,19783,128,0,19817:0:0:0:0:
329,192,19885,128,0,19919:0:0:0:0:
402,192,19885,128,0,19919:0:0:0:0:
256,192,19885,128,0,19953:0:0:0:0:
475,192,19885,128,0,19953:0:0:0:0:
109,192,19885,128,0,19919:0:0:0:0:
36,192,19885,128,0,20090:0:0:0:0:
402,192,20022,128,0,20090:0:0:0:0:
182,192,20022,128,0,20090:0:0:0:0:
475,192,20022,1,0,0:0:0:0:
256,192,20056,128,0,20090:0:0:0:0:
329,192,20056,128,0,20090:0:0:0:0:
109,192,20158,128,0,20226:0:0:0:0:
329,192,20158,128,0,20226:0:0:0:0:
182,192,20158,128,0,20192:0:0:0:0:
256,192,20158,128,0,20192:0:0:0:0:
36,192,20158,1,0,0:0:0:0:
475,192,20158,128,0,20260:0:0:0:0:
36,192,20294,128,0,20362:0:0:0:0:
256,192,20294,128,0,20362:0:0:0:0:
475,192,20294,1,0,0:0:0:0:
182,192,20328,128,0,20362:0:0:0:0:
109,192,20328,128,0,20362:0:0:0:0:
256,192,20431,128,0,20465:0:0:0:0:
182,192,20431,128,0,20465:0:0:0:0:
329,192,20431,128,0,20499:0:0:0:0:
109,192,20431,128,0,20499:0:0:0:0:
182,192,20567,128,0,20635:0:0:0:0:
402,192,20567,128,0,20635:0:0:0:0:
329,192,20601,128,0,20635:0:0:0:0:
256,192,20601,128,0,20635:0:0:0:0:
182,192,20703,128,0,20771:0:0:0:0:
36,192,20703,128,0,20793:0:0:0:0:
109,192,20703,128,0,20771:0:0:0:0:
256,192,20703,128,0,20793:0:0:0:0:
329,192,20703,128,0,20771:0:0:0:0:
475,192,20703,128,0,20771:0:0:0:0:
109,192,20839,1,0,0:0:0:0:
329,192,20839,1,0,0:0:0:0:
475,192,20839,1,0,0:0:0:0:
182,192,20839,1,0,0:0:0:0:
36,192,20862,1,0,0:0:0:0:
256,192,20862,1,0,0:0:0:0:
256,192,20975,1,0,0:0:0:0:
36,192,20975,128,0,21112:0:0:0:0:
475,192,20975,128,0,21043:0:0:0:0:
329,192,20975,128,0,21078:0:0:0:0:
109,192,20998,128,0,21112:0:0:0:0:
182,192,20998,1,0,0:0:0:0:
475,192,21112,1,0,0:0:0:0:
256,192,21112,128,0,21316:0:0:0:0:
402,192,21112,128,0,21316:0:0:0:0:
329,192,21134,1,0,0:0:0:0:
36,192,21248,1,0,0:0:0:0:
109,192,21248,1,0,0:0:0:0:
256,192,21384,128,0,21657:0:0:0:0:
109,192,21384,128,0,21657:0:0:0:0:
36,192,21384,1,0,0:0:0:0:
182,192,21407,1,0,0:0:0:0:
402,192,21521,1,0,0:0:0:0:
475,192,21521,1,0,0:0:0:0:
36,192,21657,128,0,21725:0:0:0:0:
182,192,21657,128,0,21725:0:0:0:0:
329,192,21657,128,0,21759:0:0:0:0:
109,192,21793,128,0,21862:0:0:0:0:
256,192,21793,128,0,21862:0:0:0:0:
402,192,21793,128,0,21896:0:0:0:0:
329,192,21793,1,0,0:0:0:0:
182,192,21930,128,0,21998:0:0:0:0:
329,192,21930,128,0,21998:0:0:0:0:
475,192,21930,128,0,22032:0:0:0:0:
402,192,21930,1,0,0:0:0:0:
109,192,22066,128,0,22168:0:0:0:0:
36,192,22066,128,0,22168:0:0:0:0:
402,192,22066,128,0,22134:0:0:0:0:
329,192,22066,1,0,0:0:0:0:
475,192,22066,1,0,0:0:0:0:
256,192,22066,128,0,22134:0:0:0:0:
182,192,22066,1,0,0:0:0:0:
182,192,22203,128,0,22305:0:0:0:0:
329,192,22203,128,0,22271:0:0:0:0:
109,192,22203,128,0,22305:0:0:0:0:
475,192,22203,128,0,22271:0:0:0:0:
36,192,22203,1,0,0:0:0:0:
256,192,22339,128,0,22441:0:0:0:0:
402,192,22339,128,0,22407:0:0:0:0:
182,192,22339,128,0,22441:0:0:0:0:
36,192,22339,128,0,22407:0:0:0:0:
109,192,22339,1,0,0:0:0:0:
109,192,22475,128,0,22543:0:0:0:0:
256,192,22475,128,0,22578:0:0:0:0:
329,192,22475,128,0,22578:0:0:0:0:
475,192,22475,128,0,22543:0:0:0:0:
182,192,22475,1,0,0:0:0:0:
475,192,22612,128,0,22702:0:0:0:0:
402,192,22612,128,0,22680:0:0:0:0:
329,192,22612,128,0,22680:0:0:0:0:
256,192,22612,128,0,22702:0:0:0:0:
182,192,22612,128,0,22680:0:0:0:0:
36,192,22612,128,0,22680:0:0:0:0:
402,192,22748,1,0,0:0:0:0:
182,192,22748,1,0,0:0:0:0:
36,192,22748,1,0,0:0:0:0:
329,192,22748,1,0,0:0:0:0:
475,192,22771,1,0,0:0:0:0:
256,192,22771,1,0,0:0:0:0:
256,192,22884,1,0,0:0:0:0:
475,192,22884,128,0,23021:0:0:0:0:
36,192,22884,128,0,22952:0:0:0:0:
182,192,22884,128,0,22987:0:0:0:0:
402,192,22907,128,0,23021:0:0:0:0:
329,192,22907,1,0,0:0:0:0:
36,192,23021,1,0,0:0:0:0:
256,192,23021,128,0,23225:0:0:0:0:
109,192,23021,128,0,23293:0:0:0:0:
182,192,23043,1,0,0:0:0:0:
329,192,23066,128,0,23134:0:0:0:0:
475,192,23157,1,0,0:0:0:0:
402,192,23157,1,0,0:0:0:0:
182,192,23157,128,0,23259:0:0:0:0:
256,192,23293,128,0,23566:0:0:0:0:
402,192,23293,128,0,23498:0:0:0:0:
475,192,23293,1,0,0:0:0:0:
329,192,23316,1,0,0:0:0:0:
182,192,23339,128,0,23407:0:0:0:0:
109,192,23430,1,0,0:0:0:0:
36,192,23430,1,0,0:0:0:0:
329,192,23430,128,0,23532:0:0:0:0:
329,192,23566,128,0,23634:0:0:0:0:
182,192,23566,128,0,23634:0:0:0:0:
402,192,23702,128,0,23771:0:0:0:0:
256,192,23702,128,0,23771:0:0:0:0:
109,192,23702,128,0,23771:0:0:0:0:
329,192,23839,128,0,23907:0:0:0:0:
182,192,23839,128,0,23907:0:0:0:0:
36,192,23839,128,0,23907:0:0:0:0:
256,192,23839,1,0,0:0:0:0:
109,192,23839,1,0,0:0:0:0:
402,192,23975,128,0,24043:0:0:0:0:
475,192,23975,128,0,24077:0:0:0:0:
109,192,23975,128,0,24043:0:0:0:0:
182,192,23975,1,0,0:0:0:0:
256,192,23975,128,0,24043:0:0:0:0:
329,192,23975,1,0,0:0:0:0:
329,192,24112,128,0,24180:0:0:0:0:
182,192,24112,128,0,24180:0:0:0:0:
402,192,24112,128,0,24214:0:0:0:0:
36,192,24112,128,0,24180:0:0:0:0:
256,192,24112,1,0,0:0:0:0:
475,192,24112,1,0,0:0:0:0:
256,192,24248,128,0,24316:0:0:0:0:
109,192,24248,128,0,24316:0:0:0:0:
329,192,24248,128,0,24350:0:0:0:0:
475,192,24248,128,0,24384:0:0:0:0:
402,192,24248,1,0,0:0:0:0:
182,192,24248,1,0,0:0:0:0:
402,192,24384,128,0,24521:0:0:0:0:
256,192,24384,128,0,24487:0:0:0:0:
182,192,24384,128,0,24452:0:0:0:0:
36,192,24384,128,0,24452:0:0:0:0:
109,192,24384,1,0,0:0:0:0:
329,192,24384,1,0,0:0:0:0:
109,192,24521,128,0,24589:0:0:0:0:
182,192,24521,128,0,24623:0:0:0:0:
329,192,24521,128,0,24657:0:0:0:0:
256,192,24521,1,0,0:0:0:0:
36,192,24521,1,0,0:0:0:0:
36,192,24657,128,0,24725:0:0:0:0:
109,192,24657,128,0,24759:0:0:0:0:
256,192,24657,128,0,24759:0:0:0:0:
475,192,24657,128,0,24725:0:0:0:0:
182,192,24657,1,0,0:0:0:0:
402,192,24657,1,0,0:0:0:0:
182,192,24793,128,0,24861:0:0:0:0:
256,192,24793,128,0,24861:0:0:0:0:
109,192,24793,128,0,24997:0:0:0:0:
36,192,24793,128,0,24997:0:0:0:0:
402,192,24793,128,0,24861:0:0:0:0:
475,192,24793,128,0,25133:0:0:0:0:
182,192,24929,1,0,0:0:0:0:
329,192,24929,128,0,24997:0:0:0:0:
402,192,24929,128,0,25133:0:0:0:0:
256,192,24929,1,0,0:0:0:0:
36,192,25065,1,0,0:0:0:0:
256,192,25065,128,0,25133:0:0:0:0:
329,192,25065,128,0,25133:0:0:0:0:
109,192,25065,1,0,0:0:0:0:
182,192,25202,128,0,25406:0:0:0:0:
329,192,25202,128,0,25406:0:0:0:0:
36,192,25202,128,0,25236:0:0:0:0:
475,192,25202,1,0,0:0:0:0:
256,192,25202,1,0,0:0:0:0:
109,192,25202,128,0,25406:0:0:0:0:
402,192,25202,128,0,25406:0:0:0:0:
475,192,25338,128,0,25372:0:0:0:0:
36,192,25338,1,0,0:0:0:0:
36,192,25474,128,0,25508:0:0:0:0:
475,192,25474,1,0,0:0:0:0:
182,192,25474,1,0,0:0:0:0:
329,192,25474,1,0,0:0:0:0:
109,192,25474,128,0,25611:0:0:0:0:
402,192,25474,128,0,25611:0:0:0:0:
256,192,25474,128,0,25543:0:0:0:0:
475,192,25611,128,0,25645:0:0:0:0:
36,192,25611,1,0,0:0:0:0:
256,192,25611,1,0,0:0:0:0:
36,192,25747,128,0,25883:0:0:0:0:
475,192,25747,128,0,25883:0:0:0:0:
182,192,25747,1,0,0:0:0:0:
329,192,25747,1,0,0:0:0:0:
109,192,25770,128,0,25815:0:0:0:0:
402,192,25770,128,0,25815:0:0:0:0:
109,192,25883,128,0,26020:0:0:0:0:
402,192,25883,128,0,26020:0:0:0:0:
256,192,25883,1,0,0:0:0:0:
182,192,25906,128,0,25952:0:0:0:0:
329,192,25906,128,0,25952:0:0:0:0:
36,192,26020,128,0,26088:0:0:0:0:
475,192,26020,128,0,26088:0:0:0:0:
182,192,26020,128,0,26156:0:0:0:0:
329,192,26020,128,0,26156:0:0:0:0:
256,192,26020,128,0,26088:0:0:0:0:
402,192,26156,128,0,26224:0:0:0:0:
109,192,26156,128,0,26224:0:0:0:0:
36,192,26156,128,0,26258:0:0:0:0:
475,192,26156,128,0,26258:0:0:0:0:
256,192,26156,128,0,26190:0:0:0:0:
36,192,26293,128,0,26361:0:0:0:0:
475,192,26293,128,0,26361:0:0:0:0:
109,192,26293,128,0,26327:0:0:0:0:
402,192,26293,128,0,26327:0:0:0:0:
109,192,26429,128,0,26497:0:0:0:0:
402,192,26429,128,0,26497:0:0:0:0:
182,192,26429,128,0,26463:0:0:0:0:
329,192,26429,128,0,26463:0:0:0:0:
256,192,26429,1,0,0:0:0:0:
182,192,26565,128,0,26599:0:0:0:0:
329,192,26565,128,0,26599:0:0:0:0:
256,192,26565,1,0,0:0:0:0:
256,192,26702,128,0,26906:0:0:0:0:
109,192,26702,1,0,0:0:0:0:
402,192,26702,1,0,0:0:0:0:
36,192,26702,128,0,26770:0:0:0:0:
475,192,26702,128,0,26770:0:0:0:0:
182,192,26724,1,0,0:0:0:0:
329,192,26724,1,0,0:0:0:0:
475,192,26838,1,0,0:0:0:0:
36,192,26838,1,0,0:0:0:0:
182,192,26838,128,0,26906:0:0:0:0:
329,192,26838,128,0,26906:0:0:0:0:
402,192,26861,1,0,0:0:0:0:
109,192,26861,1,0,0:0:0:0:
256,192,26974,1,0,0:0:0:0:
182,192,26974,128,0,27042:0:0:0:0:
109,192,26974,128,0,27042:0:0:0:0:
36,192,26974,128,0,27042:0:0:0:0:
329,192,26974,128,0,27042:0:0:0:0:
402,192,26974,128,0,27042:0:0:0:0:
475,192,26974,128,0,27042:0:0:0:0:
182,192,27111,128,0,27156:0:0:0:0:
256,192,27133,128,0,27179:0:0:0:0:
329,192,27156,128,0,27202:0:0:0:0:
402,192,27179,128,0,27224:0:0:0:0:
475,192,27179,128,0,27747:0:0:0:0:
36,192,27247,128,0,27315:0:0:0:0:
109,192,27315,128,0,27383:0:0:0:0:
182,192,27383,128,0,27520:0:0:0:0:
329,192,27383,1,0,0:0:0:0:
402,192,27383,1,0,0:0:0:0:
109,192,27520,128,0,27588:0:0:0:0:
36,192,27520,128,0,27588:0:0:0:0:
256,192,27520,1,0,0:0:0:0:
402,192,27520,1,0,0:0:0:0:
329,192,27520,1,0,0:0:0:0:
182,192,27656,128,0,27724:0:0:0:0:
256,192,27656,128,0,27724:0:0:0:0:
329,192,27656,1,0,0:0:0:0:
402,192,27656,1,0,0:0:0:0:
182,192,27792,128,0,27827:0:0:0:0:
36,192,27792,128,0,27861:0:0:0:0:
109,192,27792,128,0,27827:0:0:0:0:
256,192,27792,128,0,27861:0:0:0:0:
402,192,27792,1,0,0:0:0:0:
109,192,27929,128,0,27997:0:0:0:0:
329,192,27929,128,0,27997:0:0:0:0:
475,192,27929,1,0,0:0:0:0:
182,192,27963,128,0,27997:0:0:0:0:
256,192,27963,128,0,27997:0:0:0:0:
256,192,28065,128,0,28099:0:0:0:0:
329,192,28065,128,0,28099:0:0:0:0:
182,192,28065,128,0,28133:0:0:0:0:
402,192,28065,128,0,28133:0:0:0:0:
36,192,28065,1,0,0:0:0:0:
329,192,28202,128,0,28270:0:0:0:0:
109,192,28202,128,0,28270:0:0:0:0:
475,192,28202,1,0,0:0:0:0:
182,192,28236,128,0,28270:0:0:0:0:
256,192,28236,128,0,28270:0:0:0:0:
182,192,28338,128,0,28406:0:0:0:0:
402,192,28338,128,0,28406:0:0:0:0:
256,192,28338,128,0,28372:0:0:0:0:
329,192,28338,128,0,28372:0:0:0:0:
109,192,28338,1,0,0:0:0:0:
36,192,28338,1,0,0:0:0:0:
109,192,28474,128,0,28542:0:0:0:0:
329,192,28474,128,0,28542:0:0:0:0:
256,192,28508,128,0,28542:0:0:0:0:
182,192,28508,128,0,28542:0:0:0:0:
402,192,28508,1,0,0:0:0:0:
475,192,28508,1,0,0:0:0:0:
256,192,28611,128,0,28645:0:0:0:0:
182,192,28611,128,0,28645:0:0:0:0:
402,192,28611,128,0,28679:0:0:0:0:
109,192,28611,128,0,28679:0:0:0:0:
329,192,28611,128,0,28645:0:0:0:0:
36,192,28645,1,0,0:0:0:0:
475,192,28645,1,0,0:0:0:0:
475,192,28747,128,0,28986:0:0:0:0:
182,192,28747,128,0,28986:0:0:0:0:
36,192,28747,128,0,28986:0:0:0:0:
329,192,28747,128,0,28986:0:0:0:0:
402,192,28781,128,0,28986:0:0:0:0:
256,192,28781,128,0,28986:0:0:0:0:
109,192,28781,128,0,28986:0:0:0:0:
256,192,29020,1,0,0:0:0:0:
182,192,29156,128,0,29497:0:0:0:0:
256,192,29156,128,0,29633:0:0:0:0:
109,192,29156,1,0,0:0:0:0:
36,192,29156,128,0,29224:0:0:0:0:
329,192,29156,1,0,0:0:0:0:
475,192,29156,1,0,0:0:0:0:
109,192,29292,128,0,29361:0:0:0:0:
36,192,29292,1,0,0:0:0:0:
402,192,29292,1,0,0:0:0:0:
36,192,29429,128,0,29906:0:0:0:0:
329,192,29429,1,0,0:0:0:0:
475,192,29429,1,0,0:0:0:0:
109,192,29429,1,0,0:0:0:0:
109,192,29565,128,0,29770:0:0:0:0:
402,192,29565,1,0,0:0:0:0:
182,192,29565,1,0,0:0:0:0:
182,192,29702,128,0,29770:0:0:0:0:
329,192,29702,1,0,0:0:0:0:
475,192,29702,1,0,0:0:0:0:
256,192,29702,1,0,0:0:0:0:
109,192,29838,128,0,29906:0:0:0:0:
256,192,29838,128,0,30315:0:0:0:0:
182,192,29838,1,0,0:0:0:0:
402,192,29838,1,0,0:0:0:0:
182,192,29974,128,0,30179:0:0:0:0:
36,192,29974,128,0,30042:0:0:0:0:
109,192,29974,1,0,0:0:0:0:
329,192,29974,1,0,0:0:0:0:
475,192,29974,1,0,0:0:0:0:
109,192,30111,128,0,30179:0:0:0:0:
36,192,30111,1,0,0:0:0:0:
402,192,30111,1,0,0:0:0:0:
182,192,30247,128,0,30315:0:0:0:0:
36,192,30247,128,0,30452:0:0:0:0:
109,192,30247,1,0,0:0:0:0:
329,192,30247,1,0,0:0:0:0:
475,192,30247,1,0,0:0:0:0:
109,192,30383,128,0,30452:0:0:0:0:
182,192,30383,1,0,0:0:0:0:
402,192,30383,1,0,0:0:0:0:
256,192,30383,128,0,30588:0:0:0:0:
36,192,30520,128,0,30588:0:0:0:0:
109,192,30520,1,0,0:0:0:0:
475,192,30520,1,0,0:0:0:0:
182,192,30520,128,0,30588:0:0:0:0:
329,192,30520,128,0,30724:0:0:0:0:
109,192,30656,128,0,30724:0:0:0:0:
256,192,30656,128,0,30724:0:0:0:0:
36,192,30656,1,0,0:0:0:0:
402,192,30656,128,0,30861:0:0:0:0:
182,192,30792,128,0,30861:0:0:0:0:
36,192,30792,128,0,30861:0:0:0:0:
475,192,30792,1,0,0:0:0:0:
109,192,30792,1,0,0:0:0:0:
329,192,30792,128,0,30861:0:0:0:0:
402,192,30929,128,0,30997:0:0:0:0:
36,192,30929,1,0,0:0:0:0:
256,192,30929,1,0,0:0:0:0:
329,192,30929,1,0,0:0:0:0:
475,192,30929,1,0,0:0:0:0:
182,192,30929,1,0,0:0:0:0:
109,192,30929,128,0,30997:0:0:0:0:
329,192,31202,128,0,31270:0:0:0:0:
475,192,31202,128,0,31270:0:0:0:0:
109,192,31202,128,0,31440:0:0:0:0:
256,192,31236,128,0,31270:0:0:0:0:
182,192,31338,128,0,31406:0:0:0:0:
36,192,31338,128,0,31406:0:0:0:0:
402,192,31372,128,0,31406:0:0:0:0:
329,192,31474,128,0,31542:0:0:0:0:
402,192,31474,128,0,31542:0:0:0:0:
256,192,31474,128,0,31713:0:0:0:0:
475,192,31508,128,0,31542:0:0:0:0:
182,192,31611,128,0,31679:0:0:0:0:
109,192,31611,128,0,31679:0:0:0:0:
36,192,31645,128,0,31679:0:0:0:0:
402,192,31747,128,0,31815:0:0:0:0:
475,192,31747,128,0,31815:0:0:0:0:
329,192,31781,128,0,31815:0:0:0:0:
109,192,31883,128,0,32020:0:0:0:0:
36,192,31883,128,0,32020:0:0:0:0:
182,192,31883,128,0,32020:0:0:0:0:
256,192,31917,128,0,31952:0:0:0:0:
329,192,32020,128,0,32156:0:0:0:0:
475,192,32020,128,0,32156:0:0:0:0:
402,192,32020,128,0,32156:0:0:0:0:
256,192,32054,128,0,32088:0:0:0:0:
182,192,32156,128,0,32292:0:0:0:0:
36,192,32156,128,0,32292:0:0:0:0:
256,192,32156,128,0,32361:0:0:0:0:
109,192,32190,128,0,32224:0:0:0:0:
402,192,32292,128,0,32429:0:0:0:0:
475,192,32327,128,0,32361:0:0:0:0:
329,192,32327,128,0,32361:0:0:0:0:
109,192,32327,1,0,0:0:0:0:
109,192,32429,128,0,32565:0:0:0:0:
182,192,32463,128,0,32497:0:0:0:0:
36,192,32463,128,0,32497:0:0:0:0:
402,192,32463,1,0,0:0:0:0:
329,192,32565,128,0,32702:0:0:0:0:
475,192,32565,1,0,0:0:0:0:
256,192,32565,128,0,33077:0:0:0:0:
402,192,32599,128,0,32633:0:0:0:0:
182,192,32702,128,0,32838:0:0:0:0:
36,192,32702,1,0,0:0:0:0:
109,192,32736,128,0,32770:0:0:0:0:
329,192,32770,128,0,32906:0:0:0:0:
402,192,32838,128,0,32906:0:0:0:0:
475,192,32838,128,0,32906:0:0:0:0:
182,192,32906,128,0,33042:0:0:0:0:
109,192,32974,128,0,33042:0:0:0:0:
36,192,32974,128,0,33042:0:0:0:0:
329,192,33111,1,0,0:0:0:0:
402,192,33111,1,0,0:0:0:0:
475,192,33111,1,0,0:0:0:0:
182,192,33383,128,0,33452:0:0:0:0:
109,192,33383,128,0,33520:0:0:0:0:
329,192,33452,128,0,33520:0:0:0:0:
402,192,33452,128,0,33520:0:0:0:0:
256,192,33520,128,0,33588:0:0:0:0:
36,192,33520,128,0,33588:0:0:0:0:
182,192,33520,128,0,33656:0:0:0:0:
475,192,33520,128,0,33622:0:0:0:0:
329,192,33656,128,0,33724:0:0:0:0:
109,192,33656,128,0,33724:0:0:0:0:
402,192,33656,1,0,0:0:0:0:
256,192,33656,128,0,33792:0:0:0:0:
36,192,33656,128,0,33758:0:0:0:0:
475,192,33656,1,0,0:0:0:0:
402,192,33792,128,0,33861:0:0:0:0:
182,192,33792,128,0,33861:0:0:0:0:
475,192,33792,1,0,0:0:0:0:
329,192,33792,128,0,33929:0:0:0:0:
109,192,33792,128,0,33895:0:0:0:0:
256,192,33929,128,0,33997:0:0:0:0:
475,192,33929,128,0,33997:0:0:0:0:
36,192,33929,1,0,0:0:0:0:
402,192,33929,128,0,34065:0:0:0:0:
182,192,33929,128,0,34031:0:0:0:0:
109,192,33929,1,0,0:0:0:0:
329,192,34065,128,0,34133:0:0:0:0:
475,192,34065,128,0,34133:0:0:0:0:
36,192,34065,128,0,34133:0:0:0:0:
182,192,34065,1,0,0:0:0:0:
256,192,34065,128,0,34167:0:0:0:0:
109,192,34202,128,0,34270:0:0:0:0:
402,192,34202,128,0,34270:0:0:0:0:
36,192,34202,128,0,34270:0:0:0:0:
475,192,34202,128,0,34270:0:0:0:0:
256,192,34202,1,0,0:0:0:0:
329,192,34270,128,0,34338:0:0:0:0:
182,192,34270,128,0,34338:0:0:0:0:
109,192,34338,128,0,34406:0:0:0:0:
402,192,34338,128,0,34406:0:0:0:0:
36,192,34338,128,0,34542:0:0:0:0:
475,192,34338,128,0,34542:0:0:0:0:
182,192,34474,128,0,34542:0:0:0:0:
256,192,34474,128,0,34542:0:0:0:0:
329,192,34474,128,0,34542:0:0:0:0:
402,192,34474,1,0,0:0:0:0:
109,192,34474,1,0,0:0:0:0:
182,192,34611,128,0,34679:0:0:0:0:
329,192,34611,128,0,34679:0:0:0:0:
402,192,34611,128,0,34679:0:0:0:0:
109,192,34611,128,0,34679:0:0:0:0:
256,192,34611,128,0,34679:0:0:0:0:
36,192,34645,1,0,0:0:0:0:
475,192,34645,1,0,0:0:0:0:
475,192,34747,128,0,34815:0:0:0:0:
36,192,34747,128,0,34815:0:0:0:0:
182,192,34747,128,0,34815:0:0:0:0:
329,192,34747,128,0,34815:0:0:0:0:
109,192,34781,1,0,0:0:0:0:
402,192,34781,1,0,0:0:0:0:
109,192,34883,128,0,34952:0:0:0:0:
402,192,34883,128,0,34952:0:0:0:0:
475,192,34883,128,0,34952:0:0:0:0:
36,192,34883,128,0,34986:0:0:0:0:
256,192,34917,128,0,34952:0:0:0:0:
109,192,35020,128,0,35088:0:0:0:0:
329,192,35020,128,0,35088:0:0:0:0:
475,192,35020,128,0,35122:0:0:0:0:
182,192,35054,128,0,35088:0:0:0:0:
402,192,35156,128,0,35224:0:0:0:0:
256,192,35156,128,0,35224:0:0:0:0:
182,192,35156,128,0,35258:0:0:0:0:
36,192,35156,128,0,35224:0:0:0:0:
329,192,35190,128,0,35224:0:0:0:0:
402,192,35292,128,0,35361:0:0:0:0:
475,192,35292,128,0,35361:0:0:0:0:
109,192,35292,128,0,35361:0:0:0:0:
36,192,35292,128,0,35361:0:0:0:0:
329,192,35292,128,0,35361:0:0:0:0:
256,192,35327,128,0,35361:0:0:0:0:
329,192,35565,128,0,35633:0:0:0:0:
402,192,35565,128,0,35667:0:0:0:0:
182,192,35565,1,0,0:0:0:0:
475,192,35633,128,0,35702:0:0:0:0:
109,192,35633,1,0,0:0:0:0:
182,192,35702,1,0,0:0:0:0:
329,192,35702,128,0,35804:0:0:0:0:
36,192,35702,1,0,0:0:0:0:
402,192,35702,1,0,0:0:0:0:
256,192,35702,128,0,35804:0:0:0:0:
402,192,35838,128,0,35940:0:0:0:0:
182,192,35838,1,0,0:0:0:0:
36,192,35838,1,0,0:0:0:0:
329,192,35838,1,0,0:0:0:0:
475,192,35838,128,0,35872:0:0:0:0:
109,192,35838,128,0,35940:0:0:0:0:
475,192,35974,128,0,36077:0:0:0:0:
182,192,35974,1,0,0:0:0:0:
36,192,35974,1,0,0:0:0:0:
402,192,35974,1,0,0:0:0:0:
329,192,35974,128,0,36008:0:0:0:0:
256,192,36111,128,0,36213:0:0:0:0:
109,192,36111,1,0,0:0:0:0:
182,192,36111,1,0,0:0:0:0:
36,192,36111,1,0,0:0:0:0:
402,192,36111,128,0,36145:0:0:0:0:
475,192,36111,1,0,0:0:0:0:
329,192,36111,128,0,36213:0:0:0:0:
402,192,36247,128,0,36349:0:0:0:0:
329,192,36247,1,0,0:0:0:0:
109,192,36247,1,0,0:0:0:0:
475,192,36247,128,0,36281:0:0:0:0:
329,192,36383,128,0,36486:0:0:0:0:
475,192,36383,128,0,36486:0:0:0:0:
182,192,36383,1,0,0:0:0:0:
256,192,36383,128,0,36417:0:0:0:0:
402,192,36383,128,0,36452:0:0:0:0:
109,192,36452,1,0,0:0:0:0:
36,192,36520,1,0,0:0:0:0:
256,192,36520,128,0,36656:0:0:0:0:
475,192,36520,128,0,36861:0:0:0:0:
182,192,36588,128,0,36724:0:0:0:0:
402,192,36588,128,0,36792:0:0:0:0:
329,192,36656,128,0,36724:0:0:0:0:
109,192,36656,128,0,36792:0:0:0:0:
256,192,36724,128,0,36792:0:0:0:0:
36,192,36724,1,0,0:0:0:0:
36,192,36792,128,0,36997:0:0:0:0:
182,192,36792,128,0,36861:0:0:0:0:
329,192,36792,1,0,0:0:0:0:
109,192,36861,128,0,36929:0:0:0:0:
256,192,36861,128,0,36929:0:0:0:0:
402,192,36861,1,0,0:0:0:0:
182,192,36929,128,0,36997:0:0:0:0:
329,192,36929,128,0,36997:0:0:0:0:
475,192,36929,128,0,37065:0:0:0:0:
256,192,36997,128,0,37065:0:0:0:0:
402,192,36997,128,0,37099:0:0:0:0:
109,192,36997,128,0,37202:0:0:0:0:
329,192,37065,128,0,37167:0:0:0:0:
36,192,37065,128,0,37133:0:0:0:0:
182,192,37065,128,0,37133:0:0:0:0:
256,192,37133,128,0,37236:0:0:0:0:
475,192,37133,1,0,0:0:0:0:
475,192,37202,128,0,37338:0:0:0:0:
36,192,37202,128,0,37440:0:0:0:0:
182,192,37202,128,0,37304:0:0:0:0:
402,192,37202,1,0,0:0:0:0:
109,192,37270,128,0,37372:0:0:0:0:
329,192,37270,1,0,0:0:0:0:
402,192,37270,128,0,37406:0:0:0:0:
256,192,37338,1,0,0:0:0:0:
329,192,37338,128,0,37474:0:0:0:0:
182,192,37406,1,0,0:0:0:0:
256,192,37406,128,0,37542:0:0:0:0:
475,192,37406,1,0,0:0:0:0:
109,192,37474,1,0,0:0:0:0:
182,192,37474,128,0,37542:0:0:0:0:
402,192,37474,1,0,0:0:0:0:
36,192,37542,1,0,0:0:0:0:
109,192,37542,128,0,37611:0:0:0:0:
329,192,37542,1,0,0:0:0:0:
475,192,37611,128,0,37701:0:0:0:0:
402,192,37611,128,0,37679:0:0:0:0:
329,192,37611,128,0,37679:0:0:0:0:
256,192,37611,128,0,37701:0:0:0:0:
182,192,37611,128,0,37679:0:0:0:0:
36,192,37611,128,0,37679:0:0:0:0:
402,192,37747,1,0,0:0:0:0:
182,192,37747,1,0,0:0:0:0:
36,192,37747,1,0,0:0:0:0:
329,192,37747,1,0,0:0:0:0:
475,192,37770,1,0,0:0:0:0:
256,192,37781,1,0,0:0:0:0:
256,192,37883,1,0,0:0:0:0:
475,192,37883,128,0,38020:0:0:0:0:
182,192,37883,128,0,37986:0:0:0:0:
109,192,37883,128,0,37951:0:0:0:0:
36,192,37883,128,0,37917:0:0:0:0:
329,192,37906,1,0,0:0:0:0:
402,192,37917,128,0,37986:0:0:0:0:
36,192,38020,1,0,0:0:0:0:
256,192,38020,128,0,38224:0:0:0:0:
109,192,38020,128,0,38292:0:0:0:0:
182,192,38042,1,0,0:0:0:0:
329,192,38122,1,0,0:0:0:0:
402,192,38156,1,0,0:0:0:0:
475,192,38156,1,0,0:0:0:0:
256,192,38292,128,0,38565:0:0:0:0:
402,192,38292,128,0,38565:0:0:0:0:
475,192,38292,128,0,38429:0:0:0:0:
329,192,38326,1,0,0:0:0:0:
182,192,38395,1,0,0:0:0:0:
109,192,38429,1,0,0:0:0:0:
36,192,38429,1,0,0:0:0:0:
475,192,38565,128,0,38633:0:0:0:0:
329,192,38565,128,0,38633:0:0:0:0:
182,192,38565,128,0,38633:0:0:0:0:
36,192,38565,128,0,38770:0:0:0:0:
402,192,38701,128,0,38770:0:0:0:0:
256,192,38701,128,0,38770:0:0:0:0:
109,192,38701,128,0,38770:0:0:0:0:
329,192,38838,128,0,38906:0:0:0:0:
182,192,38838,128,0,38906:0:0:0:0:
36,192,38838,128,0,38906:0:0:0:0:
402,192,38974,128,0,39076:0:0:0:0:
475,192,38974,128,0,39076:0:0:0:0:
109,192,38974,128,0,39111:0:0:0:0:
182,192,38974,1,0,0:0:0:0:
256,192,38974,128,0,39111:0:0:0:0:
329,192,38974,1,0,0:0:0:0:
329,192,39111,128,0,39213:0:0:0:0:
182,192,39111,128,0,39247:0:0:0:0:
402,192,39111,128,0,39213:0:0:0:0:
36,192,39111,128,0,39247:0:0:0:0:
475,192,39111,1,0,0:0:0:0:
256,192,39247,128,0,39349:0:0:0:0:
109,192,39247,128,0,39383:0:0:0:0:
329,192,39247,128,0,39349:0:0:0:0:
475,192,39247,128,0,39383:0:0:0:0:
402,192,39247,1,0,0:0:0:0:
402,192,39383,128,0,39486:0:0:0:0:
256,192,39383,128,0,39486:0:0:0:0:
182,192,39383,128,0,39486:0:0:0:0:
36,192,39383,128,0,39486:0:0:0:0:
329,192,39383,1,0,0:0:0:0:
36,192,39520,128,0,39610:0:0:0:0:
109,192,39520,128,0,39588:0:0:0:0:
182,192,39520,128,0,39588:0:0:0:0:
256,192,39520,128,0,39610:0:0:0:0:
475,192,39520,128,0,39622:0:0:0:0:
402,192,39520,128,0,39588:0:0:0:0:
329,192,39520,128,0,39610:0:0:0:0:
109,192,39656,1,0,0:0:0:0:
329,192,39656,1,0,0:0:0:0:
475,192,39656,1,0,0:0:0:0:
182,192,39656,1,0,0:0:0:0:
36,192,39679,1,0,0:0:0:0:
256,192,39679,1,0,0:0:0:0:
256,192,39792,1,0,0:0:0:0:
36,192,39792,128,0,39997:0:0:0:0:
475,192,39792,128,0,39860:0:0:0:0:
329,192,39792,128,0,39895:0:0:0:0:
109,192,39815,128,0,39997:0:0:0:0:
182,192,39815,1,0,0:0:0:0:
475,192,39929,1,0,0:0:0:0:
256,192,39929,128,0,40133:0:0:0:0:
402,192,39929,128,0,40201:0:0:0:0:
329,192,39951,1,0,0:0:0:0:
182,192,40020,1,0,0:0:0:0:
36,192,40065,1,0,0:0:0:0:
109,192,40065,1,0,0:0:0:0:
329,192,40065,1,0,0:0:0:0:
256,192,40201,128,0,40474:0:0:0:0:
109,192,40201,128,0,40474:0:0:0:0:
36,192,40201,1,0,0:0:0:0:
182,192,40224,1,0,0:0:0:0:
402,192,40338,1,0,0:0:0:0:
475,192,40338,1,0,0:0:0:0:
329,192,40338,1,0,0:0:0:0:
329,192,40474,128,0,40542:0:0:0:0:
36,192,40474,128,0,40542:0:0:0:0:
182,192,40474,128,0,40542:0:0:0:0:
475,192,40474,128,0,40679:0:0:0:0:
109,192,40610,128,0,40679:0:0:0:0:
256,192,40610,128,0,40679:0:0:0:0:
402,192,40610,128,0,40679:0:0:0:0:
182,192,40747,128,0,40815:0:0:0:0:
329,192,40747,128,0,40815:0:0:0:0:
475,192,40747,128,0,40815:0:0:0:0:
109,192,40747,1,0,0:0:0:0:
109,192,40883,128,0,40951:0:0:0:0:
36,192,40883,128,0,40951:0:0:0:0:
402,192,40883,128,0,40951:0:0:0:0:
256,192,40883,128,0,40951:0:0:0:0:
182,192,40883,1,0,0:0:0:0:
109,192,41020,128,0,41156:0:0:0:0:
182,192,41020,128,0,41088:0:0:0:0:
329,192,41020,128,0,41122:0:0:0:0:
256,192,41020,1,0,0:0:0:0:
402,192,41020,1,0,0:0:0:0:
475,192,41020,128,0,41258:0:0:0:0:
256,192,41156,128,0,41224:0:0:0:0:
402,192,41156,128,0,41258:0:0:0:0:
182,192,41156,128,0,41292:0:0:0:0:
36,192,41156,128,0,41224:0:0:0:0:
329,192,41156,1,0,0:0:0:0:
109,192,41292,128,0,41360:0:0:0:0:
256,192,41292,128,0,41429:0:0:0:0:
329,192,41292,128,0,41360:0:0:0:0:
475,192,41292,128,0,41395:0:0:0:0:
402,192,41292,1,0,0:0:0:0:
36,192,41292,128,0,41360:0:0:0:0:
402,192,41429,128,0,41497:0:0:0:0:
329,192,41429,128,0,41565:0:0:0:0:
182,192,41429,128,0,41497:0:0:0:0:
109,192,41429,128,0,41497:0:0:0:0:
475,192,41429,1,0,0:0:0:0:
36,192,41429,1,0,0:0:0:0:
475,192,41565,128,0,41633:0:0:0:0:
402,192,41565,128,0,41633:0:0:0:0:
256,192,41565,128,0,41633:0:0:0:0:
182,192,41565,128,0,41701:0:0:0:0:
36,192,41565,128,0,41633:0:0:0:0:
109,192,41565,1,0,0:0:0:0:
329,192,41701,128,0,41791:0:0:0:0:
256,192,41701,128,0,41803:0:0:0:0:
402,192,41701,128,0,41939:0:0:0:0:
475,192,41701,128,0,41928:0:0:0:0:
109,192,41701,128,0,41791:0:0:0:0:
36,192,41701,128,0,41837:0:0:0:0:
329,192,41837,1,0,0:0:0:0:
182,192,41837,128,0,41928:0:0:0:0:
109,192,41837,128,0,41973:0:0:0:0:
256,192,41860,1,0,0:0:0:0:
475,192,41973,1,0,0:0:0:0:
256,192,41973,128,0,42041:0:0:0:0:
182,192,41973,128,0,42041:0:0:0:0:
402,192,41996,1,0,0:0:0:0:
329,192,42110,128,0,42348:0:0:0:0:
182,192,42110,128,0,42348:0:0:0:0:
475,192,42110,128,0,42144:0:0:0:0:
36,192,42110,1,0,0:0:0:0:
256,192,42110,1,0,0:0:0:0:
36,192,42246,128,0,42280:0:0:0:0:
475,192,42246,1,0,0:0:0:0:
109,192,42246,128,0,42314:0:0:0:0:
402,192,42246,128,0,42314:0:0:0:0:
402,192,42382,128,0,42587:0:0:0:0:
109,192,42382,128,0,42587:0:0:0:0:
475,192,42382,128,0,42416:0:0:0:0:
36,192,42382,1,0,0:0:0:0:
329,192,42382,1,0,0:0:0:0:
182,192,42382,1,0,0:0:0:0:
36,192,42519,128,0,42553:0:0:0:0:
475,192,42519,1,0,0:0:0:0:
256,192,42519,1,0,0:0:0:0:
182,192,42519,1,0,0:0:0:0:
329,192,42519,1,0,0:0:0:0:
475,192,42655,128,0,42860:0:0:0:0:
36,192,42655,128,0,42860:0:0:0:0:
402,192,42655,1,0,0:0:0:0:
109,192,42655,1,0,0:0:0:0:
182,192,42655,128,0,42689:0:0:0:0:
329,192,42655,128,0,42689:0:0:0:0:
182,192,42791,1,0,0:0:0:0:
402,192,42791,128,0,42996:0:0:0:0:
109,192,42791,128,0,42996:0:0:0:0:
329,192,42791,1,0,0:0:0:0:
256,192,42791,128,0,42826:0:0:0:0:
329,192,42928,128,0,43098:0:0:0:0:
182,192,42928,128,0,43098:0:0:0:0:
475,192,42928,128,0,42996:0:0:0:0:
36,192,42928,128,0,42996:0:0:0:0:
256,192,42928,128,0,42962:0:0:0:0:
109,192,43064,128,0,43132:0:0:0:0:
402,192,43064,128,0,43132:0:0:0:0:
475,192,43064,128,0,43166:0:0:0:0:
36,192,43064,128,0,43166:0:0:0:0:
256,192,43064,128,0,43098:0:0:0:0:
475,192,43201,128,0,43269:0:0:0:0:
36,192,43201,128,0,43269:0:0:0:0:
402,192,43201,128,0,43235:0:0:0:0:
109,192,43201,128,0,43235:0:0:0:0:
402,192,43337,128,0,43405:0:0:0:0:
109,192,43337,128,0,43405:0:0:0:0:
329,192,43337,128,0,43371:0:0:0:0:
182,192,43337,128,0,43371:0:0:0:0:
256,192,43337,1,0,0:0:0:0:
329,192,43473,128,0,43507:0:0:0:0:
182,192,43473,128,0,43507:0:0:0:0:
256,192,43473,1,0,0:0:0:0:
256,192,43610,128,0,43814:0:0:0:0:
402,192,43610,1,0,0:0:0:0:
109,192,43610,1,0,0:0:0:0:
475,192,43610,128,0,43700:0:0:0:0:
36,192,43610,128,0,43700:0:0:0:0:
329,192,43632,1,0,0:0:0:0:
182,192,43632,1,0,0:0:0:0:
36,192,43746,1,0,0:0:0:0:
475,192,43746,1,0,0:0:0:0:
329,192,43746,128,0,43814:0:0:0:0:
182,192,43746,128,0,43814:0:0:0:0:
109,192,43769,1,0,0:0:0:0:
402,192,43769,1,0,0:0:0:0:
256,192,43882,1,0,0:0:0:0:
329,192,43882,128,0,43950:0:0:0:0:
402,192,43882,128,0,43950:0:0:0:0:
475,192,43882,128,0,43950:0:0:0:0:
182,192,43882,128,0,43950:0:0:0:0:
109,192,43882,128,0,43950:0:0:0:0:
36,192,43882,128,0,43950:0:0:0:0:
329,192,44019,128,0,44064:0:0:0:0:
256,192,44041,128,0,44087:0:0:0:0:
182,192,44064,128,0,44110:0:0:0:0:
109,192,44087,128,0,44132:0:0:0:0:
36,192,44087,128,0,44655:0:0:0:0:
475,192,44155,128,0,44223:0:0:0:0:
329,192,44155,1,0,0:0:0:0:
402,192,44223,128,0,44291:0:0:0:0:
256,192,44223,1,0,0:0:0:0:
329,192,44291,128,0,44428:0:0:0:0:
182,192,44291,1,0,0:0:0:0:
109,192,44291,1,0,0:0:0:0:
402,192,44428,128,0,44496:0:0:0:0:
475,192,44428,128,0,44496:0:0:0:0:
256,192,44428,1,0,0:0:0:0:
182,192,44428,1,0,0:0:0:0:
329,192,44564,128,0,44632:0:0:0:0:
256,192,44564,128,0,44632:0:0:0:0:
182,192,44564,1,0,0:0:0:0:
109,192,44564,1,0,0:0:0:0:
256,192,44700,128,0,44735:0:0:0:0:
402,192,44700,128,0,44769:0:0:0:0:
329,192,44700,128,0,44735:0:0:0:0:
182,192,44700,128,0,44769:0:0:0:0:
36,192,44700,1,0,0:0:0:0:
329,192,44837,128,0,44905:0:0:0:0:
109,192,44837,128,0,44905:0:0:0:0:
475,192,44837,1,0,0:0:0:0:
256,192,44871,128,0,44905:0:0:0:0:
182,192,44871,128,0,44905:0:0:0:0:
182,192,44973,128,0,45007:0:0:0:0:
109,192,44973,128,0,45007:0:0:0:0:
256,192,44973,128,0,45041:0:0:0:0:
36,192,44973,128,0,45041:0:0:0:0:
402,192,44973,128,0,45007:0:0:0:0:
475,192,44973,128,0,45212:0:0:0:0:
109,192,45110,128,0,45178:0:0:0:0:
329,192,45110,128,0,45178:0:0:0:0:
36,192,45110,1,0,0:0:0:0:
256,192,45144,128,0,45178:0:0:0:0:
182,192,45144,128,0,45178:0:0:0:0:
402,192,45246,128,0,45314:0:0:0:0:
182,192,45246,128,0,45314:0:0:0:0:
329,192,45246,128,0,45280:0:0:0:0:
256,192,45246,128,0,45280:0:0:0:0:
475,192,45246,1,0,0:0:0:0:
109,192,45314,128,0,45382:0:0:0:0:
475,192,45382,128,0,45450:0:0:0:0:
256,192,45382,128,0,45450:0:0:0:0:
36,192,45382,128,0,45450:0:0:0:0:
329,192,45416,128,0,45450:0:0:0:0:
402,192,45416,128,0,45450:0:0:0:0:
109,192,45450,128,0,45519:0:0:0:0:
256,192,45519,128,0,45553:0:0:0:0:
329,192,45519,128,0,45553:0:0:0:0:
182,192,45519,128,0,45587:0:0:0:0:
402,192,45519,128,0,45587:0:0:0:0:
36,192,45519,128,0,45655:0:0:0:0:
475,192,45587,128,0,45655:0:0:0:0:
329,192,45655,128,0,45723:0:0:0:0:
109,192,45655,128,0,45723:0:0:0:0:
402,192,45655,128,0,45689:0:0:0:0:
182,192,45689,128,0,45723:0:0:0:0:
256,192,45689,128,0,45723:0:0:0:0:
36,192,45723,1,0,0:0:0:0:
329,192,45791,128,0,46018:0:0:0:0:
256,192,45791,128,0,45995:0:0:0:0:
402,192,45791,1,0,0:0:0:0:
475,192,45791,1,0,0:0:0:0:
182,192,45791,1,0,0:0:0:0:
182,192,45927,128,0,45972:0:0:0:0:
402,192,45927,128,0,46041:0:0:0:0:
475,192,45950,128,0,46041:0:0:0:0:
256,192,46063,128,0,46154:0:0:0:0:
329,192,46086,128,0,46131:0:0:0:0:
402,192,46097,128,0,46302:0:0:0:0:
475,192,46131,128,0,46166:0:0:0:0:
36,192,46200,1,0,0:0:0:0:
256,192,46200,128,0,46404:0:0:0:0:
109,192,46200,128,0,46472:0:0:0:0:
182,192,46222,1,0,0:0:0:0:
475,192,46336,1,0,0:0:0:0:
402,192,46336,1,0,0:0:0:0:
36,192,46336,128,0,46472:0:0:0:0:
182,192,46336,128,0,46438:0:0:0:0:
329,192,46336,1,0,0:0:0:0:
256,192,46472,128,0,46745:0:0:0:0:
402,192,46472,128,0,46745:0:0:0:0:
475,192,46472,1,0,0:0:0:0:
329,192,46495,1,0,0:0:0:0:
36,192,46609,1,0,0:0:0:0:
109,192,46609,128,0,46745:0:0:0:0:
182,192,46609,1,0,0:0:0:0:
475,192,46745,128,0,46813:0:0:0:0:
329,192,46745,128,0,46813:0:0:0:0:
182,192,46745,128,0,46836:0:0:0:0:
36,192,46745,128,0,46972:0:0:0:0:
402,192,46881,128,0,46950:0:0:0:0:
109,192,46881,128,0,46972:0:0:0:0:
256,192,46881,128,0,46950:0:0:0:0:
329,192,47018,128,0,47086:0:0:0:0:
182,192,47018,128,0,47086:0:0:0:0:
36,192,47018,128,0,47109:0:0:0:0:
256,192,47018,1,0,0:0:0:0:
402,192,47154,128,0,47222:0:0:0:0:
109,192,47154,128,0,47222:0:0:0:0:
182,192,47154,1,0,0:0:0:0:
256,192,47154,128,0,47222:0:0:0:0:
329,192,47154,1,0,0:0:0:0:
475,192,47154,128,0,47291:0:0:0:0:
329,192,47291,128,0,47359:0:0:0:0:
182,192,47291,128,0,47359:0:0:0:0:
256,192,47291,1,0,0:0:0:0:
402,192,47291,1,0,0:0:0:0:
109,192,47291,1,0,0:0:0:0:
36,192,47291,128,0,47427:0:0:0:0:
256,192,47427,128,0,47495:0:0:0:0:
109,192,47427,128,0,47495:0:0:0:0:
402,192,47427,128,0,47495:0:0:0:0:
475,192,47427,128,0,47563:0:0:0:0:
182,192,47427,1,0,0:0:0:0:
329,192,47427,1,0,0:0:0:0:
329,192,47563,128,0,47631:0:0:0:0:
256,192,47563,128,0,47654:0:0:0:0:
182,192,47563,128,0,47631:0:0:0:0:
36,192,47563,128,0,47700:0:0:0:0:
109,192,47563,1,0,0:0:0:0:
402,192,47563,1,0,0:0:0:0:
182,192,47700,128,0,47927:0:0:0:0:
256,192,47700,128,0,47904:0:0:0:0:
109,192,47700,1,0,0:0:0:0:
329,192,47700,1,0,0:0:0:0:
402,192,47700,1,0,0:0:0:0:
475,192,47836,128,0,47904:0:0:0:0:
402,192,47836,128,0,47927:0:0:0:0:
329,192,47836,128,0,47950:0:0:0:0:
109,192,47836,128,0,47950:0:0:0:0:
475,192,47950,1,0,0:0:0:0:
36,192,47972,1,0,0:0:0:0:
256,192,47972,128,0,48086:0:0:0:0:
402,192,47972,1,0,0:0:0:0:
329,192,47995,1,0,0:0:0:0:
109,192,47995,1,0,0:0:0:0:
182,192,47995,128,0,48063:0:0:0:0:
475,192,48109,1,0,0:0:0:0:
402,192,48109,128,0,48381:0:0:0:0:
329,192,48131,1,0,0:0:0:0:
256,192,48143,128,0,48313:0:0:0:0:
182,192,48143,128,0,48245:0:0:0:0:
36,192,48245,1,0,0:0:0:0:
109,192,48245,1,0,0:0:0:0:
329,192,48245,128,0,48347:0:0:0:0:
109,192,48381,128,0,48586:0:0:0:0:
36,192,48381,1,0,0:0:0:0:
475,192,48381,128,0,48450:0:0:0:0:
256,192,48404,128,0,48563:0:0:0:0:
182,192,48404,1,0,0:0:0:0:
329,192,48427,128,0,48540:0:0:0:0:
402,192,48518,1,0,0:0:0:0:
475,192,48518,1,0,0:0:0:0:
182,192,48518,128,0,48586:0:0:0:0:
36,192,48586,128,0,48631:0:0:0:0:
182,192,48654,128,0,48756:0:0:0:0:
329,192,48654,128,0,48756:0:0:0:0:
475,192,48654,128,0,48893:0:0:0:0:
109,192,48790,128,0,48893:0:0:0:0:
256,192,48790,128,0,48893:0:0:0:0:
182,192,48790,1,0,0:0:0:0:
329,192,48790,1,0,0:0:0:0:
36,192,48927,128,0,49040:0:0:0:0:
182,192,48927,128,0,49018:0:0:0:0:
475,192,48927,128,0,49029:0:0:0:0:
109,192,48927,1,0,0:0:0:0:
256,192,48927,1,0,0:0:0:0:
402,192,48927,1,0,0:0:0:0:
109,192,49063,128,0,49131:0:0:0:0:
402,192,49063,128,0,49165:0:0:0:0:
329,192,49063,1,0,0:0:0:0:
475,192,49063,1,0,0:0:0:0:
256,192,49063,128,0,49131:0:0:0:0:
182,192,49063,1,0,0:0:0:0:
182,192,49200,128,0,49268:0:0:0:0:
329,192,49200,128,0,49336:0:0:0:0:
109,192,49200,128,0,49268:0:0:0:0:
256,192,49200,1,0,0:0:0:0:
36,192,49200,1,0,0:0:0:0:
402,192,49200,1,0,0:0:0:0:
256,192,49336,128,0,49404:0:0:0:0:
402,192,49336,128,0,49472:0:0:0:0:
182,192,49336,128,0,49404:0:0:0:0:
36,192,49336,128,0,49438:0:0:0:0:
109,192,49336,1,0,0:0:0:0:
109,192,49472,128,0,49575:0:0:0:0:
256,192,49472,128,0,49540:0:0:0:0:
329,192,49472,128,0,49540:0:0:0:0:
475,192,49472,128,0,49609:0:0:0:0:
182,192,49472,1,0,0:0:0:0:
36,192,49472,128,0,49575:0:0:0:0:
402,192,49609,128,0,49677:0:0:0:0:
329,192,49609,128,0,49677:0:0:0:0:
182,192,49609,128,0,49711:0:0:0:0:
109,192,49609,128,0,49711:0:0:0:0:
256,192,49609,1,0,0:0:0:0:
36,192,49609,1,0,0:0:0:0:
475,192,49745,128,0,49813:0:0:0:0:
402,192,49745,128,0,49813:0:0:0:0:
256,192,49745,128,0,49847:0:0:0:0:
182,192,49745,128,0,49847:0:0:0:0:
36,192,49745,128,0,49847:0:0:0:0:
329,192,49745,1,0,0:0:0:0:
109,192,49745,1,0,0:0:0:0:
329,192,49881,128,0,49983:0:0:0:0:
256,192,49881,128,0,49983:0:0:0:0:
402,192,49881,128,0,50119:0:0:0:0:
475,192,49881,128,0,50119:0:0:0:0:
109,192,49881,128,0,49983:0:0:0:0:
36,192,49881,128,0,49994:0:0:0:0:
182,192,49915,128,0,49949:0:0:0:0:
182,192,50017,128,0,50119:0:0:0:0:
109,192,50017,128,0,50119:0:0:0:0:
256,192,50051,128,0,50085:0:0:0:0:
475,192,50153,1,0,0:0:0:0:
256,192,50153,128,0,50256:0:0:0:0:
182,192,50153,128,0,50221:0:0:0:0:
329,192,50153,128,0,50221:0:0:0:0:
36,192,50153,1,0,0:0:0:0:
402,192,50176,1,0,0:0:0:0:
109,192,50176,1,0,0:0:0:0:
475,192,50290,128,0,50324:0:0:0:0:
36,192,50290,1,0,0:0:0:0:
109,192,50358,128,0,50392:0:0:0:0:
402,192,50358,128,0,50392:0:0:0:0:
329,192,50426,128,0,50460:0:0:0:0:
182,192,50426,128,0,50460:0:0:0:0:
256,192,50426,1,0,0:0:0:0:
402,192,50562,128,0,50767:0:0:0:0:
109,192,50562,128,0,50767:0:0:0:0:
475,192,50562,128,0,50596:0:0:0:0:
36,192,50562,1,0,0:0:0:0:
329,192,50562,1,0,0:0:0:0:
182,192,50562,1,0,0:0:0:0:
256,192,50562,128,0,50665:0:0:0:0:
36,192,50699,128,0,50733:0:0:0:0:
475,192,50699,1,0,0:0:0:0:
256,192,50699,1,0,0:0:0:0:
475,192,50835,128,0,50971:0:0:0:0:
36,192,50835,128,0,50971:0:0:0:0:
329,192,50835,1,0,0:0:0:0:
182,192,50835,1,0,0:0:0:0:
402,192,50869,128,0,50903:0:0:0:0:
109,192,50869,128,0,50903:0:0:0:0:
402,192,50971,128,0,51108:0:0:0:0:
109,192,50971,128,0,51108:0:0:0:0:
256,192,50971,1,0,0:0:0:0:
329,192,51006,128,0,51040:0:0:0:0:
182,192,51006,128,0,51040:0:0:0:0:
329,192,51108,128,0,51244:0:0:0:0:
182,192,51108,128,0,51244:0:0:0:0:
475,192,51108,128,0,51176:0:0:0:0:
36,192,51108,128,0,51176:0:0:0:0:
256,192,51142,128,0,51176:0:0:0:0:
109,192,51244,128,0,51312:0:0:0:0:
402,192,51244,128,0,51312:0:0:0:0:
475,192,51244,128,0,51346:0:0:0:0:
36,192,51244,128,0,51346:0:0:0:0:
256,192,51244,128,0,51278:0:0:0:0:
475,192,51381,128,0,51449:0:0:0:0:
36,192,51381,128,0,51449:0:0:0:0:
402,192,51381,128,0,51415:0:0:0:0:
109,192,51381,128,0,51415:0:0:0:0:
256,192,51381,1,0,0:0:0:0:
182,192,51403,1,0,0:0:0:0:
329,192,51403,1,0,0:0:0:0:
402,192,51517,128,0,51585:0:0:0:0:
109,192,51517,128,0,51585:0:0:0:0:
329,192,51517,128,0,51551:0:0:0:0:
182,192,51517,128,0,51551:0:0:0:0:
256,192,51540,1,0,0:0:0:0:
329,192,51653,128,0,51687:0:0:0:0:
182,192,51653,128,0,51687:0:0:0:0:
256,192,51676,1,0,0:0:0:0:
256,192,51790,128,0,51994:0:0:0:0:
402,192,51790,1,0,0:0:0:0:
109,192,51790,1,0,0:0:0:0:
475,192,51790,128,0,51880:0:0:0:0:
36,192,51790,128,0,51880:0:0:0:0:
329,192,51812,1,0,0:0:0:0:
182,192,51812,1,0,0:0:0:0:
36,192,51926,1,0,0:0:0:0:
475,192,51926,1,0,0:0:0:0:
329,192,51926,128,0,51994:0:0:0:0:
182,192,51926,128,0,51994:0:0:0:0:
109,192,51949,1,0,0:0:0:0:
402,192,51949,1,0,0:0:0:0:
256,192,52062,1,0,0:0:0:0:
329,192,52062,128,0,52130:0:0:0:0:
402,192,52062,128,0,52130:0:0:0:0:
475,192,52062,128,0,52130:0:0:0:0:
182,192,52062,128,0,52130:0:0:0:0:
109,192,52062,128,0,52130:0:0:0:0:
36,192,52062,128,0,52130:0:0:0:0:
329,192,52199,128,0,52244:0:0:0:0:
256,192,52221,128,0,52267:0:0:0:0:
182,192,52244,128,0,52290:0:0:0:0:
109,192,52267,128,0,52312:0:0:0:0:
36,192,52267,128,0,52812:0:0:0:0:
475,192,52301,128,0,52369:0:0:0:0:
402,192,52335,128,0,52403:0:0:0:0:
329,192,52369,128,0,52437:0:0:0:0:
256,192,52403,128,0,52471:0:0:0:0:
182,192,52437,128,0,52505:0:0:0:0:
109,192,52471,128,0,52608:0:0:0:0:
329,192,52540,128,0,52608:0:0:0:0:
402,192,52608,128,0,52676:0:0:0:0:
475,192,52608,128,0,52676:0:0:0:0:
182,192,52608,1,0,0:0:0:0:
256,192,52676,128,0,52744:0:0:0:0:
329,192,52744,128,0,52812:0:0:0:0:
402,192,52744,128,0,52812:0:0:0:0:
182,192,52744,1,0,0:0:0:0:
109,192,52744,1,0,0:0:0:0:
256,192,52880,128,0,52915:0:0:0:0:
402,192,52880,128,0,52949:0:0:0:0:
329,192,52880,128,0,52915:0:0:0:0:
182,192,52880,128,0,52949:0:0:0:0:
36,192,52880,128,0,53085:0:0:0:0:
329,192,53017,128,0,53085:0:0:0:0:
109,192,53017,128,0,53085:0:0:0:0:
475,192,53017,1,0,0:0:0:0:
256,192,53051,128,0,53085:0:0:0:0:
182,192,53051,128,0,53085:0:0:0:0:
182,192,53153,128,0,53187:0:0:0:0:
109,192,53153,128,0,53187:0:0:0:0:
256,192,53153,128,0,53221:0:0:0:0:
36,192,53153,128,0,53221:0:0:0:0:
402,192,53153,128,0,53187:0:0:0:0:
329,192,53153,1,0,0:0:0:0:
475,192,53153,128,0,53358:0:0:0:0:
109,192,53290,128,0,53358:0:0:0:0:
329,192,53290,128,0,53358:0:0:0:0:
36,192,53290,1,0,0:0:0:0:
402,192,53290,1,0,0:0:0:0:
256,192,53324,128,0,53358:0:0:0:0:
182,192,53324,128,0,53358:0:0:0:0:
402,192,53426,128,0,53494:0:0:0:0:
182,192,53426,128,0,53494:0:0:0:0:
329,192,53426,128,0,53460:0:0:0:0:
256,192,53426,128,0,53460:0:0:0:0:
475,192,53426,1,0,0:0:0:0:
109,192,53426,1,0,0:0:0:0:
36,192,53426,128,0,53596:0:0:0:0:
475,192,53562,128,0,53630:0:0:0:0:
256,192,53562,128,0,53630:0:0:0:0:
329,192,53596,128,0,53630:0:0:0:0:
402,192,53596,128,0,53630:0:0:0:0:
182,192,53596,1,0,0:0:0:0:
109,192,53596,1,0,0:0:0:0:
182,192,53699,128,0,53733:0:0:0:0:
256,192,53699,128,0,53733:0:0:0:0:
109,192,53699,128,0,53767:0:0:0:0:
329,192,53699,128,0,53767:0:0:0:0:
475,192,53699,128,0,53903:0:0:0:0:
36,192,53733,1,0,0:0:0:0:
402,192,53733,1,0,0:0:0:0:
256,192,53835,128,0,53903:0:0:0:0:
36,192,53835,128,0,53903:0:0:0:0:
402,192,53835,128,0,53869:0:0:0:0:
182,192,53869,128,0,53903:0:0:0:0:
109,192,53869,128,0,53903:0:0:0:0:
329,192,53869,1,0,0:0:0:0:
109,192,53971,128,0,54448:0:0:0:0:
36,192,53971,128,0,54448:0:0:0:0:
329,192,53971,1,0,0:0:0:0:
402,192,53971,128,0,54039:0:0:0:0:
182,192,53971,1,0,0:0:0:0:
256,192,53971,1,0,0:0:0:0:
329,192,54107,1,0,0:0:0:0:
402,192,54107,128,0,54175:0:0:0:0:
402,192,54243,1,0,0:0:0:0:
475,192,54243,128,0,54311:0:0:0:0:
182,192,54243,128,0,54311:0:0:0:0:
402,192,54380,1,0,0:0:0:0:
475,192,54380,128,0,54448:0:0:0:0:
182,192,54380,128,0,54448:0:0:0:0:
475,192,54516,1,0,0:0:0:0:
329,192,54516,1,0,0:0:0:0:
402,192,54516,128,0,54584:0:0:0:0:
36,192,54516,1,0,0:0:0:0:
109,192,54516,1,0,0:0:0:0:
475,192,54652,1,0,0:0:0:0:
402,192,54652,128,0,54721:0:0:0:0:
109,192,54789,128,0,54857:0:0:0:0:
329,192,54789,128,0,54857:0:0:0:0:
182,192,54789,1,0,0:0:0:0:
109,192,54925,128,0,55130:0:0:0:0:
329,192,54925,128,0,54993:0:0:0:0:
182,192,54925,1,0,0:0:0:0:
329,192,55061,128,0,55130:0:0:0:0:
402,192,55061,1,0,0:0:0:0:
329,192,55198,128,0,55266:0:0:0:0:
402,192,55198,1,0,0:0:0:0:
36,192,55334,128,0,55402:0:0:0:0:
109,192,55334,1,0,0:0:0:0:
402,192,55334,128,0,55539:0:0:0:0:
475,192,55334,128,0,55539:0:0:0:0:
36,192,55471,128,0,55539:0:0:0:0:
109,192,55471,1,0,0:0:0:0:
182,192,55607,128,0,55675:0:0:0:0:
475,192,55607,1,0,0:0:0:0:
402,192,55607,1,0,0:0:0:0:
256,192,55607,128,0,55675:0:0:0:0:
329,192,55607,1,0,0:0:0:0:
329,192,55743,1,0,0:0:0:0:
36,192,55743,128,0,55811:0:0:0:0:
109,192,55743,128,0,55811:0:0:0:0:
36,192,55879,128,0,55947:0:0:0:0:
109,192,55879,128,0,55947:0:0:0:0:
329,192,55879,128,0,55947:0:0:0:0:
256,192,55879,1,0,0:0:0:0:
402,192,56016,128,0,56357:0:0:0:0:
475,192,56016,128,0,56357:0:0:0:0:
256,192,56016,128,0,56084:0:0:0:0:
182,192,56016,1,0,0:0:0:0:
182,192,56152,128,0,56220:0:0:0:0:
109,192,56152,1,0,0:0:0:0:
109,192,56288,128,0,56357:0:0:0:0:
36,192,56288,1,0,0:0:0:0:
182,192,56425,128,0,56493:0:0:0:0:
36,192,56425,1,0,0:0:0:0:
402,192,56425,128,0,56629:0:0:0:0:
475,192,56425,128,0,56629:0:0:0:0:
182,192,56561,128,0,56629:0:0:0:0:
36,192,56561,1,0,0:0:0:0:
475,192,56697,1,0,0:0:0:0:
402,192,56697,1,0,0:0:0:0:
109,192,56697,128,0,56766:0:0:0:0:
329,192,56697,1,0,0:0:0:0:
329,192,56834,1,0,0:0:0:0:
109,192,56834,128,0,56902:0:0:0:0:
475,192,56834,128,0,56902:0:0:0:0:
402,192,56834,128,0,56902:0:0:0:0:
256,192,56970,1,0,0:0:0:0:
36,192,56970,128,0,57038:0:0:0:0:
402,192,56970,128,0,57175:0:0:0:0:
475,192,56970,128,0,57175:0:0:0:0:
256,192,57107,1,0,0:0:0:0:
36,192,57107,128,0,57175:0:0:0:0:
329,192,57243,1,0,0:0:0:0:
475,192,57243,128,0,57311:0:0:0:0:
182,192,57243,128,0,57311:0:0:0:0:
329,192,57379,1,0,0:0:0:0:
475,192,57379,128,0,57447:0:0:0:0:
182,192,57379,128,0,57447:0:0:0:0:
109,192,57516,128,0,57584:0:0:0:0:
36,192,57516,128,0,57584:0:0:0:0:
256,192,57516,128,0,57584:0:0:0:0:
402,192,57516,1,0,0:0:0:0:
36,192,57652,128,0,57857:0:0:0:0:
109,192,57652,128,0,57857:0:0:0:0:
256,192,57652,128,0,57720:0:0:0:0:
402,192,57652,1,0,0:0:0:0:
329,192,57788,128,0,57857:0:0:0:0:
475,192,57788,1,0,0:0:0:0:
182,192,57788,1,0,0:0:0:0:
256,192,57788,1,0,0:0:0:0:
329,192,57925,128,0,57993:0:0:0:0:
475,192,57925,1,0,0:0:0:0:
109,192,57925,128,0,57993:0:0:0:0:
329,192,58061,1,0,0:0:0:0:
182,192,58061,128,0,58266:0:0:0:0:
36,192,58061,128,0,58129:0:0:0:0:
402,192,58197,128,0,58266:0:0:0:0:
475,192,58197,128,0,58266:0:0:0:0:
36,192,58197,128,0,58266:0:0:0:0:
329,192,58197,1,0,0:0:0:0:
329,192,58334,128,0,58470:0:0:0:0:
109,192,58334,1,0,0:0:0:0:
182,192,58334,1,0,0:0:0:0:
402,192,58334,1,0,0:0:0:0:
475,192,58334,1,0,0:0:0:0:
36,192,58470,1,0,0:0:0:0:
109,192,58470,1,0,0:0:0:0:
402,192,58470,128,0,58606:0:0:0:0:
475,192,58470,128,0,58742:0:0:0:0:
256,192,58470,128,0,58538:0:0:0:0:
109,192,58606,1,0,0:0:0:0:
182,192,58606,1,0,0:0:0:0:
329,192,58606,128,0,58674:0:0:0:0:
182,192,58742,1,0,0:0:0:0:
256,192,58742,1,0,0:0:0:0:
36,192,58742,128,0,58879:0:0:0:0:
402,192,58742,128,0,58810:0:0:0:0:
256,192,58879,1,0,0:0:0:0:
329,192,58879,1,0,0:0:0:0:
109,192,58879,128,0,59015:0:0:0:0:
475,192,58879,128,0,58947:0:0:0:0:
182,192,59015,128,0,59151:0:0:0:0:
329,192,59015,1,0,0:0:0:0:
402,192,59015,1,0,0:0:0:0:
475,192,59015,128,0,59083:0:0:0:0:
36,192,59015,1,0,0:0:0:0:
256,192,59151,128,0,59288:0:0:0:0:
402,192,59151,128,0,59220:0:0:0:0:
109,192,59151,1,0,0:0:0:0:
329,192,59151,1,0,0:0:0:0:
109,192,59288,128,0,59424:0:0:0:0:
475,192,59288,128,0,59356:0:0:0:0:
36,192,59288,1,0,0:0:0:0:
182,192,59288,1,0,0:0:0:0:
402,192,59288,1,0,0:0:0:0:
182,192,59424,128,0,59560:0:0:0:0:
329,192,59424,128,0,59492:0:0:0:0:
256,192,59424,1,0,0:0:0:0:
475,192,59424,1,0,0:0:0:0:
36,192,59424,128,0,59492:0:0:0:0:
36,192,59560,128,0,59697:0:0:0:0:
402,192,59560,128,0,59629:0:0:0:0:
329,192,59560,1,0,0:0:0:0:
109,192,59560,128,0,59629:0:0:0:0:
109,192,59697,128,0,59833:0:0:0:0:
256,192,59697,128,0,59765:0:0:0:0:
402,192,59697,1,0,0:0:0:0:
182,192,59697,128,0,59833:0:0:0:0:
329,192,59833,128,0,59901:0:0:0:0:
475,192,59833,1,0,0:0:0:0:
36,192,59833,128,0,60038:0:0:0:0:
182,192,59970,128,0,60038:0:0:0:0:
329,192,59970,1,0,0:0:0:0:
109,192,59970,128,0,60038:0:0:0:0:
182,192,60106,1,0,0:0:0:0:
36,192,60106,1,0,0:0:0:0:
109,192,60106,1,0,0:0:0:0:
475,192,60106,128,0,60174:0:0:0:0:
256,192,60106,128,0,60174:0:0:0:0:
402,192,60106,1,0,0:0:0:0:
402,192,60242,128,0,60378:0:0:0:0:
182,192,60242,128,0,60310:0:0:0:0:
329,192,60242,1,0,0:0:0:0:
475,192,60242,128,0,60310:0:0:0:0:
329,192,60378,128,0,60515:0:0:0:0:
109,192,60378,128,0,60446:0:0:0:0:
256,192,60378,1,0,0:0:0:0:
475,192,60378,128,0,60651:0:0:0:0:
256,192,60515,128,0,60651:0:0:0:0:
182,192,60515,1,0,0:0:0:0:
402,192,60515,128,0,60651:0:0:0:0:
36,192,60515,128,0,60856:0:0:0:0:
182,192,60651,128,0,60719:0:0:0:0:
329,192,60651,128,0,60787:0:0:0:0:
109,192,60651,1,0,0:0:0:0:
256,192,60787,128,0,60856:0:0:0:0:
402,192,60787,128,0,60924:0:0:0:0:
182,192,60787,1,0,0:0:0:0:
329,192,60924,128,0,60992:0:0:0:0:
475,192,60924,128,0,61060:0:0:0:0:
109,192,60924,128,0,61128:0:0:0:0:
36,192,60924,1,0,0:0:0:0:
256,192,60924,1,0,0:0:0:0:
402,192,61060,128,0,61128:0:0:0:0:
329,192,61060,1,0,0:0:0:0:
182,192,61196,1,0,0:0:0:0:
109,192,61196,1,0,0:0:0:0:
402,192,61196,1,0,0:0:0:0:
475,192,61196,1,0,0:0:0:0:
256,192,61196,128,0,61333:0:0:0:0:
36,192,61196,128,0,61333:0:0:0:0:
329,192,61333,128,0,61469:0:0:0:0:
475,192,61333,128,0,61401:0:0:0:0:
109,192,61333,128,0,61469:0:0:0:0:
182,192,61469,128,0,61606:0:0:0:0:
475,192,61469,128,0,61742:0:0:0:0:
402,192,61469,1,0,0:0:0:0:
36,192,61469,1,0,0:0:0:0:
256,192,61606,128,0,61742:0:0:0:0:
182,192,61742,128,0,61810:0:0:0:0:
402,192,61742,1,0,0:0:0:0:
36,192,61742,128,0,61946:0:0:0:0:
329,192,61742,128,0,61810:0:0:0:0:
109,192,61878,128,0,61946:0:0:0:0:
256,192,61878,128,0,61946:0:0:0:0:
475,192,61878,128,0,61946:0:0:0:0:
256,192,62015,128,0,62083:0:0:0:0:
36,192,62015,128,0,62219:0:0:0:0:
402,192,62015,128,0,62083:0:0:0:0:
475,192,62015,128,0,62083:0:0:0:0:
182,192,62151,128,0,62219:0:0:0:0:
329,192,62151,128,0,62219:0:0:0:0:
475,192,62151,128,0,62219:0:0:0:0:
329,192,62287,128,0,62356:0:0:0:0:
109,192,62287,128,0,62424:0:0:0:0:
475,192,62287,1,0,0:0:0:0:
402,192,62287,1,0,0:0:0:0:
256,192,62287,1,0,0:0:0:0:
182,192,62287,1,0,0:0:0:0:
36,192,62287,1,0,0:0:0:0:
256,192,62424,128,0,62492:0:0:0:0:
36,192,62424,128,0,62560:0:0:0:0:
402,192,62560,128,0,62628:0:0:0:0:
182,192,62560,128,0,62696:0:0:0:0:
475,192,62560,128,0,62765:0:0:0:0:
109,192,62560,1,0,0:0:0:0:
329,192,62696,128,0,62765:0:0:0:0:
109,192,62696,128,0,62833:0:0:0:0:
36,192,62696,1,0,0:0:0:0:
475,192,62833,128,0,62901:0:0:0:0:
256,192,62833,128,0,62969:0:0:0:0:
182,192,62833,1,0,0:0:0:0:
402,192,62969,128,0,63037:0:0:0:0:
182,192,62969,128,0,63106:0:0:0:0:
109,192,62969,1,0,0:0:0:0:
36,192,62969,128,0,63106:0:0:0:0:
329,192,63106,128,0,63242:0:0:0:0:
256,192,63106,1,0,0:0:0:0:
475,192,63106,128,0,63242:0:0:0:0:
256,192,63242,128,0,63378:0:0:0:0:
182,192,63242,1,0,0:0:0:0:
36,192,63242,128,0,63378:0:0:0:0:
182,192,63378,128,0,63446:0:0:0:0:
475,192,63378,1,0,0:0:0:0:
109,192,63378,128,0,63412:0:0:0:0:
109,192,63514,128,0,63582:0:0:0:0:
402,192,63514,1,0,0:0:0:0:
36,192,63514,128,0,63548:0:0:0:0:
182,192,63650,128,0,63718:0:0:0:0:
256,192,63650,128,0,63787:0:0:0:0:
109,192,63650,128,0,63684:0:0:0:0:
475,192,63650,1,0,0:0:0:0:
182,192,63787,128,0,63923:0:0:0:0:
109,192,63787,128,0,63855:0:0:0:0:
36,192,63787,128,0,63821:0:0:0:0:
402,192,63787,1,0,0:0:0:0:
36,192,63923,128,0,63991:0:0:0:0:
109,192,63923,128,0,64059:0:0:0:0:
256,192,63923,128,0,63957:0:0:0:0:
475,192,63923,1,0,0:0:0:0:
182,192,64059,128,0,64093:0:0:0:0:
36,192,64059,128,0,64196:0:0:0:0:
256,192,64059,128,0,64264:0:0:0:0:
402,192,64059,1,0,0:0:0:0:
109,192,64196,128,0,64230:0:0:0:0:
182,192,64196,128,0,64400:0:0:0:0:
475,192,64196,1,0,0:0:0:0:
36,192,64332,128,0,64366:0:0:0:0:
109,192,64332,128,0,64400:0:0:0:0:
256,192,64332,128,0,64537:0:0:0:0:
402,192,64332,1,0,0:0:0:0:
109,192,64468,128,0,64503:0:0:0:0:
182,192,64468,128,0,64537:0:0:0:0:
36,192,64468,128,0,64639:0:0:0:0:
475,192,64468,1,0,0:0:0:0:
182,192,64605,128,0,64639:0:0:0:0:
256,192,64605,128,0,64673:0:0:0:0:
109,192,64605,128,0,64673:0:0:0:0:
402,192,64605,1,0,0:0:0:0:
402,192,64741,128,0,64809:0:0:0:0:
329,192,64741,128,0,64809:0:0:0:0:
256,192,64741,128,0,64946:0:0:0:0:
475,192,64741,128,0,64775:0:0:0:0:
36,192,64741,1,0,0:0:0:0:
402,192,64878,128,0,64946:0:0:0:0:
475,192,64878,128,0,65014:0:0:0:0:
329,192,64878,128,0,64912:0:0:0:0:
109,192,64878,1,0,0:0:0:0:
329,192,65014,128,0,65082:0:0:0:0:
402,192,65014,128,0,65048:0:0:0:0:
36,192,65014,1,0,0:0:0:0:
256,192,65014,1,0,0:0:0:0:
329,192,65150,128,0,65287:0:0:0:0:
402,192,65150,128,0,65218:0:0:0:0:
475,192,65150,128,0,65184:0:0:0:0:
109,192,65150,1,0,0:0:0:0:
475,192,65287,128,0,65355:0:0:0:0:
402,192,65287,128,0,65423:0:0:0:0:
256,192,65287,128,0,65321:0:0:0:0:
36,192,65287,1,0,0:0:0:0:
329,192,65423,128,0,65457:0:0:0:0:
475,192,65423,128,0,65559:0:0:0:0:
256,192,65423,128,0,65628:0:0:0:0:
109,192,65423,1,0,0:0:0:0:
402,192,65559,128,0,65593:0:0:0:0:
329,192,65559,128,0,65764:0:0:0:0:
36,192,65559,1,0,0:0:0:0:
475,192,65696,128,0,65730:0:0:0:0:
402,192,65696,128,0,65764:0:0:0:0:
256,192,65696,128,0,65900:0:0:0:0:
109,192,65696,1,0,0:0:0:0:
402,192,65832,128,0,65866:0:0:0:0:
329,192,65832,128,0,65900:0:0:0:0:
475,192,65832,128,0,66037:0:0:0:0:
36,192,65832,1,0,0:0:0:0:
109,192,65968,1,0,0:0:0:0:
329,192,65968,128,0,66003:0:0:0:0:
256,192,65968,128,0,66105:0:0:0:0:
402,192,65968,128,0,66037:0:0:0:0:
182,192,66105,128,0,66139:0:0:0:0:
329,192,66105,128,0,66207:0:0:0:0:
475,192,66105,1,0,0:0:0:0:
402,192,66105,1,0,0:0:0:0:
109,192,66241,128,0,66275:0:0:0:0:
256,192,66241,128,0,66343:0:0:0:0:
329,192,66241,1,0,0:0:0:0:
402,192,66241,128,0,66309:0:0:0:0:
475,192,66241,128,0,66309:0:0:0:0:
36,192,66378,128,0,66412:0:0:0:0:
256,192,66378,1,0,0:0:0:0:
182,192,66378,128,0,66480:0:0:0:0:
402,192,66378,128,0,66582:0:0:0:0:
475,192,66378,128,0,66582:0:0:0:0:
256,192,66514,128,0,66548:0:0:0:0:
182,192,66514,1,0,0:0:0:0:
109,192,66514,128,0,66616:0:0:0:0:
182,192,66650,128,0,66684:0:0:0:0:
109,192,66650,1,0,0:0:0:0:
36,192,66650,128,0,66718:0:0:0:0:
475,192,66650,1,0,0:0:0:0:
109,192,66787,128,0,66821:0:0:0:0:
36,192,66787,1,0,0:0:0:0:
256,192,66787,128,0,66855:0:0:0:0:
182,192,66787,128,0,66923:0:0:0:0:
402,192,66787,1,0,0:0:0:0:
256,192,66923,128,0,66957:0:0:0:0:
329,192,66923,128,0,66991:0:0:0:0:
109,192,66923,128,0,67059:0:0:0:0:
475,192,66923,1,0,0:0:0:0:
329,192,67059,128,0,67093:0:0:0:0:
402,192,67059,128,0,67128:0:0:0:0:
256,192,67059,128,0,67196:0:0:0:0:
36,192,67059,1,0,0:0:0:0:
402,192,67196,128,0,67230:0:0:0:0:
475,192,67196,128,0,67264:0:0:0:0:
182,192,67196,128,0,67332:0:0:0:0:
109,192,67196,1,0,0:0:0:0:
36,192,67196,128,0,67264:0:0:0:0:
475,192,67332,128,0,67366:0:0:0:0:
329,192,67332,128,0,67468:0:0:0:0:
36,192,67332,1,0,0:0:0:0:
182,192,67400,128,0,67468:0:0:0:0:
109,192,67400,128,0,67468:0:0:0:0:
256,192,67468,1,0,0:0:0:0:
36,192,67468,1,0,0:0:0:0:
402,192,67468,128,0,67536:0:0:0:0:
475,192,67468,128,0,67536:0:0:0:0:
402,192,67604,128,0,67672:0:0:0:0:
475,192,67604,128,0,67672:0:0:0:0:
402,192,67740,128,0,67808:0:0:0:0:
475,192,67740,128,0,67808:0:0:0:0:
475,192,67877,1,0,0:0:0:0:
402,192,67877,1,0,0:0:0:0:
256,192,67877,1,0,0:0:0:0:
109,192,67877,128,0,67945:0:0:0:0:
36,192,67877,128,0,67945:0:0:0:0:
36,192,68013,128,0,68081:0:0:0:0:
109,192,68013,128,0,68081:0:0:0:0:
109,192,68149,128,0,68218:0:0:0:0:
36,192,68149,128,0,68218:0:0:0:0:
109,192,68286,1,0,0:0:0:0:
36,192,68286,1,0,0:0:0:0:
256,192,68286,1,0,0:0:0:0:
402,192,68286,1,0,0:0:0:0:
475,192,68286,1,0,0:0:0:0:
475,192,68422,1,0,0:0:0:0:
402,192,68422,1,0,0:0:0:0:
402,192,68558,1,0,0:0:0:0:
475,192,68558,1,0,0:0:0:0:
402,192,68695,1,0,0:0:0:0:
475,192,68695,1,0,0:0:0:0:
256,192,68695,1,0,0:0:0:0:
109,192,68695,1,0,0:0:0:0:
36,192,68695,1,0,0:0:0:0:
36,192,68831,1,0,0:0:0:0:
109,192,68831,1,0,0:0:0:0:
109,192,68968,1,0,0:0:0:0:
36,192,68968,1,0,0:0:0:0:
329,192,69104,128,0,69308:0:0:0:0:
402,192,69104,128,0,69581:0:0:0:0:
475,192,69104,128,0,69581:0:0:0:0:
182,192,69104,1,0,0:0:0:0:
109,192,69104,128,0,69172:0:0:0:0:
182,192,69240,1,0,0:0:0:0:
109,192,69240,128,0,69308:0:0:0:0:
109,192,69376,1,0,0:0:0:0:
36,192,69376,128,0,69444:0:0:0:0:
329,192,69376,128,0,69444:0:0:0:0:
109,192,69513,1,0,0:0:0:0:
36,192,69513,128,0,69581:0:0:0:0:
329,192,69513,128,0,69581:0:0:0:0:
36,192,69649,1,0,0:0:0:0:
182,192,69649,1,0,0:0:0:0:
109,192,69649,128,0,69717:0:0:0:0:
329,192,69649,128,0,69717:0:0:0:0:
402,192,69649,128,0,69854:0:0:0:0:
475,192,69649,128,0,69854:0:0:0:0:
36,192,69785,1,0,0:0:0:0:
109,192,69785,128,0,69854:0:0:0:0:
182,192,69785,128,0,69854:0:0:0:0:
329,192,69785,128,0,69990:0:0:0:0:
402,192,69922,128,0,69990:0:0:0:0:
256,192,69922,128,0,69990:0:0:0:0:
109,192,69922,128,0,69990:0:0:0:0:
182,192,69922,1,0,0:0:0:0:
475,192,69922,128,0,70126:0:0:0:0:
402,192,70058,128,0,70126:0:0:0:0:
109,192,70058,128,0,70126:0:0:0:0:
256,192,70058,128,0,70126:0:0:0:0:
329,192,70058,1,0,0:0:0:0:
36,192,70058,128,0,70399:0:0:0:0:
329,192,70194,128,0,70263:0:0:0:0:
182,192,70194,1,0,0:0:0:0:
475,192,70194,128,0,70399:0:0:0:0:
182,192,70331,128,0,70399:0:0:0:0:
329,192,70331,1,0,0:0:0:0:
475,192,70467,128,0,70535:0:0:0:0:
402,192,70467,1,0,0:0:0:0:
109,192,70467,128,0,70672:0:0:0:0:
36,192,70467,128,0,70672:0:0:0:0:
256,192,70467,128,0,70672:0:0:0:0:
475,192,70604,128,0,70672:0:0:0:0:
402,192,70604,1,0,0:0:0:0:
109,192,70740,1,0,0:0:0:0:
329,192,70740,128,0,70808:0:0:0:0:
182,192,70740,1,0,0:0:0:0:
36,192,70740,128,0,70876:0:0:0:0:
182,192,70876,1,0,0:0:0:0:
329,192,70876,128,0,70944:0:0:0:0:
475,192,70876,128,0,70944:0:0:0:0:
402,192,70876,128,0,70944:0:0:0:0:
109,192,70876,128,0,71012:0:0:0:0:
256,192,70876,1,0,0:0:0:0:
475,192,71012,128,0,71080:0:0:0:0:
402,192,71012,128,0,71080:0:0:0:0:
256,192,71012,128,0,71080:0:0:0:0:
329,192,71012,1,0,0:0:0:0:
182,192,71012,128,0,71149:0:0:0:0:
109,192,71149,128,0,71490:0:0:0:0:
36,192,71149,128,0,71490:0:0:0:0:
256,192,71149,128,0,71217:0:0:0:0:
329,192,71149,1,0,0:0:0:0:
475,192,71149,128,0,71490:0:0:0:0:
402,192,71285,128,0,71353:0:0:0:0:
256,192,71285,1,0,0:0:0:0:
402,192,71421,128,0,71490:0:0:0:0:
256,192,71421,1,0,0:0:0:0:
329,192,71558,128,0,71626:0:0:0:0:
475,192,71558,1,0,0:0:0:0:
182,192,71558,128,0,71762:0:0:0:0:
109,192,71558,128,0,71762:0:0:0:0:
256,192,71558,128,0,71762:0:0:0:0:
329,192,71694,128,0,71762:0:0:0:0:
475,192,71694,1,0,0:0:0:0:
36,192,71830,1,0,0:0:0:0:
109,192,71830,1,0,0:0:0:0:
402,192,71830,128,0,71899:0:0:0:0:
182,192,71830,1,0,0:0:0:0:
329,192,71830,128,0,71899:0:0:0:0:
182,192,71967,1,0,0:0:0:0:
402,192,71967,128,0,72035:0:0:0:0:
36,192,71967,128,0,72035:0:0:0:0:
109,192,71967,128,0,72035:0:0:0:0:
475,192,71967,128,0,72035:0:0:0:0:
256,192,72103,1,0,0:0:0:0:
475,192,72103,128,0,72171:0:0:0:0:
109,192,72103,128,0,72308:0:0:0:0:
36,192,72103,128,0,72308:0:0:0:0:
402,192,72103,128,0,72308:0:0:0:0:
256,192,72240,1,0,0:0:0:0:
475,192,72240,128,0,72308:0:0:0:0:
182,192,72376,1,0,0:0:0:0:
36,192,72376,128,0,72444:0:0:0:0:
329,192,72376,128,0,72444:0:0:0:0:
182,192,72512,1,0,0:0:0:0:
36,192,72512,128,0,72580:0:0:0:0:
402,192,72512,128,0,72580:0:0:0:0:
329,192,72512,128,0,72580:0:0:0:0:
402,192,72649,128,0,72717:0:0:0:0:
475,192,72649,128,0,72717:0:0:0:0:
329,192,72649,128,0,72717:0:0:0:0:
182,192,72649,1,0,0:0:0:0:
256,192,72785,128,0,72853:0:0:0:0:
109,192,72785,1,0,0:0:0:0:
402,192,72785,128,0,72853:0:0:0:0:
182,192,72921,128,0,72990:0:0:0:0:
36,192,72921,1,0,0:0:0:0:
329,192,72921,128,0,72990:0:0:0:0:
475,192,72921,1,0,0:0:0:0:
182,192,73058,128,0,73126:0:0:0:0:
36,192,73058,1,0,0:0:0:0:
402,192,73058,128,0,73126:0:0:0:0:
475,192,73058,128,0,73126:0:0:0:0:
329,192,73194,128,0,73399:0:0:0:0:
402,192,73194,128,0,73262:0:0:0:0:
109,192,73194,128,0,73262:0:0:0:0:
182,192,73194,128,0,73262:0:0:0:0:
109,192,73330,128,0,73399:0:0:0:0:
36,192,73330,128,0,73399:0:0:0:0:
402,192,73330,128,0,73399:0:0:0:0:
256,192,73330,1,0,0:0:0:0:
182,192,73467,128,0,73603:0:0:0:0:
402,192,73467,1,0,0:0:0:0:
329,192,73467,1,0,0:0:0:0:
109,192,73467,1,0,0:0:0:0:
36,192,73467,1,0,0:0:0:0:
475,192,73467,128,0,73535:0:0:0:0:
475,192,73603,1,0,0:0:0:0:
402,192,73603,1,0,0:0:0:0:
109,192,73603,128,0,73743:0:0:0:0:
36,192,73603,128,0,73879:0:0:0:0:
256,192,73603,128,0,73675:0:0:0:0:
402,192,73743,1,0,0:0:0:0:
329,192,73743,1,0,0:0:0:0:
182,192,73743,128,0,73811:0:0:0:0:
329,192,73879,1,0,0:0:0:0:
256,192,73879,1,0,0:0:0:0:
475,192,73879,128,0,74016:0:0:0:0:
109,192,73879,128,0,73947:0:0:0:0:
256,192,74016,1,0,0:0:0:0:
182,192,74016,1,0,0:0:0:0:
402,192,74016,128,0,74152:0:0:0:0:
36,192,74016,128,0,74084:0:0:0:0:
329,192,74152,128,0,74288:0:0:0:0:
182,192,74152,1,0,0:0:0:0:
109,192,74152,1,0,0:0:0:0:
36,192,74152,128,0,74220:0:0:0:0:
475,192,74152,1,0,0:0:0:0:
256,192,74288,128,0,74424:0:0:0:0:
109,192,74288,128,0,74356:0:0:0:0:
402,192,74288,1,0,0:0:0:0:
182,192,74288,1,0,0:0:0:0:
36,192,74424,128,0,74492:0:0:0:0:
475,192,74424,1,0,0:0:0:0:
329,192,74424,1,0,0:0:0:0:
109,192,74424,1,0,0:0:0:0:
402,192,74424,128,0,74561:0:0:0:0:
329,192,74561,128,0,74697:0:0:0:0:
182,192,74561,128,0,74629:0:0:0:0:
256,192,74561,1,0,0:0:0:0:
36,192,74561,1,0,0:0:0:0:
475,192,74561,128,0,74629:0:0:0:0:
475,192,74697,128,0,74833:0:0:0:0:
109,192,74697,128,0,74765:0:0:0:0:
182,192,74697,1,0,0:0:0:0:
402,192,74697,128,0,74765:0:0:0:0:
402,192,74833,128,0,74902:0:0:0:0:
256,192,74833,128,0,74902:0:0:0:0:
109,192,74833,1,0,0:0:0:0:
329,192,74833,128,0,74902:0:0:0:0:
36,192,74833,128,0,74902:0:0:0:0:
182,192,74970,128,0,75038:0:0:0:0:
36,192,74970,1,0,0:0:0:0:
475,192,74970,128,0,75174:0:0:0:0:
329,192,75106,128,0,75174:0:0:0:0:
182,192,75106,1,0,0:0:0:0:
402,192,75106,128,0,75174:0:0:0:0:
109,192,75106,128,0,75174:0:0:0:0:
329,192,75242,1,0,0:0:0:0:
402,192,75242,1,0,0:0:0:0:
36,192,75242,128,0,75311:0:0:0:0:
256,192,75242,128,0,75311:0:0:0:0:
109,192,75242,1,0,0:0:0:0:
475,192,75242,128,0,75311:0:0:0:0:
109,192,75379,128,0,75515:0:0:0:0:
329,192,75379,128,0,75447:0:0:0:0:
182,192,75379,1,0,0:0:0:0:
36,192,75379,128,0,75447:0:0:0:0:
475,192,75379,128,0,75447:0:0:0:0:
182,192,75515,128,0,75652:0:0:0:0:
402,192,75515,128,0,75583:0:0:0:0:
256,192,75515,1,0,0:0:0:0:
36,192,75515,128,0,75788:0:0:0:0:
475,192,75515,128,0,75583:0:0:0:0:
256,192,75652,128,0,75788:0:0:0:0:
329,192,75652,1,0,0:0:0:0:
109,192,75652,128,0,75788:0:0:0:0:
475,192,75652,128,0,75992:0:0:0:0:
329,192,75788,128,0,75856:0:0:0:0:
182,192,75788,128,0,75924:0:0:0:0:
402,192,75788,1,0,0:0:0:0:
256,192,75924,128,0,75992:0:0:0:0:
109,192,75924,128,0,76061:0:0:0:0:
329,192,75924,1,0,0:0:0:0:
182,192,76061,128,0,76129:0:0:0:0:
36,192,76061,128,0,76197:0:0:0:0:
475,192,76061,1,0,0:0:0:0:
256,192,76061,1,0,0:0:0:0:
402,192,76061,128,0,76265:0:0:0:0:
329,192,76061,128,0,76265:0:0:0:0:
109,192,76197,128,0,76265:0:0:0:0:
182,192,76197,1,0,0:0:0:0:
329,192,76333,1,0,0:0:0:0:
402,192,76333,1,0,0:0:0:0:
109,192,76333,1,0,0:0:0:0:
36,192,76333,1,0,0:0:0:0:
256,192,76333,128,0,76470:0:0:0:0:
475,192,76333,128,0,76470:0:0:0:0:
182,192,76470,128,0,76606:0:0:0:0:
36,192,76470,128,0,76538:0:0:0:0:
402,192,76470,128,0,76606:0:0:0:0:
329,192,76606,128,0,76743:0:0:0:0:
36,192,76606,128,0,76879:0:0:0:0:
109,192,76606,1,0,0:0:0:0:
475,192,76606,1,0,0:0:0:0:
256,192,76743,128,0,76879:0:0:0:0:
402,192,76743,128,0,76879:0:0:0:0:
329,192,76879,128,0,76947:0:0:0:0:
109,192,76879,1,0,0:0:0:0:
475,192,76879,128,0,77084:0:0:0:0:
182,192,76879,128,0,76947:0:0:0:0:
402,192,77016,128,0,77084:0:0:0:0:
256,192,77016,128,0,77084:0:0:0:0:
36,192,77016,128,0,77084:0:0:0:0:
329,192,77152,128,0,77220:0:0:0:0:
475,192,77152,128,0,77357:0:0:0:0:
182,192,77152,128,0,77220:0:0:0:0:
36,192,77152,128,0,77220:0:0:0:0:
256,192,77288,128,0,77357:0:0:0:0:
109,192,77288,128,0,77357:0:0:0:0:
182,192,77425,128,0,77493:0:0:0:0:
402,192,77425,128,0,77561:0:0:0:0:
36,192,77425,1,0,0:0:0:0:
109,192,77425,1,0,0:0:0:0:
256,192,77425,1,0,0:0:0:0:
329,192,77425,1,0,0:0:0:0:
475,192,77425,1,0,0:0:0:0:
256,192,77561,128,0,77629:0:0:0:0:
475,192,77561,128,0,77697:0:0:0:0:
109,192,77697,128,0,77766:0:0:0:0:
329,192,77697,128,0,77834:0:0:0:0:
36,192,77697,128,0,77902:0:0:0:0:
402,192,77697,1,0,0:0:0:0:
182,192,77834,128,0,77902:0:0:0:0:
402,192,77834,128,0,77970:0:0:0:0:
475,192,77834,1,0,0:0:0:0:
36,192,77970,128,0,78038:0:0:0:0:
256,192,77970,128,0,78107:0:0:0:0:
329,192,77970,1,0,0:0:0:0:
109,192,78107,128,0,78175:0:0:0:0:
329,192,78107,128,0,78243:0:0:0:0:
402,192,78107,1,0,0:0:0:0:
475,192,78107,128,0,78243:0:0:0:0:
182,192,78243,128,0,78379:0:0:0:0:
256,192,78243,1,0,0:0:0:0:
36,192,78243,128,0,78379:0:0:0:0:
256,192,78379,128,0,78516:0:0:0:0:
329,192,78379,1,0,0:0:0:0:
475,192,78379,128,0,78516:0:0:0:0:
402,192,78516,128,0,78584:0:0:0:0:
329,192,78516,128,0,78550:0:0:0:0:
36,192,78516,1,0,0:0:0:0:
182,192,78516,128,0,78788:0:0:0:0:
256,192,78652,128,0,78720:0:0:0:0:
475,192,78652,128,0,78788:0:0:0:0:
329,192,78652,128,0,78686:0:0:0:0:
109,192,78652,1,0,0:0:0:0:
329,192,78788,128,0,78856:0:0:0:0:
256,192,78788,128,0,78925:0:0:0:0:
402,192,78788,128,0,78822:0:0:0:0:
36,192,78788,1,0,0:0:0:0:
329,192,78925,128,0,79061:0:0:0:0:
402,192,78925,128,0,78993:0:0:0:0:
475,192,78925,128,0,78959:0:0:0:0:
109,192,78925,1,0,0:0:0:0:
182,192,78925,128,0,79197:0:0:0:0:
475,192,79061,128,0,79129:0:0:0:0:
402,192,79061,128,0,79197:0:0:0:0:
256,192,79061,128,0,79095:0:0:0:0:
36,192,79061,1,0,0:0:0:0:
329,192,79197,128,0,79231:0:0:0:0:
475,192,79197,128,0,79334:0:0:0:0:
109,192,79197,1,0,0:0:0:0:
256,192,79197,1,0,0:0:0:0:
402,192,79334,128,0,79368:0:0:0:0:
329,192,79334,128,0,79538:0:0:0:0:
36,192,79334,1,0,0:0:0:0:
475,192,79470,128,0,79504:0:0:0:0:
402,192,79470,128,0,79538:0:0:0:0:
109,192,79470,1,0,0:0:0:0:
256,192,79470,1,0,0:0:0:0:
182,192,79470,128,0,79811:0:0:0:0:
402,192,79606,128,0,79641:0:0:0:0:
329,192,79606,128,0,79675:0:0:0:0:
475,192,79606,128,0,79777:0:0:0:0:
36,192,79606,1,0,0:0:0:0:
329,192,79743,128,0,79777:0:0:0:0:
256,192,79743,128,0,79811:0:0:0:0:
402,192,79743,128,0,79811:0:0:0:0:
109,192,79743,1,0,0:0:0:0:
109,192,79879,128,0,79947:0:0:0:0:
182,192,79879,128,0,79947:0:0:0:0:
36,192,79879,128,0,79913:0:0:0:0:
475,192,79879,1,0,0:0:0:0:
329,192,79879,128,0,80288:0:0:0:0:
256,192,79879,128,0,79913:0:0:0:0:
109,192,80016,128,0,80084:0:0:0:0:
36,192,80016,128,0,80152:0:0:0:0:
182,192,80016,128,0,80050:0:0:0:0:
402,192,80016,1,0,0:0:0:0:
182,192,80152,128,0,80220:0:0:0:0:
109,192,80152,128,0,80186:0:0:0:0:
475,192,80152,1,0,0:0:0:0:
256,192,80152,128,0,80288:0:0:0:0:
182,192,80288,128,0,80425:0:0:0:0:
109,192,80288,128,0,80356:0:0:0:0:
36,192,80288,128,0,80322:0:0:0:0:
402,192,80288,1,0,0:0:0:0:
36,192,80425,128,0,80493:0:0:0:0:
109,192,80425,128,0,80561:0:0:0:0:
256,192,80425,128,0,80459:0:0:0:0:
475,192,80425,1,0,0:0:0:0:
182,192,80561,128,0,80595:0:0:0:0:
36,192,80561,128,0,80697:0:0:0:0:
402,192,80561,1,0,0:0:0:0:
329,192,80561,128,0,80834:0:0:0:0:
256,192,80561,128,0,80629:0:0:0:0:
109,192,80697,128,0,80731:0:0:0:0:
475,192,80697,1,0,0:0:0:0:
182,192,80697,128,0,80766:0:0:0:0:
36,192,80834,128,0,80868:0:0:0:0:
109,192,80834,128,0,80902:0:0:0:0:
402,192,80834,1,0,0:0:0:0:
256,192,80834,128,0,80970:0:0:0:0:
109,192,80970,128,0,81004:0:0:0:0:
182,192,80970,128,0,81038:0:0:0:0:
36,192,80970,128,0,81175:0:0:0:0:
475,192,80970,1,0,0:0:0:0:
329,192,80970,128,0,81175:0:0:0:0:
402,192,81106,1,0,0:0:0:0:
182,192,81106,128,0,81141:0:0:0:0:
256,192,81106,128,0,81243:0:0:0:0:
109,192,81106,128,0,81175:0:0:0:0:
329,192,81243,128,0,81277:0:0:0:0:
182,192,81243,128,0,81345:0:0:0:0:
36,192,81243,1,0,0:0:0:0:
109,192,81243,1,0,0:0:0:0:
402,192,81379,128,0,81413:0:0:0:0:
256,192,81379,128,0,81481:0:0:0:0:
182,192,81379,1,0,0:0:0:0:
109,192,81379,128,0,81447:0:0:0:0:
36,192,81379,128,0,81447:0:0:0:0:
475,192,81516,128,0,81550:0:0:0:0:
256,192,81516,1,0,0:0:0:0:
329,192,81516,128,0,81618:0:0:0:0:
182,192,81516,128,0,81925:0:0:0:0:
109,192,81516,128,0,81788:0:0:0:0:
36,192,81516,128,0,81652:0:0:0:0:
256,192,81652,128,0,81686:0:0:0:0:
329,192,81652,1,0,0:0:0:0:
402,192,81652,128,0,81754:0:0:0:0:
329,192,81788,128,0,81822:0:0:0:0:
402,192,81788,1,0,0:0:0:0:
475,192,81788,128,0,81856:0:0:0:0:
36,192,81788,1,0,0:0:0:0:
402,192,81925,128,0,81959:0:0:0:0:
475,192,81925,1,0,0:0:0:0:
256,192,81925,128,0,81993:0:0:0:0:
329,192,81925,128,0,82061:0:0:0:0:
109,192,81925,1,0,0:0:0:0:
256,192,82061,128,0,82095:0:0:0:0:
182,192,82061,128,0,82129:0:0:0:0:
36,192,82061,1,0,0:0:0:0:
402,192,82061,128,0,82163:0:0:0:0:
182,192,82197,128,0,82231:0:0:0:0:
109,192,82197,128,0,82266:0:0:0:0:
256,192,82197,128,0,82470:0:0:0:0:
475,192,82197,1,0,0:0:0:0:
329,192,82197,128,0,82231:0:0:0:0:
402,192,82197,128,0,82266:0:0:0:0:
109,192,82334,128,0,82368:0:0:0:0:
36,192,82334,128,0,82402:0:0:0:0:
475,192,82334,128,0,82402:0:0:0:0:
182,192,82334,1,0,0:0:0:0:
402,192,82334,128,0,82368:0:0:0:0:
329,192,82334,1,0,0:0:0:0:
36,192,82470,128,0,82504:0:0:0:0:
182,192,82470,128,0,82572:0:0:0:0:
109,192,82470,1,0,0:0:0:0:
402,192,82470,1,0,0:0:0:0:
475,192,82470,128,0,82504:0:0:0:0:
329,192,82470,128,0,82572:0:0:0:0:
36,192,82606,128,0,82675:0:0:0:0:
182,192,82607,1,0,0:0:0:0:
329,192,82607,1,0,0:0:0:0:
475,192,82607,128,0,82675:0:0:0:0:
109,192,82607,128,0,82641:0:0:0:0:
402,192,82607,128,0,82641:0:0:0:0:
256,192,82743,1,0,0:0:0:0:
109,192,82743,128,0,82811:0:0:0:0:
402,192,82743,128,0,82811:0:0:0:0:
475,192,82743,128,0,82777:0:0:0:0:
36,192,82743,128,0,82777:0:0:0:0:
256,192,82879,1,0,0:0:0:0:
36,192,82879,128,0,82947:0:0:0:0:
475,192,82879,128,0,82947:0:0:0:0:
109,192,82879,128,0,82913:0:0:0:0:
402,192,82879,128,0,82913:0:0:0:0:
402,192,83016,1,0,0:0:0:0:
109,192,83016,1,0,0:0:0:0:
182,192,83016,128,0,83050:0:0:0:0:
329,192,83016,128,0,83050:0:0:0:0:
36,192,83016,128,0,83084:0:0:0:0:
475,192,83016,128,0,83084:0:0:0:0:
182,192,83152,128,0,83220:0:0:0:0:
256,192,83152,1,0,0:0:0:0:
475,192,83152,128,0,83186:0:0:0:0:
329,192,83152,128,0,83220:0:0:0:0:
36,192,83152,128,0,83186:0:0:0:0:
256,192,83288,1,0,0:0:0:0:
36,192,83288,128,0,83357:0:0:0:0:
182,192,83288,128,0,83322:0:0:0:0:
329,192,83288,128,0,83322:0:0:0:0:
475,192,83288,128,0,83357:0:0:0:0:
36,192,83425,1,0,0:0:0:0:
475,192,83425,1,0,0:0:0:0:
109,192,83425,128,0,83459:0:0:0:0:
402,192,83425,128,0,83459:0:0:0:0:
329,192,83425,128,0,83493:0:0:0:0:
182,192,83425,128,0,83493:0:0:0:0:
256,192,83561,1,0,0:0:0:0:
182,192,83561,128,0,83595:0:0:0:0:
109,192,83561,128,0,83629:0:0:0:0:
329,192,83561,128,0,83595:0:0:0:0:
402,192,83561,128,0,83629:0:0:0:0:
109,192,83697,128,0,83732:0:0:0:0:
256,192,83697,1,0,0:0:0:0:
329,192,83697,128,0,83766:0:0:0:0:
402,192,83697,128,0,83732:0:0:0:0:
182,192,83697,128,0,83766:0:0:0:0:
109,192,83834,1,0,0:0:0:0:
402,192,83834,1,0,0:0:0:0:
36,192,83834,128,0,83868:0:0:0:0:
182,192,83834,128,0,83902:0:0:0:0:
329,192,83834,128,0,83902:0:0:0:0:
475,192,83834,128,0,83868:0:0:0:0:
256,192,83970,1,0,0:0:0:0:
329,192,83970,128,0,84004:0:0:0:0:
475,192,83970,128,0,84038:0:0:0:0:
36,192,83970,128,0,84038:0:0:0:0:
182,192,83970,128,0,84004:0:0:0:0:
256,192,84107,1,0,0:0:0:0:
36,192,84107,128,0,84141:0:0:0:0:
182,192,84107,128,0,84175:0:0:0:0:
329,192,84107,128,0,84175:0:0:0:0:
475,192,84107,128,0,84141:0:0:0:0:
109,192,84243,128,0,84311:0:0:0:0:
256,192,84243,128,0,84345:0:0:0:0:
402,192,84243,128,0,84345:0:0:0:0:
36,192,84243,1,0,0:0:0:0:
475,192,84243,1,0,0:0:0:0:
256,192,84379,128,0,84481:0:0:0:0:
109,192,84379,128,0,84447:0:0:0:0:
402,192,84379,128,0,84481:0:0:0:0:
182,192,84515,1,0,0:0:0:0:
329,192,84515,128,0,84618:0:0:0:0:
475,192,84515,128,0,84618:0:0:0:0:
36,192,84515,1,0,0:0:0:0:
256,192,84515,1,0,0:0:0:0:
329,192,84652,128,0,84754:0:0:0:0:
475,192,84652,128,0,84754:0:0:0:0:
182,192,84652,1,0,0:0:0:0:
182,192,84788,128,0,84890:0:0:0:0:
36,192,84788,128,0,84890:0:0:0:0:
329,192,84788,1,0,0:0:0:0:
109,192,84788,1,0,0:0:0:0:
475,192,84788,1,0,0:0:0:0:
36,192,84924,128,0,85027:0:0:0:0:
182,192,84924,128,0,85027:0:0:0:0:
329,192,84924,1,0,0:0:0:0:
475,192,84924,1,0,0:0:0:0:
256,192,85061,128,0,85129:0:0:0:0:
402,192,85061,128,0,85163:0:0:0:0:
109,192,85061,128,0,85163:0:0:0:0:
36,192,85061,1,0,0:0:0:0:
475,192,85061,1,0,0:0:0:0:
256,192,85197,128,0,85265:0:0:0:0:
402,192,85197,128,0,85299:0:0:0:0:
109,192,85197,128,0,85299:0:0:0:0:
475,192,85197,1,0,0:0:0:0:
36,192,85197,1,0,0:0:0:0:
402,192,85333,128,0,87515:0:0:0:0:
256,192,85334,128,0,87515:0:0:0:0:
109,192,85334,128,0,87515:0:0:0:0:
329,192,87515,128,0,89697:0:0:0:0:
36,192,87515,128,0,89697:0:0:0:0:
182,192,87515,128,0,89697:0:0:0:0:
256,192,88879,1,0,0:0:0:0:
256,192,89015,1,0,0:0:0:0:
109,192,89152,1,0,0:0:0:0:
402,192,89152,1,0,0:0:0:0:
256,192,89424,1,0,0:0:0:0:
475,192,89424,1,0,0:0:0:0:
256,192,89697,128,0,91879:0:0:0:0:
109,192,89697,128,0,91879:0:0:0:0:
402,192,89697,128,0,91879:0:0:0:0:
475,192,89697,1,0,0:0:0:0:
475,192,91197,1,0,0:0:0:0:
329,192,91265,1,0,0:0:0:0:
182,192,91334,1,0,0:0:0:0:
36,192,91334,1,0,0:0:0:0:
182,192,91606,1,0,0:0:0:0:
36,192,91606,1,0,0:0:0:0:
329,192,91606,1,0,0:0:0:0:
475,192,91606,1,0,0:0:0:0:
329,192,91879,128,0,93447:0:0:0:0:
182,192,91879,128,0,93447:0:0:0:0:
475,192,91879,128,0,93447:0:0:0:0:
109,192,92424,1,0,0:0:0:0:
109,192,92834,1,0,0:0:0:0:
36,192,92834,1,0,0:0:0:0:
402,192,92902,1,0,0:0:0:0:
109,192,92970,1,0,0:0:0:0:
36,192,92970,1,0,0:0:0:0:
256,192,92970,1,0,0:0:0:0:
109,192,93243,1,0,0:0:0:0:
256,192,93243,1,0,0:0:0:0:
402,192,93243,1,0,0:0:0:0:
182,192,93515,1,0,0:0:0:0:
329,192,93515,1,0,0:0:0:0:
475,192,93515,1,0,0:0:0:0:
402,192,93788,1,0,0:0:0:0:
256,192,93788,1,0,0:0:0:0:
109,192,93788,1,0,0:0:0:0:
36,192,94061,128,0,94197:0:0:0:0:
256,192,94061,1,0,0:0:0:0:
402,192,94061,1,0,0:0:0:0:
182,192,94197,128,0,94334:0:0:0:0:
256,192,94334,1,0,0:0:0:0:
109,192,94334,128,0,94470:0:0:0:0:
402,192,94334,1,0,0:0:0:0:
329,192,94470,128,0,94743:0:0:0:0:
475,192,94606,128,0,95084:0:0:0:0:
256,192,94743,128,0,95015:0:0:0:0:
402,192,94879,1,0,0:0:0:0:
109,192,94879,1,0,0:0:0:0:
182,192,95015,128,0,95152:0:0:0:0:
109,192,95152,128,0,95288:0:0:0:0:
475,192,95152,1,0,0:0:0:0:
402,192,95152,128,0,95629:0:0:0:0:
329,192,95152,1,0,0:0:0:0:
36,192,95288,128,0,95424:0:0:0:0:
256,192,95424,128,0,95561:0:0:0:0:
329,192,95424,1,0,0:0:0:0:
182,192,95561,128,0,95697:0:0:0:0:
109,192,95697,128,0,95834:0:0:0:0:
402,192,95697,1,0,0:0:0:0:
475,192,95697,128,0,96174:0:0:0:0:
329,192,95834,128,0,95970:0:0:0:0:
256,192,95970,128,0,96106:0:0:0:0:
402,192,95970,1,0,0:0:0:0:
109,192,95970,1,0,0:0:0:0:
182,192,96106,128,0,96243:0:0:0:0:
402,192,96243,128,0,96379:0:0:0:0:
256,192,96243,1,0,0:0:0:0:
36,192,96243,1,0,0:0:0:0:
329,192,96379,128,0,96515:0:0:0:0:
475,192,96515,128,0,96652:0:0:0:0:
36,192,96515,1,0,0:0:0:0:
256,192,96515,1,0,0:0:0:0:
256,192,96652,128,0,96924:0:0:0:0:
109,192,96788,1,0,0:0:0:0:
36,192,96788,128,0,97265:0:0:0:0:
329,192,96924,128,0,97197:0:0:0:0:
402,192,97061,1,0,0:0:0:0:
109,192,97061,1,0,0:0:0:0:
182,192,97197,128,0,97334:0:0:0:0:
256,192,97197,1,0,0:0:0:0:
402,192,97334,128,0,97470:0:0:0:0:
36,192,97334,1,0,0:0:0:0:
475,192,97334,128,0,97879:0:0:0:0:
329,192,97334,1,0,0:0:0:0:
109,192,97470,128,0,97606:0:0:0:0:
329,192,97606,128,0,97743:0:0:0:0:
182,192,97606,1,0,0:0:0:0:
402,192,97606,1,0,0:0:0:0:
36,192,97743,128,0,97879:0:0:0:0:
256,192,97879,128,0,98015:0:0:0:0:
329,192,97879,1,0,0:0:0:0:
109,192,97879,1,0,0:0:0:0:
475,192,98015,128,0,98152:0:0:0:0:
182,192,98152,128,0,98288:0:0:0:0:
36,192,98152,1,0,0:0:0:0:
256,192,98152,1,0,0:0:0:0:
402,192,98288,128,0,98424:0:0:0:0:
109,192,98424,128,0,98561:0:0:0:0:
256,192,98424,1,0,0:0:0:0:
36,192,98424,1,0,0:0:0:0:
475,192,98424,1,0,0:0:0:0:
329,192,98561,128,0,98697:0:0:0:0:
182,192,98697,128,0,98834:0:0:0:0:
36,192,98697,1,0,0:0:0:0:
256,192,98697,1,0,0:0:0:0:
475,192,98697,1,0,0:0:0:0:
256,192,98834,128,0,99106:0:0:0:0:
475,192,98970,128,0,99379:0:0:0:0:
329,192,99106,128,0,99379:0:0:0:0:
182,192,99243,1,0,0:0:0:0:
36,192,99243,1,0,0:0:0:0:
402,192,99379,128,0,99515:0:0:0:0:
475,192,99515,128,0,99652:0:0:0:0:
109,192,99515,128,0,100061:0:0:0:0:
256,192,99515,1,0,0:0:0:0:
36,192,99515,1,0,0:0:0:0:
256,192,99652,128,0,99788:0:0:0:0:
329,192,99788,128,0,99924:0:0:0:0:
36,192,99788,1,0,0:0:0:0:
402,192,99924,128,0,100061:0:0:0:0:
182,192,99924,1,0,0:0:0:0:
182,192,100061,128,0,100197:0:0:0:0:
329,192,100061,1,0,0:0:0:0:
475,192,100061,1,0,0:0:0:0:
36,192,100061,1,0,0:0:0:0:
256,192,100197,128,0,100334:0:0:0:0:
329,192,100334,128,0,100470:0:0:0:0:
402,192,100334,1,0,0:0:0:0:
109,192,100334,1,0,0:0:0:0:
475,192,100334,128,0,100606:0:0:0:0:
109,192,100470,128,0,100606:0:0:0:0:
182,192,100606,128,0,100743:0:0:0:0:
36,192,100606,1,0,0:0:0:0:
329,192,100606,128,0,100743:0:0:0:0:
256,192,100606,1,0,0:0:0:0:
36,192,100743,128,0,100879:0:0:0:0:
402,192,100743,1,0,0:0:0:0:
256,192,100879,128,0,101015:0:0:0:0:
109,192,100879,1,0,0:0:0:0:
402,192,100879,128,0,101015:0:0:0:0:
109,192,101015,128,0,101152:0:0:0:0:
475,192,101015,1,0,0:0:0:0:
329,192,101152,128,0,101288:0:0:0:0:
182,192,101152,1,0,0:0:0:0:
475,192,101152,128,0,101288:0:0:0:0:
402,192,101152,1,0,0:0:0:0:
182,192,101288,128,0,101424:0:0:0:0:
36,192,101288,1,0,0:0:0:0:
402,192,101424,128,0,101561:0:0:0:0:
256,192,101424,1,0,0:0:0:0:
109,192,101424,1,0,0:0:0:0:
329,192,101424,1,0,0:0:0:0:
256,192,101561,128,0,101697:0:0:0:0:
475,192,101561,1,0,0:0:0:0:
36,192,101561,1,0,0:0:0:0:
182,192,101697,128,0,101834:0:0:0:0:
475,192,101697,128,0,101834:0:0:0:0:
329,192,101697,1,0,0:0:0:0:
109,192,101697,1,0,0:0:0:0:
402,192,101697,1,0,0:0:0:0:
36,192,101834,128,0,101970:0:0:0:0:
329,192,101834,128,0,101970:0:0:0:0:
256,192,101834,1,0,0:0:0:0:
475,192,101902,1,0,0:0:0:0:
256,192,101970,128,0,102106:0:0:0:0:
109,192,101970,1,0,0:0:0:0:
402,192,102106,128,0,102243:0:0:0:0:
109,192,102106,128,0,102243:0:0:0:0:
329,192,102106,1,0,0:0:0:0:
36,192,102106,1,0,0:0:0:0:
329,192,102243,128,0,102379:0:0:0:0:
182,192,102243,1,0,0:0:0:0:
182,192,102379,128,0,102515:0:0:0:0:
475,192,102379,128,0,102515:0:0:0:0:
36,192,102379,128,0,102515:0:0:0:0:
402,192,102379,1,0,0:0:0:0:
109,192,102379,1,0,0:0:0:0:
402,192,102515,128,0,102652:0:0:0:0:
256,192,102515,1,0,0:0:0:0:
256,192,102652,128,0,102788:0:0:0:0:
109,192,102652,128,0,102788:0:0:0:0:
475,192,102652,1,0,0:0:0:0:
182,192,102652,1,0,0:0:0:0:
36,192,102652,1,0,0:0:0:0:
329,192,102788,1,0,0:0:0:0:
402,192,102788,1,0,0:0:0:0:
475,192,102788,1,0,0:0:0:0:
182,192,102788,128,0,102924:0:0:0:0:
36,192,102788,128,0,102924:0:0:0:0:
109,192,102924,128,0,103060:0:0:0:0:
256,192,102924,128,0,103060:0:0:0:0:
402,192,102924,1,0,0:0:0:0:
475,192,102924,1,0,0:0:0:0:
182,192,103060,128,0,103197:0:0:0:0:
329,192,103060,128,0,103197:0:0:0:0:
475,192,103060,1,0,0:0:0:0:
36,192,103060,1,0,0:0:0:0:
402,192,103197,128,0,103469:0:0:0:0:
475,192,103197,128,0,103469:0:0:0:0:
36,192,103197,1,0,0:0:0:0:
109,192,103197,1,0,0:0:0:0:
36,192,103333,1,0,0:0:0:0:
109,192,103333,1,0,0:0:0:0:
182,192,103333,1,0,0:0:0:0:
256,192,103469,128,0,103742:0:0:0:0:
36,192,103469,1,0,0:0:0:0:
109,192,103469,1,0,0:0:0:0:
36,192,103606,1,0,0:0:0:0:
475,192,103606,1,0,0:0:0:0:
109,192,103742,128,0,103810:0:0:0:0:
402,192,103742,128,0,103810:0:0:0:0:
329,192,103810,128,0,103878:0:0:0:0:
182,192,103810,128,0,103878:0:0:0:0:
109,192,103878,128,0,104015:0:0:0:0:
402,192,103878,128,0,104015:0:0:0:0:
256,192,103878,1,0,0:0:0:0:
329,192,104015,128,0,104151:0:0:0:0:
36,192,104015,128,0,104151:0:0:0:0:
182,192,104015,1,0,0:0:0:0:
109,192,104151,128,0,104288:0:0:0:0:
402,192,104151,128,0,104288:0:0:0:0:
256,192,104151,1,0,0:0:0:0:
182,192,104288,128,0,104424:0:0:0:0:
475,192,104288,128,0,104424:0:0:0:0:
36,192,104288,128,0,104424:0:0:0:0:
329,192,104288,1,0,0:0:0:0:
256,192,104424,128,0,104560:0:0:0:0:
109,192,104424,128,0,104560:0:0:0:0:
402,192,104424,128,0,104560:0:0:0:0:
329,192,104560,128,0,104697:0:0:0:0:
475,192,104560,128,0,104697:0:0:0:0:
182,192,104560,128,0,104697:0:0:0:0:
36,192,104560,1,0,0:0:0:0:
109,192,104697,128,0,104833:0:0:0:0:
256,192,104697,128,0,104833:0:0:0:0:
36,192,104697,1,0,0:0:0:0:
402,192,104697,1,0,0:0:0:0:
182,192,104833,128,0,104969:0:0:0:0:
329,192,104833,128,0,104969:0:0:0:0:
475,192,104833,1,0,0:0:0:0:
256,192,104969,128,0,105106:0:0:0:0:
402,192,104969,128,0,105106:0:0:0:0:
36,192,104969,1,0,0:0:0:0:
109,192,104969,1,0,0:0:0:0:
182,192,105106,128,0,105378:0:0:0:0:
109,192,105106,128,0,105378:0:0:0:0:
36,192,105106,1,0,0:0:0:0:
329,192,105106,1,0,0:0:0:0:
402,192,105242,1,0,0:0:0:0:
475,192,105242,1,0,0:0:0:0:
256,192,105378,128,0,105651:0:0:0:0:
36,192,105378,128,0,105651:0:0:0:0:
329,192,105378,1,0,0:0:0:0:
182,192,105515,1,0,0:0:0:0:
109,192,105515,1,0,0:0:0:0:
402,192,105515,1,0,0:0:0:0:
475,192,105515,1,0,0:0:0:0:
329,192,105651,1,0,0:0:0:0:
109,192,105651,128,0,105719:0:0:0:0:
182,192,105651,128,0,105719:0:0:0:0:
402,192,105719,128,0,105787:0:0:0:0:
475,192,105719,128,0,105787:0:0:0:0:
256,192,105787,128,0,105924:0:0:0:0:
329,192,105787,128,0,105924:0:0:0:0:
182,192,105787,1,0,0:0:0:0:
109,192,105787,1,0,0:0:0:0:
182,192,105924,128,0,106060:0:0:0:0:
109,192,105924,128,0,106060:0:0:0:0:
36,192,105924,1,0,0:0:0:0:
402,192,105924,1,0,0:0:0:0:
329,192,106060,128,0,106197:0:0:0:0:
402,192,106060,128,0,106197:0:0:0:0:
256,192,106060,1,0,0:0:0:0:
256,192,106197,128,0,106333:0:0:0:0:
182,192,106197,128,0,106333:0:0:0:0:
109,192,106197,1,0,0:0:0:0:
36,192,106197,1,0,0:0:0:0:
475,192,106197,128,0,106265:0:0:0:0:
109,192,106333,128,0,106469:0:0:0:0:
36,192,106333,128,0,106469:0:0:0:0:
329,192,106333,128,0,106469:0:0:0:0:
475,192,106333,128,0,106469:0:0:0:0:
402,192,106333,128,0,106401:0:0:0:0:
256,192,106469,128,0,106606:0:0:0:0:
402,192,106469,128,0,106606:0:0:0:0:
182,192,106469,128,0,106537:0:0:0:0:
329,192,106606,128,0,106742:0:0:0:0:
182,192,106606,128,0,106742:0:0:0:0:
109,192,106606,128,0,106674:0:0:0:0:
475,192,106606,1,0,0:0:0:0:
109,192,106742,128,0,106878:0:0:0:0:
256,192,106742,128,0,106878:0:0:0:0:
36,192,106742,128,0,106810:0:0:0:0:
402,192,106742,1,0,0:0:0:0:
475,192,106742,1,0,0:0:0:0:
36,192,106878,128,0,107015:0:0:0:0:
329,192,106878,1,0,0:0:0:0:
402,192,106878,1,0,0:0:0:0:
475,192,106878,1,0,0:0:0:0:
256,192,107015,128,0,107151:0:0:0:0:
402,192,107015,1,0,0:0:0:0:
475,192,107015,1,0,0:0:0:0:
109,192,107151,128,0,107287:0:0:0:0:
475,192,107151,1,0,0:0:0:0:
36,192,107151,1,0,0:0:0:0:
329,192,107151,1,0,0:0:0:0:
329,192,107287,128,0,107560:0:0:0:0:
475,192,107287,128,0,107560:0:0:0:0:
182,192,107287,1,0,0:0:0:0:
256,192,107424,1,0,0:0:0:0:
36,192,107424,1,0,0:0:0:0:
402,192,107424,1,0,0:0:0:0:
256,192,107560,128,0,107833:0:0:0:0:
402,192,107560,128,0,107833:0:0:0:0:
36,192,107560,1,0,0:0:0:0:
109,192,107560,1,0,0:0:0:0:
182,192,107697,1,0,0:0:0:0:
329,192,107697,1,0,0:0:0:0:
475,192,107833,1,0,0:0:0:0:
36,192,107833,1,0,0:0:0:0:
109,192,107833,1,0,0:0:0:0:
182,192,107901,128,0,107969:0:0:0:0:
329,192,107901,128,0,107969:0:0:0:0:
109,192,107969,128,0,108106:0:0:0:0:
402,192,107969,128,0,108106:0:0:0:0:
36,192,108106,128,0,108242:0:0:0:0:
475,192,108106,128,0,108242:0:0:0:0:
329,192,108242,1,0,0:0:0:0:
402,192,108242,1,0,0:0:0:0:
109,192,108242,1,0,0:0:0:0:
256,192,108242,128,0,108378:0:0:0:0:
182,192,108378,128,0,108515:0:0:0:0:
329,192,108378,128,0,108515:0:0:0:0:
109,192,108515,128,0,108651:0:0:0:0:
402,192,108515,128,0,108651:0:0:0:0:
475,192,108651,128,0,108787:0:0:0:0:
36,192,108651,128,0,108787:0:0:0:0:
109,192,108787,128,0,108924:0:0:0:0:
402,192,108787,128,0,108924:0:0:0:0:
329,192,108787,1,0,0:0:0:0:
256,192,108787,1,0,0:0:0:0:
182,192,108787,1,0,0:0:0:0:
182,192,108924,128,0,109060:0:0:0:0:
329,192,108924,128,0,109060:0:0:0:0:
475,192,109060,1,0,0:0:0:0:
402,192,109060,1,0,0:0:0:0:
256,192,109060,128,0,109265:0:0:0:0:
109,192,109128,128,0,109197:0:0:0:0:
329,192,109197,1,0,0:0:0:0:
402,192,109197,1,0,0:0:0:0:
182,192,109197,128,0,109401:0:0:0:0:
36,192,109265,128,0,109333:0:0:0:0:
329,192,109333,1,0,0:0:0:0:
256,192,109333,1,0,0:0:0:0:
109,192,109333,128,0,109537:0:0:0:0:
256,192,109469,1,0,0:0:0:0:
182,192,109469,1,0,0:0:0:0:
36,192,109469,128,0,109537:0:0:0:0:
109,192,109606,1,0,0:0:0:0:
256,192,109606,128,0,109810:0:0:0:0:
36,192,109606,1,0,0:0:0:0:
402,192,109674,128,0,109742:0:0:0:0:
182,192,109742,1,0,0:0:0:0:
109,192,109742,1,0,0:0:0:0:
329,192,109742,128,0,109947:0:0:0:0:
475,192,109810,128,0,109878:0:0:0:0:
402,192,109878,128,0,110083:0:0:0:0:
182,192,109878,1,0,0:0:0:0:
256,192,109878,1,0,0:0:0:0:
256,192,110015,1,0,0:0:0:0:
329,192,110015,1,0,0:0:0:0:
475,192,110015,128,0,110083:0:0:0:0:
402,192,110151,1,0,0:0:0:0:
475,192,110151,1,0,0:0:0:0:
182,192,110151,128,0,110287:0:0:0:0:
109,192,110151,128,0,110219:0:0:0:0:
36,192,110151,128,0,110356:0:0:0:0:
256,192,110219,128,0,110287:0:0:0:0:
402,192,110287,1,0,0:0:0:0:
329,192,110287,1,0,0:0:0:0:
109,192,110287,128,0,110424:0:0:0:0:
475,192,110287,128,0,110628:0:0:0:0:
182,192,110356,128,0,110424:0:0:0:0:
329,192,110424,1,0,0:0:0:0:
256,192,110424,1,0,0:0:0:0:
36,192,110424,128,0,110560:0:0:0:0:
402,192,110424,128,0,110628:0:0:0:0:
109,192,110492,128,0,110560:0:0:0:0:
256,192,110560,1,0,0:0:0:0:
182,192,110560,1,0,0:0:0:0:
329,192,110560,128,0,110628:0:0:0:0:
36,192,110697,1,0,0:0:0:0:
109,192,110697,1,0,0:0:0:0:
329,192,110697,128,0,110833:0:0:0:0:
475,192,110697,128,0,110901:0:0:0:0:
402,192,110697,128,0,110765:0:0:0:0:
256,192,110765,128,0,110833:0:0:0:0:
109,192,110833,1,0,0:0:0:0:
182,192,110833,1,0,0:0:0:0:
402,192,110833,128,0,110969:0:0:0:0:
36,192,110833,128,0,111174:0:0:0:0:
329,192,110901,128,0,110969:0:0:0:0:
182,192,110969,1,0,0:0:0:0:
256,192,110969,1,0,0:0:0:0:
475,192,110969,128,0,111106:0:0:0:0:
109,192,110969,128,0,111174:0:0:0:0:
402,192,111037,128,0,111106:0:0:0:0:
256,192,111106,1,0,0:0:0:0:
329,192,111106,1,0,0:0:0:0:
182,192,111106,128,0,111174:0:0:0:0:
329,192,111242,128,0,111378:0:0:0:0:
475,192,111242,128,0,111378:0:0:0:0:
36,192,111242,1,0,0:0:0:0:
182,192,111242,1,0,0:0:0:0:
109,192,111242,1,0,0:0:0:0:
109,192,111378,1,0,0:0:0:0:
36,192,111378,1,0,0:0:0:0:
402,192,111378,128,0,111514:0:0:0:0:
256,192,111378,128,0,111514:0:0:0:0:
36,192,111514,1,0,0:0:0:0:
475,192,111514,1,0,0:0:0:0:
329,192,111514,128,0,111651:0:0:0:0:
182,192,111514,128,0,111651:0:0:0:0:
475,192,111651,1,0,0:0:0:0:
402,192,111651,1,0,0:0:0:0:
109,192,111651,128,0,111923:0:0:0:0:
36,192,111651,128,0,111923:0:0:0:0:
329,192,111787,1,0,0:0:0:0:
402,192,111787,1,0,0:0:0:0:
475,192,111787,1,0,0:0:0:0:
402,192,111923,1,0,0:0:0:0:
475,192,111923,1,0,0:0:0:0:
256,192,111923,128,0,112196:0:0:0:0:
36,192,112060,1,0,0:0:0:0:
475,192,112060,1,0,0:0:0:0:
109,192,112060,1,0,0:0:0:0:
109,192,112196,128,0,112264:0:0:0:0:
402,192,112196,128,0,112264:0:0:0:0:
329,192,112264,128,0,112332:0:0:0:0:
182,192,112264,128,0,112332:0:0:0:0:
256,192,112332,1,0,0:0:0:0:
109,192,112332,128,0,112469:0:0:0:0:
402,192,112332,128,0,112469:0:0:0:0:
329,192,112469,1,0,0:0:0:0:
475,192,112469,128,0,112605:0:0:0:0:
182,192,112469,128,0,112605:0:0:0:0:
256,192,112605,1,0,0:0:0:0:
109,192,112605,128,0,112742:0:0:0:0:
402,192,112605,128,0,112742:0:0:0:0:
475,192,112742,128,0,112878:0:0:0:0:
182,192,112742,1,0,0:0:0:0:
329,192,112742,128,0,112878:0:0:0:0:
36,192,112742,128,0,112878:0:0:0:0:
109,192,112878,128,0,113014:0:0:0:0:
402,192,112878,128,0,113014:0:0:0:0:
256,192,112878,128,0,113014:0:0:0:0:
329,192,113014,128,0,113151:0:0:0:0:
475,192,113014,1,0,0:0:0:0:
182,192,113014,128,0,113151:0:0:0:0:
36,192,113014,128,0,113151:0:0:0:0:
475,192,113151,1,0,0:0:0:0:
109,192,113151,1,0,0:0:0:0:
402,192,113151,128,0,113287:0:0:0:0:
256,192,113151,128,0,113287:0:0:0:0:
36,192,113287,1,0,0:0:0:0:
182,192,113287,128,0,113423:0:0:0:0:
329,192,113287,128,0,113423:0:0:0:0:
475,192,113423,1,0,0:0:0:0:
402,192,113423,1,0,0:0:0:0:
256,192,113423,128,0,113560:0:0:0:0:
109,192,113423,128,0,113560:0:0:0:0:
475,192,113560,1,0,0:0:0:0:
182,192,113560,1,0,0:0:0:0:
329,192,113560,128,0,113832:0:0:0:0:
402,192,113560,128,0,113832:0:0:0:0:
36,192,113696,1,0,0:0:0:0:
109,192,113696,1,0,0:0:0:0:
182,192,113832,1,0,0:0:0:0:
475,192,113832,128,0,114105:0:0:0:0:
256,192,113832,128,0,114105:0:0:0:0:
109,192,113969,1,0,0:0:0:0:
36,192,113969,1,0,0:0:0:0:
329,192,113969,1,0,0:0:0:0:
402,192,113969,1,0,0:0:0:0:
329,192,114105,128,0,114173:0:0:0:0:
402,192,114105,128,0,114173:0:0:0:0:
182,192,114105,1,0,0:0:0:0:
36,192,114173,128,0,114241:0:0:0:0:
109,192,114173,128,0,114241:0:0:0:0:
329,192,114241,1,0,0:0:0:0:
402,192,114241,1,0,0:0:0:0:
256,192,114241,128,0,114378:0:0:0:0:
182,192,114241,128,0,114378:0:0:0:0:
475,192,114378,1,0,0:0:0:0:
109,192,114378,1,0,0:0:0:0:
329,192,114378,128,0,114514:0:0:0:0:
402,192,114378,128,0,114514:0:0:0:0:
256,192,114514,1,0,0:0:0:0:
109,192,114514,128,0,114651:0:0:0:0:
182,192,114514,128,0,114651:0:0:0:0:
475,192,114651,1,0,0:0:0:0:
36,192,114651,128,0,114719:0:0:0:0:
402,192,114651,1,0,0:0:0:0:
256,192,114651,128,0,114787:0:0:0:0:
329,192,114651,128,0,114787:0:0:0:0:
36,192,114787,128,0,114923:0:0:0:0:
109,192,114787,128,0,114855:0:0:0:0:
182,192,114787,128,0,114923:0:0:0:0:
402,192,114787,128,0,114923:0:0:0:0:
475,192,114787,128,0,114923:0:0:0:0:
329,192,114923,128,0,114991:0:0:0:0:
109,192,114923,128,0,115060:0:0:0:0:
256,192,114923,128,0,115060:0:0:0:0:
402,192,115060,128,0,115128:0:0:0:0:
36,192,115060,1,0,0:0:0:0:
182,192,115060,128,0,115196:0:0:0:0:
329,192,115060,128,0,115196:0:0:0:0:
109,192,115196,1,0,0:0:0:0:
36,192,115196,1,0,0:0:0:0:
475,192,115196,128,0,115264:0:0:0:0:
402,192,115196,128,0,115332:0:0:0:0:
256,192,115196,128,0,115332:0:0:0:0:
109,192,115332,1,0,0:0:0:0:
36,192,115332,1,0,0:0:0:0:
475,192,115332,128,0,115469:0:0:0:0:
182,192,115332,1,0,0:0:0:0:
36,192,115469,1,0,0:0:0:0:
109,192,115469,1,0,0:0:0:0:
256,192,115469,128,0,115605:0:0:0:0:
475,192,115605,1,0,0:0:0:0:
182,192,115605,1,0,0:0:0:0:
402,192,115605,128,0,115741:0:0:0:0:
36,192,115605,1,0,0:0:0:0:
329,192,115741,1,0,0:0:0:0:
36,192,115741,128,0,116014:0:0:0:0:
182,192,115741,128,0,116014:0:0:0:0:
109,192,115878,1,0,0:0:0:0:
475,192,115878,1,0,0:0:0:0:
256,192,115878,1,0,0:0:0:0:
475,192,116014,1,0,0:0:0:0:
402,192,116014,1,0,0:0:0:0:
256,192,116014,128,0,116287:0:0:0:0:
109,192,116014,128,0,116287:0:0:0:0:
182,192,116151,1,0,0:0:0:0:
329,192,116151,1,0,0:0:0:0:
402,192,116287,1,0,0:0:0:0:
475,192,116287,1,0,0:0:0:0:
36,192,116287,1,0,0:0:0:0:
182,192,116355,128,0,116423:0:0:0:0:
329,192,116355,128,0,116423:0:0:0:0:
109,192,116423,128,0,116560:0:0:0:0:
402,192,116423,128,0,116560:0:0:0:0:
256,192,116423,1,0,0:0:0:0:
36,192,116560,128,0,116696:0:0:0:0:
475,192,116560,128,0,116696:0:0:0:0:
182,192,116560,1,0,0:0:0:0:
402,192,116696,1,0,0:0:0:0:
256,192,116696,128,0,116832:0:0:0:0:
182,192,116696,1,0,0:0:0:0:
109,192,116696,1,0,0:0:0:0:
182,192,116832,128,0,116969:0:0:0:0:
329,192,116832,128,0,116969:0:0:0:0:
36,192,116832,1,0,0:0:0:0:
475,192,116832,1,0,0:0:0:0:
109,192,116969,128,0,117105:0:0:0:0:
402,192,116969,128,0,117105:0:0:0:0:
256,192,116969,1,0,0:0:0:0:
475,192,117105,128,0,117241:0:0:0:0:
36,192,117105,128,0,117241:0:0:0:0:
182,192,117105,1,0,0:0:0:0:
329,192,117105,1,0,0:0:0:0:
256,192,117241,1,0,0:0:0:0:
329,192,117241,1,0,0:0:0:0:
182,192,117241,1,0,0:0:0:0:
402,192,117241,128,0,117378:0:0:0:0:
109,192,117241,128,0,117378:0:0:0:0:
182,192,117378,128,0,117514:0:0:0:0:
329,192,117378,128,0,117514:0:0:0:0:
256,192,117378,1,0,0:0:0:0:
256,192,117514,128,0,117719:0:0:0:0:
109,192,117514,1,0,0:0:0:0:
36,192,117514,1,0,0:0:0:0:
402,192,117582,128,0,117651:0:0:0:0:
329,192,117651,128,0,117855:0:0:0:0:
109,192,117651,1,0,0:0:0:0:
182,192,117651,1,0,0:0:0:0:
475,192,117719,128,0,117787:0:0:0:0:
36,192,117719,128,0,117753:0:0:0:0:
402,192,117787,128,0,117991:0:0:0:0:
256,192,117787,1,0,0:0:0:0:
182,192,117787,1,0,0:0:0:0:
36,192,117855,128,0,117889:0:0:0:0:
109,192,117855,128,0,117889:0:0:0:0:
475,192,117923,128,0,117991:0:0:0:0:
329,192,117923,1,0,0:0:0:0:
256,192,117923,1,0,0:0:0:0:
182,192,117991,128,0,118026:0:0:0:0:
109,192,117991,128,0,118026:0:0:0:0:
36,192,117991,128,0,118026:0:0:0:0:
475,192,118060,1,0,0:0:0:0:
256,192,118060,128,0,118264:0:0:0:0:
402,192,118060,1,0,0:0:0:0:
109,192,118128,128,0,118196:0:0:0:0:
182,192,118196,128,0,118401:0:0:0:0:
402,192,118196,1,0,0:0:0:0:
329,192,118196,1,0,0:0:0:0:
36,192,118264,128,0,118332:0:0:0:0:
475,192,118264,128,0,118298:0:0:0:0:
256,192,118332,1,0,0:0:0:0:
329,192,118332,1,0,0:0:0:0:
109,192,118332,128,0,118537:0:0:0:0:
402,192,118401,128,0,118435:0:0:0:0:
475,192,118401,128,0,118435:0:0:0:0:
36,192,118469,128,0,118537:0:0:0:0:
182,192,118469,1,0,0:0:0:0:
256,192,118469,1,0,0:0:0:0:
402,192,118537,128,0,118571:0:0:0:0:
329,192,118537,128,0,118673:0:0:0:0:
475,192,118537,128,0,118810:0:0:0:0:
109,192,118605,1,0,0:0:0:0:
36,192,118605,1,0,0:0:0:0:
256,192,118673,128,0,118741:0:0:0:0:
402,192,118741,128,0,118878:0:0:0:0:
36,192,118741,128,0,119082:0:0:0:0:
109,192,118741,1,0,0:0:0:0:
182,192,118741,1,0,0:0:0:0:
329,192,118810,128,0,118878:0:0:0:0:
475,192,118878,128,0,119014:0:0:0:0:
109,192,118878,128,0,119082:0:0:0:0:
182,192,118878,1,0,0:0:0:0:
256,192,118878,1,0,0:0:0:0:
402,192,118946,128,0,119014:0:0:0:0:
182,192,119014,128,0,119082:0:0:0:0:
329,192,119014,1,0,0:0:0:0:
256,192,119014,1,0,0:0:0:0:
36,192,119151,128,0,119219:0:0:0:0:
109,192,119151,128,0,119219:0:0:0:0:
182,192,119151,128,0,119219:0:0:0:0:
475,192,119151,1,0,0:0:0:0:
402,192,119151,1,0,0:0:0:0:
256,192,119151,128,0,119219:0:0:0:0:
109,192,119287,128,0,119355:0:0:0:0:
402,192,119287,1,0,0:0:0:0:
329,192,119287,1,0,0:0:0:0:
182,192,119287,128,0,119355:0:0:0:0:
36,192,119287,128,0,119355:0:0:0:0:
475,192,119287,128,0,119355:0:0:0:0:
36,192,119423,128,0,119491:0:0:0:0:
329,192,119423,1,0,0:0:0:0:
256,192,119423,1,0,0:0:0:0:
109,192,119423,128,0,119491:0:0:0:0:
402,192,119423,128,0,119491:0:0:0:0:
475,192,119423,128,0,119491:0:0:0:0:
329,192,119560,128,0,119628:0:0:0:0:
182,192,119560,1,0,0:0:0:0:
256,192,119560,1,0,0:0:0:0:
36,192,119560,128,0,119628:0:0:0:0:
402,192,119560,128,0,119628:0:0:0:0:
475,192,119560,128,0,119628:0:0:0:0:
36,192,119696,128,0,119901:0:0:0:0:
256,192,119696,128,0,119901:0:0:0:0:
182,192,119764,128,0,119832:0:0:0:0:
109,192,119764,128,0,119832:0:0:0:0:
329,192,119832,1,0,0:0:0:0:
475,192,119832,1,0,0:0:0:0:
402,192,119901,128,0,119969:0:0:0:0:
329,192,119969,128,0,120173:0:0:0:0:
109,192,119969,128,0,120173:0:0:0:0:
182,192,120037,128,0,120105:0:0:0:0:
256,192,120037,128,0,120105:0:0:0:0:
36,192,120105,1,0,0:0:0:0:
402,192,120105,1,0,0:0:0:0:
475,192,120173,128,0,120241:0:0:0:0:
182,192,120241,128,0,120446:0:0:0:0:
402,192,120241,128,0,120446:0:0:0:0:
329,192,120310,128,0,120378:0:0:0:0:
256,192,120310,128,0,120378:0:0:0:0:
109,192,120378,1,0,0:0:0:0:
475,192,120378,1,0,0:0:0:0:
36,192,120446,128,0,120514:0:0:0:0:
256,192,120514,128,0,120719:0:0:0:0:
475,192,120514,128,0,120719:0:0:0:0:
329,192,120582,128,0,120651:0:0:0:0:
402,192,120582,128,0,120651:0:0:0:0:
182,192,120651,1,0,0:0:0:0:
36,192,120651,1,0,0:0:0:0:
109,192,120719,128,0,120787:0:0:0:0:
256,192,120787,128,0,120821:0:0:0:0:
475,192,120787,128,0,120821:0:0:0:0:
182,192,120855,128,0,120923:0:0:0:0:
402,192,120855,128,0,120923:0:0:0:0:
329,192,120923,128,0,121026:0:0:0:0:
109,192,120923,128,0,121026:0:0:0:0:
256,192,120923,1,0,0:0:0:0:
36,192,120923,1,0,0:0:0:0:
475,192,120923,1,0,0:0:0:0:
182,192,121060,128,0,121094:0:0:0:0:
402,192,121060,128,0,121094:0:0:0:0:
109,192,121128,128,0,121196:0:0:0:0:
329,192,121128,128,0,121196:0:0:0:0:
36,192,121196,128,0,121298:0:0:0:0:
256,192,121196,128,0,121298:0:0:0:0:
475,192,121196,1,0,0:0:0:0:
402,192,121196,1,0,0:0:0:0:
182,192,121196,1,0,0:0:0:0:
329,192,121332,128,0,121366:0:0:0:0:
109,192,121332,128,0,121366:0:0:0:0:
36,192,121401,128,0,121469:0:0:0:0:
256,192,121401,128,0,121469:0:0:0:0:
182,192,121469,128,0,121571:0:0:0:0:
475,192,121469,128,0,121571:0:0:0:0:
109,192,121469,1,0,0:0:0:0:
329,192,121469,1,0,0:0:0:0:
402,192,121469,1,0,0:0:0:0:
256,192,121605,128,0,121639:0:0:0:0:
36,192,121605,128,0,121639:0:0:0:0:
182,192,121673,128,0,121741:0:0:0:0:
475,192,121673,128,0,121741:0:0:0:0:
109,192,121741,128,0,121844:0:0:0:0:
402,192,121741,128,0,121844:0:0:0:0:
329,192,121741,1,0,0:0:0:0:
256,192,121741,1,0,0:0:0:0:
36,192,121741,1,0,0:0:0:0:
475,192,121878,128,0,122082:0:0:0:0:
256,192,121878,128,0,122082:0:0:0:0:
329,192,121946,128,0,122014:0:0:0:0:
402,192,121946,128,0,122014:0:0:0:0:
182,192,122014,1,0,0:0:0:0:
36,192,122014,1,0,0:0:0:0:
109,192,122082,128,0,122151:0:0:0:0:
182,192,122151,128,0,122355:0:0:0:0:
402,192,122151,128,0,122355:0:0:0:0:
329,192,122219,128,0,122287:0:0:0:0:
256,192,122219,128,0,122287:0:0:0:0:
475,192,122287,1,0,0:0:0:0:
109,192,122287,1,0,0:0:0:0:
36,192,122355,128,0,122423:0:0:0:0:
329,192,122423,128,0,122628:0:0:0:0:
109,192,122423,128,0,122628:0:0:0:0:
182,192,122491,128,0,122560:0:0:0:0:
256,192,122491,128,0,122560:0:0:0:0:
402,192,122560,1,0,0:0:0:0:
36,192,122560,1,0,0:0:0:0:
475,192,122628,128,0,122696:0:0:0:0:
256,192,122696,128,0,122901:0:0:0:0:
36,192,122696,128,0,122901:0:0:0:0:
182,192,122764,128,0,122832:0:0:0:0:
109,192,122764,128,0,122832:0:0:0:0:
329,192,122832,1,0,0:0:0:0:
475,192,122832,1,0,0:0:0:0:
402,192,122901,128,0,122969:0:0:0:0:
256,192,122969,128,0,123003:0:0:0:0:
36,192,122969,128,0,123003:0:0:0:0:
329,192,123037,128,0,123105:0:0:0:0:
109,192,123037,128,0,123105:0:0:0:0:
182,192,123105,128,0,123207:0:0:0:0:
402,192,123105,128,0,123207:0:0:0:0:
475,192,123105,1,0,0:0:0:0:
36,192,123105,1,0,0:0:0:0:
256,192,123173,1,0,0:0:0:0:
329,192,123241,128,0,123276:0:0:0:0:
109,192,123241,128,0,123276:0:0:0:0:
402,192,123310,128,0,123378:0:0:0:0:
182,192,123310,128,0,123378:0:0:0:0:
475,192,123378,128,0,123480:0:0:0:0:
256,192,123378,128,0,123480:0:0:0:0:
36,192,123378,1,0,0:0:0:0:
329,192,123378,1,0,0:0:0:0:
109,192,123446,1,0,0:0:0:0:
182,192,123514,128,0,123548:0:0:0:0:
402,192,123514,128,0,123548:0:0:0:0:
475,192,123582,128,0,123651:0:0:0:0:
256,192,123582,128,0,123651:0:0:0:0:
329,192,123651,128,0,123753:0:0:0:0:
36,192,123651,128,0,123753:0:0:0:0:
402,192,123651,1,0,0:0:0:0:
109,192,123651,1,0,0:0:0:0:
182,192,123719,1,0,0:0:0:0:
256,192,123787,128,0,123821:0:0:0:0:
475,192,123787,128,0,123821:0:0:0:0:
329,192,123855,128,0,123923:0:0:0:0:
36,192,123855,128,0,123923:0:0:0:0:
402,192,123923,128,0,124026:0:0:0:0:
109,192,123923,128,0,124026:0:0:0:0:
182,192,123923,1,0,0:0:0:0:
475,192,123923,1,0,0:0:0:0:
256,192,123991,1,0,0:0:0:0:
109,192,124060,128,0,124264:0:0:0:0:
182,192,124060,128,0,124264:0:0:0:0:
402,192,124060,128,0,124128:0:0:0:0:
36,192,124128,128,0,124196:0:0:0:0:
256,192,124128,128,0,124196:0:0:0:0:
402,192,124196,1,0,0:0:0:0:
475,192,124196,1,0,0:0:0:0:
329,192,124264,128,0,124332:0:0:0:0:
182,192,124332,128,0,124537:0:0:0:0:
256,192,124332,128,0,124537:0:0:0:0:
475,192,124332,128,0,124401:0:0:0:0:
109,192,124401,128,0,124469:0:0:0:0:
329,192,124401,128,0,124469:0:0:0:0:
475,192,124469,1,0,0:0:0:0:
36,192,124469,1,0,0:0:0:0:
402,192,124537,128,0,124605:0:0:0:0:
256,192,124605,128,0,124810:0:0:0:0:
329,192,124605,128,0,124810:0:0:0:0:
36,192,124605,128,0,124673:0:0:0:0:
182,192,124673,128,0,124741:0:0:0:0:
402,192,124673,128,0,124741:0:0:0:0:
109,192,124741,1,0,0:0:0:0:
36,192,124741,1,0,0:0:0:0:
475,192,124810,128,0,124878:0:0:0:0:
402,192,124878,128,0,125082:0:0:0:0:
329,192,124878,128,0,125082:0:0:0:0:
109,192,124878,128,0,124946:0:0:0:0:
256,192,124946,128,0,125014:0:0:0:0:
475,192,124946,128,0,125014:0:0:0:0:
109,192,125014,1,0,0:0:0:0:
182,192,125014,1,0,0:0:0:0:
36,192,125082,128,0,125151:0:0:0:0:
256,192,125151,1,0,0:0:0:0:
402,192,125151,1,0,0:0:0:0:
475,192,125151,128,0,125185:0:0:0:0:
182,192,125151,1,0,0:0:0:0:
329,192,125219,128,0,125355:0:0:0:0:
109,192,125287,128,0,125355:0:0:0:0:
475,192,125287,128,0,125321:0:0:0:0:
36,192,125287,1,0,0:0:0:0:
256,192,125355,128,0,125423:0:0:0:0:
182,192,125423,1,0,0:0:0:0:
329,192,125423,1,0,0:0:0:0:
402,192,125423,128,0,125457:0:0:0:0:
109,192,125423,1,0,0:0:0:0:
256,192,125491,128,0,125628:0:0:0:0:
36,192,125560,128,0,125628:0:0:0:0:
402,192,125560,128,0,125594:0:0:0:0:
475,192,125560,1,0,0:0:0:0:
182,192,125628,128,0,125696:0:0:0:0:
109,192,125696,1,0,0:0:0:0:
256,192,125696,1,0,0:0:0:0:
329,192,125696,128,0,125730:0:0:0:0:
36,192,125696,1,0,0:0:0:0:
182,192,125764,128,0,125901:0:0:0:0:
475,192,125832,128,0,125901:0:0:0:0:
329,192,125832,128,0,125866:0:0:0:0:
402,192,125832,1,0,0:0:0:0:
109,192,125901,128,0,125969:0:0:0:0:
182,192,125969,1,0,0:0:0:0:
36,192,125969,1,0,0:0:0:0:
256,192,125969,128,0,126003:0:0:0:0:
475,192,125969,1,0,0:0:0:0:
109,192,126037,128,0,126173:0:0:0:0:
329,192,126105,1,0,0:0:0:0:
402,192,126105,128,0,126173:0:0:0:0:
256,192,126105,128,0,126139:0:0:0:0:
36,192,126173,128,0,126241:0:0:0:0:
402,192,126241,128,0,126310:0:0:0:0:
475,192,126241,128,0,126855:0:0:0:0:
329,192,126241,1,0,0:0:0:0:
182,192,126241,1,0,0:0:0:0:
329,192,126378,128,0,126582:0:0:0:0:
402,192,126378,128,0,126719:0:0:0:0:
256,192,126378,1,0,0:0:0:0:
109,192,126378,1,0,0:0:0:0:
182,192,126514,1,0,0:0:0:0:
36,192,126514,1,0,0:0:0:0:
109,192,126514,128,0,126582:0:0:0:0:
256,192,126514,128,0,126582:0:0:0:0:
109,192,126651,1,0,0:0:0:0:
256,192,126651,1,0,0:0:0:0:
182,192,126651,128,0,126719:0:0:0:0:
329,192,126651,128,0,126719:0:0:0:0:
36,192,126651,128,0,127196:0:0:0:0:
182,192,126787,128,0,126855:0:0:0:0:
329,192,126787,128,0,126855:0:0:0:0:
256,192,126787,1,0,0:0:0:0:
109,192,126787,128,0,127060:0:0:0:0:
329,192,126923,1,0,0:0:0:0:
256,192,126923,128,0,126991:0:0:0:0:
402,192,126923,128,0,126991:0:0:0:0:
475,192,126923,128,0,127264:0:0:0:0:
182,192,127060,1,0,0:0:0:0:
256,192,127060,1,0,0:0:0:0:
402,192,127060,128,0,127264:0:0:0:0:
182,192,127196,128,0,127264:0:0:0:0:
109,192,127196,128,0,127264:0:0:0:0:
256,192,127196,1,0,0:0:0:0:
329,192,127196,1,0,0:0:0:0:
475,192,127332,1,0,0:0:0:0:
182,192,127332,128,0,127469:0:0:0:0:
402,192,127401,1,0,0:0:0:0:
329,192,127469,1,0,0:0:0:0:
475,192,127469,1,0,0:0:0:0:
109,192,127469,128,0,127605:0:0:0:0:
256,192,127537,1,0,0:0:0:0:
402,192,127605,1,0,0:0:0:0:
36,192,127605,128,0,127741:0:0:0:0:
329,192,127605,128,0,127741:0:0:0:0:
182,192,127673,1,0,0:0:0:0:
475,192,127741,1,0,0:0:0:0:
109,192,127741,1,0,0:0:0:0:
402,192,127741,128,0,127878:0:0:0:0:
256,192,127810,1,0,0:0:0:0:
182,192,127878,1,0,0:0:0:0:
475,192,127878,128,0,128014:0:0:0:0:
109,192,127878,128,0,128151:0:0:0:0:
36,192,127878,1,0,0:0:0:0:
329,192,127946,1,0,0:0:0:0:
256,192,128014,1,0,0:0:0:0:
182,192,128014,1,0,0:0:0:0:
475,192,128082,1,0,0:0:0:0:
402,192,128151,1,0,0:0:0:0:
256,192,128151,1,0,0:0:0:0:
36,192,128151,1,0,0:0:0:0:
329,192,128219,1,0,0:0:0:0:
182,192,128287,1,0,0:0:0:0:
475,192,128287,1,0,0:0:0:0:
402,192,128355,1,0,0:0:0:0:
109,192,128355,1,0,0:0:0:0:
36,192,128423,128,0,128628:0:0:0:0:
256,192,128423,128,0,128628:0:0:0:0:
475,192,128423,128,0,128491:0:0:0:0:
182,192,128491,128,0,128560:0:0:0:0:
109,192,128491,128,0,128560:0:0:0:0:
329,192,128560,1,0,0:0:0:0:
475,192,128560,1,0,0:0:0:0:
402,192,128628,128,0,128696:0:0:0:0:
36,192,128696,128,0,128764:0:0:0:0:
329,192,128696,128,0,128901:0:0:0:0:
109,192,128696,128,0,128901:0:0:0:0:
182,192,128764,128,0,128832:0:0:0:0:
256,192,128764,128,0,128832:0:0:0:0:
36,192,128832,1,0,0:0:0:0:
402,192,128832,1,0,0:0:0:0:
475,192,128901,128,0,128969:0:0:0:0:
182,192,128969,128,0,129173:0:0:0:0:
402,192,128969,128,0,129173:0:0:0:0:
109,192,128969,128,0,129037:0:0:0:0:
329,192,129037,128,0,129105:0:0:0:0:
256,192,129037,128,0,129105:0:0:0:0:
109,192,129105,1,0,0:0:0:0:
475,192,129105,1,0,0:0:0:0:
36,192,129173,128,0,129241:0:0:0:0:
256,192,129241,128,0,129446:0:0:0:0:
475,192,129241,128,0,129446:0:0:0:0:
182,192,129241,128,0,129310:0:0:0:0:
329,192,129310,128,0,129378:0:0:0:0:
402,192,129310,128,0,129378:0:0:0:0:
182,192,129378,1,0,0:0:0:0:
36,192,129378,1,0,0:0:0:0:
109,192,129446,128,0,129514:0:0:0:0:
256,192,129514,128,0,129548:0:0:0:0:
475,192,129514,128,0,129548:0:0:0:0:
329,192,129514,128,0,129548:0:0:0:0:
36,192,129514,128,0,129548:0:0:0:0:
182,192,129582,128,0,129651:0:0:0:0:
402,192,129582,128,0,129651:0:0:0:0:
329,192,129651,128,0,129753:0:0:0:0:
109,192,129651,128,0,129753:0:0:0:0:
256,192,129651,1,0,0:0:0:0:
36,192,129651,1,0,0:0:0:0:
475,192,129651,1,0,0:0:0:0:
182,192,129787,128,0,129821:0:0:0:0:
402,192,129787,128,0,129821:0:0:0:0:
36,192,129787,128,0,129821:0:0:0:0:
475,192,129787,128,0,129821:0:0:0:0:
109,192,129855,128,0,129923:0:0:0:0:
329,192,129855,128,0,129923:0:0:0:0:
36,192,129923,128,0,130026:0:0:0:0:
256,192,129923,128,0,130026:0:0:0:0:
475,192,129923,1,0,0:0:0:0:
402,192,129923,1,0,0:0:0:0:
182,192,129923,1,0,0:0:0:0:
329,192,130060,128,0,130094:0:0:0:0:
109,192,130060,128,0,130094:0:0:0:0:
182,192,130060,128,0,130094:0:0:0:0:
402,192,130060,128,0,130094:0:0:0:0:
475,192,130060,128,0,130094:0:0:0:0:
36,192,130128,128,0,130196:0:0:0:0:
256,192,130128,128,0,130196:0:0:0:0:
182,192,130196,128,0,130298:0:0:0:0:
475,192,130196,128,0,130298:0:0:0:0:
109,192,130196,1,0,0:0:0:0:
329,192,130196,1,0,0:0:0:0:
402,192,130196,1,0,0:0:0:0:
256,192,130332,128,0,130366:0:0:0:0:
36,192,130332,128,0,130366:0:0:0:0:
402,192,130332,128,0,130366:0:0:0:0:
329,192,130332,128,0,130366:0:0:0:0:
109,192,130332,128,0,130366:0:0:0:0:
182,192,130401,128,0,130469:0:0:0:0:
475,192,130401,128,0,130469:0:0:0:0:
109,192,130469,128,0,130571:0:0:0:0:
402,192,130469,128,0,130571:0:0:0:0:
329,192,130469,1,0,0:0:0:0:
256,192,130469,1,0,0:0:0:0:
36,192,130469,1,0,0:0:0:0:
475,192,130605,128,0,130810:0:0:0:0:
256,192,130605,128,0,130810:0:0:0:0:
36,192,130605,128,0,130639:0:0:0:0:
109,192,130605,128,0,130639:0:0:0:0:
329,192,130673,128,0,130741:0:0:0:0:
402,192,130673,128,0,130741:0:0:0:0:
182,192,130741,1,0,0:0:0:0:
36,192,130741,1,0,0:0:0:0:
109,192,130810,128,0,130878:0:0:0:0:
182,192,130878,128,0,131082:0:0:0:0:
402,192,130878,128,0,131082:0:0:0:0:
36,192,130878,128,0,130912:0:0:0:0:
475,192,130878,128,0,130912:0:0:0:0:
329,192,130946,128,0,131014:0:0:0:0:
256,192,130946,128,0,131014:0:0:0:0:
475,192,131014,1,0,0:0:0:0:
109,192,131014,1,0,0:0:0:0:
36,192,131082,128,0,131151:0:0:0:0:
329,192,131151,128,0,131355:0:0:0:0:
109,192,131151,128,0,131355:0:0:0:0:
402,192,131151,128,0,131185:0:0:0:0:
475,192,131151,128,0,131185:0:0:0:0:
182,192,131219,128,0,131287:0:0:0:0:
256,192,131219,128,0,131287:0:0:0:0:
402,192,131287,1,0,0:0:0:0:
36,192,131287,1,0,0:0:0:0:
475,192,131355,128,0,131423:0:0:0:0:
256,192,131423,128,0,131628:0:0:0:0:
36,192,131423,128,0,131628:0:0:0:0:
329,192,131423,128,0,131457:0:0:0:0:
402,192,131423,128,0,131457:0:0:0:0:
182,192,131491,128,0,131560:0:0:0:0:
109,192,131491,128,0,131560:0:0:0:0:
329,192,131560,1,0,0:0:0:0:
475,192,131560,1,0,0:0:0:0:
402,192,131628,128,0,131696:0:0:0:0:
256,192,131696,128,0,131730:0:0:0:0:
36,192,131696,128,0,131730:0:0:0:0:
475,192,131696,128,0,131730:0:0:0:0:
329,192,131764,128,0,131832:0:0:0:0:
109,192,131764,128,0,131832:0:0:0:0:
182,192,131832,128,0,131935:0:0:0:0:
402,192,131832,128,0,131935:0:0:0:0:
475,192,131832,1,0,0:0:0:0:
36,192,131832,1,0,0:0:0:0:
256,192,131901,1,0,0:0:0:0:
329,192,131969,128,0,132003:0:0:0:0:
109,192,131969,128,0,132003:0:0:0:0:
36,192,131969,128,0,132003:0:0:0:0:
402,192,132037,128,0,132105:0:0:0:0:
182,192,132037,128,0,132105:0:0:0:0:
475,192,132105,128,0,132207:0:0:0:0:
256,192,132105,128,0,132207:0:0:0:0:
36,192,132105,1,0,0:0:0:0:
329,192,132105,1,0,0:0:0:0:
109,192,132173,1,0,0:0:0:0:
182,192,132241,128,0,132276:0:0:0:0:
402,192,132241,128,0,132276:0:0:0:0:
329,192,132241,128,0,132276:0:0:0:0:
475,192,132310,128,0,132378:0:0:0:0:
256,192,132310,128,0,132378:0:0:0:0:
329,192,132378,128,0,132480:0:0:0:0:
36,192,132378,128,0,132480:0:0:0:0:
402,192,132378,1,0,0:0:0:0:
109,192,132378,1,0,0:0:0:0:
182,192,132446,1,0,0:0:0:0:
256,192,132514,128,0,132548:0:0:0:0:
475,192,132514,128,0,132548:0:0:0:0:
402,192,132514,128,0,132548:0:0:0:0:
329,192,132582,128,0,132651:0:0:0:0:
36,192,132582,128,0,132651:0:0:0:0:
402,192,132651,128,0,132753:0:0:0:0:
109,192,132651,128,0,132753:0:0:0:0:
182,192,132651,1,0,0:0:0:0:
475,192,132651,1,0,0:0:0:0:
256,192,132719,1,0,0:0:0:0:
109,192,132787,128,0,132923:0:0:0:0:
402,192,132787,128,0,132923:0:0:0:0:
475,192,132787,1,0,0:0:0:0:
36,192,132787,1,0,0:0:0:0:
182,192,132923,128,0,133060:0:0:0:0:
329,192,132923,128,0,133060:0:0:0:0:
36,192,132923,1,0,0:0:0:0:
475,192,132923,1,0,0:0:0:0:
256,192,132923,1,0,0:0:0:0:
36,192,133060,128,0,133196:0:0:0:0:
475,192,133060,128,0,133196:0:0:0:0:
109,192,133060,1,0,0:0:0:0:
402,192,133060,1,0,0:0:0:0:
256,192,133060,1,0,0:0:0:0:
109,192,133196,128,0,133332:0:0:0:0:
402,192,133196,128,0,133332:0:0:0:0:
182,192,133196,1,0,0:0:0:0:
329,192,133196,1,0,0:0:0:0:
256,192,133196,1,0,0:0:0:0:
182,192,133332,128,0,133469:0:0:0:0:
329,192,133332,128,0,133469:0:0:0:0:
256,192,133332,1,0,0:0:0:0:
36,192,133332,1,0,0:0:0:0:
475,192,133332,1,0,0:0:0:0:
109,192,133469,128,0,133605:0:0:0:0:
402,192,133469,128,0,133605:0:0:0:0:
36,192,133469,1,0,0:0:0:0:
475,192,133469,1,0,0:0:0:0:
256,192,133469,1,0,0:0:0:0:
36,192,133605,128,0,133741:0:0:0:0:
475,192,133605,128,0,133741:0:0:0:0:
182,192,133605,1,0,0:0:0:0:
256,192,133605,1,0,0:0:0:0:
329,192,133605,1,0,0:0:0:0:
182,192,133741,128,0,133878:0:0:0:0:
329,192,133741,128,0,133878:0:0:0:0:
402,192,133741,1,0,0:0:0:0:
256,192,133741,1,0,0:0:0:0:
109,192,133741,1,0,0:0:0:0:
109,192,133878,128,0,134014:0:0:0:0:
402,192,133878,128,0,134014:0:0:0:0:
36,192,133878,1,0,0:0:0:0:
256,192,133878,1,0,0:0:0:0:
475,192,133878,1,0,0:0:0:0:
256,192,134014,128,0,134150:0:0:0:0:
182,192,134014,1,0,0:0:0:0:
36,192,134014,1,0,0:0:0:0:
329,192,134014,1,0,0:0:0:0:
475,192,134014,1,0,0:0:0:0:
182,192,134150,128,0,134287:0:0:0:0:
329,192,134150,128,0,134287:0:0:0:0:
402,192,134150,1,0,0:0:0:0:
475,192,134150,1,0,0:0:0:0:
36,192,134150,1,0,0:0:0:0:
109,192,134150,1,0,0:0:0:0:
109,192,134287,128,0,134423:0:0:0:0:
402,192,134287,128,0,134423:0:0:0:0:
36,192,134287,1,0,0:0:0:0:
475,192,134287,1,0,0:0:0:0:
36,192,134423,128,0,134696:0:0:0:0:
475,192,134423,128,0,134696:0:0:0:0:
329,192,134423,1,0,0:0:0:0:
256,192,134423,1,0,0:0:0:0:
182,192,134423,1,0,0:0:0:0:
256,192,134559,1,0,0:0:0:0:
182,192,134628,1,0,0:0:0:0:
329,192,134628,1,0,0:0:0:0:
256,192,134696,128,0,134968:0:0:0:0:
109,192,134696,1,0,0:0:0:0:
402,192,134696,1,0,0:0:0:0:
36,192,134832,1,0,0:0:0:0:
475,192,134832,1,0,0:0:0:0:
109,192,134900,1,0,0:0:0:0:
402,192,134900,1,0,0:0:0:0:
182,192,134968,1,0,0:0:0:0:
329,192,134968,1,0,0:0:0:0:
36,192,134968,128,0,135105:0:0:0:0:
109,192,134968,128,0,135105:0:0:0:0:
402,192,134968,128,0,135105:0:0:0:0:
475,192,134968,128,0,135105:0:0:0:0:
182,192,135105,128,0,135241:0:0:0:0:
256,192,135105,128,0,135241:0:0:0:0:
329,192,135105,128,0,135241:0:0:0:0:
109,192,135241,128,0,135378:0:0:0:0:
36,192,135241,128,0,135378:0:0:0:0:
475,192,135241,128,0,135378:0:0:0:0:
402,192,135241,128,0,135378:0:0:0:0:
182,192,135378,128,0,135514:0:0:0:0:
256,192,135378,128,0,135514:0:0:0:0:
329,192,135378,128,0,135514:0:0:0:0:
402,192,135514,128,0,135628:0:0:0:0:
475,192,135514,128,0,135628:0:0:0:0:
109,192,135514,128,0,135628:0:0:0:0:
36,192,135514,128,0,135628:0:0:0:0:
182,192,135537,1,0,0:0:0:0:
256,192,135537,1,0,0:0:0:0:
329,192,135537,1,0,0:0:0:0:
109,192,135650,1,0,0:0:0:0:
36,192,135650,1,0,0:0:0:0:
402,192,135650,1,0,0:0:0:0:
475,192,135650,1,0,0:0:0:0:
182,192,135650,128,0,135764:0:0:0:0:
256,192,135650,128,0,135764:0:0:0:0:
329,192,135650,128,0,135764:0:0:0:0:
182,192,135787,1,0,0:0:0:0:
256,192,135787,1,0,0:0:0:0:
329,192,135787,1,0,0:0:0:0:
109,192,135787,128,0,135900:0:0:0:0:
36,192,135787,128,0,135900:0:0:0:0:
402,192,135787,128,0,135900:0:0:0:0:
475,192,135787,128,0,135900:0:0:0:0:
36,192,135923,128,0,136195:0:0:0:0:
109,192,135923,128,0,136195:0:0:0:0:
402,192,135923,128,0,136195:0:0:0:0:
475,192,135923,128,0,136195:0:0:0:0:
182,192,135923,1,0,0:0:0:0:
256,192,135923,1,0,0:0:0:0:
329,192,135923,1,0,0:0:0:0:
182,192,136195,1,0,0:0:0:0:
109,192,136229,1,0,0:0:0:0:
256,192,136332,1,0,0:0:0:0:
329,192,136332,1,0,0:0:0:0:
182,192,136366,1,0,0:0:0:0:
329,192,136468,1,0,0:0:0:0:
402,192,136468,1,0,0:0:0:0:
256,192,136502,1,0,0:0:0:0:
475,192,136605,128,0,136877:0:0:0:0:
402,192,136605,128,0,136877:0:0:0:0:
109,192,136605,128,0,136877:0:0:0:0:
36,192,136605,128,0,136877:0:0:0:0:
329,192,136877,128,0,136945:0:0:0:0:
402,192,136911,1,0,0:0:0:0:
182,192,137014,1,0,0:0:0:0:
256,192,137014,128,0,137082:0:0:0:0:
329,192,137048,1,0,0:0:0:0:
109,192,137150,1,0,0:0:0:0:
182,192,137150,128,0,137218:0:0:0:0:
256,192,137184,1,0,0:0:0:0:
36,192,137286,128,0,137558:0:0:0:0:
109,192,137286,128,0,137558:0:0:0:0:
402,192,137286,128,0,137558:0:0:0:0:
475,192,137286,128,0,137558:0:0:0:0:
182,192,137558,128,0,137626:0:0:0:0:
256,192,137558,128,0,137626:0:0:0:0:
109,192,137592,1,0,0:0:0:0:
256,192,137695,128,0,137763:0:0:0:0:
329,192,137695,128,0,137763:0:0:0:0:
402,192,137729,1,0,0:0:0:0:
182,192,137831,128,0,137899:0:0:0:0:
109,192,137831,128,0,137899:0:0:0:0:
36,192,137865,1,0,0:0:0:0:
329,192,137967,128,0,138036:0:0:0:0:
402,192,137967,128,0,138036:0:0:0:0:
475,192,138001,1,0,0:0:0:0:
109,192,138104,128,0,138172:0:0:0:0:
36,192,138104,128,0,138172:0:0:0:0:
182,192,138138,1,0,0:0:0:0:
402,192,138240,128,0,138308:0:0:0:0:
475,192,138240,128,0,138308:0:0:0:0:
329,192,138274,1,0,0:0:0:0:
182,192,138376,128,0,138445:0:0:0:0:
256,192,138376,128,0,138445:0:0:0:0:
109,192,138411,1,0,0:0:0:0:
475,192,138513,1,0,0:0:0:0:
329,192,138513,1,0,0:0:0:0:
402,192,138513,1,0,0:0:0:0:
329,192,146149,132,0,146194:0:0:0:0:
475,192,146149,128,0,146194:0:0:0:0:
182,192,146149,1,0,0:0:0:0:
109,192,146149,1,0,0:0:0:0:
36,192,146149,1,0,0:0:0:0:
402,192,146194,128,0,146239:0:0:0:0:
329,192,146239,128,0,146285:0:0:0:0:
475,192,146239,128,0,146285:0:0:0:0:
402,192,146285,128,0,146330:0:0:0:0:
36,192,146285,1,0,0:0:0:0:
109,192,146285,1,0,0:0:0:0:
329,192,146421,1,0,0:0:0:0:
256,192,146421,1,0,0:0:0:0:
36,192,146558,128,0,146603:0:0:0:0:
182,192,146558,128,0,146603:0:0:0:0:
329,192,146558,1,0,0:0:0:0:
402,192,146558,1,0,0:0:0:0:
475,192,146558,1,0,0:0:0:0:
109,192,146603,128,0,146649:0:0:0:0:
36,192,146649,128,0,146694:0:0:0:0:
182,192,146649,128,0,146694:0:0:0:0:
109,192,146694,128,0,146739:0:0:0:0:
475,192,146694,1,0,0:0:0:0:
402,192,146694,1,0,0:0:0:0:
256,192,146830,1,0,0:0:0:0:
182,192,146830,1,0,0:0:0:0:
329,192,146967,128,0,147012:0:0:0:0:
475,192,146967,128,0,147012:0:0:0:0:
182,192,146967,1,0,0:0:0:0:
109,192,146967,1,0,0:0:0:0:
36,192,146967,1,0,0:0:0:0:
402,192,147012,128,0,147058:0:0:0:0:
329,192,147058,128,0,147103:0:0:0:0:
475,192,147058,128,0,147103:0:0:0:0:
402,192,147103,128,0,147149:0:0:0:0:
36,192,147103,1,0,0:0:0:0:
109,192,147103,1,0,0:0:0:0:
329,192,147239,1,0,0:0:0:0:
256,192,147239,1,0,0:0:0:0:
36,192,147376,128,0,147421:0:0:0:0:
182,192,147376,128,0,147421:0:0:0:0:
329,192,147376,1,0,0:0:0:0:
402,192,147376,1,0,0:0:0:0:
475,192,147376,1,0,0:0:0:0:
109,192,147421,128,0,147467:0:0:0:0:
36,192,147467,128,0,147512:0:0:0:0:
182,192,147467,128,0,147512:0:0:0:0:
109,192,147512,128,0,147558:0:0:0:0:
475,192,147512,1,0,0:0:0:0:
402,192,147512,1,0,0:0:0:0:
256,192,147649,1,0,0:0:0:0:
182,192,147649,1,0,0:0:0:0:
109,192,147785,1,0,0:0:0:0:
36,192,147785,1,0,0:0:0:0:
182,192,147785,1,0,0:0:0:0:
475,192,147785,128,0,147830:0:0:0:0:
402,192,147830,128,0,147876:0:0:0:0:
329,192,147876,128,0,147921:0:0:0:0:
256,192,147921,128,0,147967:0:0:0:0:
109,192,147921,1,0,0:0:0:0:
36,192,147921,1,0,0:0:0:0:
475,192,147967,128,0,148012:0:0:0:0:
402,192,148012,128,0,148058:0:0:0:0:
256,192,148058,1,0,0:0:0:0:
329,192,148058,128,0,148103:0:0:0:0:
36,192,148058,128,0,148103:0:0:0:0:
109,192,148103,128,0,148149:0:0:0:0:
182,192,148149,128,0,148194:0:0:0:0:
402,192,148194,1,0,0:0:0:0:
475,192,148194,1,0,0:0:0:0:
329,192,148194,1,0,0:0:0:0:
256,192,148194,128,0,148239:0:0:0:0:
36,192,148239,128,0,148285:0:0:0:0:
109,192,148285,128,0,148330:0:0:0:0:
182,192,148330,128,0,148376:0:0:0:0:
329,192,148330,128,0,148376:0:0:0:0:
475,192,148330,128,0,148376:0:0:0:0:
402,192,148376,128,0,148421:0:0:0:0:
329,192,148421,128,0,148467:0:0:0:0:
475,192,148421,128,0,148467:0:0:0:0:
182,192,148467,1,0,0:0:0:0:
256,192,148467,1,0,0:0:0:0:
402,192,148467,128,0,148512:0:0:0:0:
109,192,148603,1,0,0:0:0:0:
36,192,148603,1,0,0:0:0:0:
475,192,148603,1,0,0:0:0:0:
36,192,148739,128,0,148785:0:0:0:0:
182,192,148739,128,0,148785:0:0:0:0:
402,192,148739,1,0,0:0:0:0:
329,192,148739,1,0,0:0:0:0:
109,192,148785,128,0,148830:0:0:0:0:
182,192,148830,128,0,148876:0:0:0:0:
36,192,148830,128,0,148876:0:0:0:0:
256,192,148876,1,0,0:0:0:0:
109,192,148876,128,0,148921:0:0:0:0:
329,192,148876,1,0,0:0:0:0:
475,192,149012,1,0,0:0:0:0:
402,192,149012,1,0,0:0:0:0:
36,192,149012,1,0,0:0:0:0:
109,192,149149,1,0,0:0:0:0:
182,192,149149,1,0,0:0:0:0:
329,192,149149,128,0,149194:0:0:0:0:
475,192,149149,128,0,149194:0:0:0:0:
402,192,149194,128,0,149239:0:0:0:0:
475,192,149239,128,0,149285:0:0:0:0:
329,192,149239,128,0,149285:0:0:0:0:
402,192,149285,128,0,149330:0:0:0:0:
182,192,149285,1,0,0:0:0:0:
256,192,149285,1,0,0:0:0:0:
475,192,149421,1,0,0:0:0:0:
36,192,149421,1,0,0:0:0:0:
109,192,149421,1,0,0:0:0:0:
36,192,149558,128,0,149603:0:0:0:0:
182,192,149558,128,0,149603:0:0:0:0:
402,192,149558,1,0,0:0:0:0:
329,192,149558,1,0,0:0:0:0:
109,192,149603,128,0,149649:0:0:0:0:
182,192,149649,128,0,149694:0:0:0:0:
36,192,149649,128,0,149694:0:0:0:0:
256,192,149694,1,0,0:0:0:0:
109,192,149694,128,0,149739:0:0:0:0:
329,192,149694,1,0,0:0:0:0:
475,192,149830,1,0,0:0:0:0:
402,192,149830,1,0,0:0:0:0:
36,192,149830,1,0,0:0:0:0:
182,192,149967,1,0,0:0:0:0:
256,192,149967,1,0,0:0:0:0:
329,192,149967,128,0,150012:0:0:0:0:
109,192,149967,1,0,0:0:0:0:
402,192,150012,128,0,150058:0:0:0:0:
475,192,150058,128,0,150103:0:0:0:0:
182,192,150103,1,0,0:0:0:0:
329,192,150103,128,0,150149:0:0:0:0:
36,192,150103,1,0,0:0:0:0:
109,192,150103,1,0,0:0:0:0:
402,192,150149,128,0,150194:0:0:0:0:
475,192,150194,128,0,150239:0:0:0:0:
182,192,150239,128,0,150285:0:0:0:0:
256,192,150239,1,0,0:0:0:0:
329,192,150239,1,0,0:0:0:0:
402,192,150239,1,0,0:0:0:0:
109,192,150285,128,0,150330:0:0:0:0:
36,192,150330,128,0,150376:0:0:0:0:
256,192,150376,128,0,150421:0:0:0:0:
329,192,150376,1,0,0:0:0:0:
402,192,150376,1,0,0:0:0:0:
475,192,150376,1,0,0:0:0:0:
182,192,150421,128,0,150467:0:0:0:0:
109,192,150467,128,0,150512:0:0:0:0:
36,192,150512,128,0,150558:0:0:0:0:
475,192,150512,128,0,150558:0:0:0:0:
329,192,150512,128,0,150558:0:0:0:0:
256,192,150558,128,0,150603:0:0:0:0:
402,192,150603,128,0,150649:0:0:0:0:
182,192,150603,128,0,150649:0:0:0:0:
109,192,150649,128,0,150694:0:0:0:0:
329,192,150694,128,0,150739:0:0:0:0:
182,192,150739,128,0,150785:0:0:0:0:
36,192,150785,128,0,150853:0:0:0:0:
256,192,150785,128,0,150853:0:0:0:0:
402,192,150785,128,0,150853:0:0:0:0:
475,192,150921,128,0,150967:0:0:0:0:
36,192,150921,128,0,150967:0:0:0:0:
182,192,150921,128,0,150967:0:0:0:0:
256,192,150967,128,0,151012:0:0:0:0:
329,192,151012,128,0,151058:0:0:0:0:
109,192,151012,128,0,151058:0:0:0:0:
402,192,151058,128,0,151103:0:0:0:0:
182,192,151103,128,0,151149:0:0:0:0:
329,192,151149,128,0,151194:0:0:0:0:
475,192,151194,128,0,151262:0:0:0:0:
109,192,151194,128,0,151262:0:0:0:0:
256,192,151194,128,0,151262:0:0:0:0:
36,192,151330,128,0,151376:0:0:0:0:
475,192,151330,128,0,151376:0:0:0:0:
329,192,151330,128,0,151376:0:0:0:0:
256,192,151376,128,0,151421:0:0:0:0:
402,192,151421,128,0,151467:0:0:0:0:
182,192,151421,128,0,151467:0:0:0:0:
109,192,151467,128,0,151512:0:0:0:0:
329,192,151512,128,0,151558:0:0:0:0:
182,192,151558,128,0,151603:0:0:0:0:
36,192,151603,128,0,151671:0:0:0:0:
256,192,151603,128,0,151671:0:0:0:0:
402,192,151603,128,0,151671:0:0:0:0:
475,192,151739,128,0,151785:0:0:0:0:
36,192,151739,128,0,151785:0:0:0:0:
182,192,151739,128,0,151785:0:0:0:0:
256,192,151785,128,0,151830:0:0:0:0:
329,192,151830,128,0,151876:0:0:0:0:
109,192,151830,128,0,151876:0:0:0:0:
402,192,151876,128,0,151921:0:0:0:0:
182,192,151921,128,0,151967:0:0:0:0:
329,192,151967,128,0,152012:0:0:0:0:
475,192,152012,128,0,152080:0:0:0:0:
109,192,152012,128,0,152080:0:0:0:0:
256,192,152012,128,0,152080:0:0:0:0:
329,192,152149,128,0,152194:0:0:0:0:
475,192,152149,128,0,152194:0:0:0:0:
36,192,152149,128,0,152194:0:0:0:0:
256,192,152194,128,0,152239:0:0:0:0:
182,192,152239,128,0,152285:0:0:0:0:
402,192,152239,128,0,152285:0:0:0:0:
109,192,152285,128,0,152330:0:0:0:0:
329,192,152330,128,0,152376:0:0:0:0:
182,192,152376,128,0,152421:0:0:0:0:
475,192,152421,128,0,152467:0:0:0:0:
36,192,152421,128,0,152467:0:0:0:0:
256,192,152421,128,0,152467:0:0:0:0:
109,192,152467,128,0,152512:0:0:0:0:
329,192,152467,128,0,152512:0:0:0:0:
402,192,152512,128,0,152558:0:0:0:0:
182,192,152558,128,0,152603:0:0:0:0:
36,192,152558,128,0,152603:0:0:0:0:
475,192,152558,128,0,152603:0:0:0:0:
182,192,152694,128,0,152762:0:0:0:0:
109,192,152694,128,0,152808:0:0:0:0:
402,192,152694,128,0,152739:0:0:0:0:
475,192,152694,128,0,152739:0:0:0:0:
36,192,152694,128,0,152853:0:0:0:0:
329,192,152739,128,0,152853:0:0:0:0:
256,192,152785,128,0,152899:0:0:0:0:
182,192,152830,128,0,152933:0:0:0:0:
109,192,152876,128,0,152944:0:0:0:0:
36,192,152921,128,0,152967:0:0:0:0:
256,192,152967,1,0,0:0:0:0:
329,192,153103,128,0,153171:0:0:0:0:
402,192,153103,128,0,153217:0:0:0:0:
109,192,153103,128,0,153149:0:0:0:0:
475,192,153103,128,0,153262:0:0:0:0:
36,192,153103,128,0,153149:0:0:0:0:
182,192,153149,128,0,153262:0:0:0:0:
256,192,153194,128,0,153308:0:0:0:0:
329,192,153239,128,0,153342:0:0:0:0:
402,192,153285,128,0,153353:0:0:0:0:
475,192,153330,128,0,153376:0:0:0:0:
256,192,153376,1,0,0:0:0:0:
182,192,153512,128,0,153580:0:0:0:0:
109,192,153512,128,0,153626:0:0:0:0:
402,192,153512,128,0,153558:0:0:0:0:
475,192,153512,128,0,153558:0:0:0:0:
36,192,153512,128,0,153671:0:0:0:0:
329,192,153558,128,0,153671:0:0:0:0:
256,192,153603,128,0,153717:0:0:0:0:
182,192,153649,128,0,153751:0:0:0:0:
109,192,153694,128,0,153762:0:0:0:0:
36,192,153739,128,0,153785:0:0:0:0:
256,192,153785,1,0,0:0:0:0:
329,192,153921,128,0,153989:0:0:0:0:
402,192,153921,128,0,154035:0:0:0:0:
109,192,153921,128,0,153967:0:0:0:0:
475,192,153921,128,0,154080:0:0:0:0:
36,192,153921,128,0,153967:0:0:0:0:
182,192,153967,128,0,154080:0:0:0:0:
256,192,154012,128,0,154126:0:0:0:0:
329,192,154058,128,0,154160:0:0:0:0:
402,192,154103,128,0,154171:0:0:0:0:
475,192,154149,128,0,154194:0:0:0:0:
256,192,154194,1,0,0:0:0:0:
36,192,154330,1,0,0:0:0:0:
109,192,154330,1,0,0:0:0:0:
475,192,154330,1,0,0:0:0:0:
402,192,154330,1,0,0:0:0:0:
109,192,154421,1,0,0:0:0:0:
182,192,154421,1,0,0:0:0:0:
402,192,154421,1,0,0:0:0:0:
329,192,154421,1,0,0:0:0:0:
182,192,154512,1,0,0:0:0:0:
256,192,154512,1,0,0:0:0:0:
329,192,154512,1,0,0:0:0:0:
256,192,154603,1,0,0:0:0:0:
329,192,154694,1,0,0:0:0:0:
256,192,154694,1,0,0:0:0:0:
182,192,154694,1,0,0:0:0:0:
329,192,154785,1,0,0:0:0:0:
402,192,154785,1,0,0:0:0:0:
182,192,154785,1,0,0:0:0:0:
109,192,154785,1,0,0:0:0:0:
402,192,154876,1,0,0:0:0:0:
475,192,154876,1,0,0:0:0:0:
36,192,154876,1,0,0:0:0:0:
109,192,154876,1,0,0:0:0:0:
256,192,154876,128,0,154967:0:0:0:0:
329,192,154921,1,0,0:0:0:0:
182,192,154967,128,0,155058:0:0:0:0:
256,192,155012,1,0,0:0:0:0:
109,192,155058,128,0,155149:0:0:0:0:
182,192,155103,1,0,0:0:0:0:
36,192,155149,128,0,155239:0:0:0:0:
329,192,155149,128,0,155239:0:0:0:0:
475,192,155149,1,0,0:0:0:0:
109,192,155194,1,0,0:0:0:0:
402,192,155194,1,0,0:0:0:0:
256,192,155239,128,0,155330:0:0:0:0:
329,192,155285,1,0,0:0:0:0:
36,192,155285,1,0,0:0:0:0:
182,192,155330,128,0,155421:0:0:0:0:
256,192,155376,1,0,0:0:0:0:
109,192,155421,128,0,155512:0:0:0:0:
402,192,155421,128,0,155512:0:0:0:0:
36,192,155421,1,0,0:0:0:0:
182,192,155467,1,0,0:0:0:0:
475,192,155467,1,0,0:0:0:0:
329,192,155512,128,0,155603:0:0:0:0:
402,192,155558,1,0,0:0:0:0:
109,192,155558,1,0,0:0:0:0:
256,192,155603,128,0,155694:0:0:0:0:
329,192,155649,1,0,0:0:0:0:
182,192,155694,128,0,155785:0:0:0:0:
109,192,155694,1,0,0:0:0:0:
36,192,155694,1,0,0:0:0:0:
475,192,155694,1,0,0:0:0:0:
402,192,155694,1,0,0:0:0:0:
256,192,155739,1,0,0:0:0:0:
36,192,155785,128,0,155876:0:0:0:0:
182,192,155830,128,0,155921:0:0:0:0:
109,192,155830,1,0,0:0:0:0:
256,192,155876,1,0,0:0:0:0:
329,192,155876,128,0,155967:0:0:0:0:
402,192,155921,1,0,0:0:0:0:
475,192,155921,128,0,156012:0:0:0:0:
256,192,155967,128,0,156058:0:0:0:0:
109,192,155967,1,0,0:0:0:0:
36,192,155967,1,0,0:0:0:0:
182,192,156012,1,0,0:0:0:0:
329,192,156058,128,0,156149:0:0:0:0:
256,192,156103,1,0,0:0:0:0:
402,192,156149,128,0,156239:0:0:0:0:
329,192,156194,1,0,0:0:0:0:
36,192,156239,1,0,0:0:0:0:
182,192,156239,128,0,156330:0:0:0:0:
475,192,156239,128,0,156330:0:0:0:0:
109,192,156285,1,0,0:0:0:0:
402,192,156285,1,0,0:0:0:0:
256,192,156330,128,0,156421:0:0:0:0:
475,192,156376,1,0,0:0:0:0:
182,192,156376,1,0,0:0:0:0:
329,192,156421,128,0,156512:0:0:0:0:
256,192,156467,1,0,0:0:0:0:
109,192,156512,128,0,156603:0:0:0:0:
402,192,156512,128,0,156603:0:0:0:0:
475,192,156512,128,0,156694:0:0:0:0:
36,192,156558,1,0,0:0:0:0:
329,192,156558,1,0,0:0:0:0:
182,192,156603,128,0,156694:0:0:0:0:
109,192,156649,1,0,0:0:0:0:
256,192,156694,128,0,156785:0:0:0:0:
182,192,156739,1,0,0:0:0:0:
475,192,156785,1,0,0:0:0:0:
329,192,156785,128,0,156876:0:0:0:0:
402,192,156785,1,0,0:0:0:0:
109,192,156785,128,0,156876:0:0:0:0:
36,192,156785,128,0,156967:0:0:0:0:
256,192,156830,1,0,0:0:0:0:
475,192,156876,128,0,156967:0:0:0:0:
402,192,156921,1,0,0:0:0:0:
329,192,156921,128,0,157012:0:0:0:0:
182,192,156967,128,0,157058:0:0:0:0:
256,192,156967,1,0,0:0:0:0:
109,192,157012,1,0,0:0:0:0:
36,192,157012,128,0,157103:0:0:0:0:
475,192,157058,128,0,157262:0:0:0:0:
402,192,157058,128,0,157126:0:0:0:0:
329,192,157058,1,0,0:0:0:0:
256,192,157126,128,0,157194:0:0:0:0:
182,192,157126,1,0,0:0:0:0:
329,192,157194,128,0,157467:0:0:0:0:
36,192,157194,1,0,0:0:0:0:
109,192,157262,128,0,157330:0:0:0:0:
182,192,157262,1,0,0:0:0:0:
475,192,157330,128,0,157603:0:0:0:0:
402,192,157330,128,0,157399:0:0:0:0:
256,192,157330,1,0,0:0:0:0:
36,192,157399,128,0,157467:0:0:0:0:
109,192,157399,1,0,0:0:0:0:
182,192,157467,128,0,157535:0:0:0:0:
402,192,157467,1,0,0:0:0:0:
256,192,157535,128,0,157876:0:0:0:0:
329,192,157535,1,0,0:0:0:0:
109,192,157603,128,0,157671:0:0:0:0:
36,192,157603,1,0,0:0:0:0:
329,192,157671,128,0,157739:0:0:0:0:
182,192,157671,1,0,0:0:0:0:
402,192,157739,128,0,158421:0:0:0:0:
475,192,157739,128,0,157808:0:0:0:0:
109,192,157739,1,0,0:0:0:0:
36,192,157808,128,0,157876:0:0:0:0:
329,192,157808,1,0,0:0:0:0:
182,192,157876,128,0,157944:0:0:0:0:
109,192,157876,1,0,0:0:0:0:
329,192,157944,128,0,158012:0:0:0:0:
475,192,157944,1,0,0:0:0:0:
109,192,158012,128,0,158080:0:0:0:0:
182,192,158012,1,0,0:0:0:0:
256,192,158080,128,0,158149:0:0:0:0:
329,192,158080,1,0,0:0:0:0:
475,192,158149,128,0,158217:0:0:0:0:
36,192,158149,1,0,0:0:0:0:
109,192,158217,128,0,158285:0:0:0:0:
329,192,158217,1,0,0:0:0:0:
182,192,158285,128,0,158353:0:0:0:0:
36,192,158285,1,0,0:0:0:0:
475,192,158353,128,0,158421:0:0:0:0:
329,192,158353,1,0,0:0:0:0:
256,192,158421,128,0,158558:0:0:0:0:
109,192,158421,128,0,158489:0:0:0:0:
182,192,158421,1,0,0:0:0:0:
36,192,158489,1,0,0:0:0:0:
402,192,158489,128,0,158558:0:0:0:0:
475,192,158489,1,0,0:0:0:0:
109,192,158558,128,0,158694:0:0:0:0:
329,192,158558,128,0,158626:0:0:0:0:
182,192,158626,128,0,158694:0:0:0:0:
402,192,158626,1,0,0:0:0:0:
329,192,158694,128,0,158830:0:0:0:0:
256,192,158694,1,0,0:0:0:0:
36,192,158694,128,0,158762:0:0:0:0:
109,192,158762,1,0,0:0:0:0:
475,192,158762,128,0,158830:0:0:0:0:
182,192,158830,128,0,158967:0:0:0:0:
402,192,158830,1,0,0:0:0:0:
256,192,158830,128,0,158899:0:0:0:0:
109,192,158899,1,0,0:0:0:0:
36,192,158967,128,0,159103:0:0:0:0:
329,192,158967,128,0,159035:0:0:0:0:
402,192,158967,1,0,0:0:0:0:
256,192,159035,1,0,0:0:0:0:
402,192,159103,128,0,159239:0:0:0:0:
182,192,159103,128,0,159171:0:0:0:0:
475,192,159103,1,0,0:0:0:0:
109,192,159171,1,0,0:0:0:0:
329,192,159171,128,0,159239:0:0:0:0:
256,192,159239,1,0,0:0:0:0:
36,192,159239,128,0,159308:0:0:0:0:
182,192,159239,128,0,159512:0:0:0:0:
475,192,159308,128,0,159376:0:0:0:0:
256,192,159308,128,0,159444:0:0:0:0:
36,192,159376,128,0,159444:0:0:0:0:
329,192,159376,128,0,159410:0:0:0:0:
475,192,159444,128,0,159512:0:0:0:0:
109,192,159444,128,0,159478:0:0:0:0:
256,192,159512,128,0,159580:0:0:0:0:
36,192,159512,1,0,0:0:0:0:
329,192,159512,128,0,159785:0:0:0:0:
402,192,159580,128,0,159649:0:0:0:0:
109,192,159580,128,0,159614:0:0:0:0:
256,192,159649,128,0,159717:0:0:0:0:
402,192,159717,128,0,159785:0:0:0:0:
182,192,159717,128,0,159751:0:0:0:0:
109,192,159785,128,0,159853:0:0:0:0:
475,192,159785,1,0,0:0:0:0:
36,192,159785,128,0,160058:0:0:0:0:
329,192,159853,128,0,159921:0:0:0:0:
109,192,159921,128,0,159989:0:0:0:0:
256,192,159921,128,0,159955:0:0:0:0:
329,192,159989,128,0,160058:0:0:0:0:
475,192,159989,128,0,160024:0:0:0:0:
182,192,160058,128,0,160126:0:0:0:0:
402,192,160058,128,0,160330:0:0:0:0:
109,192,160058,1,0,0:0:0:0:
36,192,160126,128,0,160194:0:0:0:0:
256,192,160126,128,0,160160:0:0:0:0:
182,192,160194,128,0,160262:0:0:0:0:
109,192,160194,128,0,160228:0:0:0:0:
36,192,160262,128,0,160330:0:0:0:0:
329,192,160330,128,0,160399:0:0:0:0:
256,192,160330,128,0,160535:0:0:0:0:
109,192,160330,1,0,0:0:0:0:
475,192,160399,128,0,160467:0:0:0:0:
182,192,160399,128,0,160433:0:0:0:0:
329,192,160467,128,0,160535:0:0:0:0:
109,192,160467,128,0,160501:0:0:0:0:
475,192,160535,128,0,160603:0:0:0:0:
36,192,160535,128,0,160569:0:0:0:0:
256,192,160603,128,0,160671:0:0:0:0:
182,192,160603,128,0,160808:0:0:0:0:
109,192,160603,128,0,160671:0:0:0:0:
402,192,160603,1,0,0:0:0:0:
329,192,160671,128,0,160739:0:0:0:0:
36,192,160671,128,0,160739:0:0:0:0:
402,192,160739,128,0,160808:0:0:0:0:
109,192,160739,128,0,160774:0:0:0:0:
475,192,160808,128,0,160876:0:0:0:0:
36,192,160808,128,0,160842:0:0:0:0:
256,192,160876,128,0,160944:0:0:0:0:
109,192,160876,128,0,161080:0:0:0:0:
182,192,160876,128,0,160944:0:0:0:0:
402,192,160876,1,0,0:0:0:0:
329,192,160944,128,0,161012:0:0:0:0:
36,192,160944,128,0,161012:0:0:0:0:
402,192,161012,128,0,161080:0:0:0:0:
182,192,161012,128,0,161046:0:0:0:0:
475,192,161012,1,0,0:0:0:0:
329,192,161080,128,0,161149:0:0:0:0:
36,192,161080,128,0,161114:0:0:0:0:
256,192,161149,128,0,161217:0:0:0:0:
475,192,161149,128,0,161353:0:0:0:0:
402,192,161149,128,0,161183:0:0:0:0:
109,192,161149,1,0,0:0:0:0:
182,192,161217,128,0,161285:0:0:0:0:
329,192,161217,128,0,161251:0:0:0:0:
109,192,161285,128,0,161353:0:0:0:0:
256,192,161285,128,0,161319:0:0:0:0:
36,192,161285,128,0,161421:0:0:0:0:
182,192,161353,128,0,161421:0:0:0:0:
329,192,161353,128,0,161387:0:0:0:0:
256,192,161421,128,0,161489:0:0:0:0:
402,192,161421,128,0,161455:0:0:0:0:
475,192,161421,128,0,161489:0:0:0:0:
109,192,161421,128,0,161524:0:0:0:0:
329,192,161489,128,0,161558:0:0:0:0:
182,192,161558,128,0,161626:0:0:0:0:
475,192,161558,128,0,161626:0:0:0:0:
109,192,161558,1,0,0:0:0:0:
36,192,161558,128,0,161660:0:0:0:0:
402,192,161558,128,0,161626:0:0:0:0:
256,192,161626,128,0,161694:0:0:0:0:
109,192,161694,128,0,161762:0:0:0:0:
475,192,161694,128,0,161830:0:0:0:0:
36,192,161694,1,0,0:0:0:0:
402,192,161694,128,0,161796:0:0:0:0:
329,192,161694,128,0,161762:0:0:0:0:
182,192,161762,128,0,161830:0:0:0:0:
36,192,161830,128,0,161899:0:0:0:0:
402,192,161830,1,0,0:0:0:0:
329,192,161830,128,0,161933:0:0:0:0:
256,192,161830,128,0,161899:0:0:0:0:
109,192,161899,128,0,161967:0:0:0:0:
329,192,161967,128,0,162035:0:0:0:0:
256,192,161967,1,0,0:0:0:0:
182,192,161967,128,0,162069:0:0:0:0:
402,192,162035,128,0,162103:0:0:0:0:
475,192,162035,128,0,162171:0:0:0:0:
256,192,162103,128,0,162171:0:0:0:0:
182,192,162103,1,0,0:0:0:0:
109,192,162103,128,0,162205:0:0:0:0:
329,192,162171,128,0,162239:0:0:0:0:
402,192,162171,128,0,162308:0:0:0:0:
182,192,162239,128,0,162308:0:0:0:0:
109,192,162239,1,0,0:0:0:0:
36,192,162239,128,0,162342:0:0:0:0:
256,192,162308,128,0,162376:0:0:0:0:
329,192,162308,128,0,162444:0:0:0:0:
109,192,162376,128,0,162444:0:0:0:0:
36,192,162376,1,0,0:0:0:0:
475,192,162376,128,0,162478:0:0:0:0:
182,192,162444,128,0,162512:0:0:0:0:
256,192,162444,128,0,162512:0:0:0:0:
475,192,162512,1,0,0:0:0:0:
402,192,162535,1,0,0:0:0:0:
329,192,162558,1,0,0:0:0:0:
256,192,162580,1,0,0:0:0:0:
182,192,162603,1,0,0:0:0:0:
109,192,162626,1,0,0:0:0:0:
36,192,162649,1,0,0:0:0:0:
475,192,162649,128,0,162785:0:0:0:0:
402,192,162649,1,0,0:0:0:0:
329,192,162717,128,0,162785:0:0:0:0:
256,192,162785,128,0,162921:0:0:0:0:
182,192,162785,1,0,0:0:0:0:
36,192,162785,1,0,0:0:0:0:
109,192,162853,128,0,162921:0:0:0:0:
402,192,162921,128,0,162989:0:0:0:0:
475,192,162921,128,0,162989:0:0:0:0:
329,192,162921,1,0,0:0:0:0:
182,192,162989,128,0,163058:0:0:0:0:
36,192,162989,128,0,163058:0:0:0:0:
329,192,163058,128,0,163126:0:0:0:0:
402,192,163058,128,0,163126:0:0:0:0:
475,192,163058,1,0,0:0:0:0:
109,192,163126,128,0,163194:0:0:0:0:
256,192,163126,128,0,163194:0:0:0:0:
36,192,163194,128,0,163330:0:0:0:0:
402,192,163194,1,0,0:0:0:0:
475,192,163194,128,0,163330:0:0:0:0:
182,192,163194,1,0,0:0:0:0:
109,192,163262,128,0,163330:0:0:0:0:
329,192,163262,128,0,163330:0:0:0:0:
182,192,163330,128,0,163467:0:0:0:0:
402,192,163330,128,0,163467:0:0:0:0:
256,192,163330,1,0,0:0:0:0:
256,192,163399,128,0,163467:0:0:0:0:
475,192,163399,128,0,163467:0:0:0:0:
329,192,163467,1,0,0:0:0:0:
36,192,163467,128,0,163603:0:0:0:0:
182,192,163535,128,0,163603:0:0:0:0:
109,192,163535,128,0,163603:0:0:0:0:
402,192,163535,128,0,163603:0:0:0:0:
329,192,163603,128,0,165239:0:0:0:0:
475,192,163603,128,0,165239:0:0:0:0:
256,192,163603,128,0,163671:0:0:0:0:
256,192,163739,128,0,163808:0:0:0:0:
182,192,163739,128,0,163808:0:0:0:0:
256,192,163876,128,0,163944:0:0:0:0:
109,192,163876,128,0,163944:0:0:0:0:
182,192,163876,128,0,163944:0:0:0:0:
36,192,164012,128,0,164080:0:0:0:0:
109,192,164012,128,0,164080:0:0:0:0:
182,192,164012,128,0,164080:0:0:0:0:
256,192,164012,128,0,164080:0:0:0:0:
109,192,164149,128,0,164217:0:0:0:0:
182,192,164149,128,0,164217:0:0:0:0:
256,192,164149,128,0,164217:0:0:0:0:
182,192,164285,128,0,164353:0:0:0:0:
256,192,164285,128,0,164353:0:0:0:0:
256,192,164421,128,0,164489:0:0:0:0:
402,192,164489,128,0,164558:0:0:0:0:
256,192,164558,128,0,164626:0:0:0:0:
402,192,164626,128,0,164694:0:0:0:0:
256,192,164694,128,0,165239:0:0:0:0:
109,192,164762,128,0,164830:0:0:0:0:
402,192,164830,128,0,164899:0:0:0:0:
109,192,164899,128,0,164967:0:0:0:0:
402,192,164967,128,0,165035:0:0:0:0:
182,192,165035,128,0,165103:0:0:0:0:
402,192,165103,128,0,165171:0:0:0:0:
109,192,165171,128,0,165239:0:0:0:0:
36,192,165239,128,0,165274:0:0:0:0:
182,192,165239,128,0,165274:0:0:0:0:
402,192,165274,128,0,165308:0:0:0:0:
109,192,165308,128,0,165342:0:0:0:0:
256,192,165308,128,0,165342:0:0:0:0:
475,192,165342,128,0,165376:0:0:0:0:
182,192,165376,128,0,165410:0:0:0:0:
329,192,165376,128,0,165410:0:0:0:0:
36,192,165410,128,0,165444:0:0:0:0:
256,192,165444,128,0,165478:0:0:0:0:
402,192,165444,128,0,165478:0:0:0:0:
109,192,165478,128,0,165512:0:0:0:0:
329,192,165512,128,0,165546:0:0:0:0:
475,192,165512,128,0,165546:0:0:0:0:
182,192,165546,128,0,165580:0:0:0:0:
256,192,165580,128,0,165614:0:0:0:0:
402,192,165580,128,0,165614:0:0:0:0:
36,192,165614,128,0,165649:0:0:0:0:
109,192,165649,128,0,165683:0:0:0:0:
329,192,165649,128,0,165683:0:0:0:0:
475,192,165683,128,0,165717:0:0:0:0:
182,192,165717,128,0,165751:0:0:0:0:
402,192,165717,128,0,165751:0:0:0:0:
36,192,165751,128,0,165785:0:0:0:0:
329,192,165785,128,0,165819:0:0:0:0:
109,192,165785,128,0,165819:0:0:0:0:
256,192,165819,128,0,165853:0:0:0:0:
36,192,165853,128,0,165887:0:0:0:0:
475,192,165853,128,0,165887:0:0:0:0:
402,192,165887,128,0,165921:0:0:0:0:
329,192,165921,128,0,165955:0:0:0:0:
182,192,165921,128,0,165955:0:0:0:0:
36,192,165955,128,0,165989:0:0:0:0:
256,192,165989,128,0,166024:0:0:0:0:
109,192,165989,128,0,166024:0:0:0:0:
475,192,166024,128,0,166058:0:0:0:0:
182,192,166058,128,0,166092:0:0:0:0:
36,192,166058,128,0,166092:0:0:0:0:
402,192,166092,128,0,166126:0:0:0:0:
109,192,166126,128,0,166160:0:0:0:0:
256,192,166126,128,0,166160:0:0:0:0:
329,192,166160,128,0,166194:0:0:0:0:
182,192,166194,128,0,166228:0:0:0:0:
36,192,166194,128,0,166228:0:0:0:0:
402,192,166228,128,0,166262:0:0:0:0:
256,192,166262,128,0,166296:0:0:0:0:
109,192,166262,128,0,166296:0:0:0:0:
475,192,166296,128,0,166330:0:0:0:0:
182,192,166330,128,0,166364:0:0:0:0:
329,192,166330,128,0,166364:0:0:0:0:
36,192,166364,128,0,166399:0:0:0:0:
256,192,166399,128,0,166433:0:0:0:0:
402,192,166399,128,0,166433:0:0:0:0:
109,192,166433,128,0,166467:0:0:0:0:
329,192,166467,128,0,166501:0:0:0:0:
475,192,166467,128,0,166501:0:0:0:0:
182,192,166501,128,0,166535:0:0:0:0:
402,192,166535,128,0,166569:0:0:0:0:
256,192,166535,128,0,166569:0:0:0:0:
109,192,166569,128,0,166603:0:0:0:0:
329,192,166603,128,0,166637:0:0:0:0:
475,192,166603,128,0,166637:0:0:0:0:
36,192,166637,128,0,166671:0:0:0:0:
256,192,166671,128,0,166705:0:0:0:0:
402,192,166671,128,0,166705:0:0:0:0:
182,192,166705,128,0,166739:0:0:0:0:
329,192,166739,128,0,166774:0:0:0:0:
475,192,166739,128,0,166774:0:0:0:0:
109,192,166774,128,0,166808:0:0:0:0:
256,192,166808,128,0,166842:0:0:0:0:
402,192,166808,128,0,166842:0:0:0:0:
36,192,166842,128,0,166876:0:0:0:0:
329,192,166876,128,0,166910:0:0:0:0:
182,192,166876,128,0,166910:0:0:0:0:
475,192,166910,128,0,166944:0:0:0:0:
256,192,166944,128,0,166978:0:0:0:0:
109,192,166944,128,0,166978:0:0:0:0:
402,192,166978,128,0,167012:0:0:0:0:
182,192,167012,128,0,167046:0:0:0:0:
36,192,167012,128,0,167046:0:0:0:0:
329,192,167046,128,0,167080:0:0:0:0:
256,192,167080,128,0,167114:0:0:0:0:
109,192,167080,128,0,167114:0:0:0:0:
402,192,167114,128,0,167149:0:0:0:0:
36,192,167149,128,0,167183:0:0:0:0:
182,192,167149,128,0,167183:0:0:0:0:
475,192,167183,128,0,167217:0:0:0:0:
329,192,167217,128,0,167251:0:0:0:0:
256,192,167217,128,0,167251:0:0:0:0:
109,192,167251,128,0,167285:0:0:0:0:
402,192,167285,128,0,167319:0:0:0:0:
475,192,167285,128,0,167319:0:0:0:0:
182,192,167319,128,0,167353:0:0:0:0:
109,192,167353,128,0,167387:0:0:0:0:
36,192,167353,128,0,167387:0:0:0:0:
256,192,167387,128,0,167421:0:0:0:0:
475,192,167421,128,0,167455:0:0:0:0:
402,192,167421,128,0,167455:0:0:0:0:
329,192,167455,128,0,167489:0:0:0:0:
182,192,167489,128,0,167524:0:0:0:0:
109,192,167489,128,0,167524:0:0:0:0:
36,192,167524,128,0,167558:0:0:0:0:
256,192,167558,128,0,167592:0:0:0:0:
402,192,167558,128,0,167592:0:0:0:0:
109,192,167592,128,0,167626:0:0:0:0:
329,192,167626,128,0,167660:0:0:0:0:
475,192,167626,128,0,167660:0:0:0:0:
182,192,167660,128,0,167694:0:0:0:0:
36,192,167694,128,0,167728:0:0:0:0:
109,192,167694,128,0,167728:0:0:0:0:
475,192,167728,128,0,167762:0:0:0:0:
402,192,167762,128,0,167796:0:0:0:0:
329,192,167762,128,0,167796:0:0:0:0:
182,192,167796,128,0,167830:0:0:0:0:
109,192,167830,128,0,167864:0:0:0:0:
36,192,167830,128,0,167864:0:0:0:0:
329,192,167864,128,0,167899:0:0:0:0:
475,192,167899,128,0,167933:0:0:0:0:
402,192,167899,128,0,167933:0:0:0:0:
256,192,167933,128,0,168001:0:0:0:0:
36,192,167967,128,0,168035:0:0:0:0:
182,192,167967,128,0,168035:0:0:0:0:
109,192,168001,128,0,168069:0:0:0:0:
402,192,168001,128,0,168069:0:0:0:0:
329,192,168035,128,0,168103:0:0:0:0:
256,192,168069,128,0,168137:0:0:0:0:
475,192,168069,128,0,168137:0:0:0:0:
36,192,168103,128,0,168171:0:0:0:0:
182,192,168103,128,0,168171:0:0:0:0:
402,192,168137,128,0,168205:0:0:0:0:
109,192,168137,128,0,168205:0:0:0:0:
329,192,168171,128,0,168239:0:0:0:0:
256,192,168205,128,0,168274:0:0:0:0:
475,192,168205,128,0,168274:0:0:0:0:
182,192,168239,128,0,168308:0:0:0:0:
36,192,168239,128,0,168308:0:0:0:0:
109,192,168274,128,0,168342:0:0:0:0:
402,192,168274,128,0,168342:0:0:0:0:
329,192,168308,128,0,168376:0:0:0:0:
475,192,168342,128,0,168410:0:0:0:0:
256,192,168342,128,0,168410:0:0:0:0:
36,192,168376,128,0,168444:0:0:0:0:
182,192,168376,128,0,168444:0:0:0:0:
402,192,168410,128,0,168478:0:0:0:0:
109,192,168410,128,0,168478:0:0:0:0:
329,192,168444,128,0,168512:0:0:0:0:
256,192,168478,128,0,168546:0:0:0:0:
475,192,168478,128,0,168546:0:0:0:0:
36,192,168512,128,0,168580:0:0:0:0:
109,192,168512,128,0,168580:0:0:0:0:
182,192,168546,128,0,168614:0:0:0:0:
329,192,168580,128,0,168649:0:0:0:0:
475,192,168580,128,0,168649:0:0:0:0:
402,192,168614,128,0,168683:0:0:0:0:
256,192,168614,128,0,168683:0:0:0:0:
36,192,168649,128,0,168683:0:0:0:0:
109,192,168649,128,0,168717:0:0:0:0:
182,192,168683,128,0,168751:0:0:0:0:
475,192,168717,128,0,168785:0:0:0:0:
329,192,168717,128,0,168785:0:0:0:0:
402,192,168751,128,0,168819:0:0:0:0:
256,192,168751,128,0,168819:0:0:0:0:
109,192,168785,128,0,168853:0:0:0:0:
36,192,168785,128,0,168819:0:0:0:0:
182,192,168819,128,0,168887:0:0:0:0:
329,192,168853,128,0,168921:0:0:0:0:
475,192,168853,128,0,168921:0:0:0:0:
256,192,168887,128,0,168955:0:0:0:0:
402,192,168887,128,0,168955:0:0:0:0:
36,192,168921,128,0,168955:0:0:0:0:
109,192,168921,128,0,168989:0:0:0:0:
182,192,168955,128,0,169024:0:0:0:0:
475,192,168989,128,0,169058:0:0:0:0:
329,192,168989,128,0,169058:0:0:0:0:
402,192,169024,128,0,169058:0:0:0:0:
256,192,169024,128,0,169058:0:0:0:0:
36,192,169058,128,0,169126:0:0:0:0:
109,192,169092,128,0,169160:0:0:0:0:
182,192,169126,128,0,169194:0:0:0:0:
256,192,169126,128,0,169194:0:0:0:0:
475,192,169126,128,0,169194:0:0:0:0:
402,192,169160,128,0,169228:0:0:0:0:
329,192,169194,128,0,169228:0:0:0:0:
36,192,169194,128,0,169262:0:0:0:0:
109,192,169228,128,0,169296:0:0:0:0:
256,192,169262,128,0,169330:0:0:0:0:
182,192,169262,128,0,169330:0:0:0:0:
475,192,169262,128,0,169330:0:0:0:0:
402,192,169296,128,0,169364:0:0:0:0:
329,192,169330,128,0,169364:0:0:0:0:
36,192,169330,128,0,169399:0:0:0:0:
109,192,169364,128,0,169433:0:0:0:0:
475,192,169399,128,0,169467:0:0:0:0:
182,192,169399,128,0,169467:0:0:0:0:
256,192,169399,128,0,169467:0:0:0:0:
402,192,169433,128,0,169501:0:0:0:0:
329,192,169467,128,0,169501:0:0:0:0:
36,192,169467,128,0,169535:0:0:0:0:
109,192,169501,128,0,169569:0:0:0:0:
256,192,169535,128,0,169603:0:0:0:0:
182,192,169535,128,0,169603:0:0:0:0:
475,192,169535,128,0,169603:0:0:0:0:
402,192,169569,128,0,169637:0:0:0:0:
329,192,169603,128,0,169637:0:0:0:0:
36,192,169603,128,0,169671:0:0:0:0:
109,192,169603,128,0,169637:0:0:0:0:
475,192,169637,128,0,169705:0:0:0:0:
256,192,169671,128,0,169739:0:0:0:0:
182,192,169705,128,0,169774:0:0:0:0:
402,192,169705,128,0,169774:0:0:0:0:
109,192,169739,128,0,169774:0:0:0:0:
36,192,169739,128,0,169808:0:0:0:0:
329,192,169739,128,0,169774:0:0:0:0:
475,192,169774,128,0,169842:0:0:0:0:
256,192,169808,128,0,169876:0:0:0:0:
182,192,169842,128,0,169910:0:0:0:0:
402,192,169842,128,0,169910:0:0:0:0:
109,192,169876,128,0,169910:0:0:0:0:
36,192,169876,128,0,169944:0:0:0:0:
329,192,169876,128,0,169910:0:0:0:0:
475,192,169910,128,0,169978:0:0:0:0:
256,192,169944,128,0,170012:0:0:0:0:
182,192,169978,128,0,170046:0:0:0:0:
402,192,169978,128,0,170046:0:0:0:0:
36,192,170012,128,0,170080:0:0:0:0:
329,192,170012,128,0,170046:0:0:0:0:
109,192,170012,128,0,170046:0:0:0:0:
475,192,170046,128,0,170114:0:0:0:0:
256,192,170080,128,0,170114:0:0:0:0:
182,192,170114,128,0,170149:0:0:0:0:
402,192,170114,128,0,170183:0:0:0:0:
36,192,170149,128,0,170217:0:0:0:0:
329,192,170149,128,0,170217:0:0:0:0:
256,192,170183,128,0,170285:0:0:0:0:
109,192,170183,128,0,170251:0:0:0:0:
475,192,170183,128,0,170251:0:0:0:0:
182,192,170217,128,0,170285:0:0:0:0:
402,192,170285,128,0,170353:0:0:0:0:
329,192,170319,128,0,170387:0:0:0:0:
36,192,170319,128,0,170387:0:0:0:0:
109,192,170353,128,0,170421:0:0:0:0:
475,192,170353,128,0,170421:0:0:0:0:
256,192,170353,128,0,170455:0:0:0:0:
182,192,170387,128,0,170455:0:0:0:0:
402,192,170421,128,0,170489:0:0:0:0:
36,192,170455,128,0,170524:0:0:0:0:
329,192,170455,128,0,170524:0:0:0:0:
256,192,170489,128,0,170592:0:0:0:0:
475,192,170489,128,0,170558:0:0:0:0:
109,192,170489,128,0,170558:0:0:0:0:
182,192,170524,128,0,170592:0:0:0:0:
402,192,170558,128,0,170626:0:0:0:0:
329,192,170592,128,0,170660:0:0:0:0:
36,192,170592,128,0,170660:0:0:0:0:
109,192,170626,128,0,170694:0:0:0:0:
256,192,170626,128,0,170728:0:0:0:0:
475,192,170626,128,0,170694:0:0:0:0:
182,192,170660,128,0,170728:0:0:0:0:
402,192,170694,128,0,170762:0:0:0:0:
329,192,170728,128,0,170762:0:0:0:0:
36,192,170762,128,0,170830:0:0:0:0:
109,192,170762,128,0,170796:0:0:0:0:
475,192,170762,128,0,170830:0:0:0:0:
256,192,170796,128,0,170864:0:0:0:0:
182,192,170830,128,0,170899:0:0:0:0:
402,192,170830,128,0,170899:0:0:0:0:
329,192,170864,128,0,170899:0:0:0:0:
475,192,170899,128,0,170967:0:0:0:0:
36,192,170899,128,0,170967:0:0:0:0:
109,192,170899,128,0,170933:0:0:0:0:
256,192,170933,128,0,171001:0:0:0:0:
182,192,170967,128,0,171035:0:0:0:0:
402,192,170967,128,0,171035:0:0:0:0:
329,192,171001,128,0,171035:0:0:0:0:
109,192,171035,128,0,171069:0:0:0:0:
36,192,171035,128,0,171103:0:0:0:0:
475,192,171035,128,0,171103:0:0:0:0:
256,192,171069,128,0,171137:0:0:0:0:
182,192,171103,128,0,171171:0:0:0:0:
402,192,171103,128,0,171171:0:0:0:0:
329,192,171137,128,0,171171:0:0:0:0:
475,192,171171,128,0,171239:0:0:0:0:
36,192,171171,128,0,171239:0:0:0:0:
109,192,171171,128,0,171205:0:0:0:0:
256,192,171205,128,0,171274:0:0:0:0:
182,192,171239,128,0,171308:0:0:0:0:
329,192,171239,128,0,171308:0:0:0:0:
402,192,171274,128,0,171342:0:0:0:0:
109,192,171274,128,0,171342:0:0:0:0:
475,192,171308,128,0,171342:0:0:0:0:
36,192,171308,128,0,171342:0:0:0:0:
256,192,171342,128,0,171410:0:0:0:0:
329,192,171376,128,0,171444:0:0:0:0:
182,192,171376,128,0,171444:0:0:0:0:
109,192,171410,128,0,171478:0:0:0:0:
402,192,171410,128,0,171478:0:0:0:0:
36,192,171444,128,0,171478:0:0:0:0:
475,192,171444,128,0,171478:0:0:0:0:
256,192,171478,128,0,171546:0:0:0:0:
182,192,171512,128,0,171580:0:0:0:0:
329,192,171512,128,0,171580:0:0:0:0:
402,192,171546,128,0,171614:0:0:0:0:
109,192,171546,128,0,171614:0:0:0:0:
475,192,171580,128,0,171614:0:0:0:0:
36,192,171580,128,0,171614:0:0:0:0:
256,192,171614,128,0,171683:0:0:0:0:
329,192,171649,128,0,171717:0:0:0:0:
182,192,171649,128,0,171717:0:0:0:0:
109,192,171683,128,0,171751:0:0:0:0:
402,192,171683,128,0,171751:0:0:0:0:
36,192,171717,128,0,171751:0:0:0:0:
475,192,171717,128,0,171751:0:0:0:0:
256,192,171785,128,0,171887:0:0:0:0:
182,192,171785,128,0,171853:0:0:0:0:
109,192,171785,128,0,171819:0:0:0:0:
36,192,171785,1,0,0:0:0:0:
475,192,171785,1,0,0:0:0:0:
402,192,171785,128,0,171819:0:0:0:0:
329,192,171785,128,0,171853:0:0:0:0:
36,192,171887,128,0,172006:0:0:0:0:
475,192,171887,128,0,172006:0:0:0:0:
402,192,171904,128,0,171989:0:0:0:0:
109,192,171921,128,0,171989:0:0:0:0:
182,192,171938,128,0,171972:0:0:0:0:
329,192,171938,128,0,171972:0:0:0:0:
256,192,171955,1,0,0:0:0:0:
256,192,172024,128,0,172126:0:0:0:0:
182,192,172041,128,0,172109:0:0:0:0:
329,192,172041,128,0,172109:0:0:0:0:
402,192,172058,128,0,172092:0:0:0:0:
109,192,172058,128,0,172092:0:0:0:0:
475,192,172075,1,0,0:0:0:0:
36,192,172075,1,0,0:0:0:0:
475,192,172143,128,0,172262:0:0:0:0:
36,192,172143,128,0,172262:0:0:0:0:
402,192,172160,128,0,172245:0:0:0:0:
109,192,172160,128,0,172245:0:0:0:0:
182,192,172177,128,0,172228:0:0:0:0:
329,192,172177,128,0,172228:0:0:0:0:
256,192,172194,1,0,0:0:0:0:
256,192,172279,128,0,172347:0:0:0:0:
182,192,172296,128,0,172347:0:0:0:0:
329,192,172296,128,0,172347:0:0:0:0:
109,192,172330,128,0,172347:0:0:0:0:
402,192,172330,128,0,172347:0:0:0:0:
36,192,172347,1,0,0:0:0:0:
475,192,172347,1,0,0:0:0:0:
182,192,172602,128,0,172670:0:0:0:0:
182,192,172739,128,0,172807:0:0:0:0:
329,192,172875,1,0,0:0:0:0:
402,192,172875,1,0,0:0:0:0:
475,192,172875,1,0,0:0:0:0:
109,192,173148,128,0,173216:0:0:0:0:
109,192,173284,128,0,173352:0:0:0:0:
182,192,173420,128,0,173489:0:0:0:0:
182,192,173557,128,0,173625:0:0:0:0:
182,192,173693,128,0,173966:0:0:0:0:
329,192,173966,1,0,0:0:0:0:
475,192,173966,1,0,0:0:0:0:
402,192,173966,1,0,0:0:0:0:
36,192,174102,128,0,174170:0:0:0:0:
109,192,174239,128,0,174307:0:0:0:0:
109,192,174375,128,0,174443:0:0:0:0:
182,192,174511,128,0,174579:0:0:0:0:
182,192,174648,128,0,174716:0:0:0:0:
182,192,174784,128,0,175057:0:0:0:0:
329,192,175057,1,0,0:0:0:0:
402,192,175057,1,0,0:0:0:0:
475,192,175057,1,0,0:0:0:0:
402,192,175329,1,0,0:0:0:0:
475,192,175329,1,0,0:0:0:0:
329,192,175329,1,0,0:0:0:0:
182,192,175329,1,0,0:0:0:0:
36,192,175329,1,0,0:0:0:0:
256,192,175397,1,0,0:0:0:0:
36,192,175465,1,0,0:0:0:0:
475,192,175465,1,0,0:0:0:0:
109,192,175465,1,0,0:0:0:0:
402,192,175465,1,0,0:0:0:0:
256,192,175533,1,0,0:0:0:0:
329,192,175601,1,0,0:0:0:0:
182,192,175601,1,0,0:0:0:0:
36,192,175601,1,0,0:0:0:0:
475,192,175601,1,0,0:0:0:0:
109,192,175601,128,0,175738:0:0:0:0:
402,192,175738,128,0,175874:0:0:0:0:
182,192,175874,128,0,176010:0:0:0:0:
329,192,176010,128,0,176147:0:0:0:0:
256,192,176010,1,0,0:0:0:0:
109,192,176147,128,0,176283:0:0:0:0:
36,192,176147,1,0,0:0:0:0:
475,192,176147,1,0,0:0:0:0:
402,192,176283,128,0,176419:0:0:0:0:
256,192,176283,1,0,0:0:0:0:
36,192,176419,128,0,176556:0:0:0:0:
182,192,176419,1,0,0:0:0:0:
329,192,176419,1,0,0:0:0:0:
475,192,176556,128,0,176692:0:0:0:0:
256,192,176556,1,0,0:0:0:0:
109,192,176692,128,0,176760:0:0:0:0:
256,192,176692,1,0,0:0:0:0:
109,192,176828,128,0,176896:0:0:0:0:
182,192,176964,128,0,177032:0:0:0:0:
256,192,176964,1,0,0:0:0:0:
182,192,177101,128,0,177169:0:0:0:0:
329,192,177237,1,0,0:0:0:0:
402,192,177237,1,0,0:0:0:0:
475,192,177237,1,0,0:0:0:0:
109,192,177510,128,0,177578:0:0:0:0:
256,192,177510,1,0,0:0:0:0:
109,192,177646,128,0,177714:0:0:0:0:
182,192,177782,128,0,177851:0:0:0:0:
256,192,177782,1,0,0:0:0:0:
182,192,177919,128,0,177987:0:0:0:0:
182,192,178055,128,0,178328:0:0:0:0:
256,192,178055,1,0,0:0:0:0:
329,192,178328,1,0,0:0:0:0:
402,192,178328,1,0,0:0:0:0:
475,192,178328,1,0,0:0:0:0:
475,192,178464,1,0,0:0:0:0:
182,192,178464,1,0,0:0:0:0:
36,192,178464,1,0,0:0:0:0:
109,192,178464,1,0,0:0:0:0:
329,192,178464,1,0,0:0:0:0:
256,192,178532,1,0,0:0:0:0:
475,192,178601,1,0,0:0:0:0:
36,192,178601,1,0,0:0:0:0:
109,192,178601,1,0,0:0:0:0:
402,192,178601,1,0,0:0:0:0:
256,192,178669,1,0,0:0:0:0:
329,192,178737,1,0,0:0:0:0:
475,192,178737,1,0,0:0:0:0:
182,192,178737,1,0,0:0:0:0:
36,192,178737,1,0,0:0:0:0:
402,192,178737,128,0,178805:0:0:0:0:
402,192,178873,128,0,178941:0:0:0:0:
256,192,178873,1,0,0:0:0:0:
329,192,179010,128,0,179078:0:0:0:0:
329,192,179146,128,0,179419:0:0:0:0:
256,192,179146,1,0,0:0:0:0:
109,192,179419,1,0,0:0:0:0:
182,192,179419,1,0,0:0:0:0:
36,192,179419,1,0,0:0:0:0:
256,192,179555,1,0,0:0:0:0:
402,192,179691,128,0,179760:0:0:0:0:
402,192,179828,128,0,179896:0:0:0:0:
402,192,179964,128,0,180101:0:0:0:0:
36,192,179964,1,0,0:0:0:0:
109,192,180101,128,0,180237:0:0:0:0:
256,192,180101,1,0,0:0:0:0:
329,192,180237,128,0,180373:0:0:0:0:
182,192,180237,1,0,0:0:0:0:
182,192,180373,128,0,180510:0:0:0:0:
402,192,180373,1,0,0:0:0:0:
402,192,180510,128,0,180646:0:0:0:0:
475,192,180510,1,0,0:0:0:0:
329,192,180555,1,0,0:0:0:0:
256,192,180601,1,0,0:0:0:0:
109,192,180646,128,0,180782:0:0:0:0:
182,192,180646,1,0,0:0:0:0:
36,192,180691,1,0,0:0:0:0:
475,192,180782,128,0,181057:0:0:0:0:
402,192,180782,1,0,0:0:0:0:
329,192,180782,1,0,0:0:0:0:
109,192,181057,128,0,181125:0:0:0:0:
256,192,181057,1,0,0:0:0:0:
402,192,181057,128,0,181534:0:0:0:0:
109,192,181193,128,0,181261:0:0:0:0:
182,192,181329,128,0,181397:0:0:0:0:
256,192,181329,1,0,0:0:0:0:
182,192,181466,128,0,181534:0:0:0:0:
329,192,181602,1,0,0:0:0:0:
475,192,181602,1,0,0:0:0:0:
402,192,181602,128,0,182420:0:0:0:0:
109,192,181738,128,0,181807:0:0:0:0:
182,192,181807,128,0,181875:0:0:0:0:
256,192,181875,1,0,0:0:0:0:
36,192,181875,128,0,181943:0:0:0:0:
109,192,182011,128,0,182079:0:0:0:0:
109,192,182147,128,0,182216:0:0:0:0:
256,192,182147,1,0,0:0:0:0:
182,192,182284,128,0,182352:0:0:0:0:
182,192,182420,128,0,182693:0:0:0:0:
256,192,182420,1,0,0:0:0:0:
36,192,182420,128,0,182829:0:0:0:0:
329,192,182693,1,0,0:0:0:0:
402,192,182693,1,0,0:0:0:0:
475,192,182693,1,0,0:0:0:0:
182,192,182829,128,0,183102:0:0:0:0:
256,192,182966,1,0,0:0:0:0:
475,192,182966,128,0,183034:0:0:0:0:
36,192,183102,128,0,183170:0:0:0:0:
475,192,183102,128,0,183170:0:0:0:0:
109,192,183238,128,0,183306:0:0:0:0:
329,192,183238,128,0,183716:0:0:0:0:
256,192,183238,1,0,0:0:0:0:
109,192,183375,128,0,183443:0:0:0:0:
182,192,183511,128,0,183784:0:0:0:0:
256,192,183511,1,0,0:0:0:0:
402,192,183784,1,0,0:0:0:0:
329,192,183784,1,0,0:0:0:0:
475,192,183784,128,0,183852:0:0:0:0:
36,192,183852,128,0,183920:0:0:0:0:
402,192,183920,128,0,183988:0:0:0:0:
109,192,183988,128,0,184056:0:0:0:0:
329,192,184056,1,0,0:0:0:0:
475,192,184056,1,0,0:0:0:0:
256,192,184056,1,0,0:0:0:0:
182,192,184056,1,0,0:0:0:0:
36,192,184124,1,0,0:0:0:0:
109,192,184192,1,0,0:0:0:0:
402,192,184192,1,0,0:0:0:0:
256,192,184192,1,0,0:0:0:0:
475,192,184260,1,0,0:0:0:0:
36,192,184328,1,0,0:0:0:0:
182,192,184328,1,0,0:0:0:0:
329,192,184328,1,0,0:0:0:0:
256,192,184328,1,0,0:0:0:0:
109,192,184328,128,0,184465:0:0:0:0:
402,192,184465,128,0,184601:0:0:0:0:
475,192,184465,1,0,0:0:0:0:
182,192,184601,128,0,184737:0:0:0:0:
256,192,184601,1,0,0:0:0:0:
329,192,184737,128,0,184874:0:0:0:0:
36,192,184737,1,0,0:0:0:0:
109,192,184874,128,0,185010:0:0:0:0:
256,192,184874,1,0,0:0:0:0:
182,192,184874,1,0,0:0:0:0:
402,192,185010,128,0,185146:0:0:0:0:
475,192,185010,1,0,0:0:0:0:
36,192,185146,128,0,185283:0:0:0:0:
109,192,185146,1,0,0:0:0:0:
256,192,185146,1,0,0:0:0:0:
475,192,185283,128,0,185419:0:0:0:0:
402,192,185283,1,0,0:0:0:0:
36,192,185419,128,0,186646:0:0:0:0:
182,192,185419,128,0,185487:0:0:0:0:
256,192,185419,1,0,0:0:0:0:
182,192,185555,128,0,185623:0:0:0:0:
329,192,185691,128,0,185759:0:0:0:0:
329,192,185828,128,0,185896:0:0:0:0:
329,192,185964,1,0,0:0:0:0:
402,192,185964,1,0,0:0:0:0:
475,192,185964,128,0,186032:0:0:0:0:
109,192,186100,128,0,186169:0:0:0:0:
475,192,186237,128,0,186305:0:0:0:0:
402,192,186237,128,0,186305:0:0:0:0:
256,192,186237,1,0,0:0:0:0:
402,192,186373,128,0,186441:0:0:0:0:
475,192,186373,128,0,186441:0:0:0:0:
329,192,186509,128,0,186578:0:0:0:0:
182,192,186509,1,0,0:0:0:0:
329,192,186646,128,0,186714:0:0:0:0:
402,192,186782,128,0,187191:0:0:0:0:
109,192,186782,1,0,0:0:0:0:
36,192,186782,128,0,186850:0:0:0:0:
475,192,186919,128,0,186987:0:0:0:0:
36,192,187055,128,0,187123:0:0:0:0:
109,192,187055,1,0,0:0:0:0:
182,192,187055,1,0,0:0:0:0:
256,192,187191,128,0,187464:0:0:0:0:
36,192,187191,1,0,0:0:0:0:
109,192,187191,1,0,0:0:0:0:
475,192,187191,1,0,0:0:0:0:
182,192,187259,1,0,0:0:0:0:
329,192,187259,1,0,0:0:0:0:
36,192,187328,1,0,0:0:0:0:
475,192,187328,1,0,0:0:0:0:
329,192,187396,1,0,0:0:0:0:
182,192,187396,1,0,0:0:0:0:
402,192,187464,1,0,0:0:0:0:
475,192,187464,1,0,0:0:0:0:
36,192,187464,1,0,0:0:0:0:
475,192,187600,128,0,188691:0:0:0:0:
402,192,187600,128,0,187668:0:0:0:0:
109,192,187600,1,0,0:0:0:0:
256,192,187737,128,0,187805:0:0:0:0:
36,192,187873,128,0,189236:0:0:0:0:
109,192,187873,128,0,187941:0:0:0:0:
109,192,188009,128,0,188078:0:0:0:0:
402,192,188146,128,0,188214:0:0:0:0:
182,192,188146,1,0,0:0:0:0:
256,192,188146,1,0,0:0:0:0:
329,192,188146,1,0,0:0:0:0:
109,192,188146,1,0,0:0:0:0:
402,192,188282,128,0,188350:0:0:0:0:
402,192,188418,128,0,188487:0:0:0:0:
109,192,188418,128,0,188487:0:0:0:0:
182,192,188487,128,0,188555:0:0:0:0:
329,192,188487,128,0,188555:0:0:0:0:
256,192,188555,128,0,188623:0:0:0:0:
182,192,188623,128,0,188691:0:0:0:0:
329,192,188623,128,0,188691:0:0:0:0:
402,192,188691,128,0,188759:0:0:0:0:
109,192,188691,128,0,188759:0:0:0:0:
256,192,188691,1,0,0:0:0:0:
402,192,188827,1,0,0:0:0:0:
109,192,188827,1,0,0:0:0:0:
256,192,188963,1,0,0:0:0:0:
182,192,188963,1,0,0:0:0:0:
256,192,189100,1,0,0:0:0:0:
329,192,189100,1,0,0:0:0:0:
402,192,189236,1,0,0:0:0:0:
329,192,189236,1,0,0:0:0:0:
182,192,189236,1,0,0:0:0:0:
109,192,189236,1,0,0:0:0:0:
256,192,189236,1,0,0:0:0:0:
36,192,189372,1,0,0:0:0:0:
475,192,189372,1,0,0:0:0:0:
329,192,189509,1,0,0:0:0:0:
256,192,189509,1,0,0:0:0:0:
256,192,189645,1,0,0:0:0:0:
182,192,189645,1,0,0:0:0:0:
402,192,189781,1,0,0:0:0:0:
329,192,189781,1,0,0:0:0:0:
256,192,189781,1,0,0:0:0:0:
182,192,189781,1,0,0:0:0:0:
109,192,189781,1,0,0:0:0:0:
256,192,189918,1,0,0:0:0:0:
109,192,190054,1,0,0:0:0:0:
182,192,190054,1,0,0:0:0:0:
256,192,190054,1,0,0:0:0:0:
329,192,190054,1,0,0:0:0:0:
402,192,190054,1,0,0:0:0:0:
256,192,190191,1,0,0:0:0:0:
182,192,190191,1,0,0:0:0:0:
36,192,190191,1,0,0:0:0:0:
109,192,190191,1,0,0:0:0:0:
329,192,190191,1,0,0:0:0:0:
402,192,190191,1,0,0:0:0:0:
475,192,190191,1,0,0:0:0:0:
109,192,190463,128,0,190531:0:0:0:0:
36,192,190463,1,0,0:0:0:0:
182,192,190463,128,0,190531:0:0:0:0:
256,192,190463,128,0,190599:0:0:0:0:
182,192,190599,128,0,190736:0:0:0:0:
109,192,190599,128,0,190667:0:0:0:0:
36,192,190599,128,0,190667:0:0:0:0:
329,192,190599,1,0,0:0:0:0:
402,192,190599,1,0,0:0:0:0:
475,192,190599,1,0,0:0:0:0:
109,192,190736,128,0,190872:0:0:0:0:
36,192,190736,128,0,190804:0:0:0:0:
329,192,190736,1,0,0:0:0:0:
475,192,190736,128,0,190804:0:0:0:0:
36,192,190872,128,0,191008:0:0:0:0:
182,192,190872,1,0,0:0:0:0:
329,192,190872,1,0,0:0:0:0:
256,192,190872,1,0,0:0:0:0:
402,192,190872,128,0,190940:0:0:0:0:
475,192,190872,128,0,190940:0:0:0:0:
475,192,191008,128,0,191145:0:0:0:0:
402,192,191008,128,0,191077:0:0:0:0:
329,192,191008,128,0,191077:0:0:0:0:
182,192,191008,1,0,0:0:0:0:
402,192,191145,128,0,191281:0:0:0:0:
329,192,191145,128,0,191213:0:0:0:0:
256,192,191145,128,0,191213:0:0:0:0:
182,192,191145,1,0,0:0:0:0:
109,192,191145,1,0,0:0:0:0:
36,192,191145,1,0,0:0:0:0:
329,192,191281,128,0,191417:0:0:0:0:
256,192,191281,128,0,191349:0:0:0:0:
182,192,191281,128,0,191349:0:0:0:0:
36,192,191281,1,0,0:0:0:0:
36,192,191417,128,0,191554:0:0:0:0:
109,192,191417,128,0,191486:0:0:0:0:
182,192,191417,128,0,191486:0:0:0:0:
475,192,191417,1,0,0:0:0:0:
402,192,191417,1,0,0:0:0:0:
256,192,191417,1,0,0:0:0:0:
109,192,191554,128,0,191690:0:0:0:0:
182,192,191554,128,0,191622:0:0:0:0:
256,192,191554,128,0,191622:0:0:0:0:
402,192,191554,1,0,0:0:0:0:
182,192,191690,128,0,191827:0:0:0:0:
256,192,191690,128,0,191758:0:0:0:0:
329,192,191690,128,0,191758:0:0:0:0:
475,192,191690,1,0,0:0:0:0:
402,192,191690,1,0,0:0:0:0:
36,192,191690,1,0,0:0:0:0:
256,192,191827,128,0,191963:0:0:0:0:
329,192,191827,128,0,191895:0:0:0:0:
402,192,191827,128,0,191895:0:0:0:0:
109,192,191827,1,0,0:0:0:0:
182,192,191963,1,0,0:0:0:0:
109,192,191963,1,0,0:0:0:0:
36,192,191963,1,0,0:0:0:0:
329,192,191963,128,0,192031:0:0:0:0:
402,192,191963,128,0,192031:0:0:0:0:
475,192,191963,128,0,192099:0:0:0:0:
402,192,192099,128,0,192236:0:0:0:0:
329,192,192099,128,0,192167:0:0:0:0:
256,192,192099,128,0,192167:0:0:0:0:
109,192,192099,1,0,0:0:0:0:
329,192,192236,128,0,192372:0:0:0:0:
256,192,192236,128,0,192372:0:0:0:0:
182,192,192236,128,0,192372:0:0:0:0:
36,192,192236,1,0,0:0:0:0:
109,192,192236,1,0,0:0:0:0:
475,192,192236,1,0,0:0:0:0:
402,192,192372,1,0,0:0:0:0:
475,192,192372,1,0,0:0:0:0:
36,192,192372,1,0,0:0:0:0:
109,192,192372,1,0,0:0:0:0:
36,192,192645,128,0,192713:0:0:0:0:
329,192,192645,1,0,0:0:0:0:
109,192,192713,128,0,192781:0:0:0:0:
402,192,192713,1,0,0:0:0:0:
256,192,192781,128,0,192917:0:0:0:0:
182,192,192781,128,0,192917:0:0:0:0:
475,192,192781,1,0,0:0:0:0:
329,192,192781,1,0,0:0:0:0:
329,192,192917,128,0,193054:0:0:0:0:
402,192,192917,128,0,193054:0:0:0:0:
109,192,192917,1,0,0:0:0:0:
36,192,192917,1,0,0:0:0:0:
109,192,193054,1,0,0:0:0:0:
182,192,193054,1,0,0:0:0:0:
36,192,193054,128,0,193190:0:0:0:0:
475,192,193054,128,0,193190:0:0:0:0:
182,192,193190,1,0,0:0:0:0:
256,192,193190,1,0,0:0:0:0:
402,192,193190,128,0,193327:0:0:0:0:
329,192,193190,128,0,193327:0:0:0:0:
109,192,193327,128,0,193463:0:0:0:0:
256,192,193327,128,0,193463:0:0:0:0:
182,192,193327,1,0,0:0:0:0:
36,192,193327,1,0,0:0:0:0:
475,192,193327,1,0,0:0:0:0:
329,192,193463,128,0,193599:0:0:0:0:
475,192,193463,128,0,193599:0:0:0:0:
402,192,193463,1,0,0:0:0:0:
36,192,193463,1,0,0:0:0:0:
256,192,193599,128,0,193736:0:0:0:0:
182,192,193599,128,0,193736:0:0:0:0:
109,192,193599,1,0,0:0:0:0:
36,192,193599,1,0,0:0:0:0:
329,192,193667,128,0,193736:0:0:0:0:
109,192,193736,128,0,193872:0:0:0:0:
36,192,193736,128,0,193872:0:0:0:0:
402,192,193736,128,0,193872:0:0:0:0:
475,192,193736,1,0,0:0:0:0:
256,192,193804,128,0,193872:0:0:0:0:
329,192,193872,128,0,194008:0:0:0:0:
475,192,193872,1,0,0:0:0:0:
182,192,193940,128,0,194008:0:0:0:0:
256,192,194008,128,0,194145:0:0:0:0:
402,192,194008,1,0,0:0:0:0:
109,192,194008,1,0,0:0:0:0:
182,192,194077,1,0,0:0:0:0:
329,192,194077,1,0,0:0:0:0:
402,192,194145,128,0,194258:0:0:0:0:
475,192,194145,128,0,194258:0:0:0:0:
109,192,194145,128,0,194258:0:0:0:0:
36,192,194145,128,0,194258:0:0:0:0:
329,192,194167,1,0,0:0:0:0:
182,192,194167,1,0,0:0:0:0:
256,192,194167,1,0,0:0:0:0:
36,192,194281,1,0,0:0:0:0:
182,192,194281,128,0,194395:0:0:0:0:
329,192,194281,128,0,194395:0:0:0:0:
475,192,194281,1,0,0:0:0:0:
256,192,194281,128,0,194395:0:0:0:0:
402,192,194281,1,0,0:0:0:0:
109,192,194281,1,0,0:0:0:0:
109,192,194417,128,0,194531:0:0:0:0:
329,192,194417,1,0,0:0:0:0:
256,192,194417,1,0,0:0:0:0:
36,192,194417,128,0,194531:0:0:0:0:
475,192,194417,128,0,194531:0:0:0:0:
182,192,194417,1,0,0:0:0:0:
402,192,194417,128,0,194531:0:0:0:0:
36,192,194554,1,0,0:0:0:0:
109,192,194554,1,0,0:0:0:0:
182,192,194554,1,0,0:0:0:0:
329,192,194554,1,0,0:0:0:0:
402,192,194554,1,0,0:0:0:0:
475,192,194554,1,0,0:0:0:0:
256,192,194554,1,0,0:0:0:0:
402,192,194827,128,0,194895:0:0:0:0:
475,192,194827,1,0,0:0:0:0:
329,192,194827,128,0,194895:0:0:0:0:
256,192,194827,128,0,194963:0:0:0:0:
36,192,194827,128,0,194895:0:0:0:0:
109,192,194827,1,0,0:0:0:0:
329,192,194963,128,0,195099:0:0:0:0:
402,192,194963,128,0,195031:0:0:0:0:
475,192,194963,128,0,195031:0:0:0:0:
182,192,194963,1,0,0:0:0:0:
36,192,194963,1,0,0:0:0:0:
109,192,194963,128,0,195031:0:0:0:0:
402,192,195099,128,0,195236:0:0:0:0:
475,192,195099,128,0,195167:0:0:0:0:
36,192,195099,128,0,195167:0:0:0:0:
182,192,195099,128,0,195167:0:0:0:0:
475,192,195236,128,0,195372:0:0:0:0:
329,192,195236,1,0,0:0:0:0:
182,192,195236,1,0,0:0:0:0:
109,192,195236,128,0,195304:0:0:0:0:
36,192,195236,128,0,195304:0:0:0:0:
256,192,195236,128,0,195304:0:0:0:0:
36,192,195372,128,0,195508:0:0:0:0:
109,192,195372,128,0,195440:0:0:0:0:
182,192,195372,128,0,195440:0:0:0:0:
329,192,195372,128,0,195440:0:0:0:0:
402,192,195372,1,0,0:0:0:0:
109,192,195508,128,0,195645:0:0:0:0:
182,192,195508,128,0,195577:0:0:0:0:
256,192,195508,128,0,195577:0:0:0:0:
329,192,195508,1,0,0:0:0:0:
475,192,195508,1,0,0:0:0:0:
402,192,195508,128,0,195577:0:0:0:0:
182,192,195645,128,0,195781:0:0:0:0:
256,192,195645,128,0,195713:0:0:0:0:
329,192,195645,128,0,195713:0:0:0:0:
475,192,195645,128,0,195713:0:0:0:0:
36,192,195645,1,0,0:0:0:0:
475,192,195781,128,0,195917:0:0:0:0:
402,192,195781,128,0,195849:0:0:0:0:
329,192,195781,128,0,195849:0:0:0:0:
109,192,195781,1,0,0:0:0:0:
256,192,195781,1,0,0:0:0:0:
36,192,195781,128,0,195849:0:0:0:0:
402,192,195917,128,0,196054:0:0:0:0:
329,192,195917,128,0,195986:0:0:0:0:
256,192,195917,128,0,195986:0:0:0:0:
109,192,195917,128,0,195986:0:0:0:0:
329,192,196054,128,0,196190:0:0:0:0:
256,192,196054,128,0,196122:0:0:0:0:
182,192,196054,128,0,196122:0:0:0:0:
109,192,196054,1,0,0:0:0:0:
36,192,196054,128,0,196122:0:0:0:0:
475,192,196054,128,0,196122:0:0:0:0:
256,192,196190,128,0,196327:0:0:0:0:
182,192,196190,128,0,196258:0:0:0:0:
109,192,196190,128,0,196258:0:0:0:0:
402,192,196190,128,0,196258:0:0:0:0:
402,192,196327,1,0,0:0:0:0:
475,192,196327,1,0,0:0:0:0:
182,192,196327,128,0,196395:0:0:0:0:
109,192,196327,128,0,196395:0:0:0:0:
36,192,196327,128,0,196463:0:0:0:0:
329,192,196327,128,0,196395:0:0:0:0:
109,192,196463,128,0,196599:0:0:0:0:
182,192,196463,128,0,196531:0:0:0:0:
256,192,196463,128,0,196531:0:0:0:0:
402,192,196463,128,0,196531:0:0:0:0:
182,192,196599,128,0,196736:0:0:0:0:
256,192,196599,128,0,196736:0:0:0:0:
329,192,196599,128,0,196736:0:0:0:0:
402,192,196599,1,0,0:0:0:0:
36,192,196599,1,0,0:0:0:0:
475,192,196599,128,0,196667:0:0:0:0:
109,192,196736,1,0,0:0:0:0:
36,192,196736,1,0,0:0:0:0:
475,192,196736,1,0,0:0:0:0:
402,192,196736,1,0,0:0:0:0:
402,192,197008,128,0,197145:0:0:0:0:
475,192,197008,128,0,197145:0:0:0:0:
329,192,197008,1,0,0:0:0:0:
256,192,197008,1,0,0:0:0:0:
329,192,197145,128,0,197281:0:0:0:0:
256,192,197145,128,0,197281:0:0:0:0:
182,192,197145,1,0,0:0:0:0:
109,192,197145,1,0,0:0:0:0:
36,192,197145,1,0,0:0:0:0:
36,192,197281,128,0,197417:0:0:0:0:
182,192,197281,128,0,197417:0:0:0:0:
109,192,197281,128,0,197417:0:0:0:0:
329,192,197417,1,0,0:0:0:0:
402,192,197417,1,0,0:0:0:0:
475,192,197417,1,0,0:0:0:0:
256,192,197417,128,0,197554:0:0:0:0:
329,192,197554,128,0,197690:0:0:0:0:
402,192,197554,128,0,197690:0:0:0:0:
475,192,197554,128,0,197690:0:0:0:0:
109,192,197554,128,0,197690:0:0:0:0:
36,192,197554,128,0,197690:0:0:0:0:
182,192,197554,1,0,0:0:0:0:
182,192,197690,128,0,197827:0:0:0:0:
256,192,197690,128,0,197827:0:0:0:0:
329,192,197827,128,0,197963:0:0:0:0:
402,192,197827,128,0,197963:0:0:0:0:
109,192,197827,1,0,0:0:0:0:
36,192,197827,1,0,0:0:0:0:
256,192,197963,1,0,0:0:0:0:
182,192,197963,1,0,0:0:0:0:
475,192,197963,128,0,198099:0:0:0:0:
109,192,197963,128,0,198099:0:0:0:0:
36,192,197963,128,0,198099:0:0:0:0:
182,192,198099,128,0,198236:0:0:0:0:
256,192,198099,128,0,198236:0:0:0:0:
329,192,198099,1,0,0:0:0:0:
402,192,198099,1,0,0:0:0:0:
329,192,198236,128,0,198372:0:0:0:0:
402,192,198236,128,0,198372:0:0:0:0:
475,192,198236,128,0,198372:0:0:0:0:
182,192,198372,1,0,0:0:0:0:
109,192,198372,1,0,0:0:0:0:
36,192,198372,1,0,0:0:0:0:
256,192,198372,128,0,198508:0:0:0:0:
182,192,198508,128,0,198645:0:0:0:0:
109,192,198508,128,0,198645:0:0:0:0:
36,192,198508,128,0,198645:0:0:0:0:
329,192,198508,128,0,198645:0:0:0:0:
402,192,198508,128,0,198645:0:0:0:0:
475,192,198508,128,0,198645:0:0:0:0:
256,192,198531,1,0,0:0:0:0:
256,192,198645,128,0,198781:0:0:0:0:
182,192,198667,1,0,0:0:0:0:
109,192,198667,1,0,0:0:0:0:
36,192,198667,1,0,0:0:0:0:
329,192,198667,1,0,0:0:0:0:
402,192,198667,1,0,0:0:0:0:
475,192,198667,1,0,0:0:0:0:
36,192,198781,128,0,198895:0:0:0:0:
109,192,198781,128,0,198895:0:0:0:0:
182,192,198781,128,0,198895:0:0:0:0:
329,192,198781,128,0,198895:0:0:0:0:
402,192,198781,128,0,198895:0:0:0:0:
475,192,198781,128,0,198895:0:0:0:0:
256,192,198804,1,0,0:0:0:0:
36,192,198917,1,0,0:0:0:0:
109,192,198917,1,0,0:0:0:0:
182,192,198917,1,0,0:0:0:0:
256,192,198917,1,0,0:0:0:0:
329,192,198917,1,0,0:0:0:0:
402,192,198917,1,0,0:0:0:0:
475,192,198917,1,0,0:0:0:0:
36,192,199190,128,0,199395:0:0:0:0:
109,192,199258,128,0,199395:0:0:0:0:
182,192,199327,128,0,199395:0:0:0:0:
329,192,199327,128,0,199463:0:0:0:0:
402,192,199327,128,0,199395:0:0:0:0:
475,192,199327,128,0,199361:0:0:0:0:
256,192,199463,128,0,199497:0:0:0:0:
182,192,199463,128,0,199531:0:0:0:0:
109,192,199463,128,0,199599:0:0:0:0:
36,192,199463,1,0,0:0:0:0:
475,192,199531,128,0,199667:0:0:0:0:
402,192,199599,128,0,199667:0:0:0:0:
256,192,199599,1,0,0:0:0:0:
329,192,199667,128,0,199702:0:0:0:0:
182,192,199736,128,0,199770:0:0:0:0:
109,192,199736,128,0,199804:0:0:0:0:
36,192,199736,128,0,199872:0:0:0:0:
402,192,199736,1,0,0:0:0:0:
475,192,199736,1,0,0:0:0:0:
329,192,199758,1,0,0:0:0:0:
329,192,199872,128,0,199906:0:0:0:0:
402,192,199872,128,0,199940:0:0:0:0:
475,192,199872,128,0,200008:0:0:0:0:
182,192,199872,1,0,0:0:0:0:
109,192,199872,1,0,0:0:0:0:
256,192,199940,1,0,0:0:0:0:
182,192,200008,128,0,200179:0:0:0:0:
109,192,200077,128,0,200179:0:0:0:0:
36,192,200145,128,0,200179:0:0:0:0:
329,192,200145,128,0,200179:0:0:0:0:
402,192,200145,128,0,200213:0:0:0:0:
475,192,200145,128,0,200281:0:0:0:0:
256,192,200145,1,0,0:0:0:0:
109,192,200213,128,0,200349:0:0:0:0:
36,192,200281,1,0,0:0:0:0:
182,192,200281,128,0,200383:0:0:0:0:
329,192,200281,1,0,0:0:0:0:
402,192,200349,1,0,0:0:0:0:
256,192,200349,128,0,200383:0:0:0:0:
329,192,200417,128,0,200554:0:0:0:0:
402,192,200417,128,0,200486:0:0:0:0:
475,192,200417,128,0,200452:0:0:0:0:
109,192,200417,1,0,0:0:0:0:
36,192,200417,1,0,0:0:0:0:
182,192,200440,1,0,0:0:0:0:
36,192,200554,128,0,200588:0:0:0:0:
109,192,200554,128,0,200622:0:0:0:0:
182,192,200554,128,0,200690:0:0:0:0:
475,192,200554,1,0,0:0:0:0:
256,192,200577,1,0,0:0:0:0:
402,192,200588,1,0,0:0:0:0:
256,192,200690,128,0,200724:0:0:0:0:
329,192,200690,128,0,200758:0:0:0:0:
402,192,200690,128,0,200827:0:0:0:0:
475,192,200690,1,0,0:0:0:0:
36,192,200713,1,0,0:0:0:0:
109,192,200724,1,0,0:0:0:0:
182,192,200827,128,0,200997:0:0:0:0:
475,192,200827,1,0,0:0:0:0:
256,192,200827,1,0,0:0:0:0:
36,192,200827,1,0,0:0:0:0:
109,192,200895,128,0,200997:0:0:0:0:
329,192,200895,128,0,201031:0:0:0:0:
36,192,200963,128,0,200997:0:0:0:0:
256,192,200963,1,0,0:0:0:0:
402,192,200963,128,0,201065:0:0:0:0:
475,192,201031,128,0,201065:0:0:0:0:
256,192,201099,1,0,0:0:0:0:
182,192,201099,1,0,0:0:0:0:
109,192,201099,1,0,0:0:0:0:
36,192,201099,1,0,0:0:0:0:
329,192,201099,1,0,0:0:0:0:
402,192,201099,1,0,0:0:0:0:
475,192,201099,1,0,0:0:0:0:
109,192,201372,128,0,201440:0:0:0:0:
36,192,201372,1,0,0:0:0:0:
182,192,201372,128,0,201440:0:0:0:0:
256,192,201372,128,0,201508:0:0:0:0:
475,192,201372,128,0,201440:0:0:0:0:
402,192,201372,1,0,0:0:0:0:
329,192,201440,1,0,0:0:0:0:
182,192,201508,128,0,201645:0:0:0:0:
109,192,201508,128,0,201577:0:0:0:0:
36,192,201508,128,0,201577:0:0:0:0:
475,192,201508,1,0,0:0:0:0:
402,192,201508,128,0,201577:0:0:0:0:
256,192,201577,1,0,0:0:0:0:
109,192,201645,128,0,201781:0:0:0:0:
36,192,201645,128,0,201713:0:0:0:0:
475,192,201645,128,0,201713:0:0:0:0:
329,192,201645,128,0,201713:0:0:0:0:
182,192,201713,1,0,0:0:0:0:
36,192,201781,128,0,201917:0:0:0:0:
329,192,201781,1,0,0:0:0:0:
402,192,201781,128,0,201849:0:0:0:0:
475,192,201781,128,0,201849:0:0:0:0:
256,192,201781,128,0,201849:0:0:0:0:
109,192,201849,1,0,0:0:0:0:
475,192,201917,128,0,202054:0:0:0:0:
402,192,201917,128,0,201986:0:0:0:0:
329,192,201917,128,0,201986:0:0:0:0:
182,192,201917,128,0,201986:0:0:0:0:
256,192,201917,1,0,0:0:0:0:
36,192,201986,1,0,0:0:0:0:
402,192,202054,128,0,202190:0:0:0:0:
329,192,202054,128,0,202122:0:0:0:0:
256,192,202054,128,0,202122:0:0:0:0:
182,192,202054,1,0,0:0:0:0:
109,192,202054,128,0,202122:0:0:0:0:
475,192,202122,1,0,0:0:0:0:
329,192,202190,128,0,202327:0:0:0:0:
256,192,202190,128,0,202258:0:0:0:0:
182,192,202190,128,0,202258:0:0:0:0:
36,192,202190,128,0,202258:0:0:0:0:
109,192,202190,1,0,0:0:0:0:
402,192,202258,1,0,0:0:0:0:
36,192,202327,128,0,202463:0:0:0:0:
109,192,202327,128,0,202395:0:0:0:0:
182,192,202327,128,0,202395:0:0:0:0:
256,192,202327,1,0,0:0:0:0:
475,192,202327,128,0,202395:0:0:0:0:
329,192,202395,128,0,202463:0:0:0:0:
109,192,202463,128,0,202599:0:0:0:0:
182,192,202463,128,0,202531:0:0:0:0:
256,192,202463,128,0,202531:0:0:0:0:
475,192,202463,128,0,202531:0:0:0:0:
402,192,202531,128,0,202599:0:0:0:0:
182,192,202599,128,0,202736:0:0:0:0:
256,192,202599,128,0,202667:0:0:0:0:
329,192,202599,128,0,202667:0:0:0:0:
36,192,202599,1,0,0:0:0:0:
475,192,202667,128,0,202736:0:0:0:0:
256,192,202736,128,0,202872:0:0:0:0:
329,192,202736,128,0,202804:0:0:0:0:
402,192,202736,128,0,202804:0:0:0:0:
109,192,202736,1,0,0:0:0:0:
36,192,202804,128,0,202872:0:0:0:0:
329,192,202872,128,0,202940:0:0:0:0:
402,192,202872,128,0,202940:0:0:0:0:
475,192,202872,128,0,203008:0:0:0:0:
182,192,202872,1,0,0:0:0:0:
36,192,202940,128,0,203008:0:0:0:0:
109,192,203008,128,0,203077:0:0:0:0:
402,192,203008,128,0,203145:0:0:0:0:
329,192,203008,128,0,203077:0:0:0:0:
182,192,203008,128,0,203077:0:0:0:0:
256,192,203008,1,0,0:0:0:0:
475,192,203077,128,0,203145:0:0:0:0:
329,192,203145,128,0,203281:0:0:0:0:
256,192,203145,128,0,203281:0:0:0:0:
182,192,203145,128,0,203281:0:0:0:0:
36,192,203145,1,0,0:0:0:0:
109,192,203145,128,0,203213:0:0:0:0:
402,192,203213,128,0,203281:0:0:0:0:
475,192,203281,1,0,0:0:0:0:
36,192,203281,1,0,0:0:0:0:
109,192,203281,1,0,0:0:0:0:
256,192,203349,128,0,203417:0:0:0:0:
329,192,203349,128,0,203417:0:0:0:0:
182,192,203349,128,0,203417:0:0:0:0:
109,192,203417,1,0,0:0:0:0:
36,192,203417,1,0,0:0:0:0:
402,192,203417,1,0,0:0:0:0:
475,192,203417,1,0,0:0:0:0:
182,192,203485,1,0,0:0:0:0:
329,192,203553,1,0,0:0:0:0:
475,192,203553,1,0,0:0:0:0:
109,192,203553,1,0,0:0:0:0:
402,192,203553,1,0,0:0:0:0:
182,192,203621,1,0,0:0:0:0:
256,192,203621,1,0,0:0:0:0:
402,192,203689,1,0,0:0:0:0:
109,192,203689,1,0,0:0:0:0:
36,192,203689,1,0,0:0:0:0:
256,192,203757,1,0,0:0:0:0:
329,192,203757,1,0,0:0:0:0:
36,192,203826,1,0,0:0:0:0:
475,192,203826,1,0,0:0:0:0:
402,192,203826,1,0,0:0:0:0:
109,192,203826,1,0,0:0:0:0:
182,192,203894,1,0,0:0:0:0:
256,192,203894,1,0,0:0:0:0:
329,192,203962,1,0,0:0:0:0:
36,192,203962,1,0,0:0:0:0:
475,192,203962,1,0,0:0:0:0:
402,192,203962,1,0,0:0:0:0:
182,192,204030,128,0,204098:0:0:0:0:
109,192,204030,128,0,204098:0:0:0:0:
475,192,204098,1,0,0:0:0:0:
36,192,204098,1,0,0:0:0:0:
182,192,204167,128,0,204235:0:0:0:0:
329,192,204167,128,0,204235:0:0:0:0:
109,192,204235,1,0,0:0:0:0:
256,192,204235,1,0,0:0:0:0:
475,192,204235,1,0,0:0:0:0:
329,192,204303,128,0,204371:0:0:0:0:
402,192,204303,128,0,204371:0:0:0:0:
109,192,204371,1,0,0:0:0:0:
182,192,204371,1,0,0:0:0:0:
36,192,204371,1,0,0:0:0:0:
475,192,204371,1,0,0:0:0:0:
256,192,204439,1,0,0:0:0:0:
329,192,204439,1,0,0:0:0:0:
109,192,204507,128,0,204576:0:0:0:0:
36,192,204507,128,0,204576:0:0:0:0:
402,192,204507,128,0,204644:0:0:0:0:
256,192,204576,128,0,204644:0:0:0:0:
329,192,204576,128,0,204644:0:0:0:0:
182,192,204644,128,0,204712:0:0:0:0:
109,192,204644,128,0,204712:0:0:0:0:
475,192,204644,128,0,204780:0:0:0:0:
36,192,204644,128,0,204780:0:0:0:0:
329,192,204712,128,0,204780:0:0:0:0:
402,192,204712,128,0,204780:0:0:0:0:
256,192,204780,128,0,204848:0:0:0:0:
182,192,204780,128,0,204848:0:0:0:0:
109,192,204780,128,0,204917:0:0:0:0:
402,192,204848,128,0,204917:0:0:0:0:
475,192,204848,128,0,204917:0:0:0:0:
329,192,204917,128,0,204985:0:0:0:0:
256,192,204917,128,0,204985:0:0:0:0:
182,192,204917,128,0,205053:0:0:0:0:
36,192,204917,128,0,205053:0:0:0:0:
402,192,204985,128,0,205053:0:0:0:0:
109,192,205053,128,0,205189:0:0:0:0:
256,192,205053,128,0,205189:0:0:0:0:
475,192,205053,128,0,205189:0:0:0:0:
402,192,205121,128,0,205189:0:0:0:0:
182,192,205189,128,0,205326:0:0:0:0:
329,192,205189,128,0,205326:0:0:0:0:
109,192,205257,128,0,205326:0:0:0:0:
36,192,205326,1,0,0:0:0:0:
256,192,205326,1,0,0:0:0:0:
402,192,205326,1,0,0:0:0:0:
475,192,205326,1,0,0:0:0:0:
182,192,205394,1,0,0:0:0:0:
109,192,205394,1,0,0:0:0:0:
329,192,205462,1,0,0:0:0:0:
475,192,205462,1,0,0:0:0:0:
256,192,205530,1,0,0:0:0:0:
182,192,205530,1,0,0:0:0:0:
402,192,205530,1,0,0:0:0:0:
109,192,205598,1,0,0:0:0:0:
329,192,205598,1,0,0:0:0:0:
36,192,205598,1,0,0:0:0:0:
256,192,205666,1,0,0:0:0:0:
182,192,205735,1,0,0:0:0:0:
109,192,205735,1,0,0:0:0:0:
475,192,205735,1,0,0:0:0:0:
36,192,205735,1,0,0:0:0:0:
402,192,205803,1,0,0:0:0:0:
329,192,205871,1,0,0:0:0:0:
182,192,205871,1,0,0:0:0:0:
36,192,205871,1,0,0:0:0:0:
256,192,205871,128,0,205939:0:0:0:0:
109,192,205939,1,0,0:0:0:0:
182,192,206007,128,0,206076:0:0:0:0:
475,192,206007,128,0,206076:0:0:0:0:
329,192,206007,128,0,206076:0:0:0:0:
256,192,206076,1,0,0:0:0:0:
36,192,206076,1,0,0:0:0:0:
402,192,206144,128,0,206212:0:0:0:0:
109,192,206144,128,0,206212:0:0:0:0:
256,192,206212,1,0,0:0:0:0:
475,192,206212,1,0,0:0:0:0:
329,192,206280,128,0,206348:0:0:0:0:
182,192,206280,128,0,206348:0:0:0:0:
36,192,206280,128,0,206348:0:0:0:0:
402,192,206348,1,0,0:0:0:0:
109,192,206348,1,0,0:0:0:0:
256,192,206416,128,0,206553:0:0:0:0:
36,192,206416,128,0,206553:0:0:0:0:
475,192,206416,128,0,206485:0:0:0:0:
182,192,206485,1,0,0:0:0:0:
402,192,206485,1,0,0:0:0:0:
109,192,206553,128,0,206689:0:0:0:0:
329,192,206553,128,0,206689:0:0:0:0:
256,192,206621,1,0,0:0:0:0:
475,192,206621,1,0,0:0:0:0:
182,192,206689,128,0,206826:0:0:0:0:
402,192,206689,128,0,206826:0:0:0:0:
36,192,206757,1,0,0:0:0:0:
475,192,206757,1,0,0:0:0:0:
329,192,206826,128,0,206962:0:0:0:0:
109,192,206826,128,0,206962:0:0:0:0:
182,192,206894,1,0,0:0:0:0:
402,192,206894,1,0,0:0:0:0:
256,192,206962,128,0,207098:0:0:0:0:
36,192,206962,128,0,207098:0:0:0:0:
475,192,206962,128,0,207030:0:0:0:0:
109,192,207030,1,0,0:0:0:0:
329,192,207030,1,0,0:0:0:0:
109,192,207098,128,0,207235:0:0:0:0:
329,192,207098,128,0,207235:0:0:0:0:
475,192,207098,128,0,207166:0:0:0:0:
182,192,207166,1,0,0:0:0:0:
402,192,207166,1,0,0:0:0:0:
182,192,207235,128,0,207371:0:0:0:0:
402,192,207235,128,0,207371:0:0:0:0:
36,192,207235,128,0,207303:0:0:0:0:
256,192,207303,1,0,0:0:0:0:
475,192,207303,1,0,0:0:0:0:
256,192,207371,128,0,207439:0:0:0:0:
475,192,207371,128,0,207439:0:0:0:0:
109,192,207371,128,0,207439:0:0:0:0:
329,192,207439,1,0,0:0:0:0:
36,192,207439,1,0,0:0:0:0:
182,192,207507,128,0,207575:0:0:0:0:
109,192,207507,128,0,207575:0:0:0:0:
402,192,207507,128,0,207575:0:0:0:0:
475,192,207507,128,0,207575:0:0:0:0:
36,192,207575,1,0,0:0:0:0:
182,192,207643,128,0,207711:0:0:0:0:
256,192,207643,128,0,207711:0:0:0:0:
402,192,207643,128,0,207711:0:0:0:0:
475,192,207643,128,0,207711:0:0:0:0:
109,192,207711,1,0,0:0:0:0:
256,192,207779,128,0,207847:0:0:0:0:
329,192,207779,128,0,207847:0:0:0:0:
402,192,207779,128,0,207847:0:0:0:0:
475,192,207779,128,0,207847:0:0:0:0:
182,192,207847,1,0,0:0:0:0:
109,192,207916,1,0,0:0:0:0:
36,192,207916,1,0,0:0:0:0:
256,192,207916,1,0,0:0:0:0:
402,192,207916,1,0,0:0:0:0:
475,192,207916,1,0,0:0:0:0:
329,192,207984,1,0,0:0:0:0:
182,192,208052,1,0,0:0:0:0:
109,192,208052,1,0,0:0:0:0:
36,192,208052,1,0,0:0:0:0:
475,192,208052,1,0,0:0:0:0:
256,192,208120,1,0,0:0:0:0:
402,192,208188,1,0,0:0:0:0:
475,192,208188,1,0,0:0:0:0:
109,192,208188,1,0,0:0:0:0:
329,192,208188,1,0,0:0:0:0:
182,192,208257,1,0,0:0:0:0:
36,192,208325,1,0,0:0:0:0:
329,192,208325,1,0,0:0:0:0:
256,192,208325,1,0,0:0:0:0:
475,192,208325,1,0,0:0:0:0:
109,192,208393,1,0,0:0:0:0:
256,192,208461,1,0,0:0:0:0:
182,192,208461,1,0,0:0:0:0:
475,192,208461,1,0,0:0:0:0:
36,192,208461,1,0,0:0:0:0:
402,192,208529,1,0,0:0:0:0:
329,192,208529,1,0,0:0:0:0:
36,192,208597,128,0,208666:0:0:0:0:
109,192,208597,128,0,208666:0:0:0:0:
256,192,208597,128,0,208802:0:0:0:0:
475,192,208597,128,0,208666:0:0:0:0:
182,192,208666,1,0,0:0:0:0:
109,192,208734,128,0,208802:0:0:0:0:
36,192,208734,128,0,208802:0:0:0:0:
402,192,208734,128,0,208802:0:0:0:0:
329,192,208802,1,0,0:0:0:0:
475,192,208870,128,0,208938:0:0:0:0:
402,192,208870,128,0,208938:0:0:0:0:
256,192,208870,128,0,209075:0:0:0:0:
109,192,208870,128,0,208938:0:0:0:0:
182,192,208938,1,0,0:0:0:0:
402,192,209007,128,0,209075:0:0:0:0:
475,192,209007,128,0,209075:0:0:0:0:
36,192,209007,128,0,209075:0:0:0:0:
329,192,209075,1,0,0:0:0:0:
36,192,209143,128,0,209211:0:0:0:0:
256,192,209143,128,0,209211:0:0:0:0:
109,192,209143,128,0,209347:0:0:0:0:
402,192,209143,128,0,209347:0:0:0:0:
475,192,209143,128,0,209211:0:0:0:0:
182,192,209211,1,0,0:0:0:0:
329,192,209211,1,0,0:0:0:0:
256,192,209279,128,0,209347:0:0:0:0:
475,192,209279,128,0,209347:0:0:0:0:
36,192,209279,128,0,209347:0:0:0:0:
182,192,209347,1,0,0:0:0:0:
329,192,209347,1,0,0:0:0:0:
109,192,209416,1,0,0:0:0:0:
402,192,209416,1,0,0:0:0:0:
475,192,209416,1,0,0:0:0:0:
256,192,209416,1,0,0:0:0:0:
36,192,209484,1,0,0:0:0:0:
182,192,209484,1,0,0:0:0:0:
109,192,209552,1,0,0:0:0:0:
475,192,209552,1,0,0:0:0:0:
329,192,209552,1,0,0:0:0:0:
402,192,209552,1,0,0:0:0:0:
182,192,209620,1,0,0:0:0:0:
256,192,209688,1,0,0:0:0:0:
402,192,209688,1,0,0:0:0:0:
109,192,209688,1,0,0:0:0:0:
36,192,209688,1,0,0:0:0:0:
475,192,209756,1,0,0:0:0:0:
329,192,209756,1,0,0:0:0:0:
182,192,209825,1,0,0:0:0:0:
36,192,209825,1,0,0:0:0:0:
402,192,209825,1,0,0:0:0:0:
109,192,209893,1,0,0:0:0:0:
329,192,209893,1,0,0:0:0:0:
475,192,209961,1,0,0:0:0:0:
36,192,209961,128,0,210234:0:0:0:0:
182,192,209961,1,0,0:0:0:0:
402,192,209961,1,0,0:0:0:0:
256,192,210029,1,0,0:0:0:0:
329,192,210097,1,0,0:0:0:0:
402,192,210097,1,0,0:0:0:0:
475,192,210097,1,0,0:0:0:0:
109,192,210097,1,0,0:0:0:0:
182,192,210166,1,0,0:0:0:0:
402,192,210234,1,0,0:0:0:0:
256,192,210234,1,0,0:0:0:0:
475,192,210234,1,0,0:0:0:0:
329,192,210302,1,0,0:0:0:0:
109,192,210302,1,0,0:0:0:0:
182,192,210370,1,0,0:0:0:0:
36,192,210370,1,0,0:0:0:0:
475,192,210370,1,0,0:0:0:0:
402,192,210370,1,0,0:0:0:0:
256,192,210438,1,0,0:0:0:0:
182,192,210506,1,0,0:0:0:0:
109,192,210506,1,0,0:0:0:0:
36,192,210506,1,0,0:0:0:0:
475,192,210506,1,0,0:0:0:0:
329,192,210575,1,0,0:0:0:0:
402,192,210575,1,0,0:0:0:0:
256,192,210643,1,0,0:0:0:0:
182,192,210643,1,0,0:0:0:0:
475,192,210643,1,0,0:0:0:0:
109,192,210711,1,0,0:0:0:0:
36,192,210711,1,0,0:0:0:0:
402,192,210711,1,0,0:0:0:0:
329,192,210711,1,0,0:0:0:0:
256,192,210779,1,0,0:0:0:0:
182,192,210779,1,0,0:0:0:0:
402,192,210847,1,0,0:0:0:0:
475,192,210847,1,0,0:0:0:0:
36,192,210847,1,0,0:0:0:0:
109,192,210916,1,0,0:0:0:0:
182,192,210916,1,0,0:0:0:0:
329,192,210916,1,0,0:0:0:0:
256,192,210984,1,0,0:0:0:0:
36,192,210984,1,0,0:0:0:0:
182,192,211052,1,0,0:0:0:0:
109,192,211052,1,0,0:0:0:0:
475,192,211052,1,0,0:0:0:0:
402,192,211052,1,0,0:0:0:0:
329,192,211052,1,0,0:0:0:0:
256,192,211120,1,0,0:0:0:0:
109,192,211188,1,0,0:0:0:0:
36,192,211188,1,0,0:0:0:0:
402,192,211188,1,0,0:0:0:0:
475,192,211188,1,0,0:0:0:0:
329,192,211256,1,0,0:0:0:0:
182,192,211256,1,0,0:0:0:0:
36,192,211325,1,0,0:0:0:0:
256,192,211325,1,0,0:0:0:0:
475,192,211325,1,0,0:0:0:0:
109,192,211461,1,0,0:0:0:0:
182,192,211461,1,0,0:0:0:0:
402,192,211461,1,0,0:0:0:0:
329,192,211461,1,0,0:0:0:0:
256,192,211597,1,0,0:0:0:0:
182,192,211597,1,0,0:0:0:0:
36,192,211597,128,0,211700:0:0:0:0:
109,192,211597,128,0,211700:0:0:0:0:
329,192,211666,1,0,0:0:0:0:
402,192,211666,1,0,0:0:0:0:
475,192,211666,1,0,0:0:0:0:
256,192,211734,1,0,0:0:0:0:
36,192,211734,1,0,0:0:0:0:
109,192,211734,128,0,211836:0:0:0:0:
182,192,211734,128,0,211836:0:0:0:0:
329,192,211802,1,0,0:0:0:0:
475,192,211802,1,0,0:0:0:0:
402,192,211802,1,0,0:0:0:0:
109,192,211870,1,0,0:0:0:0:
36,192,211870,1,0,0:0:0:0:
182,192,211870,128,0,211972:0:0:0:0:
256,192,211870,128,0,211972:0:0:0:0:
329,192,211938,1,0,0:0:0:0:
402,192,211938,1,0,0:0:0:0:
475,192,211938,1,0,0:0:0:0:
256,192,212006,1,0,0:0:0:0:
182,192,212006,1,0,0:0:0:0:
109,192,212006,1,0,0:0:0:0:
36,192,212006,1,0,0:0:0:0:
256,192,212279,1,0,0:0:0:0:
329,192,212279,1,0,0:0:0:0:
402,192,212279,128,0,212381:0:0:0:0:
475,192,212279,128,0,212381:0:0:0:0:
182,192,212347,1,0,0:0:0:0:
109,192,212347,1,0,0:0:0:0:
36,192,212347,1,0,0:0:0:0:
256,192,212416,1,0,0:0:0:0:
475,192,212416,1,0,0:0:0:0:
402,192,212416,128,0,212518:0:0:0:0:
329,192,212416,128,0,212518:0:0:0:0:
182,192,212484,1,0,0:0:0:0:
109,192,212484,1,0,0:0:0:0:
36,192,212484,1,0,0:0:0:0:
256,192,212552,1,0,0:0:0:0:
402,192,212552,1,0,0:0:0:0:
475,192,212552,1,0,0:0:0:0:
329,192,212552,1,0,0:0:0:0:
182,192,212825,1,0,0:0:0:0:
109,192,212825,1,0,0:0:0:0:
36,192,212825,1,0,0:0:0:0:
402,192,212825,1,0,0:0:0:0:
475,192,212825,1,0,0:0:0:0:
329,192,212893,1,0,0:0:0:0:
402,192,212893,1,0,0:0:0:0:
182,192,212961,1,0,0:0:0:0:
109,192,212961,1,0,0:0:0:0:
36,192,212961,1,0,0:0:0:0:
256,192,212961,1,0,0:0:0:0:
329,192,212961,1,0,0:0:0:0:
329,192,213097,1,0,0:0:0:0:
256,192,213097,1,0,0:0:0:0:
109,192,213097,1,0,0:0:0:0:
36,192,213097,1,0,0:0:0:0:
329,192,213234,1,0,0:0:0:0:
402,192,213234,1,0,0:0:0:0:
109,192,213234,1,0,0:0:0:0:
36,192,213234,1,0,0:0:0:0:
256,192,213302,1,0,0:0:0:0:
36,192,213370,1,0,0:0:0:0:
329,192,213370,1,0,0:0:0:0:
402,192,213370,1,0,0:0:0:0:
475,192,213370,1,0,0:0:0:0:
109,192,213370,1,0,0:0:0:0:
36,192,213506,1,0,0:0:0:0:
182,192,213506,1,0,0:0:0:0:
475,192,213506,1,0,0:0:0:0:
402,192,213506,1,0,0:0:0:0:
109,192,213506,1,0,0:0:0:0:
256,192,213575,1,0,0:0:0:0:
182,192,213643,1,0,0:0:0:0:
329,192,213643,1,0,0:0:0:0:
475,192,213643,1,0,0:0:0:0:
402,192,213643,1,0,0:0:0:0:
109,192,213643,1,0,0:0:0:0:
182,192,213779,1,0,0:0:0:0:
256,192,213779,1,0,0:0:0:0:
109,192,213779,128,0,213881:0:0:0:0:
36,192,213779,128,0,213881:0:0:0:0:
329,192,213847,1,0,0:0:0:0:
475,192,213847,1,0,0:0:0:0:
402,192,213847,1,0,0:0:0:0:
256,192,213916,1,0,0:0:0:0:
36,192,213916,1,0,0:0:0:0:
109,192,213916,128,0,214018:0:0:0:0:
182,192,213916,128,0,214018:0:0:0:0:
402,192,213984,1,0,0:0:0:0:
475,192,213984,1,0,0:0:0:0:
329,192,213984,1,0,0:0:0:0:
109,192,214052,1,0,0:0:0:0:
36,192,214052,1,0,0:0:0:0:
182,192,214052,128,0,214154:0:0:0:0:
256,192,214052,128,0,214154:0:0:0:0:
329,192,214120,1,0,0:0:0:0:
475,192,214120,1,0,0:0:0:0:
402,192,214120,1,0,0:0:0:0:
182,192,214188,1,0,0:0:0:0:
256,192,214188,1,0,0:0:0:0:
36,192,214188,1,0,0:0:0:0:
109,192,214188,1,0,0:0:0:0:
256,192,214461,1,0,0:0:0:0:
329,192,214461,1,0,0:0:0:0:
402,192,214461,128,0,214563:0:0:0:0:
475,192,214461,128,0,214563:0:0:0:0:
182,192,214529,1,0,0:0:0:0:
109,192,214529,1,0,0:0:0:0:
36,192,214529,1,0,0:0:0:0:
256,192,214597,1,0,0:0:0:0:
475,192,214597,1,0,0:0:0:0:
402,192,214597,128,0,214700:0:0:0:0:
329,192,214597,128,0,214700:0:0:0:0:
182,192,214666,1,0,0:0:0:0:
109,192,214666,1,0,0:0:0:0:
36,192,214666,1,0,0:0:0:0:
256,192,214734,1,0,0:0:0:0:
329,192,214734,1,0,0:0:0:0:
402,192,214734,1,0,0:0:0:0:
475,192,214734,1,0,0:0:0:0:
36,192,215006,1,0,0:0:0:0:
109,192,215006,1,0,0:0:0:0:
329,192,215006,1,0,0:0:0:0:
402,192,215006,1,0,0:0:0:0:
109,192,215075,1,0,0:0:0:0:
182,192,215075,1,0,0:0:0:0:
182,192,215143,1,0,0:0:0:0:
256,192,215143,1,0,0:0:0:0:
402,192,215143,1,0,0:0:0:0:
475,192,215143,1,0,0:0:0:0:
329,192,215279,1,0,0:0:0:0:
402,192,215279,1,0,0:0:0:0:
475,192,215279,1,0,0:0:0:0:
182,192,215279,1,0,0:0:0:0:
109,192,215279,1,0,0:0:0:0:
256,192,215416,1,0,0:0:0:0:
329,192,215416,1,0,0:0:0:0:
402,192,215416,1,0,0:0:0:0:
109,192,215416,1,0,0:0:0:0:
36,192,215416,1,0,0:0:0:0:
182,192,215484,1,0,0:0:0:0:
109,192,215552,1,0,0:0:0:0:
36,192,215552,1,0,0:0:0:0:
256,192,215552,1,0,0:0:0:0:
329,192,215552,1,0,0:0:0:0:
402,192,215552,1,0,0:0:0:0:
402,192,215688,1,0,0:0:0:0:
182,192,215688,1,0,0:0:0:0:
109,192,215688,1,0,0:0:0:0:
256,192,215688,1,0,0:0:0:0:
475,192,215688,1,0,0:0:0:0:
329,192,215756,1,0,0:0:0:0:
182,192,215825,1,0,0:0:0:0:
256,192,215825,1,0,0:0:0:0:
475,192,215825,1,0,0:0:0:0:
109,192,215825,1,0,0:0:0:0:
402,192,215825,1,0,0:0:0:0:
402,192,215961,1,0,0:0:0:0:
475,192,215961,1,0,0:0:0:0:
256,192,215961,128,0,216063:0:0:0:0:
329,192,215961,128,0,216063:0:0:0:0:
182,192,216029,1,0,0:0:0:0:
109,192,216029,1,0,0:0:0:0:
36,192,216029,1,0,0:0:0:0:
256,192,216097,1,0,0:0:0:0:
475,192,216097,1,0,0:0:0:0:
329,192,216097,128,0,216200:0:0:0:0:
402,192,216097,128,0,216200:0:0:0:0:
182,192,216166,1,0,0:0:0:0:
109,192,216166,1,0,0:0:0:0:
36,192,216166,1,0,0:0:0:0:
256,192,216234,1,0,0:0:0:0:
329,192,216234,1,0,0:0:0:0:
402,192,216234,128,0,216336:0:0:0:0:
475,192,216234,128,0,216336:0:0:0:0:
182,192,216302,1,0,0:0:0:0:
109,192,216302,1,0,0:0:0:0:
36,192,216302,1,0,0:0:0:0:
256,192,216370,1,0,0:0:0:0:
329,192,216370,1,0,0:0:0:0:
402,192,216370,1,0,0:0:0:0:
475,192,216370,1,0,0:0:0:0:
109,192,216643,1,0,0:0:0:0:
36,192,216643,1,0,0:0:0:0:
256,192,216643,128,0,216745:0:0:0:0:
182,192,216643,128,0,216745:0:0:0:0:
329,192,216711,1,0,0:0:0:0:
402,192,216711,1,0,0:0:0:0:
475,192,216711,1,0,0:0:0:0:
256,192,216779,1,0,0:0:0:0:
36,192,216779,1,0,0:0:0:0:
182,192,216779,128,0,216881:0:0:0:0:
109,192,216779,128,0,216881:0:0:0:0:
329,192,216847,1,0,0:0:0:0:
402,192,216847,1,0,0:0:0:0:
475,192,216847,1,0,0:0:0:0:
256,192,216916,1,0,0:0:0:0:
182,192,216916,1,0,0:0:0:0:
109,192,216916,1,0,0:0:0:0:
36,192,216916,1,0,0:0:0:0:
182,192,217188,1,0,0:0:0:0:
256,192,217188,1,0,0:0:0:0:
402,192,217188,1,0,0:0:0:0:
475,192,217188,1,0,0:0:0:0:
109,192,217256,1,0,0:0:0:0:
36,192,217256,1,0,0:0:0:0:
256,192,217325,1,0,0:0:0:0:
329,192,217325,1,0,0:0:0:0:
475,192,217325,1,0,0:0:0:0:
182,192,217461,1,0,0:0:0:0:
109,192,217461,1,0,0:0:0:0:
36,192,217461,1,0,0:0:0:0:
402,192,217461,1,0,0:0:0:0:
329,192,217461,1,0,0:0:0:0:
475,192,217461,1,0,0:0:0:0:
256,192,217597,1,0,0:0:0:0:
109,192,217597,1,0,0:0:0:0:
329,192,217597,1,0,0:0:0:0:
36,192,217597,1,0,0:0:0:0:
475,192,217666,1,0,0:0:0:0:
402,192,217666,1,0,0:0:0:0:
36,192,217734,1,0,0:0:0:0:
256,192,217734,1,0,0:0:0:0:
182,192,217734,1,0,0:0:0:0:
109,192,217734,1,0,0:0:0:0:
256,192,217870,1,0,0:0:0:0:
182,192,217870,1,0,0:0:0:0:
402,192,217870,1,0,0:0:0:0:
475,192,217870,1,0,0:0:0:0:
329,192,217870,1,0,0:0:0:0:
36,192,217938,1,0,0:0:0:0:
109,192,217938,1,0,0:0:0:0:
256,192,218006,1,0,0:0:0:0:
475,192,218006,1,0,0:0:0:0:
329,192,218006,1,0,0:0:0:0:
402,192,218006,1,0,0:0:0:0:
329,192,218143,128,0,218211:0:0:0:0:
402,192,218143,128,0,218211:0:0:0:0:
475,192,218143,128,0,218211:0:0:0:0:
182,192,218211,128,0,218279:0:0:0:0:
109,192,218211,128,0,218279:0:0:0:0:
36,192,218211,128,0,218279:0:0:0:0:
329,192,218279,128,0,218347:0:0:0:0:
402,192,218279,128,0,218347:0:0:0:0:
475,192,218279,128,0,218347:0:0:0:0:
182,192,218347,128,0,218416:0:0:0:0:
109,192,218347,128,0,218416:0:0:0:0:
36,192,218347,128,0,218416:0:0:0:0:
329,192,218416,128,0,218484:0:0:0:0:
402,192,218416,128,0,218484:0:0:0:0:
475,192,218416,128,0,218484:0:0:0:0:
182,192,218484,128,0,218552:0:0:0:0:
109,192,218484,128,0,218552:0:0:0:0:
36,192,218484,128,0,218552:0:0:0:0:
329,192,218552,128,0,218825:0:0:0:0:
402,192,218552,128,0,218825:0:0:0:0:
475,192,218552,128,0,218825:0:0:0:0:
182,192,218825,128,0,218893:0:0:0:0:
109,192,218825,128,0,218893:0:0:0:0:
36,192,218825,128,0,218893:0:0:0:0:
329,192,218893,128,0,218961:0:0:0:0:
402,192,218893,128,0,218961:0:0:0:0:
475,192,218893,128,0,218961:0:0:0:0:
182,192,218961,128,0,219029:0:0:0:0:
109,192,218961,128,0,219029:0:0:0:0:
36,192,218961,128,0,219029:0:0:0:0:
329,192,219029,128,0,219097:0:0:0:0:
402,192,219029,128,0,219097:0:0:0:0:
475,192,219029,128,0,219097:0:0:0:0:
182,192,219097,128,0,219234:0:0:0:0:
109,192,219097,128,0,219234:0:0:0:0:
36,192,219097,128,0,219234:0:0:0:0:
256,192,219234,128,0,219302:0:0:0:0:
329,192,219234,128,0,219302:0:0:0:0:
402,192,219234,128,0,219302:0:0:0:0:
475,192,219234,1,0,0:0:0:0:
329,192,219370,128,0,219438:0:0:0:0:
256,192,219370,128,0,219438:0:0:0:0:
182,192,219370,128,0,219438:0:0:0:0:
402,192,219370,1,0,0:0:0:0:
182,192,219506,128,0,219575:0:0:0:0:
256,192,219506,128,0,219575:0:0:0:0:
109,192,219506,128,0,219575:0:0:0:0:
329,192,219506,1,0,0:0:0:0:
182,192,219643,128,0,219711:0:0:0:0:
109,192,219643,128,0,219711:0:0:0:0:
36,192,219643,128,0,219711:0:0:0:0:
256,192,219643,1,0,0:0:0:0:
329,192,219779,128,0,219847:0:0:0:0:
402,192,219779,128,0,219847:0:0:0:0:
475,192,219779,128,0,219847:0:0:0:0:
256,192,219779,1,0,0:0:0:0:
182,192,219916,1,0,0:0:0:0:
256,192,219916,128,0,219984:0:0:0:0:
329,192,219916,128,0,219984:0:0:0:0:
402,192,219916,128,0,219984:0:0:0:0:
109,192,220052,1,0,0:0:0:0:
182,192,220052,128,0,220120:0:0:0:0:
256,192,220052,128,0,220120:0:0:0:0:
329,192,220052,128,0,220120:0:0:0:0:
36,192,220188,1,0,0:0:0:0:
109,192,220188,128,0,220256:0:0:0:0:
182,192,220188,128,0,220256:0:0:0:0:
256,192,220188,128,0,220256:0:0:0:0:
182,192,220325,128,0,220393:0:0:0:0:
109,192,220325,128,0,220393:0:0:0:0:
475,192,220325,1,0,0:0:0:0:
256,192,220325,128,0,221075:0:0:0:0:
329,192,220325,128,0,220529:0:0:0:0:
402,192,220325,128,0,220529:0:0:0:0:
109,192,220461,128,0,220529:0:0:0:0:
182,192,220461,128,0,220529:0:0:0:0:
182,192,220597,128,0,220666:0:0:0:0:
109,192,220597,128,0,220666:0:0:0:0:
329,192,220597,1,0,0:0:0:0:
402,192,220597,1,0,0:0:0:0:
109,192,220734,128,0,220802:0:0:0:0:
182,192,220734,128,0,220802:0:0:0:0:
475,192,220734,1,0,0:0:0:0:
109,192,220870,128,0,220938:0:0:0:0:
182,192,220870,128,0,220938:0:0:0:0:
402,192,220870,1,0,0:0:0:0:
329,192,220870,1,0,0:0:0:0:
109,192,221006,128,0,221075:0:0:0:0:
182,192,221006,128,0,221075:0:0:0:0:
36,192,221143,128,0,221211:0:0:0:0:
109,192,221143,128,0,221211:0:0:0:0:
475,192,221143,1,0,0:0:0:0:
329,192,221143,1,0,0:0:0:0:
182,192,221143,128,0,221893:0:0:0:0:
109,192,221279,128,0,221347:0:0:0:0:
36,192,221279,128,0,221347:0:0:0:0:
109,192,221416,128,0,221484:0:0:0:0:
36,192,221416,128,0,221484:0:0:0:0:
329,192,221416,128,0,221552:0:0:0:0:
402,192,221416,128,0,221552:0:0:0:0:
36,192,221552,128,0,221620:0:0:0:0:
109,192,221552,128,0,221620:0:0:0:0:
475,192,221552,1,0,0:0:0:0:
109,192,221688,128,0,221756:0:0:0:0:
36,192,221688,128,0,221756:0:0:0:0:
402,192,221688,1,0,0:0:0:0:
329,192,221688,1,0,0:0:0:0:
109,192,221825,128,0,221893:0:0:0:0:
36,192,221825,128,0,221893:0:0:0:0:
109,192,221961,128,0,222029:0:0:0:0:
182,192,221961,128,0,222029:0:0:0:0:
36,192,221961,128,0,222711:0:0:0:0:
329,192,221961,128,0,222166:0:0:0:0:
475,192,221961,128,0,222166:0:0:0:0:
182,192,222097,128,0,222166:0:0:0:0:
109,192,222097,128,0,222166:0:0:0:0:
109,192,222234,128,0,222302:0:0:0:0:
182,192,222234,128,0,222302:0:0:0:0:
329,192,222234,1,0,0:0:0:0:
402,192,222234,1,0,0:0:0:0:
182,192,222370,128,0,222438:0:0:0:0:
109,192,222370,128,0,222438:0:0:0:0:
475,192,222370,128,0,222404:0:0:0:0:
109,192,222506,128,0,222575:0:0:0:0:
182,192,222506,128,0,222575:0:0:0:0:
402,192,222506,1,0,0:0:0:0:
329,192,222506,1,0,0:0:0:0:
109,192,222643,128,0,222711:0:0:0:0:
182,192,222643,128,0,222711:0:0:0:0:
109,192,222779,128,0,222847:0:0:0:0:
36,192,222779,128,0,222847:0:0:0:0:
475,192,222779,1,0,0:0:0:0:
329,192,222779,1,0,0:0:0:0:
256,192,222779,128,0,223529:0:0:0:0:
36,192,222916,128,0,222984:0:0:0:0:
109,192,222916,128,0,222984:0:0:0:0:
109,192,223052,128,0,223120:0:0:0:0:
36,192,223052,128,0,223120:0:0:0:0:
329,192,223052,128,0,223188:0:0:0:0:
402,192,223052,128,0,223188:0:0:0:0:
36,192,223188,128,0,223256:0:0:0:0:
109,192,223188,128,0,223256:0:0:0:0:
475,192,223188,1,0,0:0:0:0:
36,192,223325,128,0,223393:0:0:0:0:
109,192,223325,128,0,223393:0:0:0:0:
402,192,223325,1,0,0:0:0:0:
329,192,223325,1,0,0:0:0:0:
109,192,223461,128,0,223529:0:0:0:0:
36,192,223461,128,0,223529:0:0:0:0:
182,192,223597,128,0,223666:0:0:0:0:
256,192,223597,128,0,223666:0:0:0:0:
402,192,223597,128,0,224347:0:0:0:0:
329,192,223597,128,0,223870:0:0:0:0:
475,192,223597,128,0,223870:0:0:0:0:
256,192,223734,128,0,223802:0:0:0:0:
182,192,223734,128,0,223802:0:0:0:0:
182,192,223870,128,0,223938:0:0:0:0:
256,192,223870,128,0,223938:0:0:0:0:
109,192,223870,1,0,0:0:0:0:
36,192,223870,1,0,0:0:0:0:
256,192,224006,128,0,224075:0:0:0:0:
182,192,224006,128,0,224075:0:0:0:0:
475,192,224006,1,0,0:0:0:0:
182,192,224143,128,0,224211:0:0:0:0:
256,192,224143,128,0,224211:0:0:0:0:
109,192,224143,1,0,0:0:0:0:
36,192,224143,1,0,0:0:0:0:
182,192,224279,128,0,224347:0:0:0:0:
256,192,224279,128,0,224347:0:0:0:0:
256,192,224416,128,0,224484:0:0:0:0:
329,192,224416,128,0,224484:0:0:0:0:
475,192,224416,1,0,0:0:0:0:
402,192,224416,1,0,0:0:0:0:
182,192,224416,128,0,225166:0:0:0:0:
36,192,224416,128,0,224620:0:0:0:0:
109,192,224416,128,0,224620:0:0:0:0:
329,192,224552,128,0,224620:0:0:0:0:
256,192,224552,128,0,224620:0:0:0:0:
256,192,224688,128,0,224756:0:0:0:0:
329,192,224688,128,0,224756:0:0:0:0:
109,192,224688,1,0,0:0:0:0:
36,192,224688,1,0,0:0:0:0:
256,192,224825,128,0,224893:0:0:0:0:
329,192,224825,128,0,224893:0:0:0:0:
475,192,224825,1,0,0:0:0:0:
329,192,224961,128,0,225029:0:0:0:0:
256,192,224961,128,0,225029:0:0:0:0:
36,192,224961,1,0,0:0:0:0:
109,192,224961,1,0,0:0:0:0:
256,192,225097,128,0,225166:0:0:0:0:
329,192,225097,128,0,225166:0:0:0:0:
329,192,225234,128,0,225302:0:0:0:0:
402,192,225234,128,0,225302:0:0:0:0:
475,192,225234,1,0,0:0:0:0:
256,192,225234,128,0,225984:0:0:0:0:
109,192,225234,128,0,225438:0:0:0:0:
182,192,225234,128,0,225438:0:0:0:0:
329,192,225370,128,0,225438:0:0:0:0:
402,192,225370,128,0,225438:0:0:0:0:
402,192,225506,128,0,225575:0:0:0:0:
329,192,225506,128,0,225575:0:0:0:0:
182,192,225506,1,0,0:0:0:0:
109,192,225506,1,0,0:0:0:0:
329,192,225643,128,0,225711:0:0:0:0:
402,192,225643,128,0,225711:0:0:0:0:
475,192,225643,1,0,0:0:0:0:
36,192,225643,1,0,0:0:0:0:
329,192,225779,128,0,225847:0:0:0:0:
402,192,225779,128,0,225847:0:0:0:0:
109,192,225779,1,0,0:0:0:0:
182,192,225779,1,0,0:0:0:0:
402,192,225916,128,0,225984:0:0:0:0:
329,192,225916,128,0,225984:0:0:0:0:
182,192,225916,1,0,0:0:0:0:
109,192,225916,1,0,0:0:0:0:
256,192,226052,128,0,226256:0:0:0:0:
329,192,226052,128,0,226256:0:0:0:0:
402,192,226052,128,0,226256:0:0:0:0:
475,192,226052,128,0,226256:0:0:0:0:
182,192,226052,1,0,0:0:0:0:
402,192,226325,128,0,226529:0:0:0:0:
256,192,226325,128,0,226529:0:0:0:0:
182,192,226325,128,0,226529:0:0:0:0:
329,192,226325,128,0,226529:0:0:0:0:
475,192,226325,128,0,226529:0:0:0:0:
109,192,226325,1,0,0:0:0:0:
109,192,226597,128,0,226802:0:0:0:0:
182,192,226597,128,0,226802:0:0:0:0:
256,192,226597,128,0,226802:0:0:0:0:
329,192,226597,128,0,226802:0:0:0:0:
402,192,226597,128,0,226802:0:0:0:0:
475,192,226597,128,0,226802:0:0:0:0:
36,192,226597,1,0,0:0:0:0:
329,192,226870,128,0,226938:0:0:0:0:
402,192,226870,128,0,226938:0:0:0:0:
256,192,226870,128,0,227620:0:0:0:0:
36,192,226870,128,0,227211:0:0:0:0:
109,192,226870,128,0,227075:0:0:0:0:
182,192,226870,128,0,227075:0:0:0:0:
402,192,227006,128,0,227075:0:0:0:0:
329,192,227006,128,0,227075:0:0:0:0:
329,192,227143,128,0,227211:0:0:0:0:
402,192,227143,128,0,227211:0:0:0:0:
109,192,227143,128,0,227211:0:0:0:0:
182,192,227143,128,0,227211:0:0:0:0:
402,192,227279,128,0,227347:0:0:0:0:
329,192,227279,128,0,227347:0:0:0:0:
36,192,227279,128,0,227313:0:0:0:0:
402,192,227416,128,0,227484:0:0:0:0:
329,192,227416,128,0,227484:0:0:0:0:
109,192,227416,1,0,0:0:0:0:
182,192,227416,1,0,0:0:0:0:
402,192,227552,128,0,227620:0:0:0:0:
329,192,227552,128,0,227620:0:0:0:0:
475,192,227688,128,0,227756:0:0:0:0:
402,192,227688,128,0,227756:0:0:0:0:
329,192,227688,128,0,228438:0:0:0:0:
182,192,227688,128,0,227893:0:0:0:0:
36,192,227688,128,0,228029:0:0:0:0:
402,192,227825,128,0,227893:0:0:0:0:
475,192,227825,128,0,227893:0:0:0:0:
402,192,227961,128,0,228029:0:0:0:0:
475,192,227961,128,0,228029:0:0:0:0:
109,192,227961,128,0,228029:0:0:0:0:
182,192,227961,128,0,228029:0:0:0:0:
475,192,228097,128,0,228166:0:0:0:0:
402,192,228097,128,0,228166:0:0:0:0:
36,192,228097,128,0,228131:0:0:0:0:
402,192,228234,128,0,228302:0:0:0:0:
475,192,228234,128,0,228302:0:0:0:0:
182,192,228234,1,0,0:0:0:0:
109,192,228234,1,0,0:0:0:0:
402,192,228370,128,0,228438:0:0:0:0:
475,192,228370,128,0,228438:0:0:0:0:
402,192,228506,128,0,228575:0:0:0:0:
329,192,228506,128,0,228575:0:0:0:0:
256,192,228506,128,0,229256:0:0:0:0:
182,192,228506,128,0,228711:0:0:0:0:
36,192,228506,128,0,228847:0:0:0:0:
329,192,228643,128,0,228711:0:0:0:0:
402,192,228643,128,0,228711:0:0:0:0:
402,192,228779,128,0,228847:0:0:0:0:
329,192,228779,128,0,228847:0:0:0:0:
109,192,228779,128,0,228847:0:0:0:0:
182,192,228779,128,0,228847:0:0:0:0:
329,192,228916,128,0,228984:0:0:0:0:
402,192,228916,128,0,228984:0:0:0:0:
36,192,228916,128,0,228950:0:0:0:0:
402,192,229052,128,0,229120:0:0:0:0:
329,192,229052,128,0,229120:0:0:0:0:
109,192,229052,1,0,0:0:0:0:
182,192,229052,1,0,0:0:0:0:
402,192,229188,128,0,229256:0:0:0:0:
329,192,229188,128,0,229256:0:0:0:0:
402,192,229325,128,0,229393:0:0:0:0:
475,192,229325,128,0,229393:0:0:0:0:
329,192,229325,128,0,230075:0:0:0:0:
182,192,229325,128,0,229529:0:0:0:0:
36,192,229325,128,0,229666:0:0:0:0:
475,192,229461,128,0,229529:0:0:0:0:
402,192,229461,128,0,229529:0:0:0:0:
402,192,229597,128,0,229666:0:0:0:0:
475,192,229597,128,0,229666:0:0:0:0:
109,192,229597,128,0,229666:0:0:0:0:
182,192,229597,128,0,229666:0:0:0:0:
475,192,229734,128,0,229802:0:0:0:0:
402,192,229734,128,0,229802:0:0:0:0:
36,192,229734,128,0,229768:0:0:0:0:
475,192,229870,128,0,229938:0:0:0:0:
402,192,229870,128,0,229938:0:0:0:0:
109,192,229870,1,0,0:0:0:0:
182,192,229870,1,0,0:0:0:0:
402,192,230006,128,0,230075:0:0:0:0:
475,192,230006,128,0,230075:0:0:0:0:
329,192,230143,128,0,230211:0:0:0:0:
256,192,230143,128,0,230211:0:0:0:0:
182,192,230143,128,0,230893:0:0:0:0:
36,192,230143,128,0,230484:0:0:0:0:
109,192,230143,128,0,230484:0:0:0:0:
256,192,230279,128,0,230347:0:0:0:0:
329,192,230279,128,0,230347:0:0:0:0:
329,192,230416,128,0,230484:0:0:0:0:
256,192,230416,128,0,230484:0:0:0:0:
402,192,230416,128,0,230484:0:0:0:0:
475,192,230416,128,0,230484:0:0:0:0:
256,192,230552,128,0,230620:0:0:0:0:
329,192,230552,128,0,230620:0:0:0:0:
36,192,230552,128,0,230586:0:0:0:0:
109,192,230552,128,0,230586:0:0:0:0:
329,192,230688,128,0,230756:0:0:0:0:
256,192,230688,128,0,230756:0:0:0:0:
402,192,230688,1,0,0:0:0:0:
475,192,230688,1,0,0:0:0:0:
329,192,230825,128,0,230893:0:0:0:0:
256,192,230825,128,0,230893:0:0:0:0:
256,192,230961,128,0,231029:0:0:0:0:
182,192,230961,128,0,231029:0:0:0:0:
109,192,230961,128,0,231711:0:0:0:0:
36,192,230961,128,0,231302:0:0:0:0:
402,192,230961,128,0,231166:0:0:0:0:
475,192,230961,128,0,231166:0:0:0:0:
182,192,231097,128,0,231166:0:0:0:0:
256,192,231097,128,0,231166:0:0:0:0:
256,192,231234,128,0,231302:0:0:0:0:
182,192,231234,128,0,231302:0:0:0:0:
402,192,231234,128,0,231370:0:0:0:0:
475,192,231234,128,0,231370:0:0:0:0:
256,192,231370,128,0,231438:0:0:0:0:
182,192,231370,128,0,231438:0:0:0:0:
36,192,231370,128,0,231404:0:0:0:0:
182,192,231506,128,0,231575:0:0:0:0:
256,192,231506,128,0,231575:0:0:0:0:
475,192,231506,1,0,0:0:0:0:
402,192,231506,1,0,0:0:0:0:
256,192,231643,128,0,231711:0:0:0:0:
182,192,231643,128,0,231711:0:0:0:0:
109,192,231779,128,0,231847:0:0:0:0:
182,192,231779,128,0,231847:0:0:0:0:
256,192,231779,128,0,232529:0:0:0:0:
475,192,231779,128,0,232325:0:0:0:0:
329,192,231779,128,0,231984:0:0:0:0:
402,192,231779,128,0,231984:0:0:0:0:
36,192,231779,128,0,231813:0:0:0:0:
182,192,231916,128,0,231984:0:0:0:0:
109,192,231916,128,0,231984:0:0:0:0:
109,192,232052,128,0,232120:0:0:0:0:
182,192,232052,128,0,232120:0:0:0:0:
402,192,232052,128,0,232188:0:0:0:0:
329,192,232052,128,0,232188:0:0:0:0:
109,192,232188,128,0,232256:0:0:0:0:
182,192,232188,128,0,232256:0:0:0:0:
36,192,232188,128,0,232222:0:0:0:0:
109,192,232325,128,0,232393:0:0:0:0:
182,192,232325,128,0,232393:0:0:0:0:
329,192,232325,1,0,0:0:0:0:
402,192,232325,1,0,0:0:0:0:
182,192,232461,128,0,232529:0:0:0:0:
109,192,232461,128,0,232529:0:0:0:0:
329,192,232597,128,0,232700:0:0:0:0:
402,192,232597,128,0,232700:0:0:0:0:
182,192,232597,1,0,0:0:0:0:
109,192,232597,1,0,0:0:0:0:
109,192,232734,128,0,232836:0:0:0:0:
182,192,232734,128,0,232836:0:0:0:0:
329,192,232734,1,0,0:0:0:0:
402,192,232734,1,0,0:0:0:0:
329,192,232870,128,0,232972:0:0:0:0:
402,192,232870,128,0,232972:0:0:0:0:
182,192,232870,1,0,0:0:0:0:
109,192,232870,1,0,0:0:0:0:
182,192,233006,128,0,233109:0:0:0:0:
109,192,233006,128,0,233109:0:0:0:0:
329,192,233006,1,0,0:0:0:0:
402,192,233006,1,0,0:0:0:0:
329,192,233143,128,0,233245:0:0:0:0:
402,192,233143,128,0,233245:0:0:0:0:
182,192,233143,1,0,0:0:0:0:
109,192,233143,1,0,0:0:0:0:
109,192,233279,128,0,233381:0:0:0:0:
182,192,233279,128,0,233381:0:0:0:0:
329,192,233279,1,0,0:0:0:0:
402,192,233279,1,0,0:0:0:0:
109,192,233416,128,0,234234:0:0:0:0:
182,192,233416,128,0,234234:0:0:0:0:
402,192,234234,128,0,235052:0:0:0:0:
475,192,234234,128,0,235052:0:0:0:0:
109,192,235052,128,0,235870:0:0:0:0:
36,192,235052,128,0,235870:0:0:0:0:
329,192,235870,128,0,236688:0:0:0:0:
402,192,235870,128,0,236688:0:0:0:0:
109,192,236688,128,0,236734:0:0:0:0:
182,192,236688,128,0,236734:0:0:0:0:
402,192,237097,128,0,237143:0:0:0:0:
475,192,237097,128,0,237143:0:0:0:0:
109,192,237506,128,0,237552:0:0:0:0:
36,192,237506,128,0,237552:0:0:0:0:
329,192,237916,128,0,237961:0:0:0:0:
402,192,237916,128,0,237961:0:0:0:0:
256,192,238324,128,0,238392:0:0:0:0:
182,192,238324,128,0,238392:0:0:0:0:
329,192,238324,128,0,238392:0:0:0:0:
36,192,238324,128,0,238460:0:0:0:0:
402,192,238392,1,0,0:0:0:0:
475,192,238392,128,0,238528:0:0:0:0:
256,192,238460,128,0,238528:0:0:0:0:
182,192,238460,128,0,238528:0:0:0:0:
109,192,238460,128,0,238528:0:0:0:0:
329,192,238528,1,0,0:0:0:0:
402,192,238528,128,0,238664:0:0:0:0:
182,192,238596,128,0,238664:0:0:0:0:
109,192,238596,128,0,238664:0:0:0:0:
36,192,238596,128,0,238733:0:0:0:0:
475,192,238596,128,0,238664:0:0:0:0:
256,192,238664,1,0,0:0:0:0:
329,192,238664,128,0,238733:0:0:0:0:
182,192,238733,128,0,238801:0:0:0:0:
109,192,238733,128,0,238801:0:0:0:0:
402,192,238733,128,0,238801:0:0:0:0:
329,192,238801,1,0,0:0:0:0:
256,192,238801,128,0,238937:0:0:0:0:
36,192,238869,128,0,238937:0:0:0:0:
109,192,238869,128,0,238937:0:0:0:0:
182,192,238869,128,0,238937:0:0:0:0:
475,192,238869,128,0,238937:0:0:0:0:
402,192,238937,1,0,0:0:0:0:
329,192,238937,128,0,239074:0:0:0:0:
182,192,239005,128,0,239074:0:0:0:0:
109,192,239005,128,0,239074:0:0:0:0:
256,192,239005,128,0,239074:0:0:0:0:
475,192,239074,1,0,0:0:0:0:
402,192,239074,128,0,239210:0:0:0:0:
36,192,239074,128,0,239142:0:0:0:0:
182,192,239142,128,0,239210:0:0:0:0:
256,192,239142,128,0,239210:0:0:0:0:
329,192,239142,128,0,239210:0:0:0:0:
109,192,239210,1,0,0:0:0:0:
475,192,239210,128,0,239346:0:0:0:0:
36,192,239210,128,0,239278:0:0:0:0:
256,192,239278,128,0,239346:0:0:0:0:
329,192,239278,128,0,239346:0:0:0:0:
402,192,239278,128,0,239346:0:0:0:0:
182,192,239346,1,0,0:0:0:0:
109,192,239346,128,0,239414:0:0:0:0:
36,192,239414,128,0,239551:0:0:0:0:
256,192,239414,128,0,239551:0:0:0:0:
402,192,239414,128,0,239483:0:0:0:0:
182,192,239483,128,0,239551:0:0:0:0:
109,192,239551,128,0,239687:0:0:0:0:
329,192,239551,128,0,239687:0:0:0:0:
475,192,239551,128,0,239619:0:0:0:0:
256,192,239619,128,0,239687:0:0:0:0:
182,192,239687,128,0,239824:0:0:0:0:
402,192,239687,128,0,239824:0:0:0:0:
36,192,239755,128,0,239824:0:0:0:0:
329,192,239755,128,0,239824:0:0:0:0:
256,192,239824,128,0,239960:0:0:0:0:
475,192,239824,128,0,239960:0:0:0:0:
109,192,239892,128,0,239960:0:0:0:0:
402,192,239892,128,0,239960:0:0:0:0:
36,192,239960,128,0,240096:0:0:0:0:
329,192,239960,128,0,240096:0:0:0:0:
182,192,240028,128,0,240096:0:0:0:0:
475,192,240028,128,0,240096:0:0:0:0:
109,192,240096,128,0,240233:0:0:0:0:
402,192,240096,128,0,240233:0:0:0:0:
256,192,240164,128,0,240233:0:0:0:0:
36,192,240164,128,0,240233:0:0:0:0:
182,192,240233,128,0,240369:0:0:0:0:
475,192,240233,128,0,240369:0:0:0:0:
109,192,240301,128,0,240369:0:0:0:0:
329,192,240301,128,0,240369:0:0:0:0:
256,192,240369,128,0,240505:0:0:0:0:
36,192,240369,128,0,240437:0:0:0:0:
182,192,240437,128,0,240505:0:0:0:0:
402,192,240437,128,0,240505:0:0:0:0:
36,192,240505,128,0,240574:0:0:0:0:
109,192,240505,128,0,240574:0:0:0:0:
329,192,240505,128,0,240710:0:0:0:0:
475,192,240574,128,0,240642:0:0:0:0:
402,192,240642,128,0,240710:0:0:0:0:
36,192,240642,128,0,240710:0:0:0:0:
109,192,240642,128,0,240710:0:0:0:0:
256,192,240642,128,0,240846:0:0:0:0:
475,192,240710,128,0,240778:0:0:0:0:
329,192,240778,128,0,240846:0:0:0:0:
402,192,240778,128,0,240846:0:0:0:0:
182,192,240778,128,0,240983:0:0:0:0:
109,192,240846,128,0,240914:0:0:0:0:
329,192,240914,128,0,240983:0:0:0:0:
402,192,240914,128,0,240983:0:0:0:0:
36,192,240983,128,0,241051:0:0:0:0:
109,192,240983,128,0,241051:0:0:0:0:
256,192,241051,128,0,241119:0:0:0:0:
182,192,241051,128,0,241119:0:0:0:0:
329,192,241051,128,0,241255:0:0:0:0:
475,192,241119,128,0,241187:0:0:0:0:
402,192,241119,128,0,241187:0:0:0:0:
109,192,241187,128,0,241255:0:0:0:0:
256,192,241187,128,0,241255:0:0:0:0:
36,192,241187,128,0,241255:0:0:0:0:
402,192,241255,128,0,241324:0:0:0:0:
182,192,241324,128,0,241392:0:0:0:0:
36,192,241324,128,0,241392:0:0:0:0:
256,192,241324,128,0,241528:0:0:0:0:
329,192,241392,128,0,241460:0:0:0:0:
475,192,241392,128,0,241460:0:0:0:0:
182,192,241460,128,0,241528:0:0:0:0:
36,192,241460,128,0,241528:0:0:0:0:
329,192,241528,128,0,241596:0:0:0:0:
475,192,241528,128,0,241596:0:0:0:0:
36,192,241596,128,0,241733:0:0:0:0:
256,192,241596,128,0,241733:0:0:0:0:
402,192,241596,128,0,241664:0:0:0:0:
109,192,241596,1,0,0:0:0:0:
182,192,241664,128,0,241733:0:0:0:0:
109,192,241733,128,0,241869:0:0:0:0:
329,192,241733,128,0,241869:0:0:0:0:
475,192,241733,128,0,241801:0:0:0:0:
402,192,241733,1,0,0:0:0:0:
256,192,241801,128,0,241869:0:0:0:0:
182,192,241869,128,0,242005:0:0:0:0:
402,192,241869,128,0,242005:0:0:0:0:
36,192,241869,128,0,241937:0:0:0:0:
475,192,241869,1,0,0:0:0:0:
329,192,241937,128,0,242005:0:0:0:0:
256,192,242005,128,0,242142:0:0:0:0:
475,192,242005,128,0,242142:0:0:0:0:
109,192,242005,128,0,242074:0:0:0:0:
36,192,242005,1,0,0:0:0:0:
402,192,242074,128,0,242142:0:0:0:0:
36,192,242142,128,0,242278:0:0:0:0:
329,192,242142,128,0,242278:0:0:0:0:
182,192,242142,128,0,242210:0:0:0:0:
109,192,242142,1,0,0:0:0:0:
475,192,242210,128,0,242278:0:0:0:0:
109,192,242278,128,0,242414:0:0:0:0:
402,192,242278,128,0,242414:0:0:0:0:
256,192,242278,128,0,242346:0:0:0:0:
182,192,242278,1,0,0:0:0:0:
36,192,242346,128,0,242414:0:0:0:0:
182,192,242414,128,0,242551:0:0:0:0:
475,192,242414,128,0,242551:0:0:0:0:
329,192,242414,128,0,242483:0:0:0:0:
256,192,242414,1,0,0:0:0:0:
109,192,242483,128,0,242551:0:0:0:0:
256,192,242551,128,0,242687:0:0:0:0:
402,192,242551,128,0,242619:0:0:0:0:
329,192,242551,1,0,0:0:0:0:
36,192,242551,1,0,0:0:0:0:
182,192,242619,128,0,242687:0:0:0:0:
36,192,242687,128,0,242755:0:0:0:0:
109,192,242687,128,0,242755:0:0:0:0:
329,192,242687,128,0,242892:0:0:0:0:
402,192,242687,1,0,0:0:0:0:
475,192,242755,128,0,242824:0:0:0:0:
182,192,242824,128,0,242892:0:0:0:0:
256,192,242824,128,0,243028:0:0:0:0:
109,192,242824,128,0,242892:0:0:0:0:
402,192,242824,1,0,0:0:0:0:
36,192,242892,128,0,242960:0:0:0:0:
475,192,242892,128,0,242960:0:0:0:0:
329,192,242960,128,0,243028:0:0:0:0:
182,192,242960,128,0,243164:0:0:0:0:
402,192,242960,128,0,243028:0:0:0:0:
109,192,243028,128,0,243096:0:0:0:0:
329,192,243096,128,0,243164:0:0:0:0:
36,192,243096,128,0,243164:0:0:0:0:
256,192,243096,1,0,0:0:0:0:
402,192,243164,128,0,243233:0:0:0:0:
475,192,243164,128,0,243233:0:0:0:0:
109,192,243233,128,0,243301:0:0:0:0:
36,192,243233,128,0,243301:0:0:0:0:
182,192,243233,128,0,243301:0:0:0:0:
256,192,243233,128,0,243437:0:0:0:0:
329,192,243233,1,0,0:0:0:0:
402,192,243301,128,0,243369:0:0:0:0:
182,192,243369,128,0,243437:0:0:0:0:
475,192,243369,128,0,243437:0:0:0:0:
109,192,243369,128,0,243437:0:0:0:0:
36,192,243369,1,0,0:0:0:0:
402,192,243437,128,0,243505:0:0:0:0:
182,192,243505,128,0,243574:0:0:0:0:
256,192,243505,128,0,243710:0:0:0:0:
329,192,243505,128,0,243574:0:0:0:0:
109,192,243505,1,0,0:0:0:0:
475,192,243574,128,0,243642:0:0:0:0:
109,192,243574,128,0,243642:0:0:0:0:
36,192,243642,128,0,243710:0:0:0:0:
402,192,243642,128,0,243710:0:0:0:0:
109,192,243710,128,0,243778:0:0:0:0:
329,192,243710,128,0,243778:0:0:0:0:
475,192,243778,128,0,243914:0:0:0:0:
256,192,243778,128,0,243914:0:0:0:0:
182,192,243778,128,0,243846:0:0:0:0:
402,192,243778,1,0,0:0:0:0:
329,192,243846,128,0,243914:0:0:0:0:
402,192,243914,128,0,244051:0:0:0:0:
182,192,243914,128,0,244051:0:0:0:0:
109,192,243914,128,0,243983:0:0:0:0:
36,192,243914,1,0,0:0:0:0:
256,192,243983,128,0,244051:0:0:0:0:
329,192,244051,128,0,244187:0:0:0:0:
109,192,244051,128,0,244187:0:0:0:0:
36,192,244051,128,0,244119:0:0:0:0:
475,192,244051,1,0,0:0:0:0:
182,192,244119,128,0,244187:0:0:0:0:
256,192,244187,128,0,244324:0:0:0:0:
36,192,244187,128,0,244324:0:0:0:0:
475,192,244187,128,0,244255:0:0:0:0:
402,192,244187,1,0,0:0:0:0:
109,192,244255,128,0,244324:0:0:0:0:
475,192,244324,128,0,244460:0:0:0:0:
182,192,244324,128,0,244460:0:0:0:0:
402,192,244324,128,0,244392:0:0:0:0:
329,192,244324,1,0,0:0:0:0:
36,192,244392,128,0,244460:0:0:0:0:
402,192,244460,128,0,244596:0:0:0:0:
109,192,244460,128,0,244596:0:0:0:0:
329,192,244460,128,0,244528:0:0:0:0:
256,192,244460,1,0,0:0:0:0:
475,192,244528,128,0,244596:0:0:0:0:
329,192,244596,128,0,244733:0:0:0:0:
36,192,244596,128,0,244733:0:0:0:0:
256,192,244596,128,0,244664:0:0:0:0:
182,192,244596,1,0,0:0:0:0:
402,192,244664,128,0,244733:0:0:0:0:
256,192,244733,128,0,244869:0:0:0:0:
182,192,244733,128,0,244801:0:0:0:0:
109,192,244733,1,0,0:0:0:0:
475,192,244733,1,0,0:0:0:0:
329,192,244801,128,0,244869:0:0:0:0:
475,192,244869,128,0,244937:0:0:0:0:
402,192,244869,128,0,244937:0:0:0:0:
182,192,244869,128,0,245074:0:0:0:0:
36,192,244869,128,0,244937:0:0:0:0:
109,192,244869,1,0,0:0:0:0:
109,192,244937,128,0,245005:0:0:0:0:
329,192,244937,128,0,245005:0:0:0:0:
256,192,245005,128,0,245210:0:0:0:0:
402,192,245005,128,0,245074:0:0:0:0:
475,192,245005,128,0,245074:0:0:0:0:
36,192,245074,128,0,245142:0:0:0:0:
329,192,245074,128,0,245346:0:0:0:0:
182,192,245142,128,0,245210:0:0:0:0:
109,192,245142,128,0,245210:0:0:0:0:
475,192,245142,128,0,245210:0:0:0:0:
402,192,245142,1,0,0:0:0:0:
402,192,245210,128,0,245278:0:0:0:0:
36,192,245210,128,0,245278:0:0:0:0:
475,192,245278,128,0,245346:0:0:0:0:
109,192,245278,128,0,245346:0:0:0:0:
256,192,245278,1,0,0:0:0:0:
182,192,245346,128,0,245414:0:0:0:0:
36,192,245346,128,0,245414:0:0:0:0:
475,192,245414,128,0,245483:0:0:0:0:
329,192,245414,128,0,245483:0:0:0:0:
256,192,245414,128,0,245619:0:0:0:0:
402,192,245414,1,0,0:0:0:0:
182,192,245483,128,0,245551:0:0:0:0:
36,192,245483,1,0,0:0:0:0:
329,192,245551,128,0,245619:0:0:0:0:
402,192,245551,128,0,245619:0:0:0:0:
475,192,245551,1,0,0:0:0:0:
109,192,245551,128,0,245619:0:0:0:0:
36,192,245619,128,0,245687:0:0:0:0:
329,192,245687,128,0,245755:0:0:0:0:
256,192,245687,128,0,245892:0:0:0:0:
182,192,245687,128,0,245755:0:0:0:0:
109,192,245687,1,0,0:0:0:0:
475,192,245755,128,0,245824:0:0:0:0:
402,192,245755,1,0,0:0:0:0:
36,192,245824,128,0,245892:0:0:0:0:
109,192,245824,128,0,245892:0:0:0:0:
182,192,245824,1,0,0:0:0:0:
402,192,245892,128,0,245960:0:0:0:0:
329,192,245892,1,0,0:0:0:0:
475,192,245960,128,0,246028:0:0:0:0:
256,192,245960,1,0,0:0:0:0:
182,192,245960,128,0,246028:0:0:0:0:
109,192,246028,1,0,0:0:0:0:
36,192,246028,128,0,246164:0:0:0:0:
402,192,246028,128,0,246164:0:0:0:0:
329,192,246096,1,0,0:0:0:0:
256,192,246096,128,0,246164:0:0:0:0:
182,192,246164,1,0,0:0:0:0:
109,192,246164,128,0,246301:0:0:0:0:
475,192,246164,128,0,246301:0:0:0:0:
402,192,246233,1,0,0:0:0:0:
329,192,246233,128,0,246301:0:0:0:0:
182,192,246301,1,0,0:0:0:0:
256,192,246301,128,0,246437:0:0:0:0:
475,192,246369,1,0,0:0:0:0:
36,192,246369,128,0,246437:0:0:0:0:
402,192,246369,128,0,246437:0:0:0:0:
182,192,246437,1,0,0:0:0:0:
109,192,246437,128,0,246574:0:0:0:0:
402,192,246505,1,0,0:0:0:0:
475,192,246505,128,0,246642:0:0:0:0:
329,192,246505,128,0,246574:0:0:0:0:
182,192,246574,1,0,0:0:0:0:
36,192,246574,1,0,0:0:0:0:
329,192,246642,1,0,0:0:0:0:
402,192,246642,128,0,246778:0:0:0:0:
256,192,246642,128,0,246710:0:0:0:0:
109,192,246710,1,0,0:0:0:0:
36,192,246710,128,0,246846:0:0:0:0:
256,192,246778,1,0,0:0:0:0:
329,192,246778,1,0,0:0:0:0:
182,192,246778,128,0,246846:0:0:0:0:
402,192,246846,128,0,246983:0:0:0:0:
182,192,246914,1,0,0:0:0:0:
109,192,246914,128,0,246983:0:0:0:0:
256,192,246914,128,0,247051:0:0:0:0:
329,192,246983,1,0,0:0:0:0:
475,192,246983,1,0,0:0:0:0:
182,192,247051,1,0,0:0:0:0:
109,192,247051,1,0,0:0:0:0:
36,192,247051,1,0,0:0:0:0:
329,192,247119,1,0,0:0:0:0:
402,192,247119,1,0,0:0:0:0:
475,192,247119,1,0,0:0:0:0:
182,192,247187,1,0,0:0:0:0:
109,192,247187,1,0,0:0:0:0:
36,192,247187,1,0,0:0:0:0:
329,192,247255,1,0,0:0:0:0:
475,192,247255,1,0,0:0:0:0:
402,192,247255,1,0,0:0:0:0:
256,192,247324,1,0,0:0:0:0:
109,192,247324,1,0,0:0:0:0:
36,192,247324,1,0,0:0:0:0:
402,192,247392,1,0,0:0:0:0:
475,192,247392,1,0,0:0:0:0:
256,192,247460,1,0,0:0:0:0:
109,192,247460,1,0,0:0:0:0:
36,192,247460,1,0,0:0:0:0:
402,192,247528,1,0,0:0:0:0:
475,192,247528,1,0,0:0:0:0:
182,192,247596,1,0,0:0:0:0:
36,192,247596,1,0,0:0:0:0:
109,192,247596,1,0,0:0:0:0:
329,192,247664,1,0,0:0:0:0:
475,192,247664,1,0,0:0:0:0:
402,192,247664,1,0,0:0:0:0:
36,192,247733,1,0,0:0:0:0:
182,192,247733,1,0,0:0:0:0:
109,192,247733,1,0,0:0:0:0:
329,192,247801,1,0,0:0:0:0:
475,192,247801,1,0,0:0:0:0:
402,192,247801,1,0,0:0:0:0:
256,192,247869,128,0,247914:0:0:0:0:
256,192,248005,1,0,0:0:0:0:
402,192,248005,1,0,0:0:0:0:
182,192,248074,1,0,0:0:0:0:
329,192,248074,1,0,0:0:0:0:
475,192,248142,128,0,248244:0:0:0:0:
256,192,248142,128,0,248278:0:0:0:0:
109,192,248142,128,0,248210:0:0:0:0:
402,192,248142,1,0,0:0:0:0:
36,192,248142,1,0,0:0:0:0:
329,192,248210,128,0,248278:0:0:0:0:
402,192,248278,128,0,248380:0:0:0:0:
182,192,248278,128,0,248414:0:0:0:0:
36,192,248278,128,0,248346:0:0:0:0:
109,192,248278,1,0,0:0:0:0:
475,192,248278,1,0,0:0:0:0:
256,192,248346,128,0,248414:0:0:0:0:
329,192,248414,128,0,248517:0:0:0:0:
109,192,248414,128,0,248551:0:0:0:0:
402,192,248414,1,0,0:0:0:0:
475,192,248483,128,0,248551:0:0:0:0:
182,192,248483,128,0,248551:0:0:0:0:
256,192,248551,128,0,248687:0:0:0:0:
36,192,248551,128,0,248687:0:0:0:0:
329,192,248551,1,0,0:0:0:0:
402,192,248551,128,0,248619:0:0:0:0:
475,192,248619,128,0,248687:0:0:0:0:
109,192,248619,128,0,248687:0:0:0:0:
402,192,248687,128,0,248824:0:0:0:0:
182,192,248687,128,0,248789:0:0:0:0:
329,192,248687,128,0,248755:0:0:0:0:
475,192,248755,128,0,248824:0:0:0:0:
36,192,248755,128,0,248824:0:0:0:0:
329,192,248824,128,0,248960:0:0:0:0:
109,192,248824,128,0,248926:0:0:0:0:
256,192,248824,128,0,248892:0:0:0:0:
182,192,248824,1,0,0:0:0:0:
402,192,248892,128,0,248960:0:0:0:0:
475,192,248892,128,0,248960:0:0:0:0:
256,192,248960,128,0,249096:0:0:0:0:
36,192,248960,128,0,249062:0:0:0:0:
182,192,248960,128,0,249028:0:0:0:0:
109,192,248960,1,0,0:0:0:0:
402,192,249028,128,0,249096:0:0:0:0:
329,192,249028,128,0,249096:0:0:0:0:
182,192,249096,128,0,249233:0:0:0:0:
475,192,249096,128,0,249164:0:0:0:0:
109,192,249096,128,0,249164:0:0:0:0:
36,192,249096,1,0,0:0:0:0:
256,192,249164,128,0,249233:0:0:0:0:
329,192,249164,128,0,249233:0:0:0:0:
36,192,249233,128,0,249301:0:0:0:0:
109,192,249233,128,0,249301:0:0:0:0:
402,192,249233,128,0,249335:0:0:0:0:
475,192,249301,128,0,249335:0:0:0:0:
256,192,249301,128,0,249403:0:0:0:0:
182,192,249301,128,0,249335:0:0:0:0:
329,192,249369,128,0,249403:0:0:0:0:
109,192,249369,128,0,249471:0:0:0:0:
36,192,249369,128,0,249403:0:0:0:0:
182,192,249437,128,0,249471:0:0:0:0:
402,192,249437,128,0,249505:0:0:0:0:
329,192,249505,128,0,249608:0:0:0:0:
36,192,249505,128,0,249574:0:0:0:0:
475,192,249505,128,0,249574:0:0:0:0:
256,192,249505,128,0,249539:0:0:0:0:
109,192,249574,128,0,249608:0:0:0:0:
402,192,249574,128,0,249608:0:0:0:0:
182,192,249574,128,0,249676:0:0:0:0:
36,192,249642,128,0,249744:0:0:0:0:
256,192,249642,128,0,249676:0:0:0:0:
109,192,249710,128,0,249744:0:0:0:0:
329,192,249710,128,0,249778:0:0:0:0:
402,192,249710,128,0,249778:0:0:0:0:
256,192,249778,128,0,249812:0:0:0:0:
475,192,249778,128,0,249846:0:0:0:0:
182,192,249778,128,0,249880:0:0:0:0:
36,192,249778,128,0,249846:0:0:0:0:
329,192,249846,128,0,249949:0:0:0:0:
402,192,249846,128,0,249880:0:0:0:0:
109,192,249846,128,0,249880:0:0:0:0:
475,192,249914,128,0,250017:0:0:0:0:
256,192,249914,128,0,249949:0:0:0:0:
36,192,249914,128,0,249983:0:0:0:0:
402,192,249983,128,0,250017:0:0:0:0:
109,192,249983,128,0,250085:0:0:0:0:
182,192,249983,128,0,250017:0:0:0:0:
36,192,250051,128,0,250085:0:0:0:0:
329,192,250051,128,0,250085:0:0:0:0:
256,192,250051,128,0,250153:0:0:0:0:
475,192,250119,128,0,250153:0:0:0:0:
182,192,250119,128,0,250153:0:0:0:0:
402,192,250119,128,0,250221:0:0:0:0:
109,192,250187,128,0,250255:0:0:0:0:
329,192,250187,128,0,250221:0:0:0:0:
36,192,250187,128,0,250255:0:0:0:0:
256,192,250255,128,0,250324:0:0:0:0:
475,192,250255,128,0,250324:0:0:0:0:
182,192,250289,128,0,250324:0:0:0:0:
329,192,250324,128,0,250460:0:0:0:0:
109,192,250324,128,0,250426:0:0:0:0:
402,192,250324,128,0,250358:0:0:0:0:
36,192,250324,1,0,0:0:0:0:
256,192,250392,128,0,250460:0:0:0:0:
109,192,250460,1,0,0:0:0:0:
182,192,250460,128,0,250562:0:0:0:0:
402,192,250460,128,0,250596:0:0:0:0:
475,192,250460,128,0,250494:0:0:0:0:
329,192,250528,128,0,250596:0:0:0:0:
36,192,250528,128,0,250562:0:0:0:0:
182,192,250596,1,0,0:0:0:0:
256,192,250596,128,0,250699:0:0:0:0:
475,192,250596,128,0,250733:0:0:0:0:
402,192,250664,128,0,250733:0:0:0:0:
109,192,250664,128,0,250699:0:0:0:0:
256,192,250733,1,0,0:0:0:0:
36,192,250733,128,0,250801:0:0:0:0:
329,192,250733,128,0,250835:0:0:0:0:
475,192,250801,128,0,250869:0:0:0:0:
182,192,250801,128,0,250835:0:0:0:0:
36,192,250869,128,0,250971:0:0:0:0:
256,192,250869,128,0,250937:0:0:0:0:
402,192,250869,128,0,250903:0:0:0:0:
109,192,250869,128,0,250937:0:0:0:0:
329,192,250869,1,0,0:0:0:0:
182,192,250937,128,0,250971:0:0:0:0:
36,192,251005,1,0,0:0:0:0:
109,192,251005,128,0,251108:0:0:0:0:
329,192,251005,128,0,251074:0:0:0:0:
402,192,251005,128,0,251039:0:0:0:0:
475,192,251005,1,0,0:0:0:0:
256,192,251074,128,0,251108:0:0:0:0:
109,192,251142,1,0,0:0:0:0:
182,192,251142,128,0,251244:0:0:0:0:
402,192,251142,128,0,251210:0:0:0:0:
475,192,251142,128,0,251176:0:0:0:0:
36,192,251142,128,0,251210:0:0:0:0:
329,192,251210,128,0,251244:0:0:0:0:
182,192,251278,1,0,0:0:0:0:
256,192,251278,128,0,251380:0:0:0:0:
475,192,251278,128,0,251346:0:0:0:0:
109,192,251278,128,0,251346:0:0:0:0:
402,192,251346,128,0,251380:0:0:0:0:
36,192,251346,128,0,251380:0:0:0:0:
475,192,251414,128,0,251483:0:0:0:0:
109,192,251414,128,0,251517:0:0:0:0:
182,192,251414,128,0,251449:0:0:0:0:
36,192,251483,128,0,251517:0:0:0:0:
256,192,251483,128,0,251585:0:0:0:0:
329,192,251483,128,0,251517:0:0:0:0:
182,192,251551,128,0,251585:0:0:0:0:
402,192,251551,128,0,251653:0:0:0:0:
475,192,251551,128,0,251585:0:0:0:0:
329,192,251619,128,0,251653:0:0:0:0:
109,192,251619,128,0,251687:0:0:0:0:
182,192,251687,128,0,251789:0:0:0:0:
475,192,251687,128,0,251755:0:0:0:0:
36,192,251687,128,0,251755:0:0:0:0:
256,192,251687,128,0,251721:0:0:0:0:
402,192,251755,128,0,251789:0:0:0:0:
109,192,251755,128,0,251789:0:0:0:0:
329,192,251755,128,0,251858:0:0:0:0:
475,192,251824,128,0,251926:0:0:0:0:
256,192,251824,128,0,251858:0:0:0:0:
36,192,251824,128,0,251892:0:0:0:0:
402,192,251892,128,0,251926:0:0:0:0:
182,192,251892,128,0,251960:0:0:0:0:
109,192,251892,128,0,251960:0:0:0:0:
256,192,251960,128,0,251994:0:0:0:0:
36,192,251960,128,0,252028:0:0:0:0:
329,192,251960,128,0,252062:0:0:0:0:
475,192,251960,128,0,252028:0:0:0:0:
182,192,252028,128,0,252130:0:0:0:0:
109,192,252028,128,0,252062:0:0:0:0:
402,192,252028,128,0,252062:0:0:0:0:
36,192,252096,128,0,252199:0:0:0:0:
256,192,252096,128,0,252130:0:0:0:0:
475,192,252096,128,0,252164:0:0:0:0:
109,192,252164,128,0,252199:0:0:0:0:
402,192,252164,128,0,252267:0:0:0:0:
329,192,252164,128,0,252199:0:0:0:0:
475,192,252233,128,0,252267:0:0:0:0:
182,192,252233,128,0,252267:0:0:0:0:
256,192,252233,128,0,252335:0:0:0:0:
36,192,252301,128,0,252335:0:0:0:0:
329,192,252301,128,0,252335:0:0:0:0:
109,192,252301,128,0,252403:0:0:0:0:
402,192,252369,128,0,252437:0:0:0:0:
182,192,252369,128,0,252403:0:0:0:0:
475,192,252369,128,0,252437:0:0:0:0:
256,192,252437,128,0,252505:0:0:0:0:
36,192,252437,128,0,252505:0:0:0:0:
329,192,252471,128,0,252505:0:0:0:0:
109,192,252505,128,0,252642:0:0:0:0:
182,192,252505,128,0,252608:0:0:0:0:
475,192,252505,1,0,0:0:0:0:
402,192,252574,1,0,0:0:0:0:
36,192,252642,128,0,252778:0:0:0:0:
182,192,252642,1,0,0:0:0:0:
256,192,252642,128,0,252744:0:0:0:0:
329,192,252642,1,0,0:0:0:0:
402,192,252710,1,0,0:0:0:0:
256,192,252778,1,0,0:0:0:0:
329,192,252778,128,0,252880:0:0:0:0:
475,192,252778,128,0,252914:0:0:0:0:
182,192,252778,1,0,0:0:0:0:
109,192,252846,1,0,0:0:0:0:
329,192,252914,1,0,0:0:0:0:
256,192,252914,128,0,253017:0:0:0:0:
402,192,252914,128,0,253051:0:0:0:0:
36,192,252914,1,0,0:0:0:0:
109,192,252983,1,0,0:0:0:0:
256,192,253051,1,0,0:0:0:0:
182,192,253051,128,0,253153:0:0:0:0:
36,192,253051,128,0,253187:0:0:0:0:
329,192,253051,1,0,0:0:0:0:
402,192,253119,1,0,0:0:0:0:
182,192,253187,1,0,0:0:0:0:
256,192,253187,128,0,253289:0:0:0:0:
109,192,253187,128,0,253324:0:0:0:0:
475,192,253187,1,0,0:0:0:0:
402,192,253255,1,0,0:0:0:0:
256,192,253324,1,0,0:0:0:0:
329,192,253324,128,0,253426:0:0:0:0:
475,192,253324,128,0,253460:0:0:0:0:
36,192,253324,1,0,0:0:0:0:
109,192,253392,1,0,0:0:0:0:
329,192,253460,1,0,0:0:0:0:
256,192,253460,128,0,253562:0:0:0:0:
402,192,253460,128,0,253596:0:0:0:0:
182,192,253460,1,0,0:0:0:0:
36,192,253528,1,0,0:0:0:0:
182,192,253596,128,0,253699:0:0:0:0:
109,192,253596,128,0,253699:0:0:0:0:
256,192,253596,1,0,0:0:0:0:
109,192,253733,1,0,0:0:0:0:
182,192,253733,1,0,0:0:0:0:
402,192,253733,128,0,253835:0:0:0:0:
475,192,253733,128,0,253835:0:0:0:0:
475,192,253869,1,0,0:0:0:0:
402,192,253869,1,0,0:0:0:0:
109,192,253869,128,0,253971:0:0:0:0:
36,192,253869,128,0,253971:0:0:0:0:
256,192,253869,1,0,0:0:0:0:
36,192,254005,1,0,0:0:0:0:
109,192,254005,1,0,0:0:0:0:
329,192,254005,128,0,254108:0:0:0:0:
402,192,254005,128,0,254108:0:0:0:0:
402,192,254142,1,0,0:0:0:0:
329,192,254142,1,0,0:0:0:0:
109,192,254142,128,0,254244:0:0:0:0:
182,192,254142,128,0,254244:0:0:0:0:
256,192,254142,1,0,0:0:0:0:
182,192,254278,1,0,0:0:0:0:
109,192,254278,1,0,0:0:0:0:
402,192,254278,128,0,254380:0:0:0:0:
475,192,254278,128,0,254380:0:0:0:0:
256,192,254346,1,0,0:0:0:0:
402,192,254414,1,0,0:0:0:0:
475,192,254414,1,0,0:0:0:0:
109,192,254414,128,0,254517:0:0:0:0:
36,192,254414,128,0,254517:0:0:0:0:
182,192,254414,1,0,0:0:0:0:
329,192,254414,1,0,0:0:0:0:
36,192,254551,1,0,0:0:0:0:
109,192,254551,1,0,0:0:0:0:
329,192,254551,128,0,254653:0:0:0:0:
402,192,254551,128,0,254653:0:0:0:0:
256,192,254619,1,0,0:0:0:0:
36,192,254687,128,0,254755:0:0:0:0:
109,192,254687,128,0,254755:0:0:0:0:
182,192,254687,128,0,254824:0:0:0:0:
329,192,254687,1,0,0:0:0:0:
402,192,254687,1,0,0:0:0:0:
475,192,254687,128,0,255096:0:0:0:0:
109,192,254824,128,0,254960:0:0:0:0:
36,192,254824,128,0,254892:0:0:0:0:
256,192,254824,1,0,0:0:0:0:
329,192,254824,1,0,0:0:0:0:
402,192,254824,128,0,255096:0:0:0:0:
256,192,254960,1,0,0:0:0:0:
182,192,254960,1,0,0:0:0:0:
36,192,254960,128,0,255096:0:0:0:0:
329,192,254960,128,0,255096:0:0:0:0:
182,192,255096,1,0,0:0:0:0:
109,192,255096,1,0,0:0:0:0:
256,192,255096,128,0,255233:0:0:0:0:
329,192,255233,128,0,255369:0:0:0:0:
402,192,255233,128,0,255301:0:0:0:0:
109,192,255233,1,0,0:0:0:0:
475,192,255233,128,0,255301:0:0:0:0:
182,192,255233,1,0,0:0:0:0:
36,192,255233,128,0,255642:0:0:0:0:
256,192,255369,1,0,0:0:0:0:
402,192,255369,128,0,255505:0:0:0:0:
182,192,255369,1,0,0:0:0:0:
475,192,255369,128,0,255437:0:0:0:0:
109,192,255369,128,0,255642:0:0:0:0:
475,192,255505,128,0,255642:0:0:0:0:
256,192,255505,1,0,0:0:0:0:
329,192,255505,1,0,0:0:0:0:
182,192,255505,128,0,255642:0:0:0:0:
402,192,255642,1,0,0:0:0:0:
329,192,255642,1,0,0:0:0:0:
256,192,255642,128,0,255778:0:0:0:0:
475,192,255778,128,0,256187:0:0:0:0:
182,192,255778,128,0,255914:0:0:0:0:
109,192,255778,128,0,255846:0:0:0:0:
36,192,255778,128,0,255846:0:0:0:0:
329,192,255778,1,0,0:0:0:0:
402,192,255778,1,0,0:0:0:0:
402,192,255914,128,0,256187:0:0:0:0:
36,192,255914,128,0,255983:0:0:0:0:
329,192,255914,1,0,0:0:0:0:
256,192,255914,1,0,0:0:0:0:
109,192,255914,128,0,256051:0:0:0:0:
36,192,256051,128,0,256187:0:0:0:0:
256,192,256051,1,0,0:0:0:0:
329,192,256051,128,0,256187:0:0:0:0:
182,192,256051,1,0,0:0:0:0:
182,192,256187,1,0,0:0:0:0:
109,192,256187,1,0,0:0:0:0:
256,192,256187,128,0,256324:0:0:0:0:
329,192,256324,128,0,256562:0:0:0:0:
36,192,256324,128,0,256562:0:0:0:0:
109,192,256324,128,0,256562:0:0:0:0:
182,192,256324,128,0,256562:0:0:0:0:
402,192,256324,128,0,256562:0:0:0:0:
475,192,256324,128,0,256562:0:0:0:0:
256,192,256574,128,0,256709:0:0:0:0:
182,192,256596,1,0,0:0:0:0:
109,192,256596,1,0,0:0:0:0:
36,192,256596,1,0,0:0:0:0:
329,192,256596,1,0,0:0:0:0:
402,192,256596,1,0,0:0:0:0:
475,192,256596,1,0,0:0:0:0:
256,192,256732,1,0,0:0:0:0:
182,192,256732,128,0,256834:0:0:0:0:
109,192,256732,128,0,256834:0:0:0:0:
36,192,256732,128,0,256834:0:0:0:0:
329,192,256732,128,0,256834:0:0:0:0:
402,192,256732,128,0,256834:0:0:0:0:
475,192,256732,128,0,256834:0:0:0:0:
256,192,256846,128,0,256982:0:0:0:0:
36,192,256868,1,0,0:0:0:0:
109,192,256868,1,0,0:0:0:0:
182,192,256868,1,0,0:0:0:0:
329,192,256868,1,0,0:0:0:0:
402,192,256868,1,0,0:0:0:0:
475,192,256868,1,0,0:0:0:0:
256,192,257005,1,0,0:0:0:0:
36,192,257005,128,0,257050:0:0:0:0:
109,192,257005,128,0,257050:0:0:0:0:
182,192,257005,128,0,257050:0:0:0:0:
329,192,257005,128,0,257050:0:0:0:0:
402,192,257005,128,0,257050:0:0:0:0:
475,192,257005,128,0,257050:0:0:0:0:
402,192,257278,128,0,257391:0:0:0:0:
475,192,257278,128,0,257391:0:0:0:0:
109,192,257278,128,0,257391:0:0:0:0:
36,192,257278,128,0,257391:0:0:0:0:
182,192,257300,1,0,0:0:0:0:
256,192,257300,1,0,0:0:0:0:
329,192,257300,1,0,0:0:0:0:
475,192,257414,1,0,0:0:0:0:
256,192,257414,128,0,257528:0:0:0:0:
329,192,257414,128,0,257528:0:0:0:0:
402,192,257414,1,0,0:0:0:0:
182,192,257414,128,0,257528:0:0:0:0:
109,192,257414,1,0,0:0:0:0:
36,192,257414,1,0,0:0:0:0:
36,192,257550,128,0,257664:0:0:0:0:
182,192,257550,1,0,0:0:0:0:
256,192,257550,1,0,0:0:0:0:
109,192,257550,128,0,257664:0:0:0:0:
402,192,257550,128,0,257664:0:0:0:0:
329,192,257550,1,0,0:0:0:0:
475,192,257550,128,0,257664:0:0:0:0:
36,192,257687,1,0,0:0:0:0:
256,192,257687,1,0,0:0:0:0:
402,192,257687,1,0,0:0:0:0:
182,192,257687,1,0,0:0:0:0:
475,192,257687,1,0,0:0:0:0:
109,192,257687,1,0,0:0:0:0:
329,192,257687,1,0,0:0:0:0:
182,192,257937,128,0,258072:0:0:0:0:
109,192,257959,128,0,258049:0:0:0:0:
36,192,257981,128,0,258027:0:0:0:0:
329,192,258072,128,0,258209:0:0:0:0:
402,192,258095,128,0,258186:0:0:0:0:
182,192,258095,1,0,0:0:0:0:
475,192,258118,128,0,258163:0:0:0:0:
256,192,258209,128,0,258345:0:0:0:0:
182,192,258231,128,0,258322:0:0:0:0:
329,192,258231,1,0,0:0:0:0:
109,192,258254,128,0,258299:0:0:0:0:
329,192,258345,128,0,258481:0:0:0:0:
402,192,258368,128,0,258459:0:0:0:0:
256,192,258368,1,0,0:0:0:0:
475,192,258390,128,0,258436:0:0:0:0:
182,192,258481,128,0,258618:0:0:0:0:
109,192,258504,128,0,258595:0:0:0:0:
329,192,258504,1,0,0:0:0:0:
36,192,258527,128,0,258572:0:0:0:0:
256,192,258618,128,0,258754:0:0:0:0:
329,192,258640,128,0,258731:0:0:0:0:
182,192,258640,1,0,0:0:0:0:
402,192,258663,128,0,258709:0:0:0:0:
182,192,258754,128,0,258890:0:0:0:0:
256,192,258777,1,0,0:0:0:0:
109,192,258777,128,0,258868:0:0:0:0:
36,192,258799,128,0,258845:0:0:0:0:
329,192,258890,128,0,259027:0:0:0:0:
402,192,258913,128,0,258998:0:0:0:0:
182,192,258913,1,0,0:0:0:0:
475,192,258936,128,0,258981:0:0:0:0:
36,192,259049,1,0,0:0:0:0:
109,192,259049,1,0,0:0:0:0:
182,192,259049,1,0,0:0:0:0:
256,192,259049,1,0,0:0:0:0:
402,192,259049,1,0,0:0:0:0:
329,192,259049,1,0,0:0:0:0:
475,192,259049,1,0,0:0:0:0:
