osu file format v14

[General]
AudioFilename: Demetori - The Primal Scene of Japan the Girl Saw ~ Dance of Pundarika .mp3
AudioLeadIn: 3000
PreviewTime: 116822
Countdown: 0
SampleSet: Normal
StackLeniency: 0.5
Mode: 1
LetterboxInBreaks: 0
WidescreenStoryboard: 0

[Editor]
Bookmarks: 336582
DistanceSpacing: 2
BeatDivisor: 4
GridSize: 32
TimelineZoom: 4

[Metadata]
Title:The Primal Scene of Japan the Girl Saw ~ Dance of puNDarika
TitleUnicode:少女が見た日本の原風景 ~ Dance of puNDarika
Artist:Demetori
ArtistUnicode:Demetori
Creator:Surono
Version:Oni
Source:東方Project
Tags:Touhou man'enjushaka 曼衍珠汝華 Nada Upasana Pundarika Comiket77 fuujinroku mountain of faith stage 5 theme sanae kochiya ZUN team shanghai alice instrumental guitar
BeatmapID:918359
BeatmapSetID:424890

[Difficulty]
HPDrainRate:5
CircleSize:2
OverallDifficulty:5
ApproachRate:10
SliderMultiplier:1.4
SliderTickRate:1

[Events]
//Background and Video events
0,0,"BG.jpg",0,0
//Break Periods
//Storyboard Layer 0 (Background)
//Storyboard Layer 1 (Fail)
//Storyboard Layer 2 (Pass)
//Storyboard Layer 3 (Foreground)
//Storyboard Sound Samples

[TimingPoints]
490,444.444444444444,4,1,0,80,1,0
117823,-100,4,1,0,80,0,1
146267,-100,4,1,0,80,0,0
174712,428.571428571429,4,1,0,80,1,0
206426,428.571428571429,4,1,0,80,1,0
208140,444.444444444444,3,1,0,80,1,0
210584,444.444444444444,3,1,0,80,1,0
213028,444.444444444444,3,1,0,80,1,0
215472,444.444444444444,3,1,0,80,1,0
217916,444.444444444444,3,1,0,80,1,0
219028,444.444444444444,4,1,0,80,1,0
256361,444.444444444444,4,1,0,80,1,1
299027,-100,4,1,0,50,0,0
327472,-100,4,1,0,80,0,1
348805,-100,4,1,0,80,0,0

[HitObjects]
256,192,45,5,8,0:0:0:0:
256,192,267,1,0,0:0:0:0:
256,192,490,1,4,0:0:0:0:
256,192,712,1,8,0:0:0:0:
256,192,934,1,0,0:0:0:0:
256,192,1045,1,0,0:0:0:0:
256,192,1156,1,8,0:0:0:0:
256,192,1601,1,8,0:0:0:0:
256,192,1823,1,0,0:0:0:0:
256,192,1934,1,0,0:0:0:0:
256,192,2045,1,8,0:0:0:0:
256,192,2156,1,8,0:0:0:0:
256,192,2267,1,0,0:0:0:0:
256,192,2489,1,8,0:0:0:0:
256,192,2712,1,0,0:0:0:0:
256,192,2823,1,0,0:0:0:0:
256,192,2934,1,8,0:0:0:0:
256,192,3378,1,8,0:0:0:0:
256,192,3601,1,0,0:0:0:0:
256,192,3712,1,0,0:0:0:0:
256,192,3823,1,8,0:0:0:0:
256,192,3934,1,8,0:0:0:0:
256,192,4045,1,0,0:0:0:0:
256,192,4267,1,8,0:0:0:0:
256,192,4489,1,0,0:0:0:0:
256,192,4601,1,0,0:0:0:0:
256,192,4712,1,8,0:0:0:0:
256,192,5156,1,8,0:0:0:0:
256,192,5378,1,0,0:0:0:0:
256,192,5489,1,0,0:0:0:0:
256,192,5601,1,8,0:0:0:0:
256,192,5823,1,4,0:0:0:0:
256,192,6045,1,8,0:0:0:0:
256,192,6378,1,0,0:0:0:0:
256,192,6489,1,8,0:0:0:0:
256,192,6712,1,4,0:0:0:0:
256,192,6934,1,8,0:0:0:0:
256,192,7267,1,0,0:0:0:0:
256,192,7378,1,8,0:0:0:0:
256,192,7601,1,4,0:0:0:0:
256,192,7823,1,8,0:0:0:0:
256,192,8045,1,0,0:0:0:0:
256,192,8156,1,0,0:0:0:0:
256,192,8267,1,8,0:0:0:0:
256,192,8712,1,8,0:0:0:0:
256,192,8934,1,0,0:0:0:0:
256,192,9045,1,0,0:0:0:0:
256,192,9156,1,8,0:0:0:0:
256,192,9267,1,8,0:0:0:0:
256,192,9378,1,0,0:0:0:0:
256,192,9601,1,8,0:0:0:0:
256,192,9823,1,0,0:0:0:0:
256,192,9934,1,0,0:0:0:0:
256,192,10045,1,8,0:0:0:0:
256,192,10489,1,8,0:0:0:0:
256,192,10712,1,0,0:0:0:0:
256,192,10823,1,0,0:0:0:0:
256,192,10934,1,8,0:0:0:0:
256,192,11045,1,8,0:0:0:0:
256,192,11156,1,0,0:0:0:0:
256,192,11378,1,8,0:0:0:0:
256,192,11601,1,0,0:0:0:0:
256,192,11712,1,0,0:0:0:0:
256,192,11823,1,8,0:0:0:0:
256,192,12267,1,8,0:0:0:0:
256,192,12489,1,0,0:0:0:0:
256,192,12601,1,0,0:0:0:0:
256,192,12712,1,8,0:0:0:0:
256,192,12934,1,4,0:0:0:0:
256,192,13156,1,8,0:0:0:0:
256,192,13489,1,0,0:0:0:0:
256,192,13601,1,8,0:0:0:0:
256,192,13823,1,8,0:0:0:0:
256,192,14045,1,0,0:0:0:0:
256,192,14267,1,8,0:0:0:0:
256,192,14712,1,12,0:0:0:0:
256,192,17601,1,0,0:0:0:0:
256,192,17823,1,8,0:0:0:0:
256,192,18045,1,0,0:0:0:0:
256,192,18267,1,4,0:0:0:0:
256,192,18712,1,0,0:0:0:0:
256,192,18934,1,8,0:0:0:0:
256,192,19156,1,0,0:0:0:0:
256,192,19267,1,0,0:0:0:0:
256,192,19378,1,8,0:0:0:0:
256,192,19489,1,0,0:0:0:0:
256,192,19712,1,0,0:0:0:0:
256,192,19823,1,8,0:0:0:0:
256,192,20045,1,0,0:0:0:0:
256,192,20489,1,0,0:0:0:0:
256,192,20712,1,8,0:0:0:0:
256,192,20934,1,0,0:0:0:0:
256,192,21045,1,0,0:0:0:0:
256,192,21156,1,8,0:0:0:0:
256,192,21267,1,0,0:0:0:0:
256,192,21489,1,0,0:0:0:0:
256,192,21601,1,8,0:0:0:0:
256,192,21823,1,0,0:0:0:0:
256,192,22267,1,0,0:0:0:0:
256,192,22489,1,8,0:0:0:0:
256,192,22712,1,0,0:0:0:0:
256,192,22934,1,8,0:0:0:0:
256,192,23045,1,0,0:0:0:0:
256,192,23267,1,0,0:0:0:0:
256,192,23378,1,8,0:0:0:0:
256,192,23489,1,8,0:0:0:0:
256,192,23601,1,0,0:0:0:0:
256,192,23823,1,8,0:0:0:0:
256,192,24156,1,0,0:0:0:0:
256,192,24267,1,8,0:0:0:0:
256,192,24489,1,0,0:0:0:0:
256,192,24712,1,8,0:0:0:0:
256,192,24934,1,0,0:0:0:0:
256,192,25045,1,0,0:0:0:0:
256,192,25156,1,8,0:0:0:0:
256,192,25378,1,4,0:0:0:0:
256,192,25823,1,0,0:0:0:0:
256,192,26045,1,8,0:0:0:0:
256,192,26267,1,0,0:0:0:0:
256,192,26489,1,8,0:0:0:0:
256,192,26601,1,0,0:0:0:0:
256,192,26823,1,0,0:0:0:0:
256,192,26934,1,8,0:0:0:0:
256,192,27045,1,0,0:0:0:0:
256,192,27156,1,0,0:0:0:0:
256,192,27601,1,0,0:0:0:0:
256,192,27823,1,8,0:0:0:0:
256,192,28045,1,0,0:0:0:0:
256,192,28267,1,8,0:0:0:0:
256,192,28378,1,0,0:0:0:0:
256,192,28601,1,0,0:0:0:0:
256,192,28712,1,8,0:0:0:0:
256,192,28823,1,0,0:0:0:0:
256,192,28934,1,0,0:0:0:0:
256,192,29378,1,0,0:0:0:0:
256,192,29601,1,8,0:0:0:0:
256,192,29823,1,0,0:0:0:0:
256,192,30045,1,8,0:0:0:0:
256,192,30156,1,0,0:0:0:0:
256,192,30378,1,0,0:0:0:0:
256,192,30489,1,8,0:0:0:0:
256,192,30601,1,8,0:0:0:0:
256,192,30712,1,8,0:0:0:0:
256,192,30934,1,8,0:0:0:0:
256,192,31156,1,0,0:0:0:0:
256,192,31378,1,8,0:0:0:0:
256,192,31601,1,0,0:0:0:0:
256,192,31712,1,0,0:0:0:0:
256,192,31823,1,8,0:0:0:0:
256,192,32045,1,0,0:0:0:0:
256,192,32267,1,8,0:0:0:0:
256,192,32489,1,4,0:0:0:0:
256,192,32934,1,0,0:0:0:0:
256,192,33156,1,8,0:0:0:0:
256,192,33378,1,0,0:0:0:0:
256,192,33601,1,8,0:0:0:0:
256,192,33712,1,0,0:0:0:0:
256,192,33934,1,0,0:0:0:0:
256,192,34045,1,8,0:0:0:0:
256,192,34156,1,0,0:0:0:0:
256,192,34267,1,0,0:0:0:0:
256,192,34712,1,0,0:0:0:0:
256,192,34934,1,8,0:0:0:0:
256,192,35156,1,0,0:0:0:0:
256,192,35378,1,8,0:0:0:0:
256,192,35601,1,0,0:0:0:0:
256,192,35712,1,0,0:0:0:0:
256,192,35823,1,8,0:0:0:0:
256,192,35934,1,0,0:0:0:0:
256,192,36045,1,0,0:0:0:0:
256,192,36489,1,0,0:0:0:0:
256,192,36712,1,8,0:0:0:0:
256,192,36934,1,0,0:0:0:0:
256,192,37156,1,8,0:0:0:0:
256,192,37267,1,0,0:0:0:0:
256,192,37489,1,0,0:0:0:0:
256,192,37601,1,8,0:0:0:0:
256,192,37712,1,0,0:0:0:0:
256,192,37823,1,8,0:0:0:0:
256,192,38045,1,8,0:0:0:0:
256,192,38378,1,0,0:0:0:0:
256,192,38489,1,8,0:0:0:0:
256,192,38712,1,0,0:0:0:0:
256,192,38934,1,8,0:0:0:0:
256,192,39156,1,0,0:0:0:0:
256,192,39267,1,0,0:0:0:0:
256,192,39378,1,8,0:0:0:0:
256,192,39601,1,4,0:0:0:0:
256,192,40045,1,0,0:0:0:0:
256,192,40267,1,8,0:0:0:0:
256,192,40489,1,0,0:0:0:0:
256,192,40601,1,0,0:0:0:0:
256,192,40712,1,8,0:0:0:0:
256,192,40934,1,8,0:0:0:0:
256,192,41156,1,8,0:0:0:0:
256,192,41267,1,8,0:0:0:0:
256,192,41378,1,0,0:0:0:0:
256,192,41823,1,0,0:0:0:0:
256,192,42045,1,8,0:0:0:0:
256,192,42267,1,0,0:0:0:0:
256,192,42378,1,0,0:0:0:0:
256,192,42489,1,8,0:0:0:0:
256,192,42712,1,0,0:0:0:0:
256,192,42934,1,8,0:0:0:0:
256,192,43045,1,0,0:0:0:0:
256,192,43156,1,0,0:0:0:0:
256,192,43267,1,0,0:0:0:0:
256,192,43378,1,8,0:0:0:0:
256,192,43601,1,0,0:0:0:0:
256,192,43823,1,8,0:0:0:0:
256,192,44045,1,0,0:0:0:0:
256,192,44156,1,0,0:0:0:0:
256,192,44267,1,8,0:0:0:0:
256,192,44489,1,0,0:0:0:0:
256,192,44712,1,12,0:0:0:0:
256,192,44934,1,4,0:0:0:0:
256,192,45156,1,8,0:0:0:0:
256,192,45267,1,8,0:0:0:0:
256,192,45378,1,8,0:0:0:0:
256,192,45601,1,8,0:0:0:0:
256,192,45823,1,0,0:0:0:0:
256,192,46045,1,0,0:0:0:0:
256,192,46156,1,0,0:0:0:0:
256,192,46267,1,0,0:0:0:0:
256,192,46712,1,4,0:0:0:0:
256,192,46934,1,8,0:0:0:0:
256,192,47267,1,0,0:0:0:0:
256,192,47378,1,8,0:0:0:0:
256,192,47601,1,0,0:0:0:0:
256,192,47823,1,8,0:0:0:0:
256,192,48156,1,0,0:0:0:0:
256,192,48267,1,8,0:0:0:0:
256,192,48489,1,0,0:0:0:0:
256,192,48712,1,8,0:0:0:0:
256,192,49045,1,0,0:0:0:0:
256,192,49156,1,8,0:0:0:0:
256,192,49378,1,0,0:0:0:0:
256,192,49601,1,12,0:0:0:0:
256,192,50045,1,0,0:0:0:0:
256,192,50267,5,12,0:0:0:0:
256,192,50712,1,8,0:0:0:0:
256,192,50934,1,8,0:0:0:0:
256,192,51156,1,0,0:0:0:0:
256,192,51378,1,0,0:0:0:0:
256,192,51601,1,8,0:0:0:0:
256,192,51823,1,8,0:0:0:0:
256,192,52045,1,0,0:0:0:0:
256,192,52267,1,0,0:0:0:0:
256,192,52378,1,0,0:0:0:0:
256,192,52489,1,8,0:0:0:0:
256,192,52712,1,8,0:0:0:0:
256,192,52823,1,8,0:0:0:0:
256,192,52934,1,0,0:0:0:0:
256,192,53156,1,0,0:0:0:0:
256,192,53378,1,8,0:0:0:0:
256,192,53489,1,8,0:0:0:0:
256,192,53601,1,0,0:0:0:0:
256,192,53823,1,4,0:0:0:0:
256,192,54045,1,8,0:0:0:0:
256,192,54378,1,0,0:0:0:0:
256,192,54489,1,8,0:0:0:0:
256,192,54712,1,0,0:0:0:0:
256,192,54934,1,8,0:0:0:0:
256,192,55156,1,0,0:0:0:0:
256,192,55267,1,0,0:0:0:0:
256,192,55378,1,8,0:0:0:0:
256,192,55601,1,0,0:0:0:0:
256,192,55823,1,8,0:0:0:0:
256,192,56156,1,0,0:0:0:0:
256,192,56267,1,8,0:0:0:0:
256,192,56489,1,0,0:0:0:0:
256,192,56712,1,12,0:0:0:0:
256,192,57156,1,12,0:0:0:0:
256,192,57378,1,4,0:0:0:0:
256,192,57823,1,12,0:0:0:0:
256,192,58267,1,4,0:0:0:0:
256,192,58712,1,12,0:0:0:0:
256,192,59156,1,8,0:0:0:0:
256,192,59267,1,8,0:0:0:0:
256,192,59489,1,8,0:0:0:0:
256,192,59601,1,0,0:0:0:0:
256,192,59712,1,8,0:0:0:0:
256,192,59823,1,8,0:0:0:0:
256,192,60045,1,0,0:0:0:0:
256,192,60267,1,0,0:0:0:0:
256,192,60489,1,8,0:0:0:0:
256,192,60601,1,0,0:0:0:0:
256,192,60712,1,8,0:0:0:0:
256,192,60934,1,4,0:0:0:0:
256,192,61156,1,8,0:0:0:0:
256,192,61378,1,0,0:0:0:0:
256,192,61489,1,0,0:0:0:0:
256,192,61601,1,8,0:0:0:0:
256,192,62045,1,8,0:0:0:0:
256,192,62267,1,0,0:0:0:0:
256,192,62378,1,0,0:0:0:0:
256,192,62489,1,8,0:0:0:0:
256,192,62601,1,8,0:0:0:0:
256,192,62712,1,0,0:0:0:0:
256,192,62934,1,8,0:0:0:0:
256,192,63156,1,0,0:0:0:0:
256,192,63267,1,0,0:0:0:0:
256,192,63378,1,8,0:0:0:0:
256,192,63823,1,8,0:0:0:0:
256,192,64045,1,0,0:0:0:0:
256,192,64156,1,0,0:0:0:0:
256,192,64267,1,8,0:0:0:0:
256,192,64378,1,8,0:0:0:0:
256,192,64489,1,0,0:0:0:0:
256,192,64712,1,8,0:0:0:0:
256,192,64934,1,0,0:0:0:0:
256,192,65045,1,0,0:0:0:0:
256,192,65156,1,8,0:0:0:0:
256,192,65601,1,8,0:0:0:0:
256,192,65823,1,0,0:0:0:0:
256,192,65934,1,0,0:0:0:0:
256,192,66045,1,8,0:0:0:0:
256,192,66267,1,4,0:0:0:0:
256,192,66489,1,8,0:0:0:0:
256,192,66823,1,0,0:0:0:0:
256,192,66934,1,8,0:0:0:0:
256,192,67156,1,4,0:0:0:0:
256,192,67378,1,8,0:0:0:0:
256,192,67712,1,0,0:0:0:0:
256,192,67823,1,8,0:0:0:0:
256,192,68045,1,4,0:0:0:0:
256,192,68267,1,8,0:0:0:0:
256,192,68378,1,8,0:0:0:0:
256,192,68489,1,0,0:0:0:0:
256,192,68712,1,8,0:0:0:0:
256,192,69156,1,8,0:0:0:0:
256,192,69267,1,8,0:0:0:0:
256,192,69378,1,0,0:0:0:0:
256,192,69489,1,0,0:0:0:0:
256,192,69601,1,8,0:0:0:0:
256,192,69823,1,0,0:0:0:0:
256,192,70045,1,8,0:0:0:0:
256,192,70156,1,8,0:0:0:0:
256,192,70267,1,0,0:0:0:0:
256,192,70489,1,8,0:0:0:0:
256,192,70934,1,8,0:0:0:0:
256,192,71045,1,8,0:0:0:0:
256,192,71156,1,0,0:0:0:0:
256,192,71267,1,0,0:0:0:0:
256,192,71378,1,8,0:0:0:0:
256,192,71601,1,0,0:0:0:0:
256,192,71823,1,8,0:0:0:0:
256,192,71934,1,8,0:0:0:0:
256,192,72045,1,0,0:0:0:0:
256,192,72267,1,8,0:0:0:0:
256,192,72712,1,8,0:0:0:0:
256,192,72934,1,8,0:0:0:0:
256,192,73045,1,8,0:0:0:0:
256,192,73156,1,8,0:0:0:0:
256,192,73378,1,12,0:0:0:0:
256,192,73823,1,8,0:0:0:0:
256,192,74045,1,0,0:0:0:0:
256,192,74156,1,8,0:0:0:0:
256,192,74267,1,8,0:0:0:0:
256,192,74378,1,8,0:0:0:0:
256,192,74489,1,0,0:0:0:0:
256,192,74712,1,8,0:0:0:0:
256,192,74823,1,0,0:0:0:0:
256,192,74934,1,0,0:0:0:0:
256,192,75156,1,4,0:0:0:0:
256,192,75601,1,0,0:0:0:0:
256,192,75823,1,8,0:0:0:0:
256,192,76045,1,0,0:0:0:0:
256,192,76156,1,0,0:0:0:0:
256,192,76267,1,8,0:0:0:0:
256,192,76378,1,0,0:0:0:0:
256,192,76601,1,0,0:0:0:0:
256,192,76712,1,8,0:0:0:0:
256,192,76934,1,0,0:0:0:0:
256,192,77378,1,0,0:0:0:0:
256,192,77601,1,8,0:0:0:0:
256,192,77823,1,0,0:0:0:0:
256,192,77934,1,0,0:0:0:0:
256,192,78045,1,8,0:0:0:0:
256,192,78156,1,0,0:0:0:0:
256,192,78378,1,0,0:0:0:0:
256,192,78489,1,8,0:0:0:0:
256,192,78712,1,0,0:0:0:0:
256,192,79156,1,0,0:0:0:0:
256,192,79378,1,8,0:0:0:0:
256,192,79601,1,0,0:0:0:0:
256,192,79823,1,8,0:0:0:0:
256,192,79934,1,0,0:0:0:0:
256,192,80156,1,0,0:0:0:0:
256,192,80267,1,8,0:0:0:0:
256,192,80378,1,8,0:0:0:0:
256,192,80489,1,0,0:0:0:0:
256,192,80712,1,8,0:0:0:0:
256,192,81045,1,0,0:0:0:0:
256,192,81156,1,8,0:0:0:0:
256,192,81378,1,0,0:0:0:0:
256,192,81601,1,8,0:0:0:0:
256,192,81823,1,0,0:0:0:0:
256,192,81934,1,0,0:0:0:0:
256,192,82045,1,8,0:0:0:0:
256,192,82267,1,4,0:0:0:0:
256,192,82712,1,0,0:0:0:0:
256,192,82934,1,8,0:0:0:0:
256,192,83156,1,0,0:0:0:0:
256,192,83378,1,8,0:0:0:0:
256,192,83489,1,0,0:0:0:0:
256,192,83712,1,0,0:0:0:0:
256,192,83823,1,8,0:0:0:0:
256,192,83934,1,0,0:0:0:0:
256,192,84045,1,0,0:0:0:0:
256,192,84489,1,0,0:0:0:0:
256,192,84712,1,8,0:0:0:0:
256,192,84934,1,0,0:0:0:0:
256,192,85156,1,8,0:0:0:0:
256,192,85267,1,0,0:0:0:0:
256,192,85489,1,0,0:0:0:0:
256,192,85601,1,8,0:0:0:0:
256,192,85712,1,0,0:0:0:0:
256,192,85823,1,0,0:0:0:0:
256,192,86267,1,0,0:0:0:0:
256,192,86489,1,8,0:0:0:0:
256,192,86712,1,0,0:0:0:0:
256,192,86934,1,8,0:0:0:0:
256,192,87045,1,0,0:0:0:0:
256,192,87267,1,0,0:0:0:0:
256,192,87378,1,8,0:0:0:0:
256,192,87489,5,8,0:0:0:0:
256,192,87601,1,8,0:0:0:0:
256,192,87823,1,8,0:0:0:0:
256,192,88045,1,0,0:0:0:0:
256,192,88267,1,8,0:0:0:0:
256,192,88489,1,0,0:0:0:0:
256,192,88712,1,12,0:0:0:0:
256,192,89156,1,12,0:0:0:0:
256,192,89378,1,4,0:0:0:0:
256,192,89823,1,0,0:0:0:0:
256,192,90045,1,8,0:0:0:0:
256,192,90267,1,0,0:0:0:0:
256,192,90489,1,8,0:0:0:0:
256,192,90601,1,0,0:0:0:0:
256,192,90823,1,0,0:0:0:0:
256,192,90934,1,8,0:0:0:0:
256,192,91045,1,0,0:0:0:0:
256,192,91156,1,0,0:0:0:0:
256,192,91601,1,0,0:0:0:0:
256,192,91823,1,8,0:0:0:0:
256,192,92045,1,0,0:0:0:0:
256,192,92267,1,8,0:0:0:0:
256,192,92489,1,0,0:0:0:0:
256,192,92601,1,0,0:0:0:0:
256,192,92712,1,8,0:0:0:0:
256,192,92823,1,0,0:0:0:0:
256,192,92934,1,0,0:0:0:0:
256,192,93378,1,0,0:0:0:0:
256,192,93601,1,8,0:0:0:0:
256,192,93823,1,0,0:0:0:0:
256,192,94045,1,8,0:0:0:0:
256,192,94156,1,0,0:0:0:0:
256,192,94378,1,0,0:0:0:0:
256,192,94489,1,8,0:0:0:0:
256,192,94601,1,0,0:0:0:0:
256,192,94712,1,8,0:0:0:0:
256,192,94934,1,8,0:0:0:0:
256,192,95267,1,0,0:0:0:0:
256,192,95378,1,8,0:0:0:0:
256,192,95601,1,0,0:0:0:0:
256,192,95823,1,8,0:0:0:0:
256,192,96045,1,0,0:0:0:0:
256,192,96156,5,0,0:0:0:0:
256,192,96267,1,8,0:0:0:0:
256,192,96489,1,4,0:0:0:0:
256,192,96934,5,0,0:0:0:0:
256,192,97156,1,8,0:0:0:0:
256,192,97378,1,0,0:0:0:0:
256,192,97489,1,0,0:0:0:0:
256,192,97601,1,8,0:0:0:0:
256,192,97823,1,8,0:0:0:0:
256,192,98045,1,8,0:0:0:0:
256,192,98156,1,8,0:0:0:0:
256,192,98267,1,0,0:0:0:0:
256,192,98712,1,0,0:0:0:0:
256,192,98934,1,8,0:0:0:0:
256,192,99156,1,0,0:0:0:0:
256,192,99267,1,0,0:0:0:0:
256,192,99378,1,8,0:0:0:0:
256,192,99601,1,0,0:0:0:0:
256,192,99823,1,8,0:0:0:0:
256,192,99934,1,8,0:0:0:0:
256,192,100045,1,0,0:0:0:0:
256,192,100267,1,8,0:0:0:0:
256,192,100489,1,0,0:0:0:0:
256,192,100712,1,8,0:0:0:0:
256,192,100934,1,0,0:0:0:0:
256,192,101045,1,0,0:0:0:0:
256,192,101156,1,8,0:0:0:0:
256,192,101378,1,0,0:0:0:0:
256,192,101601,1,12,0:0:0:0:
256,192,101823,1,4,0:0:0:0:
256,192,102267,1,8,0:0:0:0:
256,192,102712,2,8,L|192:192,6,35
256,192,103601,1,4,0:0:0:0:
256,192,104045,1,0,0:0:0:0:
256,192,104267,1,8,0:0:0:0:
256,192,104489,1,0,0:0:0:0:
256,192,104712,1,8,0:0:0:0:
256,192,104823,1,0,0:0:0:0:
256,192,105045,1,0,0:0:0:0:
256,192,105156,1,8,0:0:0:0:
256,192,105378,1,0,0:0:0:0:
256,192,105601,1,8,0:0:0:0:
256,192,105934,1,0,0:0:0:0:
256,192,106045,1,8,0:0:0:0:
256,192,106267,1,0,0:0:0:0:
256,192,106489,1,8,0:0:0:0:
256,192,106712,1,0,0:0:0:0:
256,192,106823,1,0,0:0:0:0:
256,192,106934,1,0,0:0:0:0:
256,192,107156,5,12,0:0:0:0:
256,192,107601,1,8,0:0:0:0:
256,192,107823,1,8,0:0:0:0:
256,192,108045,1,0,0:0:0:0:
256,192,108267,1,0,0:0:0:0:
256,192,108489,1,8,0:0:0:0:
256,192,108712,1,8,0:0:0:0:
256,192,108934,1,0,0:0:0:0:
256,192,109156,1,0,0:0:0:0:
256,192,109267,1,0,0:0:0:0:
256,192,109378,1,8,0:0:0:0:
256,192,109601,1,8,0:0:0:0:
256,192,109712,1,8,0:0:0:0:
256,192,109823,1,0,0:0:0:0:
256,192,110045,1,0,0:0:0:0:
256,192,110156,1,0,0:0:0:0:
256,192,110267,1,8,0:0:0:0:
256,192,110378,1,0,0:0:0:0:
256,192,110489,1,0,0:0:0:0:
256,192,110712,1,4,0:0:0:0:
256,192,111156,1,0,0:0:0:0:
256,192,111378,1,8,0:0:0:0:
256,192,111601,1,0,0:0:0:0:
256,192,111823,1,8,0:0:0:0:
256,192,111934,1,0,0:0:0:0:
256,192,112156,1,0,0:0:0:0:
256,192,112267,1,8,0:0:0:0:
256,192,112489,1,0,0:0:0:0:
256,192,112712,1,8,0:0:0:0:
256,192,113045,1,0,0:0:0:0:
256,192,113156,1,8,0:0:0:0:
256,192,113378,1,0,0:0:0:0:
256,192,113601,1,12,0:0:0:0:
256,192,113823,1,0,0:0:0:0:
256,192,113934,1,0,0:0:0:0:
256,192,114045,1,0,0:0:0:0:
256,192,114267,1,12,0:0:0:0:
256,192,114712,1,12,0:0:0:0:
256,192,115156,1,12,0:0:0:0:
256,192,115601,1,12,0:0:0:0:
256,192,116045,1,12,0:0:0:0:
256,192,116267,1,12,0:0:0:0:
256,192,116489,1,12,0:0:0:0:
256,192,116823,1,0,0:0:0:0:
256,192,116934,1,8,0:0:0:0:
256,192,117156,1,0,0:0:0:0:
256,192,117267,1,8,0:0:0:0:
256,192,117378,1,0,0:0:0:0:
256,192,117489,1,0,0:0:0:0:
256,192,117601,1,8,0:0:0:0:
256,192,117823,1,4,0:0:0:0:
256,192,118045,5,8,0:0:0:0:
256,192,118156,1,8,0:0:0:0:
256,192,118267,1,0,0:0:0:0:
256,192,118378,1,0,0:0:0:0:
256,192,118489,1,8,0:0:0:0:
256,192,118712,1,0,0:0:0:0:
256,192,118934,5,8,0:0:0:0:
256,192,119045,1,8,0:0:0:0:
256,192,119156,1,0,0:0:0:0:
256,192,119378,1,8,0:0:0:0:
256,192,119601,1,0,0:0:0:0:
256,192,119823,5,8,0:0:0:0:
256,192,119934,1,8,0:0:0:0:
256,192,120045,1,0,0:0:0:0:
256,192,120156,1,0,0:0:0:0:
256,192,120267,1,8,0:0:0:0:
256,192,120489,1,0,0:0:0:0:
256,192,120712,5,8,0:0:0:0:
256,192,120823,1,8,0:0:0:0:
256,192,120934,1,0,0:0:0:0:
256,192,121156,1,8,0:0:0:0:
256,192,121378,1,0,0:0:0:0:
256,192,121601,5,8,0:0:0:0:
256,192,121712,1,8,0:0:0:0:
256,192,121823,1,0,0:0:0:0:
256,192,121934,1,0,0:0:0:0:
256,192,122045,1,8,0:0:0:0:
256,192,122267,1,0,0:0:0:0:
256,192,122489,5,8,0:0:0:0:
256,192,122601,1,8,0:0:0:0:
256,192,122712,1,0,0:0:0:0:
256,192,122934,1,8,0:0:0:0:
256,192,123156,1,0,0:0:0:0:
256,192,123267,1,0,0:0:0:0:
256,192,123378,5,8,0:0:0:0:
256,192,123489,1,8,0:0:0:0:
256,192,123601,1,0,0:0:0:0:
256,192,123823,1,8,0:0:0:0:
256,192,124045,1,0,0:0:0:0:
256,192,124156,1,0,0:0:0:0:
256,192,124267,5,8,0:0:0:0:
256,192,124489,1,0,0:0:0:0:
256,192,124934,1,4,0:0:0:0:
256,192,125156,5,8,0:0:0:0:
256,192,125267,1,8,0:0:0:0:
256,192,125378,1,0,0:0:0:0:
256,192,125489,1,0,0:0:0:0:
256,192,125601,1,8,0:0:0:0:
256,192,125823,1,0,0:0:0:0:
256,192,126045,5,8,0:0:0:0:
256,192,126156,1,8,0:0:0:0:
256,192,126267,1,0,0:0:0:0:
256,192,126489,1,8,0:0:0:0:
256,192,126712,1,0,0:0:0:0:
256,192,126934,5,8,0:0:0:0:
256,192,127045,1,8,0:0:0:0:
256,192,127156,1,0,0:0:0:0:
256,192,127267,1,0,0:0:0:0:
256,192,127378,1,8,0:0:0:0:
256,192,127601,1,0,0:0:0:0:
256,192,127823,5,8,0:0:0:0:
256,192,127934,1,8,0:0:0:0:
256,192,128045,1,0,0:0:0:0:
256,192,128267,1,8,0:0:0:0:
256,192,128489,1,0,0:0:0:0:
256,192,128712,5,8,0:0:0:0:
256,192,128823,1,8,0:0:0:0:
256,192,128934,1,0,0:0:0:0:
256,192,129045,1,0,0:0:0:0:
256,192,129156,1,8,0:0:0:0:
256,192,129378,1,0,0:0:0:0:
256,192,129601,5,8,0:0:0:0:
256,192,129712,1,8,0:0:0:0:
256,192,129823,1,0,0:0:0:0:
256,192,130045,1,8,0:0:0:0:
256,192,130267,1,8,0:0:0:0:
256,192,130378,1,8,0:0:0:0:
256,192,130489,5,8,0:0:0:0:
256,192,130712,1,0,0:0:0:0:
256,192,130823,1,0,0:0:0:0:
256,192,130934,1,8,0:0:0:0:
256,192,131156,1,12,0:0:0:0:
256,192,131601,1,0,0:0:0:0:
256,192,131712,1,0,0:0:0:0:
256,192,131823,1,8,0:0:0:0:
256,192,132045,1,4,0:0:0:0:
256,192,132267,5,8,0:0:0:0:
256,192,132378,1,8,0:0:0:0:
256,192,132489,1,0,0:0:0:0:
256,192,132601,1,0,0:0:0:0:
256,192,132712,1,8,0:0:0:0:
256,192,132934,1,0,0:0:0:0:
256,192,133156,5,8,0:0:0:0:
256,192,133267,1,8,0:0:0:0:
256,192,133378,1,0,0:0:0:0:
256,192,133601,1,8,0:0:0:0:
256,192,133823,1,0,0:0:0:0:
256,192,134045,5,8,0:0:0:0:
256,192,134156,1,8,0:0:0:0:
256,192,134267,1,0,0:0:0:0:
256,192,134378,1,0,0:0:0:0:
256,192,134489,1,8,0:0:0:0:
256,192,134712,1,0,0:0:0:0:
256,192,134934,5,8,0:0:0:0:
256,192,135045,1,8,0:0:0:0:
256,192,135156,1,0,0:0:0:0:
256,192,135378,1,8,0:0:0:0:
256,192,135601,1,0,0:0:0:0:
256,192,135823,5,8,0:0:0:0:
256,192,135934,1,8,0:0:0:0:
256,192,136045,1,0,0:0:0:0:
256,192,136156,1,0,0:0:0:0:
256,192,136267,1,8,0:0:0:0:
256,192,136489,1,0,0:0:0:0:
256,192,136712,5,8,0:0:0:0:
256,192,136823,1,8,0:0:0:0:
256,192,136934,1,0,0:0:0:0:
256,192,137156,1,8,0:0:0:0:
256,192,137378,1,0,0:0:0:0:
256,192,137489,1,0,0:0:0:0:
256,192,137601,5,8,0:0:0:0:
256,192,137712,1,8,0:0:0:0:
256,192,137823,1,0,0:0:0:0:
256,192,138045,1,8,0:0:0:0:
256,192,138267,1,0,0:0:0:0:
256,192,138489,5,12,0:0:0:0:
256,192,138934,1,12,0:0:0:0:
256,192,139156,1,4,0:0:0:0:
256,192,139378,5,8,0:0:0:0:
256,192,139489,1,8,0:0:0:0:
256,192,139601,1,0,0:0:0:0:
256,192,139712,1,0,0:0:0:0:
256,192,139823,1,8,0:0:0:0:
256,192,140045,1,0,0:0:0:0:
256,192,140267,5,8,0:0:0:0:
256,192,140378,1,8,0:0:0:0:
256,192,140489,1,0,0:0:0:0:
256,192,140712,1,8,0:0:0:0:
256,192,140934,1,0,0:0:0:0:
256,192,141156,5,8,0:0:0:0:
256,192,141267,1,8,0:0:0:0:
256,192,141378,1,0,0:0:0:0:
256,192,141489,1,0,0:0:0:0:
256,192,141601,1,8,0:0:0:0:
256,192,141823,1,0,0:0:0:0:
256,192,142045,5,8,0:0:0:0:
256,192,142156,1,8,0:0:0:0:
256,192,142267,1,0,0:0:0:0:
256,192,142489,1,8,0:0:0:0:
256,192,142712,1,0,0:0:0:0:
256,192,142934,5,8,0:0:0:0:
256,192,143045,1,8,0:0:0:0:
256,192,143156,1,0,0:0:0:0:
256,192,143267,1,0,0:0:0:0:
256,192,143378,1,8,0:0:0:0:
256,192,143601,1,0,0:0:0:0:
256,192,143823,5,8,0:0:0:0:
256,192,143934,1,8,0:0:0:0:
256,192,144045,1,0,0:0:0:0:
256,192,144267,1,12,0:0:0:0:
256,192,144489,1,0,0:0:0:0:
256,192,144712,1,0,0:0:0:0:
256,192,144823,1,8,0:0:0:0:
256,192,144934,1,8,0:0:0:0:
256,192,145156,1,0,0:0:0:0:
256,192,145378,1,0,0:0:0:0:
256,192,145489,1,8,0:0:0:0:
256,192,145601,1,0,0:0:0:0:
256,192,145823,1,8,0:0:0:0:
256,192,146045,5,0,0:0:0:0:
256,192,146267,1,4,0:0:0:0:
256,192,146489,1,8,0:0:0:0:
256,192,146823,1,0,0:0:0:0:
256,192,146934,1,8,0:0:0:0:
256,192,147156,1,0,0:0:0:0:
256,192,147378,1,8,0:0:0:0:
256,192,147823,1,8,0:0:0:0:
256,192,148045,1,0,0:0:0:0:
256,192,148156,1,0,0:0:0:0:
256,192,148267,1,8,0:0:0:0:
256,192,148489,1,0,0:0:0:0:
256,192,148712,1,8,0:0:0:0:
256,192,148823,1,8,0:0:0:0:
256,192,148934,1,0,0:0:0:0:
256,192,149156,1,8,0:0:0:0:
256,192,149378,1,0,0:0:0:0:
256,192,149601,1,8,0:0:0:0:
256,192,149712,1,8,0:0:0:0:
256,192,149823,1,0,0:0:0:0:
256,192,150045,1,8,0:0:0:0:
256,192,150378,1,0,0:0:0:0:
256,192,150489,1,8,0:0:0:0:
256,192,150712,1,0,0:0:0:0:
256,192,150934,1,8,0:0:0:0:
256,192,151378,1,8,0:0:0:0:
256,192,151601,1,0,0:0:0:0:
256,192,151712,1,0,0:0:0:0:
256,192,151823,1,8,0:0:0:0:
256,192,151934,1,0,0:0:0:0:
256,192,152045,1,0,0:0:0:0:
256,192,152267,1,8,0:0:0:0:
256,192,152489,1,0,0:0:0:0:
256,192,152601,1,0,0:0:0:0:
256,192,152712,1,8,0:0:0:0:
256,192,152823,1,8,0:0:0:0:
256,192,152934,1,0,0:0:0:0:
256,192,153156,1,8,0:0:0:0:
256,192,153378,1,4,0:0:0:0:
256,192,153823,1,0,0:0:0:0:
256,192,154045,1,8,0:0:0:0:
256,192,154156,1,8,0:0:0:0:
256,192,154267,1,0,0:0:0:0:
256,192,154489,1,8,0:0:0:0:
256,192,154712,1,0,0:0:0:0:
256,192,154823,1,0,0:0:0:0:
256,192,154934,1,8,0:0:0:0:
256,192,155156,1,0,0:0:0:0:
256,192,155378,1,8,0:0:0:0:
256,192,155601,1,0,0:0:0:0:
256,192,155712,1,0,0:0:0:0:
256,192,155823,1,8,0:0:0:0:
256,192,156045,1,0,0:0:0:0:
256,192,156267,1,8,0:0:0:0:
256,192,156378,1,8,0:0:0:0:
256,192,156489,1,0,0:0:0:0:
256,192,156712,1,8,0:0:0:0:
256,192,156934,1,0,0:0:0:0:
256,192,157156,1,8,0:0:0:0:
256,192,157489,1,0,0:0:0:0:
256,192,157601,1,8,0:0:0:0:
256,192,157823,1,0,0:0:0:0:
256,192,158045,1,8,0:0:0:0:
256,192,158489,1,8,0:0:0:0:
256,192,158712,1,0,0:0:0:0:
256,192,158823,1,0,0:0:0:0:
256,192,158934,1,8,0:0:0:0:
256,192,159156,1,0,0:0:0:0:
256,192,159378,1,8,0:0:0:0:
256,192,159601,1,4,0:0:0:0:
256,192,160045,1,0,0:0:0:0:
256,192,160156,1,0,0:0:0:0:
256,192,160267,1,8,0:0:0:0:
256,192,160489,1,4,0:0:0:0:
256,192,160712,1,8,0:0:0:0:
256,192,161045,1,0,0:0:0:0:
256,192,161156,1,8,0:0:0:0:
256,192,161378,1,0,0:0:0:0:
256,192,161601,1,8,0:0:0:0:
256,192,162045,1,8,0:0:0:0:
256,192,162267,1,0,0:0:0:0:
256,192,162378,1,0,0:0:0:0:
256,192,162489,1,8,0:0:0:0:
256,192,162712,1,0,0:0:0:0:
256,192,162934,1,8,0:0:0:0:
256,192,163045,1,8,0:0:0:0:
256,192,163156,1,0,0:0:0:0:
256,192,163378,1,8,0:0:0:0:
256,192,163601,1,0,0:0:0:0:
256,192,163823,1,8,0:0:0:0:
256,192,163934,1,8,0:0:0:0:
256,192,164045,1,0,0:0:0:0:
256,192,164267,1,8,0:0:0:0:
256,192,164601,1,0,0:0:0:0:
256,192,164712,1,8,0:0:0:0:
256,192,164934,1,0,0:0:0:0:
256,192,165156,1,8,0:0:0:0:
256,192,165378,1,0,0:0:0:0:
256,192,165489,1,0,0:0:0:0:
256,192,165601,1,0,0:0:0:0:
256,192,165823,1,12,0:0:0:0:
256,192,166267,1,12,0:0:0:0:
256,192,166712,1,12,0:0:0:0:
256,192,167156,1,12,0:0:0:0:
256,192,167601,1,12,0:0:0:0:
256,192,167897,1,0,0:0:0:0:
256,192,168193,1,0,0:0:0:0:
256,192,168489,1,8,0:0:0:0:
256,192,168786,1,0,0:0:0:0:
256,192,169082,1,0,0:0:0:0:
256,192,169378,1,12,0:0:0:0:
256,192,169675,1,0,0:0:0:0:
256,192,169971,1,0,0:0:0:0:
256,192,170267,1,8,0:0:0:0:
256,192,170564,1,0,0:0:0:0:
256,192,170860,1,0,0:0:0:0:
256,192,171156,1,12,0:0:0:0:
256,192,171452,1,0,0:0:0:0:
256,192,171749,1,0,0:0:0:0:
256,192,172045,1,8,0:0:0:0:
256,192,172341,1,0,0:0:0:0:
256,192,172638,1,0,0:0:0:0:
256,192,172934,1,12,0:0:0:0:
256,192,173230,1,0,0:0:0:0:
256,192,173527,1,0,0:0:0:0:
256,192,173823,1,0,0:0:0:0:
256,192,174119,1,0,0:0:0:0:
256,192,174415,1,0,0:0:0:0:
256,192,174712,1,8,0:0:0:0:
256,192,174819,1,8,0:0:0:0:
256,192,174926,1,8,0:0:0:0:
256,192,175033,1,8,0:0:0:0:
256,192,175140,1,8,0:0:0:0:
256,192,175569,1,0,0:0:0:0:
256,192,175997,1,0,0:0:0:0:
256,192,176426,1,0,0:0:0:0:
256,192,176747,1,0,0:0:0:0:
256,192,176854,1,0,0:0:0:0:
256,192,177283,1,0,0:0:0:0:
256,192,177712,1,0,0:0:0:0:
256,192,178140,1,8,0:0:0:0:
256,192,178247,1,8,0:0:0:0:
256,192,178354,1,8,0:0:0:0:
256,192,178462,1,8,0:0:0:0:
256,192,178569,1,0,0:0:0:0:
256,192,178890,1,0,0:0:0:0:
256,192,178997,1,0,0:0:0:0:
256,192,179426,1,0,0:0:0:0:
256,192,179747,1,0,0:0:0:0:
256,192,179854,1,8,0:0:0:0:
256,192,180283,1,8,0:0:0:0:
256,192,180712,1,0,0:0:0:0:
256,192,180819,1,0,0:0:0:0:
256,192,180926,1,0,0:0:0:0:
256,192,181140,1,12,0:0:0:0:
256,192,181569,1,12,0:0:0:0:
256,192,181997,1,8,0:0:0:0:
256,192,182212,1,0,0:0:0:0:
256,192,182426,1,8,0:0:0:0:
256,192,182533,1,8,0:0:0:0:
256,192,182640,1,0,0:0:0:0:
256,192,182854,1,8,0:0:0:0:
256,192,183069,1,0,0:0:0:0:
256,192,183283,1,8,0:0:0:0:
256,192,183390,1,8,0:0:0:0:
256,192,183497,1,0,0:0:0:0:
256,192,183712,1,8,0:0:0:0:
256,192,183926,1,0,0:0:0:0:
256,192,184033,1,0,0:0:0:0:
256,192,184140,1,8,0:0:0:0:
256,192,184354,1,0,0:0:0:0:
256,192,184462,1,0,0:0:0:0:
256,192,184569,1,8,0:0:0:0:
256,192,184676,1,8,0:0:0:0:
256,192,184783,1,0,0:0:0:0:
256,192,184997,1,12,0:0:0:0:
256,192,185426,1,8,0:0:0:0:
256,192,185640,1,0,0:0:0:0:
256,192,185854,1,8,0:0:0:0:
256,192,185962,1,8,0:0:0:0:
256,192,186069,1,0,0:0:0:0:
256,192,186283,1,8,0:0:0:0:
256,192,186497,1,0,0:0:0:0:
256,192,186712,1,8,0:0:0:0:
256,192,186819,1,8,0:0:0:0:
256,192,186926,1,0,0:0:0:0:
256,192,187140,1,8,0:0:0:0:
256,192,187354,1,0,0:0:0:0:
256,192,187569,1,8,0:0:0:0:
256,192,187676,1,8,0:0:0:0:
256,192,187783,1,0,0:0:0:0:
256,192,187890,1,0,0:0:0:0:
256,192,187997,1,8,0:0:0:0:
256,192,188426,1,12,0:0:0:0:
256,192,188640,1,8,0:0:0:0:
256,192,188747,1,8,0:0:0:0:
256,192,188962,1,0,0:0:0:0:
256,192,189069,1,8,0:0:0:0:
256,192,189176,1,0,0:0:0:0:
256,192,189283,1,0,0:0:0:0:
256,192,189497,1,8,0:0:0:0:
256,192,189604,1,8,0:0:0:0:
256,192,189819,1,0,0:0:0:0:
256,192,189926,1,8,0:0:0:0:
256,192,190140,1,0,0:0:0:0:
256,192,190354,1,8,0:0:0:0:
256,192,190462,1,0,0:0:0:0:
256,192,190676,1,0,0:0:0:0:
256,192,190783,1,8,0:0:0:0:
256,192,190997,1,0,0:0:0:0:
256,192,191212,1,8,0:0:0:0:
256,192,191319,1,8,0:0:0:0:
256,192,191640,1,8,0:0:0:0:
256,192,191854,1,4,0:0:0:0:
256,192,192069,1,8,0:0:0:0:
256,192,192176,1,8,0:0:0:0:
256,192,192390,1,0,0:0:0:0:
256,192,192497,1,8,0:0:0:0:
256,192,192604,1,0,0:0:0:0:
256,192,192712,1,0,0:0:0:0:
256,192,192926,1,8,0:0:0:0:
256,192,193033,1,8,0:0:0:0:
256,192,193247,1,0,0:0:0:0:
256,192,193354,1,8,0:0:0:0:
256,192,193569,1,4,0:0:0:0:
256,192,193997,1,0,0:0:0:0:
256,192,194104,1,0,0:0:0:0:
256,192,194212,1,8,0:0:0:0:
256,192,194426,1,0,0:0:0:0:
256,192,194640,1,12,0:0:0:0:
256,192,195069,1,12,0:0:0:0:
256,192,195283,1,4,0:0:0:0:
256,192,195497,1,8,0:0:0:0:
256,192,195604,1,8,0:0:0:0:
256,192,195712,1,8,0:0:0:0:
256,192,195926,1,8,0:0:0:0:
256,192,196140,1,0,0:0:0:0:
256,192,196354,1,8,0:0:0:0:
256,192,196462,1,8,0:0:0:0:
256,192,196569,1,0,0:0:0:0:
256,192,196676,1,0,0:0:0:0:
256,192,196783,1,8,0:0:0:0:
256,192,196997,1,0,0:0:0:0:
256,192,197212,1,8,0:0:0:0:
256,192,197319,1,8,0:0:0:0:
256,192,197426,1,0,0:0:0:0:
256,192,197533,1,8,0:0:0:0:
256,192,197640,1,8,0:0:0:0:
256,192,197854,1,0,0:0:0:0:
256,192,198069,1,12,0:0:0:0:
256,192,198283,1,8,0:0:0:0:
256,192,198390,1,8,0:0:0:0:
256,192,198497,1,8,0:0:0:0:
256,192,198712,1,4,0:0:0:0:
256,192,199140,1,8,0:0:0:0:
256,192,199354,1,0,0:0:0:0:
256,192,199462,1,0,0:0:0:0:
256,192,199569,1,0,0:0:0:0:
256,192,199676,1,8,0:0:0:0:
256,192,199997,1,8,0:0:0:0:
256,192,200212,1,0,0:0:0:0:
256,192,200426,1,4,0:0:0:0:
256,192,200854,1,8,0:0:0:0:
256,192,201069,1,0,0:0:0:0:
256,192,201176,1,0,0:0:0:0:
256,192,201283,1,0,0:0:0:0:
256,192,201390,1,8,0:0:0:0:
256,192,201712,1,8,0:0:0:0:
256,192,201926,1,0,0:0:0:0:
256,192,202140,1,4,0:0:0:0:
256,192,202569,1,8,0:0:0:0:
256,192,202783,1,0,0:0:0:0:
256,192,202890,1,0,0:0:0:0:
256,192,202997,1,0,0:0:0:0:
256,192,203104,1,8,0:0:0:0:
256,192,203426,1,8,0:0:0:0:
256,192,203640,1,0,0:0:0:0:
256,192,203854,1,4,0:0:0:0:
256,192,204283,1,12,0:0:0:0:
256,192,204712,1,0,0:0:0:0:
256,192,204819,1,8,0:0:0:0:
256,192,205033,5,0,0:0:0:0:
256,192,205140,1,8,0:0:0:0:
256,192,205354,1,8,0:0:0:0:
256,192,205462,1,0,0:0:0:0:
256,192,205676,1,8,0:0:0:0:
256,192,205783,1,0,0:0:0:0:
256,192,205997,1,8,0:0:0:0:
256,192,206426,1,8,0:0:0:0:
256,192,206568,1,8,0:0:0:0:
256,192,206711,1,0,0:0:0:0:
256,192,206854,1,8,0:0:0:0:
256,192,206997,1,8,0:0:0:0:
256,192,207283,1,8,0:0:0:0:
256,192,207426,1,8,0:0:0:0:
256,192,207568,1,0,0:0:0:0:
256,192,207711,1,0,0:0:0:0:
256,192,207854,1,8,0:0:0:0:
256,192,208140,1,4,0:0:0:0:
256,192,208473,1,8,0:0:0:0:
256,192,208806,1,0,0:0:0:0:
256,192,209028,1,8,0:0:0:0:
256,192,209473,1,0,0:0:0:0:
256,192,209806,1,8,0:0:0:0:
256,192,210140,1,0,0:0:0:0:
256,192,210362,1,8,0:0:0:0:
256,192,210584,1,0,0:0:0:0:
256,192,210917,1,8,0:0:0:0:
256,192,211250,1,0,0:0:0:0:
256,192,211472,1,8,0:0:0:0:
256,192,211917,1,0,0:0:0:0:
256,192,212250,1,8,0:0:0:0:
256,192,212584,1,0,0:0:0:0:
256,192,212806,1,8,0:0:0:0:
256,192,213028,1,4,0:0:0:0:
256,192,213361,1,8,0:0:0:0:
256,192,213694,1,0,0:0:0:0:
256,192,213916,1,8,0:0:0:0:
256,192,214361,1,0,0:0:0:0:
256,192,214694,1,8,0:0:0:0:
256,192,215028,1,0,0:0:0:0:
256,192,215250,1,8,0:0:0:0:
256,192,215472,1,4,0:0:0:0:
256,192,215805,1,8,0:0:0:0:
256,192,216138,1,0,0:0:0:0:
256,192,216360,1,8,0:0:0:0:
256,192,216805,1,0,0:0:0:0:
256,192,217138,1,8,0:0:0:0:
256,192,217472,1,0,0:0:0:0:
256,192,217694,1,12,0:0:0:0:
256,192,217916,1,0,0:0:0:0:
256,192,218027,1,0,0:0:0:0:
256,192,218138,1,0,0:0:0:0:
256,192,218582,1,8,0:0:0:0:
256,192,218804,1,0,0:0:0:0:
256,192,219027,1,4,0:0:0:0:
256,192,219250,1,0,0:0:0:0:
256,192,219361,1,0,0:0:0:0:
256,192,219472,1,8,0:0:0:0:
256,192,219694,1,0,0:0:0:0:
256,192,219805,1,0,0:0:0:0:
256,192,220028,1,0,0:0:0:0:
256,192,220139,1,0,0:0:0:0:
256,192,220250,1,0,0:0:0:0:
256,192,220361,1,8,0:0:0:0:
256,192,220805,1,0,0:0:0:0:
256,192,221028,1,0,0:0:0:0:
256,192,221139,1,0,0:0:0:0:
256,192,221250,1,8,0:0:0:0:
256,192,221472,5,0,0:0:0:0:
256,192,221583,1,0,0:0:0:0:
256,192,221805,1,0,0:0:0:0:
256,192,221916,1,0,0:0:0:0:
256,192,222028,1,0,0:0:0:0:
256,192,222139,1,8,0:0:0:0:
256,192,222583,1,0,0:0:0:0:
256,192,222805,1,0,0:0:0:0:
256,192,222916,1,0,0:0:0:0:
256,192,223028,1,8,0:0:0:0:
256,192,223250,1,0,0:0:0:0:
256,192,223361,1,0,0:0:0:0:
256,192,223583,1,0,0:0:0:0:
256,192,223694,1,0,0:0:0:0:
256,192,223805,1,0,0:0:0:0:
256,192,223916,1,8,0:0:0:0:
256,192,224361,1,4,0:0:0:0:
256,192,224583,1,0,0:0:0:0:
256,192,224694,1,0,0:0:0:0:
256,192,224805,1,8,0:0:0:0:
256,192,225028,1,0,0:0:0:0:
256,192,225250,1,8,0:0:0:0:
256,192,225361,1,8,0:0:0:0:
256,192,225472,1,8,0:0:0:0:
256,192,225583,1,8,0:0:0:0:
256,192,225694,1,0,0:0:0:0:
256,192,226139,1,12,0:0:0:0:
256,192,226361,1,8,0:0:0:0:
256,192,226472,1,8,0:0:0:0:
256,192,226583,1,0,0:0:0:0:
256,192,226694,1,0,0:0:0:0:
256,192,226805,1,8,0:0:0:0:
256,192,227028,1,0,0:0:0:0:
256,192,227250,1,8,0:0:0:0:
256,192,227361,1,0,0:0:0:0:
256,192,227472,1,8,0:0:0:0:
256,192,227694,1,8,0:0:0:0:
256,192,227916,1,0,0:0:0:0:
256,192,228028,1,0,0:0:0:0:
256,192,228139,1,8,0:0:0:0:
256,192,228250,1,8,0:0:0:0:
256,192,228472,1,0,0:0:0:0:
256,192,228694,1,8,0:0:0:0:
256,192,228805,1,0,0:0:0:0:
256,192,229028,1,8,0:0:0:0:
256,192,229139,1,0,0:0:0:0:
256,192,229250,1,8,0:0:0:0:
256,192,229472,1,8,0:0:0:0:
256,192,229694,1,8,0:0:0:0:
256,192,229805,1,0,0:0:0:0:
256,192,229916,1,8,0:0:0:0:
256,192,230028,1,0,0:0:0:0:
256,192,230250,1,0,0:0:0:0:
256,192,230472,1,8,0:0:0:0:
256,192,230583,1,0,0:0:0:0:
256,192,230805,1,8,0:0:0:0:
256,192,230916,1,0,0:0:0:0:
256,192,231028,1,8,0:0:0:0:
256,192,231250,1,8,0:0:0:0:
256,192,231472,1,8,0:0:0:0:
256,192,231583,1,0,0:0:0:0:
256,192,231694,1,8,0:0:0:0:
256,192,231805,1,8,0:0:0:0:
256,192,232028,1,0,0:0:0:0:
256,192,232250,1,8,0:0:0:0:
256,192,232472,1,0,0:0:0:0:
256,192,232583,1,8,0:0:0:0:
256,192,232805,1,0,0:0:0:0:
256,192,233028,5,8,0:0:0:0:
256,192,233250,1,4,0:0:0:0:
256,192,233472,1,8,0:0:0:0:
256,192,233583,1,0,0:0:0:0:
256,192,233805,1,0,0:0:0:0:
256,192,234028,1,8,0:0:0:0:
256,192,234250,1,0,0:0:0:0:
256,192,234361,1,8,0:0:0:0:
256,192,234472,1,8,0:0:0:0:
256,192,234583,1,0,0:0:0:0:
256,192,234805,1,8,0:0:0:0:
256,192,235027,1,0,0:0:0:0:
256,192,235250,1,8,0:0:0:0:
256,192,235361,1,8,0:0:0:0:
256,192,235583,1,8,0:0:0:0:
256,192,235805,1,8,0:0:0:0:
256,192,236027,1,0,0:0:0:0:
256,192,236139,1,8,0:0:0:0:
256,192,236250,1,8,0:0:0:0:
256,192,236361,1,0,0:0:0:0:
256,192,236583,1,8,0:0:0:0:
256,192,236805,1,8,0:0:0:0:
256,192,237027,1,8,0:0:0:0:
256,192,237139,1,0,0:0:0:0:
256,192,237361,1,8,0:0:0:0:
256,192,237583,1,8,0:0:0:0:
256,192,237805,1,0,0:0:0:0:
256,192,237916,1,8,0:0:0:0:
256,192,238027,1,8,0:0:0:0:
256,192,238139,1,0,0:0:0:0:
256,192,238361,1,8,0:0:0:0:
256,192,238583,1,12,0:0:0:0:
256,192,238805,1,0,0:0:0:0:
256,192,238916,1,0,0:0:0:0:
256,192,239139,1,12,0:0:0:0:
256,192,239472,1,8,0:0:0:0:
256,192,239694,1,8,0:0:0:0:
256,192,239805,1,0,0:0:0:0:
256,192,239916,1,8,0:0:0:0:
256,192,240027,1,0,0:0:0:0:
256,192,240139,1,8,0:0:0:0:
256,192,240361,1,4,0:0:0:0:
256,192,240805,1,0,0:0:0:0:
256,192,241027,1,8,0:0:0:0:
256,192,241250,1,0,0:0:0:0:
256,192,241472,1,8,0:0:0:0:
256,192,241583,1,0,0:0:0:0:
256,192,241805,1,0,0:0:0:0:
256,192,241916,1,8,0:0:0:0:
256,192,242139,1,0,0:0:0:0:
256,192,242361,1,8,0:0:0:0:
256,192,242694,1,0,0:0:0:0:
256,192,242805,1,8,0:0:0:0:
256,192,243027,1,0,0:0:0:0:
256,192,243250,1,12,0:0:0:0:
256,192,243694,1,12,0:0:0:0:
256,192,243916,1,4,0:0:0:0:
256,192,244361,1,8,0:0:0:0:
256,192,244583,1,0,0:0:0:0:
256,192,244694,1,0,0:0:0:0:
256,192,244805,5,0,0:0:0:0:
256,192,244916,1,8,0:0:0:0:
256,192,245250,1,8,0:0:0:0:
256,192,245694,1,0,0:0:0:0:
256,192,245916,1,0,0:0:0:0:
256,192,246139,1,8,0:0:0:0:
256,192,246361,1,0,0:0:0:0:
256,192,246472,1,0,0:0:0:0:
256,192,246583,1,0,0:0:0:0:
256,192,246694,1,8,0:0:0:0:
256,192,247027,1,8,0:0:0:0:
256,192,247472,1,4,0:0:0:0:
256,192,247694,1,8,0:0:0:0:
256,192,248027,1,0,0:0:0:0:
256,192,248139,1,8,0:0:0:0:
256,192,248361,1,0,0:0:0:0:
256,192,248583,1,8,0:0:0:0:
256,192,248916,1,0,0:0:0:0:
256,192,249027,1,8,0:0:0:0:
256,192,249250,1,4,0:0:0:0:
256,192,249694,1,0,0:0:0:0:
256,192,249916,1,8,0:0:0:0:
256,192,250139,1,8,0:0:0:0:
256,192,250250,1,8,0:0:0:0:
256,192,250361,1,8,0:0:0:0:
256,192,250472,1,8,0:0:0:0:
256,192,250583,1,0,0:0:0:0:
256,192,250805,1,0,0:0:0:0:
256,192,251027,1,12,0:0:0:0:
256,192,251472,1,8,0:0:0:0:
256,192,251694,1,0,0:0:0:0:
256,192,251805,1,0,0:0:0:0:
256,192,251916,1,8,0:0:0:0:
256,192,252139,1,0,0:0:0:0:
256,192,252361,1,8,0:0:0:0:
256,192,252472,1,8,0:0:0:0:
256,192,252583,1,0,0:0:0:0:
256,192,252805,2,0,L|192:192,6,35
256,192,253694,1,8,0:0:0:0:
256,192,254027,1,0,0:0:0:0:
256,192,254361,5,12,0:0:0:0:
256,192,256361,1,4,0:0:0:0:
256,192,256583,5,8,0:0:0:0:
256,192,256694,1,8,0:0:0:0:
256,192,256805,1,0,0:0:0:0:
256,192,256916,1,0,0:0:0:0:
256,192,257027,1,8,0:0:0:0:
256,192,257250,1,0,0:0:0:0:
256,192,257472,5,8,0:0:0:0:
256,192,257583,1,8,0:0:0:0:
256,192,257694,1,0,0:0:0:0:
256,192,257916,1,8,0:0:0:0:
256,192,258139,1,0,0:0:0:0:
256,192,258361,5,8,0:0:0:0:
256,192,258472,1,8,0:0:0:0:
256,192,258583,1,0,0:0:0:0:
256,192,258694,1,0,0:0:0:0:
256,192,258805,1,8,0:0:0:0:
256,192,259027,1,0,0:0:0:0:
256,192,259250,5,8,0:0:0:0:
256,192,259361,1,8,0:0:0:0:
256,192,259472,1,0,0:0:0:0:
256,192,259694,1,8,0:0:0:0:
256,192,259916,1,0,0:0:0:0:
256,192,260139,5,8,0:0:0:0:
256,192,260250,1,8,0:0:0:0:
256,192,260361,1,0,0:0:0:0:
256,192,260472,1,0,0:0:0:0:
256,192,260583,1,8,0:0:0:0:
256,192,260805,1,0,0:0:0:0:
256,192,261027,5,8,0:0:0:0:
256,192,261139,1,8,0:0:0:0:
256,192,261250,1,0,0:0:0:0:
256,192,261472,1,8,0:0:0:0:
256,192,261694,1,0,0:0:0:0:
256,192,261805,1,0,0:0:0:0:
256,192,261916,5,8,0:0:0:0:
256,192,262027,1,8,0:0:0:0:
256,192,262139,1,0,0:0:0:0:
256,192,262361,1,8,0:0:0:0:
256,192,262583,1,0,0:0:0:0:
256,192,262694,1,0,0:0:0:0:
256,192,262805,1,8,0:0:0:0:
256,192,263027,1,0,0:0:0:0:
256,192,263472,1,4,0:0:0:0:
256,192,263694,5,8,0:0:0:0:
256,192,263805,1,8,0:0:0:0:
256,192,263916,1,0,0:0:0:0:
256,192,264027,1,0,0:0:0:0:
256,192,264139,1,8,0:0:0:0:
256,192,264361,1,0,0:0:0:0:
256,192,264583,5,8,0:0:0:0:
256,192,264694,1,8,0:0:0:0:
256,192,264805,1,0,0:0:0:0:
256,192,265027,1,8,0:0:0:0:
256,192,265249,1,0,0:0:0:0:
256,192,265472,5,8,0:0:0:0:
256,192,265583,1,8,0:0:0:0:
256,192,265694,1,0,0:0:0:0:
256,192,265805,1,0,0:0:0:0:
256,192,265916,1,8,0:0:0:0:
256,192,266139,1,0,0:0:0:0:
256,192,266361,5,8,0:0:0:0:
256,192,266472,1,8,0:0:0:0:
256,192,266583,1,0,0:0:0:0:
256,192,266805,1,8,0:0:0:0:
256,192,267027,1,0,0:0:0:0:
256,192,267250,5,8,0:0:0:0:
256,192,267361,1,8,0:0:0:0:
256,192,267472,1,0,0:0:0:0:
256,192,267583,1,0,0:0:0:0:
256,192,267694,1,8,0:0:0:0:
256,192,267916,1,0,0:0:0:0:
256,192,268139,5,8,0:0:0:0:
256,192,268250,1,8,0:0:0:0:
256,192,268361,1,0,0:0:0:0:
256,192,268583,1,8,0:0:0:0:
256,192,268805,1,8,0:0:0:0:
256,192,268916,1,8,0:0:0:0:
256,192,269027,5,8,0:0:0:0:
256,192,269250,1,0,0:0:0:0:
256,192,269361,1,0,0:0:0:0:
256,192,269472,1,8,0:0:0:0:
256,192,269694,1,12,0:0:0:0:
256,192,270139,1,0,0:0:0:0:
256,192,270250,1,0,0:0:0:0:
256,192,270361,5,8,0:0:0:0:
256,192,270583,1,4,0:0:0:0:
256,192,270805,5,8,0:0:0:0:
256,192,270916,1,8,0:0:0:0:
256,192,271027,1,0,0:0:0:0:
256,192,271138,1,0,0:0:0:0:
256,192,271250,1,8,0:0:0:0:
256,192,271472,1,0,0:0:0:0:
256,192,271694,5,8,0:0:0:0:
256,192,271805,1,8,0:0:0:0:
256,192,271916,1,0,0:0:0:0:
256,192,272139,1,8,0:0:0:0:
256,192,272361,1,0,0:0:0:0:
256,192,272583,5,8,0:0:0:0:
256,192,272694,1,8,0:0:0:0:
256,192,272805,1,0,0:0:0:0:
256,192,272916,1,0,0:0:0:0:
256,192,273027,1,8,0:0:0:0:
256,192,273250,1,0,0:0:0:0:
256,192,273472,5,8,0:0:0:0:
256,192,273583,1,8,0:0:0:0:
256,192,273694,1,0,0:0:0:0:
256,192,273916,1,8,0:0:0:0:
256,192,274139,1,0,0:0:0:0:
256,192,274361,5,8,0:0:0:0:
256,192,274472,1,8,0:0:0:0:
256,192,274583,1,0,0:0:0:0:
256,192,274694,1,0,0:0:0:0:
256,192,274805,1,8,0:0:0:0:
256,192,275027,1,0,0:0:0:0:
256,192,275250,5,8,0:0:0:0:
256,192,275361,1,8,0:0:0:0:
256,192,275472,1,0,0:0:0:0:
256,192,275694,1,8,0:0:0:0:
256,192,275916,1,0,0:0:0:0:
256,192,276027,1,0,0:0:0:0:
256,192,276139,5,8,0:0:0:0:
256,192,276249,1,8,0:0:0:0:
256,192,276361,1,0,0:0:0:0:
256,192,276583,1,8,0:0:0:0:
256,192,276805,1,0,0:0:0:0:
256,192,277027,5,12,0:0:0:0:
256,192,277472,1,12,0:0:0:0:
256,192,277694,1,4,0:0:0:0:
256,192,277916,5,8,0:0:0:0:
256,192,278027,1,8,0:0:0:0:
256,192,278139,1,0,0:0:0:0:
256,192,278249,1,0,0:0:0:0:
256,192,278361,1,8,0:0:0:0:
256,192,278583,1,0,0:0:0:0:
256,192,278805,5,8,0:0:0:0:
256,192,278916,1,8,0:0:0:0:
256,192,279027,1,0,0:0:0:0:
256,192,279250,1,8,0:0:0:0:
256,192,279472,1,0,0:0:0:0:
256,192,279694,5,8,0:0:0:0:
256,192,279805,1,8,0:0:0:0:
256,192,279916,1,0,0:0:0:0:
256,192,280027,1,0,0:0:0:0:
256,192,280139,1,8,0:0:0:0:
256,192,280361,1,0,0:0:0:0:
256,192,280583,5,8,0:0:0:0:
256,192,280694,1,8,0:0:0:0:
256,192,280805,1,0,0:0:0:0:
256,192,281027,1,8,0:0:0:0:
256,192,281250,1,4,0:0:0:0:
256,192,281472,5,8,0:0:0:0:
256,192,281583,1,8,0:0:0:0:
256,192,281694,1,0,0:0:0:0:
256,192,281805,1,0,0:0:0:0:
256,192,281916,1,8,0:0:0:0:
256,192,282139,1,0,0:0:0:0:
256,192,282361,5,8,0:0:0:0:
256,192,282472,1,8,0:0:0:0:
256,192,282583,1,0,0:0:0:0:
256,192,282805,5,12,0:0:0:0:
256,192,283027,1,12,0:0:0:0:
256,192,283249,1,0,0:0:0:0:
256,192,283361,1,8,0:0:0:0:
256,192,283472,1,0,0:0:0:0:
256,192,283583,1,0,0:0:0:0:
256,192,283694,1,8,0:0:0:0:
256,192,283916,1,0,0:0:0:0:
256,192,284027,1,8,0:0:0:0:
256,192,284138,1,0,0:0:0:0:
256,192,284361,1,8,0:0:0:0:
256,192,284805,1,12,0:0:0:0:
256,192,285138,1,0,0:0:0:0:
256,192,285249,1,8,0:0:0:0:
256,192,285472,1,8,0:0:0:0:
256,192,285583,1,0,0:0:0:0:
256,192,285694,1,8,0:0:0:0:
256,192,285916,5,0,0:0:0:0:
256,192,286027,1,8,0:0:0:0:
256,192,286138,1,8,0:0:0:0:
256,192,286249,1,0,0:0:0:0:
256,192,286361,1,8,0:0:0:0:
256,192,286583,1,8,0:0:0:0:
256,192,286916,5,0,0:0:0:0:
256,192,287027,1,8,0:0:0:0:
256,192,287249,1,8,0:0:0:0:
256,192,287361,1,0,0:0:0:0:
256,192,287472,1,8,0:0:0:0:
256,192,287694,5,0,0:0:0:0:
256,192,287805,1,8,0:0:0:0:
256,192,287916,1,8,0:0:0:0:
256,192,288027,1,0,0:0:0:0:
256,192,288138,1,8,0:0:0:0:
256,192,288360,1,8,0:0:0:0:
256,192,288694,5,0,0:0:0:0:
256,192,288805,1,8,0:0:0:0:
256,192,289027,1,8,0:0:0:0:
256,192,289138,1,0,0:0:0:0:
256,192,289249,1,8,0:0:0:0:
256,192,289472,5,0,0:0:0:0:
256,192,289583,1,8,0:0:0:0:
256,192,289694,1,8,0:0:0:0:
256,192,289805,1,0,0:0:0:0:
256,192,289916,1,8,0:0:0:0:
256,192,290138,1,12,0:0:0:0:
256,192,290360,5,0,0:0:0:0:
256,192,290472,1,0,0:0:0:0:
256,192,290583,1,8,0:0:0:0:
256,192,290805,1,0,0:0:0:0:
256,192,291027,1,12,0:0:0:0:
256,192,291360,1,4,0:0:0:0:
256,192,291694,1,12,0:0:0:0:
256,192,291916,1,4,0:0:0:0:
256,192,292138,5,8,0:0:0:0:
256,192,292249,1,8,0:0:0:0:
256,192,292360,1,0,0:0:0:0:
256,192,292472,1,0,0:0:0:0:
256,192,292583,1,8,0:0:0:0:
256,192,292805,1,0,0:0:0:0:
256,192,293027,5,8,0:0:0:0:
256,192,293138,1,8,0:0:0:0:
256,192,293249,1,0,0:0:0:0:
256,192,293472,1,8,0:0:0:0:
256,192,293694,1,0,0:0:0:0:
256,192,293916,5,8,0:0:0:0:
256,192,294027,1,8,0:0:0:0:
256,192,294138,1,0,0:0:0:0:
256,192,294249,1,0,0:0:0:0:
256,192,294360,1,8,0:0:0:0:
256,192,294583,1,0,0:0:0:0:
256,192,294805,5,8,0:0:0:0:
256,192,294916,1,8,0:0:0:0:
256,192,295027,1,0,0:0:0:0:
256,192,295249,1,8,0:0:0:0:
256,192,295472,1,4,0:0:0:0:
256,192,295694,5,8,0:0:0:0:
256,192,295805,1,8,0:0:0:0:
256,192,295916,1,0,0:0:0:0:
256,192,296027,1,0,0:0:0:0:
256,192,296138,1,8,0:0:0:0:
256,192,296360,1,0,0:0:0:0:
256,192,296583,5,8,0:0:0:0:
256,192,296694,1,8,0:0:0:0:
256,192,296805,1,0,0:0:0:0:
256,192,297027,1,8,0:0:0:0:
256,192,297249,1,4,0:0:0:0:
256,192,297694,1,8,0:0:0:0:
256,192,297842,1,8,0:0:0:0:
256,192,297990,1,8,0:0:0:0:
256,192,298138,1,8,0:0:0:0:
256,192,298286,1,0,0:0:0:0:
256,192,298435,5,0,0:0:0:0:
256,192,298583,1,0,0:0:0:0:
256,192,298731,1,0,0:0:0:0:
256,192,299027,1,4,0:0:0:0:
256,192,300805,1,0,0:0:0:0:
256,192,302583,1,0,0:0:0:0:
256,192,304360,1,0,0:0:0:0:
256,192,306138,1,0,0:0:0:0:
256,192,306472,1,0,0:0:0:0:
256,192,306805,1,8,0:0:0:0:
256,192,307249,1,0,0:0:0:0:
256,192,307694,1,8,0:0:0:0:
256,192,307916,1,0,0:0:0:0:
256,192,308249,1,0,0:0:0:0:
256,192,308583,5,8,0:0:0:0:
256,192,309027,1,0,0:0:0:0:
256,192,309472,1,8,0:0:0:0:
256,192,309694,1,0,0:0:0:0:
256,192,310027,1,0,0:0:0:0:
256,192,310360,1,8,0:0:0:0:
256,192,310805,1,8,0:0:0:0:
256,192,311249,1,8,0:0:0:0:
256,192,311694,1,0,0:0:0:0:
256,192,311916,1,8,0:0:0:0:
256,192,312027,1,8,0:0:0:0:
256,192,312138,1,0,0:0:0:0:
256,192,312249,1,0,0:0:0:0:
256,192,312360,1,8,0:0:0:0:
256,192,312583,1,4,0:0:0:0:
256,192,313027,1,0,0:0:0:0:
256,192,313249,1,12,0:0:0:0:
256,192,313916,1,0,0:0:0:0:
256,192,314138,1,8,0:0:0:0:
256,192,314360,1,0,0:0:0:0:
256,192,314805,1,0,0:0:0:0:
256,192,315027,1,0,0:0:0:0:
256,192,315249,1,8,0:0:0:0:
256,192,315694,1,8,0:0:0:0:
256,192,315916,1,8,0:0:0:0:
256,192,316138,1,0,0:0:0:0:
256,192,316360,1,8,0:0:0:0:
256,192,316583,1,0,0:0:0:0:
256,192,316805,1,4,0:0:0:0:
256,192,317472,1,0,0:0:0:0:
256,192,317694,1,8,0:0:0:0:
256,192,318138,1,0,0:0:0:0:
256,192,318583,1,0,0:0:0:0:
256,192,318805,1,8,0:0:0:0:
256,192,319249,1,0,0:0:0:0:
256,192,319360,1,0,0:0:0:0:
256,192,319472,1,8,0:0:0:0:
256,192,319694,1,0,0:0:0:0:
256,192,320138,1,4,0:0:0:0:
256,192,320360,1,12,0:0:0:0:
256,192,321027,1,0,0:0:0:0:
256,192,321249,1,8,0:0:0:0:
256,192,321694,1,8,0:0:0:0:
256,192,321916,1,0,0:0:0:0:
256,192,322138,1,0,0:0:0:0:
256,192,322360,1,8,0:0:0:0:
256,192,322805,1,0,0:0:0:0:
256,192,323027,1,8,0:0:0:0:
256,192,323249,1,0,0:0:0:0:
256,192,323472,1,0,0:0:0:0:
256,192,323916,1,4,0:0:0:0:
256,192,324360,1,0,0:0:0:0:
256,192,324583,1,0,0:0:0:0:
256,192,324805,1,0,0:0:0:0:
256,192,325027,1,0,0:0:0:0:
256,192,325249,1,0,0:0:0:0:
256,192,325472,1,0,0:0:0:0:
256,192,325694,1,0,0:0:0:0:
256,192,325916,1,0,0:0:0:0:
256,192,326138,1,0,0:0:0:0:
256,192,326360,1,0,0:0:0:0:
256,192,326583,5,8,0:0:0:0:
256,192,326694,1,0,0:0:0:0:
256,192,326805,1,0,0:0:0:0:
256,192,326916,1,0,0:0:0:0:
256,192,327027,1,8,0:0:0:0:
256,192,327472,1,4,0:0:0:0:
256,192,327694,1,8,0:0:0:0:
256,192,328028,1,0,0:0:0:0:
256,192,328139,1,8,0:0:0:0:
256,192,328361,1,0,0:0:0:0:
256,192,328583,1,8,0:0:0:0:
256,192,329028,1,8,0:0:0:0:
256,192,329250,1,0,0:0:0:0:
256,192,329361,1,0,0:0:0:0:
256,192,329472,1,8,0:0:0:0:
256,192,329694,1,0,0:0:0:0:
256,192,329917,1,8,0:0:0:0:
256,192,330028,1,8,0:0:0:0:
256,192,330139,1,0,0:0:0:0:
256,192,330361,1,8,0:0:0:0:
256,192,330583,1,0,0:0:0:0:
256,192,330806,1,8,0:0:0:0:
256,192,330917,1,8,0:0:0:0:
256,192,331028,1,0,0:0:0:0:
256,192,331250,1,8,0:0:0:0:
256,192,331583,1,0,0:0:0:0:
256,192,331694,1,8,0:0:0:0:
256,192,331917,1,0,0:0:0:0:
256,192,332139,1,8,0:0:0:0:
256,192,332583,1,8,0:0:0:0:
256,192,332806,1,0,0:0:0:0:
256,192,332917,1,0,0:0:0:0:
256,192,333028,1,8,0:0:0:0:
256,192,333139,1,0,0:0:0:0:
256,192,333250,1,0,0:0:0:0:
256,192,333472,1,8,0:0:0:0:
256,192,333694,1,0,0:0:0:0:
256,192,333806,1,0,0:0:0:0:
256,192,333917,1,8,0:0:0:0:
256,192,334028,1,8,0:0:0:0:
256,192,334139,1,0,0:0:0:0:
256,192,334361,1,8,0:0:0:0:
256,192,334583,1,4,0:0:0:0:
256,192,335028,1,0,0:0:0:0:
256,192,335250,1,8,0:0:0:0:
256,192,335361,1,8,0:0:0:0:
256,192,335472,1,0,0:0:0:0:
256,192,335694,1,8,0:0:0:0:
256,192,335917,1,0,0:0:0:0:
256,192,336028,1,0,0:0:0:0:
256,192,336139,1,8,0:0:0:0:
256,192,336361,1,0,0:0:0:0:
256,192,336583,1,8,0:0:0:0:
256,192,336806,1,0,0:0:0:0:
256,192,336917,1,0,0:0:0:0:
256,192,337028,1,8,0:0:0:0:
256,192,337250,1,0,0:0:0:0:
256,192,337472,1,8,0:0:0:0:
256,192,337583,1,8,0:0:0:0:
256,192,337694,1,0,0:0:0:0:
256,192,337917,1,8,0:0:0:0:
256,192,338139,1,4,0:0:0:0:
256,192,338361,1,8,0:0:0:0:
256,192,338694,1,0,0:0:0:0:
256,192,338806,1,8,0:0:0:0:
256,192,339028,1,0,0:0:0:0:
256,192,339250,1,8,0:0:0:0:
256,192,339583,1,0,0:0:0:0:
256,192,339694,1,8,0:0:0:0:
256,192,339917,1,0,0:0:0:0:
256,192,340139,1,12,0:0:0:0:
256,192,340583,1,12,0:0:0:0:
256,192,340805,1,8,0:0:0:0:
256,192,340916,1,8,0:0:0:0:
256,192,341028,1,8,0:0:0:0:
256,192,341250,1,0,0:0:0:0:
256,192,341361,1,0,0:0:0:0:
256,192,341472,1,0,0:0:0:0:
256,192,341694,1,4,0:0:0:0:
256,192,341917,1,8,0:0:0:0:
256,192,342138,1,0,0:0:0:0:
256,192,342250,1,0,0:0:0:0:
256,192,342361,1,8,0:0:0:0:
256,192,342583,1,0,0:0:0:0:
256,192,342806,1,8,0:0:0:0:
256,192,343139,1,0,0:0:0:0:
256,192,343250,1,8,0:0:0:0:
256,192,343472,1,0,0:0:0:0:
256,192,343583,1,0,0:0:0:0:
256,192,343694,1,8,0:0:0:0:
256,192,343805,1,0,0:0:0:0:
256,192,343917,1,0,0:0:0:0:
256,192,344139,1,8,0:0:0:0:
256,192,344250,1,8,0:0:0:0:
256,192,344361,1,0,0:0:0:0:
256,192,344472,1,0,0:0:0:0:
256,192,344583,1,8,0:0:0:0:
256,192,344805,1,0,0:0:0:0:
256,192,344916,1,0,0:0:0:0:
256,192,345028,1,8,0:0:0:0:
256,192,345250,1,4,0:0:0:0:
256,192,345472,1,8,0:0:0:0:
256,192,345806,1,0,0:0:0:0:
256,192,345917,1,8,0:0:0:0:
256,192,346139,1,0,0:0:0:0:
256,192,346361,1,8,0:0:0:0:
256,192,346583,1,8,0:0:0:0:
256,192,346694,1,0,0:0:0:0:
256,192,346806,1,8,0:0:0:0:
256,192,347028,1,12,0:0:0:0:
256,192,347472,1,12,0:0:0:0:
256,192,347917,1,12,0:0:0:0:
256,192,348361,1,12,0:0:0:0:
256,192,348806,5,12,0:0:0:0:
256,192,349101,5,0,0:0:0:0:
256,192,349398,1,0,0:0:0:0:
256,192,349694,1,8,0:0:0:0:
256,192,349990,1,0,0:0:0:0:
256,192,350286,1,0,0:0:0:0:
256,192,350583,1,12,0:0:0:0:
256,192,350879,1,0,0:0:0:0:
256,192,351175,1,0,0:0:0:0:
256,192,351472,1,8,0:0:0:0:
256,192,351768,1,0,0:0:0:0:
256,192,352064,1,0,0:0:0:0:
256,192,352360,1,12,0:0:0:0:
256,192,352657,1,0,0:0:0:0:
256,192,352953,1,0,0:0:0:0:
256,192,353249,1,8,0:0:0:0:
256,192,353546,1,0,0:0:0:0:
256,192,353842,1,0,0:0:0:0:
256,192,354138,1,12,0:0:0:0:
256,192,354435,5,0,0:0:0:0:
256,192,354731,1,0,0:0:0:0:
256,192,355027,1,0,0:0:0:0:
256,192,355323,1,0,0:0:0:0:
256,192,355620,1,0,0:0:0:0:
256,192,355916,1,12,0:0:0:0:
256,192,356212,1,0,0:0:0:0:
256,192,356509,1,0,0:0:0:0:
256,192,356805,1,8,0:0:0:0:
256,192,357101,1,0,0:0:0:0:
256,192,357398,1,0,0:0:0:0:
256,192,357694,1,12,0:0:0:0:
256,192,357990,1,0,0:0:0:0:
256,192,358286,1,0,0:0:0:0:
256,192,358583,1,8,0:0:0:0:
256,192,358879,1,0,0:0:0:0:
256,192,359175,1,0,0:0:0:0:
256,192,359472,1,12,0:0:0:0:
256,192,359768,1,0,0:0:0:0:
256,192,360064,1,0,0:0:0:0:
256,192,360360,1,8,0:0:0:0:
256,192,360657,1,0,0:0:0:0:
256,192,360953,1,0,0:0:0:0:
256,192,361249,1,12,0:0:0:0:
256,192,361546,1,8,0:0:0:0:
256,192,361842,5,0,0:0:0:0:
256,192,362138,1,8,0:0:0:0:
256,192,362435,1,0,0:0:0:0:
256,192,362731,1,12,0:0:0:0:
