osu file format v14

[General]
AudioFilename: audio.ogg
AudioLeadIn: 0
PreviewTime: 215680
Countdown: 0
SampleSet: Soft
StackLeniency: 0.7
Mode: 0
LetterboxInBreaks: 0
WidescreenStoryboard: 0

[Editor]
Bookmarks: 90880
DistanceSpacing: 0.3
BeatDivisor: 4
GridSize: 32
TimelineZoom: 2.1

[Metadata]
Title:The Grimoire of Alice ~ Fushigi no Kuni no Alice
TitleUnicode:The Grimoire of Alice ~ 不思議の国のアリス
Artist:Demetori
ArtistUnicode:Demetori
Creator:Aistre
Version:Ooedo Explosive Marionette
Source:東方怪綺談 ~ Mystic Square
Tags:アリス マーガトロイド Alice Margatroid Touhou Project th 05 Bizarre Romantic Story Kaikidan le Grimoire De reve C85 Heavy Power Metal Instrumental ZUN alphabet venax 東方Project TH05 Team Shanghai Alice ZUN Soft Amusement Makers Comiket Video Game MS PC-98 delusional harepascals unappreciative koda
BeatmapID:3889361
BeatmapSetID:1888527

[Difficulty]
HPDrainRate:5
CircleSize:4.5
OverallDifficulty:9.3
ApproachRate:9.6
SliderMultiplier:1.8
SliderTickRate:1

[Events]
//Background and Video events
0,0,"111837.jpg",0,0
//Break Periods
//Storyboard Layer 0 (Background)
//Storyboard Layer 1 (Fail)
//Storyboard Layer 2 (Pass)
//Storyboard Layer 3 (Foreground)
//Storyboard Layer 4 (Overlay)
//Storyboard Sound Samples

[TimingPoints]
366,342.857142857143,4,2,1,75,1,0
8594,-90.9090909090909,4,2,1,75,0,0
11337,-71.4285714285714,4,2,1,75,0,0
22308,-83.3333333333333,4,2,2,60,0,0
55223,-71.4285714285714,4,2,1,70,0,0
60708,-71.4285714285714,4,2,2,70,0,0
64823,-71.4285714285714,4,2,2,50,0,0
65166,-71.4285714285714,4,2,2,60,0,0
65508,-71.4285714285714,4,2,2,70,0,0
65851,-71.4285714285714,4,2,2,80,0,0
66194,-71.4285714285714,4,2,2,70,0,0
89508,-71.4285714285714,4,2,1,70,0,0
90880,-66.6666666666667,4,2,2,75,0,0
112823,-83.3333333333333,4,2,1,60,0,0
128766,-83.3333333333333,4,2,1,5,0,0
128823,-83.3333333333333,4,2,1,60,0,0
128994,-83.3333333333333,4,2,1,5,0,0
129051,-83.3333333333333,4,2,1,60,0,0
129223,-83.3333333333333,4,2,1,5,0,0
129280,-83.3333333333333,4,2,1,60,0,0
132023,-83.3333333333333,4,2,1,50,0,0
132708,-83.3333333333333,4,2,1,60,0,0
133394,-83.3333333333333,4,2,1,70,0,0
134766,-71.4285714285714,4,2,2,70,0,0
156708,-71.4285714285714,4,2,2,60,0,0
158766,-71.4285714285714,4,2,2,60,0,0
161337,-71.4285714285714,4,2,2,60,0,0
162194,-125,4,2,2,60,0,0
162708,-125,4,2,2,50,0,0
165623,-125,4,2,2,60,0,0
165966,-125,4,2,2,70,0,0
166994,-125,4,2,2,80,0,0
167680,-66.6666666666667,4,2,2,80,0,0
186880,-66.6666666666667,4,2,1,80,0,0
189623,-71.4285714285714,4,2,2,70,0,0
200594,-71.4285714285714,4,2,1,70,0,0
215680,-62.5,4,2,2,75,0,1
226651,-76.9230769230769,4,2,2,75,0,1
232308,-62.5,4,2,2,75,0,1
237623,-62.5,4,2,1,65,0,1
238994,-62.5,4,2,1,55,0,1
240366,-71.4285714285714,4,2,2,70,0,0
268823,-71.4285714285714,4,2,1,70,0,0
268994,-71.4285714285714,4,2,2,70,0,0
282880,-71.4285714285714,4,2,1,70,0,0
284251,-71.4285714285714,4,2,1,65,0,0
295223,-71.4285714285714,4,2,2,80,0,0
306194,-71.4285714285714,4,2,2,80,0,0
307566,-71.4285714285714,4,2,2,80,0,0

[Colours]
Combo1 : 115,180,107
Combo2 : 252,228,150
Combo3 : 202,89,89
Combo4 : 98,132,170

[HitObjects]
92,60,366,6,0,P|182:64|252:145,1,180,6|0,1:0|1:0,0:0:0:0:
170,276,880,1,2,3:1:0:0:
170,276,966,1,0,3:0:0:0:
170,276,1051,2,0,L|186:399,1,90,0|0,1:0|3:0,0:0:0:0:
22,243,1394,1,0,1:0:0:0:
62,236,1480,1,0,3:0:0:0:
95,212,1566,1,0,3:0:0:0:
112,175,1651,1,0,3:0:0:0:
112,134,1737,6,0,P|79:123|62:120,2,45,2|0|0,1:0|3:0|3:0,0:0:0:0:
235,28,2080,1,2,1:0:0:0:
263,56,2166,1,0,3:0:0:0:
263,96,2251,1,0,3:0:0:0:
155,255,2423,1,2,1:0:0:0:
171,218,2509,1,0,3:0:0:0:
208,204,2594,1,0,3:0:0:0:
358,327,2766,1,2,1:0:0:0:
397,332,2851,1,0,3:0:0:0:
435,319,2937,1,0,3:0:0:0:
462,289,3023,1,0,3:0:0:0:
463,248,3108,6,0,L|256:216,1,180,2|0,1:0|1:0,0:0:0:0:
405,89,3623,1,2,3:1:0:0:
405,89,3708,1,0,3:0:0:0:
405,89,3794,2,0,P|454:123|464:171,1,90,0|0,1:0|3:0,0:0:0:0:
324,312,4137,1,0,1:0:0:0:
317,300,4223,1,0,3:0:0:0:
310,288,4308,1,0,3:0:0:0:
303,276,4394,1,0,3:0:0:0:
296,264,4480,6,0,L|282:210,3,45,2|0|0|0,1:0|3:0|3:0|3:0,0:0:0:0:
204,354,4823,1,2,1:0:0:0:
178,363,4908,1,0,3:0:0:0:
151,360,4994,1,0,3:0:0:0:
127,347,5080,1,0,3:0:0:0:
110,325,5166,5,2,1:0:0:0:
143,311,5251,1,0,3:0:0:0:
169,286,5337,1,0,3:0:0:0:
177,251,5423,1,0,3:0:0:0:
168,216,5508,5,2,1:0:0:0:
123,209,5594,1,0,3:0:0:0:
87,181,5680,1,0,3:0:0:0:
67,140,5766,1,0,3:0:0:0:
78,96,5851,6,0,P|148:80|266:37,1,180,6|0,1:0|1:0,0:0:0:0:
345,227,6366,1,2,3:1:0:0:
345,227,6451,1,0,3:0:0:0:
345,227,6537,2,0,P|286:202|245:192,1,90,0|0,1:0|3:0,0:0:0:0:
398,11,6880,2,0,P|368:63|348:115,1,90,0|0,1:0|3:0,0:0:0:0:
504,302,7223,6,0,B|528:263|528:263|500:210,1,90,2|0,1:0|3:0,0:0:0:0:
463,173,7480,1,2,3:1:0:0:
463,173,7566,2,0,L|356:156,1,90,0|2,1:0|3:1,0:0:0:0:
258,364,7908,5,2,1:0:0:0:
268,354,7994,2,0,L|369:333,1,90,0|2,3:0|3:1,0:0:0:0:
394,277,8251,2,0,P|358:237|303:248,1,90,0|2,1:0|3:1,0:0:0:0:
160,361,8594,6,0,P|93:348|96:226,1,198.000006042481,6|0,1:0|1:0,0:0:0:0:
4,129,9108,1,0,3:0:0:0:
4,129,9194,1,0,3:0:0:0:
4,129,9280,1,0,1:0:0:0:
53,134,9366,1,0,3:0:0:0:
95,108,9451,1,0,3:0:0:0:
113,61,9537,1,0,3:0:0:0:
98,13,9623,2,0,P|35:20|17:64,1,99.0000030212403,0|0,1:0|3:0,0:0:0:0:
0,254,9966,5,6,1:0:0:0:
14,257,10051,1,0,3:0:0:0:
27,262,10137,1,0,3:0:0:0:
38,271,10223,1,0,3:0:0:0:
78,258,10308,5,4,1:0:0:0:
103,273,10394,1,0,3:0:0:0:
131,280,10480,1,0,3:0:0:0:
160,274,10566,1,0,3:0:0:0:
194,292,10651,5,6,1:0:0:0:
229,256,10737,1,0,3:0:0:0:
275,238,10823,1,0,1:0:0:0:
323,243,10908,1,0,1:0:0:0:
365,268,10994,1,0,1:0:0:0:
390,310,11080,1,0,1:0:0:0:
432,336,11166,1,0,1:0:0:0:
480,331,11251,1,0,1:0:0:0:
510,291,11337,6,0,P|492:221|492:157,1,125.999996154785,6|0,3:1|1:0,0:0:0:0:
354,373,11680,1,0,3:0:0:0:
422,120,11851,1,2,1:0:0:0:
422,120,11937,1,0,3:0:0:0:
422,120,12023,2,0,P|419:182|402:243,1,125.999996154785,0|0,3:0|1:0,0:0:0:0:
264,338,12366,1,0,3:0:0:0:
231,308,12451,1,0,3:0:0:0:
222,264,12537,1,2,1:0:0:0:
236,222,12623,1,0,3:0:0:0:
273,199,12708,6,0,P|304:216|336:225,3,62.9999980773926,2|0|0|0,3:1|3:0|1:0|3:0,0:0:0:0:
258,35,13051,1,2,3:1:0:0:
246,50,13137,1,0,3:0:0:0:
238,66,13223,1,0,1:0:0:0:
233,84,13308,5,0,3:0:0:0:
193,52,13394,1,2,3:1:0:0:
144,36,13480,1,0,3:0:0:0:
93,40,13566,1,0,1:0:0:0:
49,63,13651,1,0,3:0:0:0:
26,108,13737,2,0,P|64:172|72:231,1,125.999996154785,2|0,3:1|1:0,0:0:0:0:
41,314,13994,1,0,3:0:0:0:
20,334,14080,6,0,P|49:224|179:177,1,251.999992309571,6|0,3:1|3:0,0:0:0:0:
329,278,14594,1,2,1:0:0:0:
329,278,14680,1,0,3:0:0:0:
329,278,14766,2,0,P|370:266|395:243,1,62.9999980773926,2|0,3:1|3:0,0:0:0:0:
337,147,14937,2,0,P|296:159|271:182,1,62.9999980773926,0|0,1:0|3:0,0:0:0:0:
195,341,15108,5,2,3:2:0:0:
199,329,15194,1,0,3:0:0:0:
203,317,15280,1,0,1:0:0:0:
207,305,15366,1,0,3:0:0:0:
211,293,15451,5,6,3:2:0:0:
186,272,15537,1,0,3:0:0:0:
175,242,15623,1,0,1:0:0:0:
181,211,15708,1,0,3:0:0:0:
202,187,15794,5,2,3:2:0:0:
240,208,15880,1,0,3:0:0:0:
283,217,15966,1,0,3:0:0:0:
325,206,16051,1,0,3:0:0:0:
358,176,16137,5,6,3:2:0:0:
324,138,16223,1,0,3:0:0:0:
318,88,16308,1,0,1:0:0:0:
342,43,16394,1,0,3:0:0:0:
387,21,16480,5,0,1:0:0:0:
373,86,16566,1,0,1:0:0:0:
318,123,16651,1,0,1:0:0:0:
249,126,16737,1,0,1:0:0:0:
186,89,16823,6,0,P|115:47|2:148,1,251.999992309571,6|0,3:1|3:0,0:0:0:0:
122,276,17337,1,2,1:0:0:0:
122,276,17423,1,0,3:0:0:0:
122,276,17508,2,0,P|166:216|167:153,1,125.999996154785,0|0,3:0|1:0,0:0:0:0:
2,31,17851,1,0,3:0:0:0:
16,43,17937,1,0,3:0:0:0:
27,57,18023,1,0,1:0:0:0:
35,73,18108,1,0,3:0:0:0:
40,91,18194,6,0,P|118:70|179:68,1,125.999996154785,2|0,3:1|1:0,0:0:0:0:
220,17,18451,1,2,3:1:0:0:
220,17,18537,2,0,P|284:60|357:70,1,125.999996154785,0|2,3:0|1:0,0:0:0:0:
468,216,18880,5,2,3:1:0:0:
468,216,18966,2,0,B|504:164|504:164|463:100,1,125.999996154785,0|2,3:0|3:1,0:0:0:0:
398,118,19223,2,0,L|365:254,1,125.999996154785,0|2,3:0|1:0,0:0:0:0:
477,366,19566,5,2,1:0:0:0:
447,318,19651,1,0,3:0:0:0:
391,303,19737,1,0,1:0:0:0:
336,320,19823,1,0,3:0:0:0:
297,360,19908,1,4,3:0:0:0:
240,364,19994,1,4,0:3:0:0:
191,334,20080,1,8,0:3:0:0:
169,281,20166,1,8,0:3:0:0:
194,231,20251,5,4,3:0:0:0:
211,236,20337,1,4,0:3:0:0:
223,250,20423,1,8,0:3:0:0:
230,267,20508,1,8,0:3:0:0:
232,285,20594,5,0,1:0:0:0:
185,305,20680,1,8,0:3:0:0:
136,289,20766,1,4,0:3:0:0:
111,245,20851,1,4,0:3:0:0:
118,194,20937,5,8,0:3:0:0:
64,177,21022,1,4,0:3:0:0:
31,132,21108,1,4,0:3:0:0:
30,77,21194,1,4,0:3:0:0:
62,31,21279,1,8,0:3:0:0:
114,13,21365,1,8,0:3:0:0:
168,29,21451,1,4,0:3:0:0:
201,73,21537,1,4,0:3:0:0:
248,106,21623,1,4,3:0:0:0:
305,107,21708,1,4,0:3:0:0:
352,76,21794,1,4,0:3:0:0:
408,69,21880,1,4,0:3:0:0:
457,97,21966,1,0,3:0:0:0:
474,143,22051,1,4,0:3:0:0:
467,183,22137,1,8,0:3:0:0:
437,209,22223,1,4,0:3:0:0:
410,214,22308,6,0,B|384:200|357:199|357:199|289:241|208:256,1,215.999993408203,6|0,3:1|3:0,0:0:0:0:
63,374,22823,1,0,1:0:0:0:
63,374,22908,1,0,3:0:0:0:
63,374,22994,2,0,P|18:304|8:254,1,107.999996704102,2|0,3:1|1:0,0:0:0:0:
53,223,23251,1,2,3:1:0:0:
63,218,23337,1,0,3:0:0:0:
156,345,23508,2,0,P|180:353|226:352,1,53.9999983520508,2|0,1:0|0:0,0:0:0:0:
286,376,23680,6,0,P|313:301|340:249,1,107.999996704102,2|0,3:1|1:0,0:0:0:0:
226,86,24023,1,0,3:0:0:0:
183,107,24108,1,0,3:0:0:0:
168,153,24194,1,0,1:0:0:0:
240,255,24366,2,0,P|300:203|350:172,1,107.999996704102,2|0,3:1|1:0,0:0:0:0:
395,195,24623,1,2,0:1:0:0:
402,203,24708,1,0,3:0:0:0:
452,379,24880,2,0,P|412:352|401:330,1,53.9999983520508,2|0,1:0|0:0,0:0:0:0:
463,127,25051,6,0,P|477:205|479:263,1,107.999996704102,2|0,3:1|1:0,0:0:0:0:
339,374,25394,1,0,3:0:0:0:
294,354,25480,1,0,3:0:0:0:
287,305,25566,1,0,1:0:0:0:
393,186,25737,2,0,B|388:127|355:142|352:75,1,107.999996704102,2|0,3:1|1:0,0:0:0:0:
393,31,25994,1,2,0:1:0:0:
401,26,26080,1,0,3:0:0:0:
294,196,26251,2,0,P|249:180|232:163,1,53.9999983520508,2|0,1:0|0:0,0:0:0:0:
162,72,26423,6,0,P|144:166|131:211,1,107.999996704102,2|0,3:1|1:0,0:0:0:0:
186,364,26766,2,0,P|204:270|217:225,1,107.999996704102,0|0,3:0|1:0,0:0:0:0:
40,113,27108,5,2,3:1:0:0:
40,113,27166,2,0,P|57:121|81:127,2,35.9999989013672,0|0|0,3:0|3:0|1:0,0:0:0:0:
83,334,27451,5,0,3:0:0:0:
83,334,27509,2,0,P|100:326|124:320,2,35.9999989013672,0|0|2,3:0|3:0|1:0,0:0:0:0:
285,250,27794,6,0,B|344:259|344:259|347:273|347:273|521:292,1,215.999993408203,6|0,3:1|3:0,0:0:0:0:
426,104,28308,1,2,1:0:0:0:
426,104,28394,1,0,3:0:0:0:
426,104,28480,2,0,L|300:88,1,107.999996704102,2|0,3:1|1:0,0:0:0:0:
259,123,28737,1,2,3:1:0:0:
248,130,28823,1,0,3:0:0:0:
93,226,28994,2,0,P|68:199|64:170,1,53.9999983520508,2|0,1:0|0:0,0:0:0:0:
104,47,29166,6,0,P|148:95|154:161,1,107.999996704102,2|0,3:1|1:0,0:0:0:0:
83,304,29508,1,0,3:0:0:0:
35,295,29594,1,0,3:0:0:0:
12,251,29680,1,0,1:0:0:0:
219,178,29851,2,0,P|181:239|175:282,1,107.999996704102,2|0,3:1|1:0,0:0:0:0:
292,359,30194,5,0,3:0:0:0:
290,352,30251,5,0,3:0:0:0:
288,345,30308,5,0,3:0:0:0:
286,337,30366,5,2,1:0:0:0:
299,120,30537,6,0,B|236:89|202:138|200:142|198:146|162:195|98:165,1,215.999993408203,6|0,3:1|3:0,0:0:0:0:
2,46,31051,1,2,1:2:0:0:
16,30,31137,1,2,0:2:0:0:
32,22,31223,1,2,3:2:0:0:
54,23,31308,1,2,0:2:0:0:
90,39,31394,1,0,1:0:0:0:
116,80,31480,1,2,0:2:0:0:
159,109,31566,1,2,3:2:0:0:
214,115,31651,1,2,3:2:0:0:
266,94,31737,1,2,1:2:0:0:
320,55,31823,1,2,0:2:0:0:
376,12,31908,6,0,P|434:25|473:82,1,107.999996704102,6|0,1:0|1:0,0:0:0:0:
490,124,32166,1,0,3:0:0:0:
482,134,32251,1,0,3:0:0:0:
384,270,32423,1,2,1:2:0:0:
384,270,32508,1,2,0:2:0:0:
384,270,32594,2,0,P|307:252|247:247,1,107.999996704102,2|0,3:1|1:0,0:0:0:0:
109,358,32937,5,0,3:0:0:0:
104,348,33023,1,0,1:0:0:0:
99,338,33108,1,2,1:0:0:0:
94,328,33194,1,0,1:0:0:0:
89,319,33280,6,0,P|75:255|42:103,1,215.999993408203,6|0,3:1|3:0,0:0:0:0:
151,34,33794,1,2,1:0:0:0:
151,34,33880,1,0,3:0:0:0:
151,34,33966,2,0,P|173:94|159:140,1,107.999996704102,2|0,3:1|1:0,0:0:0:0:
108,177,34223,1,2,3:1:0:0:
100,180,34308,1,0,3:0:0:0:
22,11,34480,2,0,P|46:26|77:37,1,53.9999983520508,2|0,1:0|0:0,0:0:0:0:
245,90,34651,6,0,P|285:48|366:33,1,107.999996704102,2|0,3:1|1:0,0:0:0:0:
469,115,34994,1,0,3:0:0:0:
478,146,35080,1,0,3:0:0:0:
462,174,35166,1,0,1:0:0:0:
295,153,35337,2,0,P|354:170|396:215,1,107.999996704102,2|0,3:1|1:0,0:0:0:0:
398,268,35594,1,2,0:1:0:0:
394,282,35680,1,0,3:0:0:0:
185,348,35851,2,0,P|208:328|243:320,1,53.9999983520508,2|0,1:0|0:0,0:0:0:0:
332,372,36023,6,0,P|312:289|294:248,1,107.999996704102,2|0,3:1|1:0,0:0:0:0:
200,143,36366,1,0,3:0:0:0:
198,175,36451,1,0,3:0:0:0:
180,202,36537,1,0,1:0:0:0:
35,170,36708,2,0,P|46:98|112:55,1,107.999996704102,2|0,3:1|1:0,0:0:0:0:
126,38,36966,1,2,0:1:0:0:
138,43,37051,1,0,3:0:0:0:
312,116,37223,2,0,P|339:101|370:74,1,53.9999983520508,2|0,1:0|0:0,0:0:0:0:
234,39,37394,5,6,3:1:0:0:
296,214,37566,1,0,1:0:0:0:
434,122,37737,1,0,3:0:0:0:
456,98,37823,1,0,3:0:0:0:
452,66,37908,1,0,1:0:0:0:
234,146,38080,5,2,3:1:0:0:
234,146,38137,2,0,L|194:134,2,35.9999989013672,0|0|0,3:0|3:0|1:0,0:0:0:0:
361,261,38423,5,0,3:0:0:0:
361,261,38480,2,0,L|401:273,2,35.9999989013672,0|0|2,3:0|3:0|1:0,0:0:0:0:
222,367,38766,6,0,B|203:310|203:310|39:275,1,215.999993408203,6|0,3:1|3:0,0:0:0:0:
7,137,39280,1,2,1:0:0:0:
7,137,39366,1,0,3:0:0:0:
7,137,39451,2,0,P|68:118|111:90,1,107.999996704102,2|0,3:1|1:0,0:0:0:0:
142,152,39708,1,2,3:1:0:0:
147,161,39794,1,0,3:0:0:0:
254,6,39966,2,0,P|240:38|230:81,1,53.9999983520508,2|0,1:0|0:0,0:0:0:0:
273,161,40137,6,0,P|340:117|380:101,1,107.999996704102,2|0,3:1|1:0,0:0:0:0:
507,26,40480,1,0,3:0:0:0:
485,50,40566,1,0,3:0:0:0:
478,81,40651,1,0,1:0:0:0:
488,232,40823,2,0,P|439:197|377:171,1,107.999996704102,2|0,3:1|1:0,0:0:0:0:
390,14,41166,5,0,3:0:0:0:
392,20,41223,5,0,3:0:0:0:
394,26,41280,5,0,3:0:0:0:
396,32,41337,5,2,1:0:0:0:
384,267,41508,6,0,B|316:285|292:230|291:226|289:222|263:167|195:184,1,215.999993408203,6|0,3:1|3:0,0:0:0:0:
70,308,42023,1,2,1:2:0:0:
77,323,42108,1,2,0:2:0:0:
94,335,42194,1,2,3:2:0:0:
119,339,42280,1,2,0:2:0:0:
156,324,42366,1,0,1:0:0:0:
180,282,42451,1,2,0:2:0:0:
168,233,42537,1,2,3:2:0:0:
118,206,42623,1,2,3:2:0:0:
60,218,42708,1,2,1:2:0:0:
11,264,42794,1,2,0:2:0:0:
4,334,42880,2,0,P|15:361|24:402,1,53.9999983520508,6|0,3:1|1:0,0:0:0:0:
121,201,43051,5,0,1:0:0:0:
184,230,43137,1,0,1:0:0:0:
252,215,43223,1,0,1:0:0:0:
299,163,43308,1,0,1:0:0:0:
307,93,43394,1,8,0:3:0:0:
270,32,43480,1,8,0:3:0:0:
202,12,43566,1,12,0:3:0:0:
155,22,43651,1,12,0:3:0:0:
127,51,43737,1,12,0:3:0:0:
118,85,43823,1,12,0:3:0:0:
128,115,43908,1,4,0:3:0:0:
146,131,43994,1,4,0:3:0:0:
162,137,44080,1,4,0:3:0:0:
173,136,44166,1,4,0:3:0:0:
184,130,44251,6,0,P|273:104|355:192,1,215.999993408203,6|0,3:1|3:0,0:0:0:0:
302,334,44766,1,0,1:0:0:0:
302,334,44851,1,0,3:0:0:0:
302,334,44937,2,0,L|183:349,1,107.999996704102,2|0,3:1|1:0,0:0:0:0:
54,216,45280,1,2,3:1:0:0:
85,225,45366,1,0,3:0:0:0:
115,234,45451,1,2,1:0:0:0:
145,243,45537,1,0,3:0:0:0:
175,253,45623,1,0,3:0:0:0:
318,177,45794,6,0,P|306:134|302:113,1,53.9999983520508,2|0,1:1|0:0,0:0:0:0:
249,78,45966,1,2,3:1:0:0:
218,87,46052,1,0,3:0:0:0:
188,96,46137,1,0,1:0:0:0:
158,105,46223,1,0,3:0:0:0:
128,115,46309,1,0,3:0:0:0:
0,261,46480,1,0,1:0:0:0:
199,316,46651,1,0,3:0:0:0:
188,285,46737,1,0,3:0:0:0:
177,254,46823,1,2,1:2:0:0:
166,223,46908,1,2,3:2:0:0:
157,191,46994,6,0,P|218:169|270:291,1,215.999993408203,2|0,3:1|3:0,0:0:0:0:
396,375,47508,1,0,1:0:0:0:
396,375,47594,1,0,3:0:0:0:
396,375,47680,2,0,P|461:357|458:304,1,107.999996704102,2|0,3:1|1:0,0:0:0:0:
455,294,47937,1,0,0:0:0:0:
432,270,48023,1,2,3:1:0:0:
403,255,48108,1,0,3:0:0:0:
384,228,48194,1,2,1:0:0:0:
377,196,48280,1,0,3:0:0:0:
383,164,48366,1,4,3:1:0:0:
298,39,48537,5,2,1:1:0:0:
466,187,48708,1,2,3:1:0:0:
466,235,48794,1,0,3:0:0:0:
432,270,48880,1,0,1:0:0:0:
383,275,48966,1,0,3:0:0:0:
338,256,49051,1,0,3:0:0:0:
298,226,49137,1,0,0:0:0:0:
249,230,49223,1,0,1:0:0:0:
210,258,49308,1,0,0:0:0:0:
201,305,49394,1,0,3:0:0:0:
225,347,49480,1,0,3:0:0:0:
271,361,49566,1,2,1:2:0:0:
315,343,49651,1,2,3:2:0:0:
335,298,49737,6,0,P|316:192|300:81,1,215.999993408203,6|0,3:1|3:0,0:0:0:0:
172,30,50251,1,0,1:0:0:0:
172,30,50337,1,0,3:0:0:0:
172,30,50423,2,0,P|106:57|101:102,1,107.999996704102,2|0,3:1|1:0,0:0:0:0:
27,254,50766,1,2,3:1:0:0:
58,249,50851,1,0,3:0:0:0:
90,244,50937,1,2,1:0:0:0:
122,240,51023,1,0,3:0:0:0:
153,233,51108,1,0,3:0:0:0:
275,79,51280,6,0,P|310:97|339:106,1,53.9999983520508,2|0,1:1|0:0,0:0:0:0:
359,175,51451,1,2,3:1:0:0:
345,204,51537,1,0,3:0:0:0:
331,233,51623,1,0,1:0:0:0:
318,262,51708,1,0,3:0:0:0:
305,291,51794,1,0,3:0:0:0:
430,228,51966,1,0,1:0:0:0:
204,112,52137,1,0,3:0:0:0:
211,143,52223,1,0,3:0:0:0:
218,174,52308,1,2,1:2:0:0:
225,205,52394,1,2,3:2:0:0:
232,236,52480,6,0,P|206:295|70:297,1,215.999993408203,6|0,3:1|3:0,0:0:0:0:
60,232,52908,1,0,3:0:0:0:
60,232,52994,1,0,1:0:0:0:
114,72,53166,5,2,3:1:0:0:
114,72,53223,2,0,L|100:38,2,35.9999989013672,0|0|0,3:0|3:0|1:0,0:0:0:0:
245,186,53509,5,2,3:1:0:0:
245,186,53566,2,0,L|231:152,2,35.9999989013672,0|0|2,3:0|3:0|1:0,0:0:0:0:
382,44,53851,5,4,3:1:0:0:
387,53,53937,1,0,3:0:0:0:
392,62,54023,1,0,1:0:0:0:
397,71,54108,1,0,1:0:0:0:
403,80,54194,5,0,1:0:0:0:
381,117,54280,1,0,1:0:0:0:
376,160,54366,1,8,3:0:0:0:
385,201,54451,1,8,3:0:0:0:
422,239,54537,1,4,3:0:0:0:
436,291,54623,1,4,3:0:0:0:
421,342,54708,1,4,3:0:0:0:
377,374,54794,1,4,3:0:0:0:
322,374,54880,1,4,3:0:0:0:
276,345,54966,1,4,3:0:0:0:
265,292,55051,1,4,3:0:0:0:
280,239,55137,1,4,3:0:0:0:
326,206,55223,6,0,B|327:136|408:118|411:125|415:132|498:136|505:45,1,251.999992309571,4|0,3:2|1:0,0:0:0:0:
352,11,55737,1,2,3:1:0:0:
344,17,55823,1,0,3:0:0:0:
340,27,55908,1,0,1:0:0:0:
290,16,55994,1,0,3:0:0:0:
241,29,56080,1,0,3:0:0:0:
206,66,56166,1,0,3:0:0:0:
190,113,56251,1,0,1:0:0:0:
159,153,56337,1,0,3:0:0:0:
112,172,56423,1,2,3:2:0:0:
62,172,56508,1,2,3:2:0:0:
23,139,56594,5,2,1:1:0:0:
31,129,56680,1,0,3:0:0:0:
36,117,56766,1,2,3:2:0:0:
38,104,56851,1,2,3:2:0:0:
38,91,56937,5,2,1:1:0:0:
68,131,57023,1,0,3:0:0:0:
80,179,57108,1,2,3:2:0:0:
65,227,57194,1,2,3:2:0:0:
27,260,57280,5,2,1:1:0:0:
47,213,57366,1,0,3:0:0:0:
89,186,57451,1,2,3:2:0:0:
138,177,57537,1,2,3:2:0:0:
188,182,57623,1,2,1:1:0:0:
233,203,57708,1,0,3:0:0:0:
272,234,57794,1,2,3:2:0:0:
320,248,57880,1,2,3:2:0:0:
368,234,57966,6,0,P|422:190|420:127,1,125.999996154785,6|0,1:1|3:0,0:0:0:0:
248,21,58308,1,0,1:0:0:0:
253,32,58393,1,0,3:0:0:0:
257,43,58479,1,2,3:2:0:0:
260,55,58565,1,2,3:2:0:0:
263,67,58651,5,2,1:0:0:0:
297,31,58736,1,0,3:0:0:0:
345,17,58822,1,0,3:0:0:0:
393,29,58908,1,0,3:0:0:0:
430,63,58993,1,0,1:0:0:0:
444,111,59079,1,0,3:0:0:0:
432,159,59165,1,2,3:2:0:0:
398,196,59250,1,2,3:2:0:0:
350,211,59337,6,0,P|299:197|274:194,1,62.9999980773926,4|0,1:0|0:0,0:0:0:0:
193,84,59508,2,0,P|152:119|133:128,1,62.9999980773926,4|0,1:2|0:0,0:0:0:0:
0,210,59680,1,2,1:2:0:0:
46,189,59766,1,2,1:2:0:0:
95,194,59851,1,2,1:2:0:0:
135,224,59937,1,2,1:2:0:0:
149,272,60023,1,8,3:0:0:0:
138,320,60108,1,8,3:0:0:0:
101,350,60194,1,8,3:0:0:0:
60,352,60280,1,8,3:0:0:0:
31,335,60366,1,4,3:0:0:0:
19,311,60451,1,4,3:0:0:0:
24,294,60537,1,4,3:0:0:0:
34,284,60623,1,4,3:0:0:0:
46,279,60708,6,0,P|83:293|102:314,3,62.9999980773926,6|0|0|0,1:1|3:0|1:0|3:0,0:0:0:0:
209,373,61051,1,0,3:0:0:0:
259,377,61137,1,0,3:0:0:0:
303,353,61223,1,2,1:0:0:0:
322,306,61308,1,0,3:0:0:0:
309,256,61394,1,0,3:0:0:0:
269,224,61480,1,0,3:0:0:0:
234,188,61565,1,0,1:0:0:0:
224,139,61651,1,0,3:0:0:0:
248,93,61737,2,0,P|277:68|306:61,1,62.9999980773926,2|2,3:2|3:2,3:2:0:0:
340,6,61908,2,0,P|377:-1|406:7,1,62.9999980773926,2|2,3:2|3:2,3:2:0:0:
444,116,62079,5,2,3:2:0:0:
444,179,62166,1,2,3:2:0:0:
403,226,62251,1,2,1:2:0:0:
342,245,62337,1,0,3:2:0:0:
280,231,62423,1,2,3:2:0:0:
234,188,62508,1,2,3:2:0:0:
218,126,62594,1,2,1:2:0:0:
190,69,62680,1,0,3:2:0:0:
130,46,62766,1,2,3:2:0:0:
76,54,62851,1,2,3:2:0:0:
43,95,62937,1,2,1:2:0:0:
43,145,63023,1,0,3:2:0:0:
68,188,63108,1,2,3:2:0:0:
104,198,63194,1,2,3:2:0:0:
143,192,63280,1,2,1:2:0:0:
167,169,63366,1,0,3:2:0:0:
177,143,63451,6,0,P|211:145|240:166,1,62.9999980773926,4|0,3:1|0:0,0:0:0:0:
271,316,63623,1,8,3:0:0:0:
281,272,63708,1,8,3:0:0:0:
309,239,63794,1,4,3:0:0:0:
347,217,63880,1,4,3:0:0:0:
389,209,63966,1,4,3:0:0:0:
432,216,64051,1,4,3:0:0:0:
466,242,64137,5,8,3:0:0:0:
455,249,64223,1,8,3:0:0:0:
446,257,64308,1,8,3:0:0:0:
439,267,64394,1,8,3:0:0:0:
433,278,64480,1,4,3:0:0:0:
428,289,64566,1,4,3:0:0:0:
424,301,64651,1,4,3:0:0:0:
421,313,64737,1,4,3:0:0:0:
420,325,64823,5,4,1:1:0:0:
370,319,64908,1,0,0:0:0:0:
338,279,64994,1,4,3:0:0:0:
339,228,65080,1,4,3:0:0:0:
366,185,65166,1,4,3:0:0:0:
413,170,65251,1,4,3:0:0:0:
463,168,65337,1,8,3:0:0:0:
503,137,65423,1,8,3:0:0:0:
512,87,65508,1,0,1:0:0:0:
482,31,65594,1,0,1:0:0:0:
419,24,65680,1,0,1:0:0:0:
364,67,65766,1,0,1:0:0:0:
358,135,65851,1,0,1:0:0:0:
394,194,65937,1,0,1:0:0:0:
452,231,66023,1,0,1:0:0:0:
492,286,66108,1,0,1:0:0:0:
481,354,66194,6,0,B|451:379|419:375|419:375|346:320|240:326,1,251.999992309571,6|0,3:1|3:0,0:0:0:0:
104,373,66708,1,0,1:0:0:0:
104,373,66794,1,0,3:0:0:0:
104,373,66880,2,0,P|50:316|32:265,1,125.999996154785,2|0,3:1|1:0,0:0:0:0:
79,218,67137,1,2,3:1:0:0:
86,213,67223,1,0,3:0:0:0:
231,245,67394,2,0,P|188:235|170:223,1,62.9999980773926,2|0,1:0|0:0,0:0:0:0:
139,127,67566,6,0,P|196:96|247:46,1,125.999996154785,2|0,3:1|1:0,0:0:0:0:
18,4,67908,1,0,3:0:0:0:
8,47,67994,1,0,3:0:0:0:
33,83,68080,1,0,1:0:0:0:
235,149,68251,2,0,P|253:86|254:15,1,125.999996154785,2|0,3:1|1:0,0:0:0:0:
187,6,68508,1,2,0:1:0:0:
176,0,68594,1,0,3:0:0:0:
63,156,68766,2,0,P|50:188|48:235,1,62.9999980773926,2|0,1:0|0:0,0:0:0:0:
98,307,68937,6,0,P|145:266|214:245,1,125.999996154785,2|0,3:1|1:0,0:0:0:0:
377,329,69280,1,0,3:0:0:0:
334,318,69366,1,0,3:0:0:0:
310,280,69451,1,0,1:0:0:0:
463,128,69623,2,0,B|452:198|411:173|398:236,1,125.999996154785,2|0,3:1|1:0,0:0:0:0:
444,286,69880,1,2,0:1:0:0:
452,291,69966,1,0,3:0:0:0:
384,121,70137,2,0,P|326:106|291:92,1,62.9999980773926,2|0,1:0|0:0,0:0:0:0:
274,27,70308,6,0,P|193:52|169:109,1,125.999996154785,2|0,3:1|1:0,0:0:0:0:
215,238,70651,1,0,3:0:0:0:
256,223,70737,1,0,3:0:0:0:
276,183,70823,1,0,1:0:0:0:
99,82,70994,5,2,3:1:0:0:
99,82,71051,2,0,P|64:71|51:66,2,41.9999987182618,0|0|0,3:0|3:0|1:0,0:0:0:0:
24,229,71337,5,0,3:0:0:0:
24,229,71394,2,0,P|59:218|72:213,2,41.9999987182618,0|0|2,3:0|3:0|1:0,0:0:0:0:
132,353,71680,6,0,B|211:398|249:334|251:330|253:325|294:272|372:309,1,251.999992309571,6|0,3:1|3:0,0:0:0:0:
503,231,72194,1,2,1:0:0:0:
503,231,72280,1,0,3:0:0:0:
503,231,72366,2,0,P|416:189|376:147,1,125.999996154785,2|0,3:1|1:0,0:0:0:0:
379,102,72623,1,2,3:1:0:0:
384,92,72708,1,0,3:0:0:0:
266,215,72880,2,0,P|278:179|309:140,1,62.9999980773926,2|0,1:0|0:0,0:0:0:0:
262,15,73051,6,0,P|179:56|167:113,1,125.999996154785,2|0,3:1|1:0,0:0:0:0:
27,162,73394,1,0,3:0:0:0:
69,172,73480,1,0,3:0:0:0:
89,211,73566,1,0,1:0:0:0:
210,299,73737,2,0,P|133:324|90:372,1,125.999996154785,2|0,3:1|1:0,0:0:0:0:
148,153,74080,5,0,3:0:0:0:
155,156,74137,5,0,3:0:0:0:
162,159,74194,5,0,3:0:0:0:
169,162,74251,5,0,1:0:0:0:
283,346,74423,6,0,P|385:341|404:211,1,251.999992309571,6|0,3:1|3:0,0:0:0:0:
275,76,74937,1,2,1:2:0:0:
268,69,75023,1,2,0:2:0:0:
266,52,75108,1,2,3:2:0:0:
279,27,75194,1,2,0:2:0:0:
323,9,75280,1,0,1:0:0:0:
374,28,75366,1,2,0:2:0:0:
402,80,75451,1,2,3:2:0:0:
394,139,75537,1,2,3:2:0:0:
340,186,75623,1,2,1:2:0:0:
273,184,75708,1,2,0:2:0:0:
213,143,75794,6,0,P|178:115|153:106,1,62.9999980773926,6|0,3:1|1:0,0:0:0:0:
39,157,75966,1,0,1:0:0:0:
2,218,76051,1,0,1:0:0:0:
5,290,76137,1,0,1:0:0:0:
43,352,76223,1,0,1:0:0:0:
108,384,76308,1,8,0:3:0:0:
180,377,76394,1,8,0:3:0:0:
238,335,76480,1,12,0:3:0:0:
267,267,76566,1,12,0:3:0:0:
308,218,76651,1,12,0:3:0:0:
371,195,76737,1,12,0:3:0:0:
418,203,76823,1,4,0:3:0:0:
456,226,76908,1,4,0:3:0:0:
481,255,76994,1,4,0:3:0:0:
494,285,77080,1,4,0:3:0:0:
494,314,77166,6,0,B|438:260|377:303|375:309|374:315|335:375|255:329,1,251.999992309571,6|0,3:1|3:0,0:0:0:0:
141,260,77680,1,0,1:0:0:0:
141,260,77766,1,0,3:0:0:0:
141,260,77851,2,0,P|122:167|105:121,1,125.999996154785,2|0,3:1|1:0,0:0:0:0:
282,27,78194,1,2,3:1:0:0:
319,33,78280,1,0,3:0:0:0:
356,39,78366,1,2,1:0:0:0:
392,45,78451,1,0,3:0:0:0:
429,51,78537,1,0,3:0:0:0:
512,184,78708,6,0,P|463:192|438:202,1,62.9999980773926,2|0,1:1|0:0,0:0:0:0:
409,261,78880,1,2,3:1:0:0:
372,255,78966,1,0,3:0:0:0:
335,249,79052,1,0,1:0:0:0:
299,243,79137,1,0,3:0:0:0:
262,237,79223,1,0,3:0:0:0:
145,94,79394,1,0,1:0:0:0:
3,209,79566,1,0,3:0:0:0:
43,204,79651,1,0,3:0:0:0:
80,200,79737,1,2,1:2:0:0:
117,196,79823,1,2,3:2:0:0:
154,192,79908,6,0,P|236:153|238:5,1,251.999992309571,6|0,3:1|3:0,0:0:0:0:
171,11,80337,1,0,3:0:0:0:
159,17,80423,2,0,P|126:52|126:85,1,62.9999980773926,0|0,1:0|3:0,0:0:0:0:
244,192,80594,6,0,P|337:216|391:250,1,125.999996154785,6|0,3:1|1:0,0:0:0:0:
221,372,80937,1,2,3:1:0:0:
206,337,81023,1,0,3:0:0:0:
223,303,81108,1,2,1:0:0:0:
459,115,81280,5,4,3:1:0:0:
490,154,81366,1,0,0:0:0:0:
483,203,81451,1,2,1:1:0:0:
439,229,81537,1,0,0:0:0:0:
391,212,81623,2,0,P|359:197|346:194,2,41.9999987182618,2|0|0,3:1|3:0|3:0,3:0:0:0:
327,125,81794,2,0,P|291:128|279:131,2,41.9999987182618,0|0|0,3:0|3:0|3:0,3:0:0:0:
189,211,81966,5,0,3:0:0:0:
137,245,82051,1,0,3:0:0:0:
76,242,82137,1,0,1:0:0:0:
29,201,82223,1,0,3:0:0:0:
16,141,82308,1,0,3:0:0:0:
43,85,82394,1,0,3:0:0:0:
88,62,82480,1,2,1:2:0:0:
137,69,82566,1,2,3:2:0:0:
161,91,82651,6,0,P|178:160|144:212,1,125.999996154785,6|0,3:1|1:0,0:0:0:0:
6,358,82994,1,0,3:0:0:0:
31,312,83080,1,0,3:0:0:0:
80,290,83166,1,0,1:0:0:0:
130,294,83251,1,0,3:0:0:0:
171,325,83337,1,2,3:1:0:0:
210,360,83423,1,0,0:0:0:0:
260,365,83508,1,0,1:0:0:0:
305,338,83594,1,0,0:0:0:0:
323,288,83680,1,2,3:1:0:0:
349,244,83766,1,0,3:0:0:0:
397,225,83851,1,2,1:0:0:0:
445,238,83937,1,0,3:0:0:0:
472,280,84023,6,0,P|471:322|455:348,3,62.9999980773926,0|0|2|0,3:0|0:0|1:1|0:0,0:0:0:0:
352,352,84366,1,2,3:1:0:0:
313,326,84451,1,0,3:0:0:0:
302,281,84537,1,0,1:0:0:0:
315,236,84623,1,0,3:0:0:0:
347,203,84708,1,0,3:0:0:0:
391,193,84794,1,0,0:0:0:0:
428,164,84880,1,0,1:0:0:0:
445,122,84966,1,0,0:0:0:0:
433,77,85051,1,0,3:0:0:0:
395,50,85137,1,0,3:0:0:0:
349,52,85223,1,2,1:2:0:0:
313,80,85308,1,2,3:2:0:0:
301,122,85394,5,6,3:1:0:0:
271,66,85480,1,0,0:0:0:0:
212,41,85566,1,0,1:0:0:0:
150,53,85651,1,0,3:0:0:0:
105,97,85737,1,0,3:0:0:0:
93,159,85823,1,0,3:0:0:0:
125,212,85908,1,0,1:0:0:0:
182,238,85994,1,0,3:0:0:0:
244,229,86080,1,0,3:0:0:0:
300,199,86166,1,0,3:0:0:0:
362,202,86251,1,0,1:0:0:0:
409,244,86337,1,0,3:0:0:0:
421,304,86423,1,0,3:0:0:0:
397,351,86508,1,0,3:0:0:0:
356,364,86594,1,0,1:0:0:0:
319,355,86680,1,0,3:0:0:0:
295,337,86766,5,6,3:1:0:0:
279,289,86851,1,0,3:0:0:0:
294,240,86937,1,0,1:0:0:0:
331,206,87023,1,0,3:0:0:0:
379,194,87108,1,0,3:0:0:0:
429,192,87194,1,0,3:0:0:0:
475,172,87280,1,0,1:0:0:0:
503,129,87366,1,0,3:0:0:0:
499,79,87451,1,2,3:1:0:0:
465,41,87537,1,0,0:0:0:0:
415,32,87623,1,0,1:0:0:0:
369,53,87708,1,2,3:1:0:0:
345,97,87794,1,0,3:0:0:0:
301,133,87880,1,0,3:0:0:0:
246,135,87966,1,2,3:1:0:0:
210,110,88051,1,0,0:0:0:0:
196,71,88137,5,6,1:0:0:0:
244,41,88223,1,0,3:0:0:0:
300,43,88308,1,0,1:0:0:0:
347,74,88394,1,0,3:0:0:0:
370,125,88480,1,4,3:0:0:0:
371,181,88566,1,4,0:3:0:0:
335,224,88651,1,8,0:3:0:0:
288,249,88737,1,8,0:3:0:0:
261,281,88823,1,4,3:0:0:0:
249,313,88908,1,4,0:3:0:0:
250,340,88994,1,8,0:3:0:0:
259,360,89080,1,8,0:3:0:0:
277,376,89166,1,0,3:0:0:0:
300,382,89251,1,8,0:3:0:0:
331,377,89337,1,4,1:3:0:0:
361,343,89423,1,4,0:3:0:0:
378,295,89508,5,8,3:3:0:0:
353,231,89594,1,4,0:3:0:0:
286,214,89680,1,4,0:3:0:0:
219,228,89766,1,4,0:3:0:0:
171,275,89851,1,8,1:3:0:0:
121,321,89936,1,8,0:3:0:0:
52,317,90022,1,4,0:3:0:0:
2,270,90108,1,4,0:3:0:0:
0,204,90193,1,4,3:0:0:0:
43,151,90279,1,4,0:3:0:0:
110,137,90365,1,4,0:3:0:0:
166,174,90451,1,4,0:3:0:0:
224,209,90537,1,0,3:0:0:0:
289,197,90623,1,4,0:3:0:0:
329,143,90709,1,8,0:3:0:0:
322,76,90794,1,4,0:3:0:0:
273,29,90880,6,0,P|190:59|113:70,1,135.000005149842,6|0,3:1|1:0,0:0:0:0:
42,289,91223,1,0,3:0:0:0:
60,271,91308,1,0,3:0:0:0:
84,260,91394,1,0,1:0:0:0:
303,380,91566,2,0,P|236:359|161:343,1,135.000005149842,2|0,0:1|1:0,0:0:0:0:
236,273,91823,1,2,0:1:0:0:
243,279,91908,2,0,P|308:264|373:244,1,135.000005149842,0|2,3:0|1:1,0:0:0:0:
483,26,92251,5,2,0:1:0:0:
419,131,92423,1,0,1:0:0:0:
333,18,92594,1,0,3:0:0:0:
306,12,92680,1,0,3:0:0:0:
279,6,92766,1,0,1:0:0:0:
141,144,92937,6,0,P|202:97|201:35,1,135.000005149842,2|0,0:1|1:0,0:0:0:0:
140,7,93194,1,2,0:1:0:0:
124,0,93280,2,0,P|63:47|64:109,1,135.000005149842,0|2,3:0|1:1,0:0:0:0:
15,242,93623,6,0,P|91:191|268:178,1,270.000010299683,2|0,0:1|3:0,0:0:0:0:
283,197,94051,1,0,3:0:0:0:
301,216,94137,1,0,1:0:0:0:
239,380,94308,2,0,P|209:309|234:246,1,135.000005149842,2|0,0:1|1:0,0:0:0:0:
401,220,94651,1,0,3:0:0:0:
401,247,94737,1,0,3:0:0:0:
382,266,94823,1,2,1:1:0:0:
176,337,94994,6,0,P|103:312|21:298,1,135.000005149842,6|0,0:1|1:0,0:0:0:0:
100,124,95337,1,0,3:0:0:0:
113,147,95423,1,0,3:0:0:0:
126,170,95508,1,2,1:0:0:0:
96,351,95680,1,0,3:1:0:0:
2,240,95851,1,0,1:0:0:0:
176,240,96023,5,0,3:1:0:0:
176,240,96080,2,0,P|203:247|238:254,2,45.0000017166138,0|0|0,3:0|3:0|1:0,0:0:0:0:
262,75,96366,6,0,P|340:59|406:41,1,135.000005149842,6|0,0:1|1:0,0:0:0:0:
456,74,96623,1,2,0:1:0:0:
461,86,96708,1,0,3:0:0:0:
466,98,96794,1,0,3:0:0:0:
472,110,96880,1,2,1:1:0:0:
411,257,97051,2,0,P|376:183|335:130,1,135.000005149842,2|0,0:1|1:0,0:0:0:0:
202,25,97394,1,2,0:1:0:0:
163,37,97480,1,0,3:0:0:0:
150,75,97566,1,0,1:0:0:0:
3,182,97737,6,0,P|74:199|153:240,1,135.000005149842,2|0,0:1|1:0,0:0:0:0:
149,292,97994,1,2,0:1:0:0:
144,304,98079,1,0,3:0:0:0:
139,316,98165,1,0,3:0:0:0:
133,328,98251,1,2,1:1:0:0:
296,384,98423,2,0,P|265:307|254:250,1,135.000005149842,2|0,0:1|1:0,0:0:0:0:
364,132,98766,5,2,3:1:0:0:
364,132,98823,2,0,P|375:101|382:81,2,45.0000017166138,0|0|0,3:0|3:0|1:0,0:0:0:0:
487,357,99108,6,0,P|424:351|340:313,1,135.000005149842,6|0,0:1|1:0,0:0:0:0:
336,258,99366,1,2,0:1:0:0:
341,246,99451,1,0,3:0:0:0:
346,234,99537,1,0,3:0:0:0:
352,222,99623,1,2,1:1:0:0:
447,41,99794,5,2,0:1:0:0:
499,215,99966,1,0,1:0:0:0:
294,163,100137,5,2,3:1:0:0:
294,163,100194,2,0,P|283:132|276:112,2,45.0000017166138,0|0|0,3:0|3:0|1:0,0:0:0:0:
179,10,100480,6,0,P|160:56|153:93,1,67.5000025749208,6|0,1:0|3:0,0:0:0:0:
91,288,100651,2,0,P|81:255|67:224,1,67.5000025749208,0|0,3:0|3:0,0:0:0:0:
14,20,100823,5,0,1:0:0:0:
0,85,100908,1,0,1:0:0:0:
45,135,100994,1,8,0:3:0:0:
112,142,101080,1,8,0:3:0:0:
165,100,101166,1,4,3:0:0:0:
229,81,101251,1,4,0:3:0:0:
284,105,101337,1,4,0:3:0:0:
315,150,101423,1,4,0:3:0:0:
317,201,101508,1,0,3:0:0:0:
295,242,101594,1,4,0:3:0:0:
258,261,101680,1,8,0:3:0:0:
234,260,101766,1,4,0:3:0:0:
218,254,101851,6,0,P|203:217|187:184,3,67.5000025749208,6|0|0|0,3:1|3:0|1:0|3:0,0:0:0:0:
320,311,102194,2,0,P|307:348|298:383,3,67.5000025749208,0|0|0|0,3:0|3:0|1:0|3:0,0:0:0:0:
432,384,102537,5,2,0:1:0:0:
480,362,102623,1,0,3:0:0:0:
506,316,102708,1,0,1:0:0:0:
496,262,102794,1,2,0:1:0:0:
464,218,102880,1,0,3:0:0:0:
411,206,102966,1,0,3:0:0:0:
358,195,103051,1,2,1:1:0:0:
303,185,103137,1,0,3:0:0:0:
254,160,103223,5,2,0:1:0:0:
245,120,103308,1,0,3:0:0:0:
265,84,103394,1,0,1:0:0:0:
303,72,103480,1,0,3:0:0:0:
345,96,103566,1,0,3:0:0:0:
369,143,103651,1,0,3:0:0:0:
366,196,103737,1,0,1:0:0:0:
336,241,103823,1,0,3:0:0:0:
288,265,103908,1,2,0:1:0:0:
235,261,103994,1,0,3:0:0:0:
191,231,104080,1,0,1:0:0:0:
168,183,104166,1,2,0:1:0:0:
163,130,104251,1,0,3:0:0:0:
129,89,104337,1,0,3:0:0:0:
78,74,104423,1,2,1:1:0:0:
26,88,104508,1,0,3:0:0:0:
4,137,104594,5,6,0:1:0:0:
35,162,104680,1,0,3:0:0:0:
75,162,104766,1,0,1:0:0:0:
103,133,104851,1,0,3:0:0:0:
108,92,104937,1,0,3:0:0:0:
126,56,105023,1,0,3:0:0:0:
162,38,105108,1,0,1:0:0:0:
202,37,105194,1,0,3:0:0:0:
235,59,105280,5,2,0:1:0:0:
192,91,105365,1,0,3:0:0:0:
175,141,105451,1,0,1:0:0:0:
192,192,105537,1,2,0:1:0:0:
235,222,105622,1,0,3:0:0:0:
289,221,105708,1,0,3:0:0:0:
331,189,105794,1,2,1:1:0:0:
346,139,105880,1,0,3:0:0:0:
330,101,105966,5,6,0:1:0:0:
307,116,106051,1,0,3:0:0:0:
294,140,106137,1,0,1:0:0:0:
291,166,106223,1,0,3:0:0:0:
294,192,106308,1,0,3:0:0:0:
304,216,106394,1,0,3:0:0:0:
322,236,106480,1,2,1:0:0:0:
346,247,106566,1,2,3:2:0:0:
372,246,106651,5,2,3:2:0:0:
406,203,106736,1,0,3:0:0:0:
420,152,106822,1,0,1:0:0:0:
413,99,106908,1,0,3:0:0:0:
386,52,106993,1,0,3:0:0:0:
343,20,107079,1,0,3:0:0:0:
291,7,107165,1,0,1:0:0:0:
238,15,107251,1,0,3:0:0:0:
193,43,107337,6,0,P|139:59|110:52,2,67.5000025749208,6|0|0,0:1|3:0|1:0,0:0:0:0:
138,134,107594,2,0,P|83:120|61:100,2,67.5000025749208,2|0|0,0:1|3:0|3:0,0:0:0:0:
44,185,107851,2,0,P|3:146|-5:117,1,67.5000025749208,2|0,1:1|3:0,0:0:0:0:
32,32,108023,5,2,0:1:0:0:
85,39,108108,1,0,3:0:0:0:
134,60,108194,1,0,1:0:0:0:
175,95,108280,1,0,3:0:0:0:
205,140,108365,1,2,0:1:0:0:
220,192,108451,1,0,3:0:0:0:
221,245,108537,1,0,1:0:0:0:
206,297,108623,1,0,3:0:0:0:
175,341,108708,6,0,P|146:368|111:382,2,67.5000025749208,2|0|0,0:1|3:0|1:0,0:0:0:0:
106,296,108966,2,0,P|67:304|30:299,2,67.5000025749208,2|0|0,0:1|3:0|3:0,0:0:0:0:
66,223,109223,2,0,P|28:211|-1:188,1,67.5000025749208,2|0,1:1|3:0,0:0:0:0:
56,86,109394,5,2,0:1:0:0:
108,56,109479,1,0,3:0:0:0:
167,43,109565,1,4,1:0:0:0:
228,46,109651,1,0,3:0:0:0:
285,67,109736,1,6,0:1:0:0:
333,103,109822,1,0,0:0:0:0:
369,152,109908,1,0,0:0:0:0:
391,209,109994,1,0,0:0:0:0:
395,263,110080,5,6,1:0:0:0:
383,256,110166,1,0,3:0:0:0:
374,245,110251,2,0,P|357:191|370:150,1,67.5000025749208,0|2,3:0|0:1,0:0:0:0:
452,66,110422,1,0,1:0:0:0:
464,73,110508,1,0,3:0:0:0:
473,84,110593,2,0,P|490:138|477:179,1,67.5000025749208,2|0,0:1|3:0,0:0:0:0:
396,342,110766,5,2,1:0:0:0:
332,360,110851,1,0,3:0:0:0:
274,331,110937,1,0,3:0:0:0:
251,269,111023,1,2,0:1:0:0:
278,209,111108,1,4,1:0:0:0:
304,148,111194,1,0,3:0:0:0:
281,86,111280,1,2,0:1:0:0:
223,57,111366,1,0,3:0:0:0:
160,76,111451,5,0,1:0:0:0:
171,89,111566,6,0,P|181:112|181:157,2,45.0000017166138,0|0|0,1:0|1:0|1:0,0:0:0:0:
101,254,111794,5,0,1:0:0:0:
22,235,111908,5,8,0:3:0:0:
3,156,112023,5,4,0:3:0:0:
49,94,112137,6,0,P|70:48|63:0,2,90.0000034332277,0|4|4,1:0|0:3|0:3,0:0:0:0:
118,169,112480,2,0,P|97:215|104:263,2,90.0000034332277,0|4|4,1:0|0:3|0:3,0:0:0:0:
331,30,113166,6,0,L|432:50,1,71.9999978027344,4|4,1:2|0:3,0:0:0:0:
449,94,113394,1,4,0:3:0:0:
384,137,113851,6,0,L|313:150,1,71.9999978027344,0|4,1:2|0:3,0:0:0:0:
266,201,114079,1,4,0:3:0:0:
329,243,114423,5,4,0:3:0:0:
428,384,114880,6,0,L|381:314,1,71.9999978027344,4|4,0:3|0:3,0:0:0:0:
314,341,115337,5,4,0:3:0:0:
249,308,115452,2,0,L|200:212,1,71.9999978027344,4|4,0:3|0:3,0:0:0:0:
147,251,115908,6,0,L|56:228,1,71.9999978027344,0|4,1:2|0:3,0:0:0:0:
33,176,116137,1,4,0:3:0:0:
73,114,116594,6,0,L|159:78,1,71.9999978027344,0|4,1:2|0:3,0:0:0:0:
151,19,116823,1,4,0:3:0:0:
78,26,117166,5,4,0:3:0:0:
190,131,117623,6,0,L|293:109,1,71.9999978027344,4|4,0:3|0:3,0:0:0:0:
302,56,118080,6,0,L|382:75,1,71.9999978027344,4|4,0:3|0:3,0:0:0:0:
436,39,118308,5,4,0:0:0:0:
505,175,118651,5,0,1:2:0:0:
444,214,118766,2,0,L|408:292,1,71.9999978027344,4|4,0:3|0:3,0:0:0:0:
391,340,119337,6,0,L|308:374,1,71.9999978027344,0|4,1:2|0:3,0:0:0:0:
264,332,119566,1,4,0:3:0:0:
195,360,119908,5,4,0:3:0:0:
64,211,120366,6,0,L|119:288,1,71.9999978027344,4|4,0:3|0:3,0:0:0:0:
168,233,120823,5,4,0:3:0:0:
236,235,120937,2,0,L|332:192,1,71.9999978027344,4|4,0:3|0:2,0:0:0:0:
370,193,121394,6,0,L|385:113,1,71.9999978027344,0|4,1:2|0:3,0:0:0:0:
333,67,121623,1,4,0:3:0:0:
268,31,122080,6,0,L|182:54,1,71.9999978027344,0|4,1:2|0:3,0:0:0:0:
135,17,122308,1,4,0:3:0:0:
69,47,122651,5,4,0:3:0:0:
207,211,122937,6,0,L|255:196,2,35.9999989013672,4|4|4,0:3|0:3|3:0,0:0:0:0:
146,174,123108,1,0,1:0:0:0:
94,222,123223,2,0,L|-5:194,1,71.9999978027344,0|8,1:2|3:3,1:2:0:0:
0,274,123451,1,8,3:0:0:0:
55,322,123566,2,0,L|135:292,1,71.9999978027344,4|4,0:3|0:3,0:0:0:0:
300,287,123794,6,0,L|285:239,2,35.9999989013672,4|4|4,0:3|0:3|0:3,0:0:0:0:
356,340,124137,1,4,0:3:0:0:
356,340,124366,1,4,0:3:0:0:
422,307,124480,6,0,P|471:236|328:72,1,323.999990112305,4|0,0:2|0:0,0:0:0:0:
191,120,125166,6,0,L|143:135,2,35.9999989013672,4|4|4,0:3|0:3|0:3,0:0:0:0:
231,63,125508,1,4,0:3:0:0:
231,63,125737,1,4,0:3:0:0:
174,12,125851,6,0,P|68:45|53:168,1,215.999993408203,4|0,0:2|3:0,0:0:0:0:
82,196,126308,5,4,0:3:0:0:
44,252,126423,5,4,0:3:0:0:
78,316,126537,6,0,L|112:305,2,35.9999989013672,4|4|4,0:3|0:3|0:3,0:0:0:0:
156,368,126880,1,4,0:3:0:0:
156,368,127108,1,4,0:3:0:0:
208,318,127223,6,0,P|261:240|483:223,1,323.999990112305,4|0,0:2|0:0,0:0:0:0:
493,283,127908,6,0,L|503:317,2,35.9999989013672,4|4|4,0:3|0:3|0:3,0:0:0:0:
441,360,128251,1,4,0:3:0:0:
441,360,128480,1,4,0:3:0:0:
365,344,128594,6,0,P|336:298|330:242,1,107.999996704102,4|0,0:2|0:0,0:0:0:0:
260,281,128823,2,0,P|257:226|280:175,1,107.999996704102,4|0,3:0|0:0,0:0:0:0:
200,173,129051,2,0,P|225:124|270:91,1,107.999996704102,4|0,3:0|0:0,0:0:0:0:
327,23,129280,5,4,3:2:0:0:
332,38,129366,1,4,0:3:0:0:
337,53,129451,1,4,0:3:0:0:
342,68,129537,1,4,0:3:0:0:
348,83,129623,1,6,0:3:0:0:
167,314,129966,2,0,P|59:288|58:85,1,323.999990112305,4|0,1:2|0:0,0:0:0:0:
109,139,130651,5,4,3:2:0:0:
124,134,130737,1,4,0:3:0:0:
139,129,130822,1,4,0:3:0:0:
154,124,130908,1,4,0:3:0:0:
169,118,130994,1,6,0:3:0:0:
462,45,131337,2,0,P|446:180|255:170,1,323.999990112305,4|4,1:2|3:0,0:0:0:0:
274,185,131937,1,4,3:0:0:0:
269,169,132023,5,4,1:2:0:0:
331,117,132194,1,0,3:0:0:0:
378,260,132366,5,0,1:0:0:0:
200,204,132537,1,0,1:0:0:0:
293,52,132708,5,0,1:0:0:0:
324,314,132880,1,0,1:0:0:0:
116,177,133051,5,0,1:0:0:0:
417,118,133223,1,0,1:0:0:0:
261,366,133394,5,8,3:3:0:0:
208,377,133480,1,4,0:3:0:0:
159,354,133566,1,4,0:3:0:0:
136,305,133651,1,4,0:3:0:0:
151,253,133737,5,8,1:3:0:0:
169,264,133823,1,8,0:3:0:0:
180,281,133908,1,4,0:3:0:0:
183,302,133994,1,4,0:3:0:0:
181,323,134080,5,4,3:0:0:0:
127,327,134165,1,4,0:3:0:0:
77,309,134251,1,4,0:3:0:0:
38,272,134337,1,4,0:3:0:0:
18,222,134422,1,0,3:0:0:0:
21,169,134508,1,4,0:3:0:0:
46,121,134594,1,8,0:3:0:0:
88,88,134680,1,4,0:3:0:0:
141,77,134766,6,0,P|220:36|231:-8,1,125.999996154785,6|0,3:1|1:0,0:0:0:0:
472,75,135108,1,0,3:0:0:0:
434,82,135194,1,0,3:0:0:0:
414,114,135280,1,2,1:0:0:0:
383,262,135451,1,0,3:0:0:0:
512,150,135623,1,0,1:0:0:0:
341,65,135794,1,0,3:0:0:0:
341,65,135880,1,0,3:0:0:0:
341,65,135966,1,0,1:0:0:0:
205,246,136137,6,0,P|307:210|345:190,1,125.999996154785,6|0,3:1|1:0,0:0:0:0:
483,365,136480,1,0,3:0:0:0:
446,355,136566,1,0,3:0:0:0:
409,346,136651,1,2,1:0:0:0:
344,133,136823,1,0,3:0:0:0:
512,278,136994,1,0,1:0:0:0:
302,348,137166,1,0,3:0:0:0:
302,348,137251,1,0,3:0:0:0:
302,348,137337,1,0,1:0:0:0:
448,186,137508,6,0,P|462:118|455:52,1,125.999996154785,6|0,3:1|1:0,0:0:0:0:
398,18,137766,1,0,0:0:0:0:
391,12,137851,1,0,3:0:0:0:
227,90,138023,2,0,P|303:107|357:145,1,125.999996154785,2|0,1:0|3:0,0:0:0:0:
175,366,138366,1,2,1:0:0:0:
164,330,138451,1,0,0:0:0:0:
153,293,138537,2,0,P|141:243|132:221,1,62.9999980773926,0|0,3:0|3:0,0:0:0:0:
36,155,138708,2,0,P|48:205|57:227,1,62.9999980773926,2|2,1:2|0:0,0:0:0:0:
246,326,138880,6,0,B|326:359|350:287|352:283|354:280|379:210|462:237,1,251.999992309571,6|0,3:1|3:0,0:0:0:0:
398,383,139394,1,2,1:0:0:0:
360,377,139480,1,2,0:2:0:0:
342,343,139566,1,2,3:1:0:0:
461,230,139737,1,0,1:0:0:0:
300,130,139908,5,0,3:0:0:0:
300,130,139966,2,0,L|244:138,2,41.9999987182618,0|0|2,3:0|3:0|3:1,3:0:0:0:
512,157,140251,5,4,1:1:0:0:
347,267,140423,1,2,1:2:0:0:
287,301,140508,1,2,0:2:0:0:
219,296,140594,1,2,3:2:0:0:
166,254,140680,1,2,3:2:0:0:
145,189,140766,2,0,P|137:142|143:116,1,62.9999980773926,2|2,1:2|0:2,0:0:0:0:
352,61,140937,5,2,3:2:0:0:
362,129,141022,1,2,0:2:0:0:
347,196,141108,1,2,1:2:0:0:
308,253,141194,1,2,0:2:0:0:
251,291,141279,1,2,3:2:0:0:
183,306,141365,1,2,3:2:0:0:
115,295,141451,1,2,1:2:0:0:
56,259,141537,1,2,0:2:0:0:
28,196,141623,5,6,0:2:0:0:
94,181,141708,1,2,0:0:0:0:
159,203,141794,1,2,1:2:0:0:
204,254,141880,1,2,0:2:0:0:
244,311,141966,1,2,3:2:0:0:
289,363,142052,1,2,3:2:0:0:
354,384,142138,1,2,1:2:0:0:
421,370,142223,1,2,0:2:0:0:
463,315,142308,1,2,3:2:0:0:
468,245,142394,1,2,0:2:0:0:
426,188,142480,1,2,1:2:0:0:
357,179,142566,1,2,0:2:0:0:
304,223,142651,6,0,P|311:247|320:281,3,41.9999987182618,2|0|0|2,3:2|3:0|3:0|3:2,3:0:0:0:
500,56,142994,5,6,0:2:0:0:
479,71,143080,1,2,0:0:0:0:
455,79,143166,1,2,1:2:0:0:
430,79,143251,1,2,0:2:0:0:
395,109,143337,5,2,3:2:0:0:
369,104,143423,1,2,3:2:0:0:
346,93,143509,1,2,1:2:0:0:
329,75,143594,1,2,0:2:0:0:
281,63,143680,5,2,3:2:0:0:
242,20,143766,1,2,0:2:0:0:
186,12,143851,1,2,1:2:0:0:
131,29,143937,1,2,0:2:0:0:
102,78,144023,2,0,P|111:100|123:128,3,41.9999987182618,2|0|0|0,3:2|3:2|3:2|3:2,3:0:0:0:
20,280,144366,5,6,3:1:0:0:
63,226,144451,1,4,0:3:0:0:
129,204,144537,1,4,0:3:0:0:
196,219,144623,1,4,0:3:0:0:
242,269,144708,1,8,1:3:0:0:
293,315,144794,1,8,0:3:0:0:
351,317,144880,1,4,0:3:0:0:
396,289,144966,1,4,0:3:0:0:
415,248,145051,5,4,3:0:0:0:
371,220,145137,1,4,0:3:0:0:
339,178,145223,1,4,0:3:0:0:
328,126,145308,1,4,0:3:0:0:
340,83,145394,1,0,3:0:0:0:
362,59,145480,1,4,0:3:0:0:
394,51,145566,1,8,0:3:0:0:
423,57,145651,1,4,0:3:0:0:
437,73,145737,5,6,3:2:0:0:
419,139,145822,1,0,3:0:0:0:
370,186,145908,1,0,1:0:0:0:
303,200,145994,1,0,3:0:0:0:
238,177,146079,1,2,0:2:0:0:
195,124,146165,1,0,3:0:0:0:
144,77,146251,1,0,1:0:0:0:
74,77,146337,1,0,3:0:0:0:
23,125,146423,1,2,0:2:0:0:
13,183,146508,1,0,3:0:0:0:
36,226,146594,1,2,1:2:0:0:
70,248,146680,1,0,3:0:0:0:
109,250,146766,1,2,0:2:0:0:
137,238,146851,1,0,3:0:0:0:
154,220,146937,1,0,1:0:0:0:
161,202,147023,1,0,3:0:0:0:
156,186,147108,5,6,3:2:0:0:
99,223,147193,1,0,3:0:0:0:
82,289,147279,1,0,1:0:0:0:
113,349,147365,1,0,3:0:0:0:
176,374,147450,1,2,0:2:0:0:
239,351,147536,1,0,3:0:0:0:
272,291,147622,1,0,1:0:0:0:
310,233,147708,1,0,3:0:0:0:
373,204,147794,1,2,0:2:0:0:
432,220,147880,1,0,3:0:0:0:
467,266,147966,1,2,1:2:0:0:
461,315,148051,1,0,3:0:0:0:
436,344,148137,1,2,0:2:0:0:
405,353,148223,1,0,3:0:0:0:
382,348,148308,1,0,1:0:0:0:
363,335,148394,1,0,3:0:0:0:
359,323,148480,5,6,3:2:0:0:
402,270,148565,1,0,3:0:0:0:
415,202,148651,1,0,1:0:0:0:
395,137,148737,1,0,3:0:0:0:
346,89,148822,1,2,0:2:0:0:
280,70,148908,1,0,3:0:0:0:
213,85,148994,1,0,1:0:0:0:
161,129,149080,1,0,3:0:0:0:
143,196,149166,1,2,0:2:0:0:
161,254,149251,1,0,3:0:0:0:
210,276,149337,1,2,1:2:0:0:
251,272,149423,1,0,3:0:0:0:
280,251,149508,1,2,0:2:0:0:
296,226,149594,1,0,3:0:0:0:
292,198,149680,1,0,1:0:0:0:
280,181,149766,1,0,3:0:0:0:
267,173,149851,5,6,3:2:0:0:
209,149,149936,1,0,3:0:0:0:
149,164,150022,1,0,1:0:0:0:
109,211,150108,1,0,3:0:0:0:
103,273,150193,1,2,0:2:0:0:
135,326,150279,1,0,3:0:0:0:
192,350,150365,1,0,1:0:0:0:
254,343,150451,1,0,3:0:0:0:
291,291,150537,1,2,0:2:0:0:
312,238,150623,1,0,3:0:0:0:
348,195,150708,1,2,1:2:0:0:
397,176,150794,1,0,3:0:0:0:
444,184,150880,1,2,0:2:0:0:
477,215,150966,1,0,3:0:0:0:
487,248,151051,1,0,1:0:0:0:
485,279,151137,1,0,3:0:0:0:
476,298,151223,5,6,3:2:0:0:
421,339,151308,1,0,3:0:0:0:
353,345,151394,1,0,1:0:0:0:
293,313,151480,1,0,3:0:0:0:
263,250,151566,1,2,0:2:0:0:
262,181,151651,1,0,3:0:0:0:
291,118,151737,1,0,1:0:0:0:
348,79,151823,1,0,3:0:0:0:
416,75,151908,1,2,0:2:0:0:
469,106,151994,1,0,3:0:0:0:
491,149,152080,1,2,1:2:0:0:
487,193,152166,1,0,3:0:0:0:
467,220,152251,1,2,0:2:0:0:
436,229,152337,1,0,3:0:0:0:
406,221,152423,1,0,1:0:0:0:
391,203,152508,1,0,3:0:0:0:
388,189,152594,5,6,0:1:0:0:
361,125,152679,1,0,3:0:0:0:
308,83,152765,1,0,1:0:0:0:
241,73,152851,1,0,3:0:0:0:
176,96,152936,1,0,3:0:0:0:
132,149,153022,1,0,3:0:0:0:
119,216,153108,1,2,1:0:0:0:
141,281,153194,1,2,3:2:0:0:
202,315,153280,6,0,P|245:343|259:368,1,62.9999980773926,2|0,3:1|3:0,0:0:0:0:
294,255,153451,2,0,P|317:300|316:329,1,62.9999980773926,4|0,1:0|3:0,0:0:0:0:
408,246,153623,2,0,P|405:297|390:321,1,62.9999980773926,4|0,1:0|0:0,0:0:0:0:
509,299,153794,2,0,P|481:342|456:356,1,62.9999980773926
466,142,153966,5,6,1:0:0:0:
404,98,154051,1,0,3:0:0:0:
331,79,154137,1,0,3:0:0:0:
256,84,154223,1,0,3:0:0:0:
188,115,154308,1,0,1:0:0:0:
133,167,154394,1,0,3:0:0:0:
99,234,154480,1,2,3:1:0:0:
90,308,154566,1,0,3:0:0:0:
122,376,154651,5,0,1:0:0:0:
138,315,154736,1,0,3:0:0:0:
172,262,154822,1,0,3:0:0:0:
221,223,154908,1,0,3:0:0:0:
280,201,154993,1,0,1:0:0:0:
342,197,155079,1,0,3:0:0:0:
403,213,155165,1,0,3:0:0:0:
455,248,155251,1,0,3:0:0:0:
494,298,155337,6,0,P|502:341|490:383,2,83.9999974365235,4|0|0,1:0|1:0|1:0,0:0:0:0:
396,136,155680,2,0,P|388:93|400:51,2,83.9999974365235,8|4|4,3:0|0:3|0:3,0:0:0:0:
336,330,156023,5,4,3:3:0:0:
263,349,156137,1,4,0:3:0:0:
211,294,156251,1,4,0:3:0:0:
137,313,156366,5,4,3:3:0:0:
156,240,156480,1,4,0:3:0:0:
101,188,156594,1,4,0:3:0:0:
129,118,156708,5,6,1:1:0:0:
256,192,156880,12,6,158766,1:1:0:0:
256,192,159451,5,6,1:1:0:0:
256,192,159623,12,6,161509,1:1:0:0:
305,34,162194,6,0,P|407:48|432:167,1,216,6|4,1:1|0:3,0:0:0:0:
423,173,162794,1,4,0:3:0:0:
406,200,162880,5,8,0:3:0:0:
234,128,163108,1,4,0:3:0:0:
110,238,163337,1,4,0:3:0:0:
20,153,163566,6,0,P|69:181|230:210,1,216,6|0,1:0|0:0,0:0:0:0:
359,380,164251,2,0,P|312:279|297:173,1,216,6|4,1:0|0:3,0:0:0:0:
320,153,164851,1,4,3:3:0:0:
342,130,164937,5,0,1:0:0:0:
342,130,165280,1,4,0:3:0:0:
225,84,165451,1,4,0:3:0:0:
379,18,165623,5,4,0:3:0:0:
439,259,165794,1,4,0:3:0:0:
154,200,165966,5,4,1:3:0:0:
440,80,166137,1,4,1:3:0:0:
393,355,166308,5,8,3:3:0:0:
389,344,166394,1,4,0:3:0:0:
385,333,166480,1,4,0:3:0:0:
381,322,166566,1,4,0:3:0:0:
378,311,166651,1,8,1:3:0:0:
374,300,166737,1,8,0:3:0:0:
371,289,166823,1,4,0:3:0:0:
368,278,166908,1,4,0:3:0:0:
365,267,166994,1,4,3:0:0:0:
354,271,167080,1,4,0:3:0:0:
343,275,167166,1,4,0:3:0:0:
332,279,167252,1,4,0:3:0:0:
321,282,167337,1,0,3:0:0:0:
310,286,167423,1,4,0:3:0:0:
299,289,167508,1,8,0:3:0:0:
288,292,167594,1,4,0:3:0:0:
276,296,167680,6,0,P|186:171|62:177,1,270.000010299683,6|0,3:2|0:2,0:0:0:0:
23,308,168194,1,2,1:2:0:0:
23,308,168280,1,2,3:2:0:0:
23,308,168366,5,2,0:1:0:0:
76,356,168451,1,0,3:2:0:0:
143,350,168537,1,0,1:2:0:0:
194,306,168623,1,0,3:2:0:0:
205,240,168708,1,0,3:2:0:0:
172,180,168794,1,0,3:2:0:0:
108,156,168880,1,0,1:2:0:0:
75,96,168966,1,0,3:2:0:0:
95,32,169051,6,0,L|175:18,3,67.5000025749208,2|0|0|0,0:1|3:2|1:2|3:2,0:0:0:0:
303,11,169394,1,2,3:2:0:0:
286,32,169480,1,2,3:2:0:0:
275,56,169566,1,2,1:2:0:0:
271,82,169651,1,2,3:2:0:0:
275,108,169737,5,2,0:2:0:0:
342,111,169823,1,2,3:2:0:0:
402,139,169908,1,2,1:2:0:0:
434,198,169994,1,2,3:2:0:0:
428,265,170080,5,2,0:2:0:0:
389,277,170166,1,2,3:2:0:0:
360,305,170251,1,2,1:2:0:0:
343,342,170337,1,2,3:2:0:0:
340,381,170423,5,2,0:2:0:0:
279,355,170508,1,2,3:2:0:0:
239,302,170594,1,2,1:2:0:0:
233,236,170680,1,2,3:2:0:0:
261,175,170765,1,2,0:2:0:0:
316,138,170851,1,2,3:2:0:0:
382,133,170937,1,2,1:2:0:0:
442,164,171023,1,2,3:2:0:0:
477,220,171108,5,2,0:2:0:0:
422,260,171194,1,2,3:2:0:0:
354,257,171280,1,2,1:2:0:0:
296,221,171366,1,2,3:2:0:0:
283,155,171451,1,2,0:2:0:0:
245,98,171537,1,2,3:2:0:0:
178,83,171623,1,2,1:2:0:0:
113,100,171708,1,2,3:2:0:0:
77,157,171794,5,2,3:2:0:0:
129,199,171880,1,2,3:2:0:0:
196,192,171966,1,2,1:2:0:0:
244,145,172051,1,2,3:2:0:0:
270,82,172137,1,2,0:2:0:0:
324,41,172223,1,2,3:2:0:0:
389,28,172308,1,2,1:2:0:0:
453,49,172394,1,2,3:2:0:0:
489,105,172480,1,2,0:2:0:0:
497,172,172566,1,2,3:2:0:0:
458,226,172651,1,2,1:2:0:0:
392,243,172737,1,2,3:2:0:0:
329,216,172823,1,2,0:2:0:0:
306,165,172908,1,2,3:2:0:0:
326,125,172994,1,2,1:2:0:0:
350,111,173080,1,2,3:2:0:0:
373,113,173166,6,0,P|362:231|214:251,1,270.000010299683,4|0,1:1|0:0,0:0:0:0:
14,188,173680,1,2,1:2:0:0:
26,149,173766,1,2,3:2:0:0:
52,119,173851,1,2,0:1:0:0:
89,103,173937,1,0,3:0:0:0:
129,97,174023,1,0,1:0:0:0:
168,103,174108,1,0,3:0:0:0:
200,127,174194,2,0,P|218:174|220:210,3,67.5000025749208,0|0|0|0,3:0|3:0|1:0|3:0,0:0:0:0:
17,264,174537,5,6,3:2:0:0:
30,267,174623,1,2,3:2:0:0:
41,273,174708,1,2,1:2:0:0:
51,281,174794,1,2,3:2:0:0:
84,275,174880,5,2,0:2:0:0:
108,298,174966,1,2,3:2:0:0:
138,310,175051,1,2,1:2:0:0:
171,315,175137,1,2,3:2:0:0:
209,352,175223,5,2,0:2:0:0:
261,342,175308,1,2,3:2:0:0:
314,349,175394,1,2,1:2:0:0:
363,370,175480,1,2,3:2:0:0:
404,335,175566,5,2,0:2:0:0:
453,314,175651,1,2,3:2:0:0:
490,275,175737,1,2,1:2:0:0:
505,223,175823,1,2,3:2:0:0:
504,169,175908,5,6,3:2:0:0:
487,180,175994,1,2,3:2:0:0:
467,185,176080,1,2,1:2:0:0:
446,184,176166,1,2,3:2:0:0:
417,202,176251,5,2,0:2:0:0:
386,188,176337,1,2,3:2:0:0:
353,179,176423,1,2,1:2:0:0:
319,183,176508,1,2,3:2:0:0:
278,158,176594,5,2,0:2:0:0:
234,175,176680,1,2,3:2:0:0:
186,170,176766,1,2,1:2:0:0:
143,151,176851,1,2,3:2:0:0:
91,167,176937,5,2,0:2:0:0:
70,217,177023,1,2,3:2:0:0:
95,263,177108,1,2,1:2:0:0:
148,273,177194,1,2,3:2:0:0:
183,231,177280,5,8,3:3:0:0:
169,231,177366,1,4,0:3:0:0:
150,240,177451,1,4,0:3:0:0:
128,269,177537,1,4,0:3:0:0:
134,323,177623,1,8,1:3:0:0:
183,360,177708,1,8,0:3:0:0:
250,363,177794,1,4,0:3:0:0:
313,339,177880,1,4,0:3:0:0:
358,288,177966,1,4,3:0:0:0:
375,223,178051,1,4,0:3:0:0:
363,156,178137,1,4,0:3:0:0:
318,105,178223,1,4,0:3:0:0:
253,86,178308,1,0,3:0:0:0:
185,93,178394,1,4,0:3:0:0:
126,127,178480,1,8,0:3:0:0:
63,153,178566,1,4,0:3:0:0:
0,132,178651,6,0,P|5:33|154:32,1,270.000010299683,6|0,3:1|0:2,0:0:0:0:
260,212,179166,1,2,1:1:0:0:
301,263,179251,1,0,3:2:0:0:
364,288,179337,1,0,0:2:0:0:
432,277,179423,1,0,3:2:0:0:
483,234,179508,1,0,1:2:0:0:
508,171,179594,1,0,3:2:0:0:
497,105,179680,1,0,0:2:0:0:
455,52,179766,1,0,3:2:0:0:
391,28,179851,1,2,1:2:0:0:
325,38,179937,1,2,3:2:0:0:
272,81,180023,5,2,3:1:0:0:
231,134,180108,1,0,3:2:0:0:
190,188,180194,1,0,1:2:0:0:
125,208,180280,1,0,3:2:0:0:
60,187,180366,1,2,0:1:0:0:
22,131,180451,1,0,3:2:0:0:
30,63,180537,1,0,1:1:0:0:
73,10,180623,1,0,3:2:0:0:
139,4,180708,1,2,0:1:0:0:
196,40,180794,1,0,3:2:0:0:
217,104,180880,1,0,1:2:0:0:
209,171,180966,1,0,3:2:0:0:
167,223,181051,1,2,0:1:0:0:
127,275,181136,1,0,3:2:0:0:
134,341,181222,1,0,1:2:0:0:
184,384,181308,1,0,3:2:0:0:
250,381,181394,6,0,P|286:353|328:348,3,67.5000025749208,6|0|0|0,3:1|3:1|1:1|3:1,0:0:0:0:
317,274,181737,2,0,P|362:267|401:284,1,67.5000025749208,0|0,0:1|3:1,0:0:0:0:
429,216,181908,2,0,P|471:233|496:266,1,67.5000025749208,2|2,1:1|3:2,0:0:0:0:
462,379,182080,5,2,0:1:0:0:
395,374,182165,1,0,3:1:0:0:
333,346,182251,1,0,1:1:0:0:
286,299,182337,1,0,3:1:0:0:
259,237,182422,1,0,0:1:0:0:
255,170,182508,1,0,3:1:0:0:
275,106,182594,1,2,1:2:0:0:
326,62,182680,1,2,3:2:0:0:
392,49,182766,5,6,3:1:0:0:
388,115,182851,1,0,3:1:0:0:
343,165,182937,1,0,1:1:0:0:
276,175,183023,1,0,3:1:0:0:
216,144,183108,1,2,0:1:0:0:
150,126,183194,1,0,3:1:0:0:
84,144,183280,1,0,1:1:0:0:
43,198,183366,1,0,3:2:0:0:
43,255,183451,1,2,0:1:0:0:
71,293,183537,1,0,3:1:0:0:
102,312,183623,1,0,1:1:0:0:
137,314,183708,1,0,3:1:0:0:
181,299,183794,1,2,1:1:0:0:
216,254,183880,1,0,1:1:0:0:
237,184,183966,1,0,1:2:0:0:
219,106,184051,1,0,1:2:0:0:
171,41,184137,6,0,P|126:23|103:5,3,67.5000025749208,6|2|2|2,3:2|3:2|3:2|3:2,0:0:0:0:
4,163,184480,1,2,1:2:0:0:
22,149,184566,1,2,3:2:0:0:
57,138,184651,1,2,3:2:0:0:
111,147,184737,1,2,3:2:0:0:
161,197,184823,1,2,3:2:0:0:
182,260,184908,1,2,3:2:0:0:
231,305,184994,1,2,3:2:0:0:
298,311,185080,1,2,3:2:0:0:
359,281,185166,1,2,1:2:0:0:
394,224,185251,1,2,3:2:0:0:
397,156,185337,1,2,3:2:0:0:
365,96,185423,1,2,3:2:0:0:
303,68,185508,5,6,3:2:0:0:
278,96,185594,1,2,3:2:0:0:
279,128,185680,1,2,3:2:0:0:
305,174,185766,1,2,3:2:0:0:
364,207,185851,1,2,3:2:0:0:
412,254,185937,1,2,3:2:0:0:
410,321,186023,1,2,1:2:0:0:
368,373,186108,1,2,3:2:0:0:
300,373,186194,1,2,3:2:0:0:
250,326,186280,1,2,3:2:0:0:
245,258,186366,1,2,3:2:0:0:
228,193,186451,1,2,3:2:0:0:
168,160,186537,1,2,1:2:0:0:
102,178,186623,1,2,3:2:0:0:
68,235,186708,1,2,3:2:0:0:
85,300,186794,1,2,3:2:0:0:
143,333,186880,5,8,3:3:0:0:
216,328,186965,1,4,0:3:0:0:
279,290,187051,1,4,0:3:0:0:
316,227,187137,1,4,0:3:0:0:
320,153,187222,1,8,0:3:0:0:
288,87,187308,1,8,0:3:0:0:
229,43,187394,1,4,1:3:0:0:
157,32,187480,1,4,0:3:0:0:
87,56,187565,1,0,1:0:0:0:
37,110,187651,1,4,0:3:0:0:
28,184,187737,1,4,0:3:0:0:
75,241,187823,1,4,0:3:0:0:
148,247,187908,1,0,3:0:0:0:
195,189,187994,1,4,0:3:0:0:
247,136,188080,1,8,0:3:0:0:
320,122,188166,1,4,0:3:0:0:
390,144,188251,6,0,P|418:152|433:154,5,45.0000017166138,4|0|0|4|4|4,3:1|3:0|3:0|3:0|3:0|3:0,0:0:0:0:
328,226,188594,2,0,P|300:218|285:216,5,45.0000017166138,0|0|0|4|4|4,3:0|3:0|3:0|3:0|3:0|3:0,0:0:0:0:
412,291,188937,2,0,P|440:299|455:301,5,45.0000017166138,0|0|0|4|4|4,3:0|3:0|3:0|3:0|3:0|3:0,0:0:0:0:
325,363,189280,5,4,1:1:0:0:
67,162,189623,6,0,P|45:91|203:67,1,251.999992309571,6|0,3:1|3:0,0:0:0:0:
328,70,190137,1,0,1:0:0:0:
328,70,190223,1,0,3:0:0:0:
328,70,190308,2,0,P|243:95|207:119,1,125.999996154785,2|0,3:1|1:0,0:0:0:0:
73,299,190651,1,2,3:1:0:0:
122,307,190737,1,0,3:0:0:0:
166,282,190823,1,2,1:0:0:0:
181,234,190908,1,0,3:0:0:0:
161,187,190994,1,0,3:0:0:0:
76,33,191166,6,0,P|51:59|54:92,1,62.9999980773926,2|0,1:1|0:0,0:0:0:0:
248,151,191337,1,2,3:1:0:0:
231,105,191423,1,0,3:0:0:0:
187,79,191509,1,0,1:0:0:0:
138,90,191594,1,0,3:0:0:0:
108,131,191680,1,0,3:0:0:0:
10,233,191851,1,0,1:0:0:0:
161,364,192023,1,0,3:0:0:0:
210,354,192108,1,0,3:0:0:0:
259,345,192194,1,2,1:2:0:0:
308,336,192280,1,2,3:2:0:0:
357,327,192366,6,0,P|382:210|452:70,1,251.999992309571,2|0,3:1|3:0,0:0:0:0:
279,4,192880,1,0,1:0:0:0:
279,4,192966,1,0,3:0:0:0:
279,4,193051,2,0,P|306:86|317:149,1,125.999996154785,2|0,3:1|1:0,0:0:0:0:
228,306,193394,1,2,3:1:0:0:
184,331,193480,1,0,3:0:0:0:
134,320,193566,1,2,1:0:0:0:
109,276,193651,1,0,3:0:0:0:
120,226,193737,1,4,3:1:0:0:
327,123,193908,6,0,P|307:163|276:177,1,62.9999980773926,2|0,1:1|0:0,0:0:0:0:
183,193,194080,1,2,3:1:0:0:
145,158,194166,1,0,3:0:0:0:
140,107,194252,1,0,1:0:0:0:
174,70,194337,1,0,3:0:0:0:
225,65,194423,1,0,3:0:0:0:
265,94,194508,1,0,3:0:0:0:
274,143,194594,1,0,1:0:0:0:
304,183,194680,1,0,3:0:0:0:
350,203,194766,1,0,3:0:0:0:
399,195,194851,1,0,3:0:0:0:
434,159,194937,1,2,1:2:0:0:
439,108,195023,1,2,3:2:0:0:
409,67,195108,6,0,P|330:70|283:240,1,251.999992309571,6|0,3:1|3:0,0:0:0:0:
382,368,195623,1,0,1:0:0:0:
382,368,195708,1,0,3:0:0:0:
382,368,195794,2,0,P|488:353|539:351,1,125.999996154785,2|0,3:1|1:0,0:0:0:0:
367,188,196137,1,2,3:1:0:0:
316,192,196223,1,0,3:0:0:0:
279,226,196308,1,2,1:0:0:0:
266,274,196394,1,0,3:0:0:0:
280,322,196480,1,0,3:0:0:0:
447,310,196651,6,0,P|433:269|429:238,1,62.9999980773926,2|0,1:1|0:0,0:0:0:0:
373,192,196823,1,2,3:1:0:0:
325,206,196909,1,0,3:0:0:0:
277,193,196995,1,0,1:0:0:0:
243,156,197080,1,0,3:0:0:0:
239,105,197166,1,0,3:0:0:0:
370,0,197337,1,0,1:0:0:0:
512,79,197508,1,0,3:0:0:0:
462,91,197594,1,0,3:0:0:0:
412,103,197680,1,2,1:2:0:0:
362,115,197766,1,2,3:2:0:0:
313,127,197851,6,0,P|212:154|41:188,1,251.999992309571,6|0,3:1|3:0,0:0:0:0:
13,141,198280,1,0,3:0:0:0:
13,141,198366,1,0,1:0:0:0:
77,297,198537,5,2,3:1:0:0:
77,297,198594,2,0,P|63:330|58:342,2,41.9999987182618,0|0|0,3:0|3:0|1:0,0:0:0:0:
252,221,198880,5,2,3:1:0:0:
252,221,198937,2,0,P|238:188|233:176,2,41.9999987182618,0|0|2,3:0|3:0|1:0,0:0:0:0:
326,363,199223,5,4,3:1:0:0:
337,371,199308,1,0,3:0:0:0:
358,377,199394,1,0,1:0:0:0:
391,370,199480,1,0,1:0:0:0:
424,339,199566,1,0,1:0:0:0:
444,291,199651,1,0,1:0:0:0:
441,236,199737,1,8,3:0:0:0:
404,188,199823,1,8,3:0:0:0:
345,166,199908,1,4,3:0:0:0:
283,181,199994,1,4,3:0:0:0:
241,228,200080,1,4,3:0:0:0:
179,241,200166,1,4,3:0:0:0:
123,212,200251,1,4,3:0:0:0:
102,152,200337,1,4,3:0:0:0:
125,93,200423,1,4,3:0:0:0:
175,56,200508,1,4,3:0:0:0:
237,63,200594,6,0,P|273:59|300:34,3,62.9999980773926,6|0|0|0,3:1|3:0|3:0|3:0,0:0:0:0:
436,4,200937,2,0,P|406:25|395:60,3,62.9999980773926,0|0|0|0,1:0|3:0|3:0|3:0,0:0:0:0:
468,162,201280,5,2,1:1:0:0:
405,130,201366,1,0,3:0:0:0:
338,144,201452,1,0,3:0:0:0:
296,199,201537,1,0,3:0:0:0:
298,267,201623,1,2,1:1:0:0:
344,319,201709,1,0,3:0:0:0:
412,329,201794,1,2,3:1:0:0:
472,292,201881,1,0,3:0:0:0:
493,226,201966,5,0,1:0:0:0:
430,197,202051,1,0,3:0:0:0:
361,201,202137,1,2,3:1:0:0:
302,236,202223,1,0,3:0:0:0:
266,294,202308,1,2,1:1:0:0:
207,330,202394,1,0,3:0:0:0:
137,335,202480,1,0,3:0:0:0:
74,304,202566,1,0,3:0:0:0:
49,239,202651,5,0,1:0:0:0:
79,215,202737,1,0,3:0:0:0:
95,181,202823,1,0,3:0:0:0:
97,143,202908,1,0,3:0:0:0:
82,108,202994,5,0,1:0:0:0:
65,142,203080,1,0,3:0:0:0:
71,180,203166,1,2,3:2:0:0:
92,211,203252,1,2,3:2:0:0:
123,230,203337,5,2,1:1:0:0:
165,193,203422,1,0,3:0:0:0:
219,176,203508,1,0,3:0:0:0:
275,182,203594,1,0,3:0:0:0:
324,210,203679,1,0,1:0:0:0:
358,255,203765,1,0,3:0:0:0:
372,309,203851,1,0,3:0:0:0:
358,365,203937,1,0,3:0:0:0:
304,383,204023,1,2,1:1:0:0:
258,349,204108,1,0,3:0:0:0:
259,292,204194,1,0,3:0:0:0:
303,257,204280,1,0,3:0:0:0:
358,243,204366,1,2,1:1:0:0:
403,209,204451,1,0,3:0:0:0:
411,152,204537,1,2,3:1:0:0:
384,101,204623,1,0,3:0:0:0:
331,81,204708,6,0,P|291:58|279:30,3,62.9999980773926,4|0|2|0,1:1|3:0|3:1|3:0,3:0:0:0:
225,100,205051,2,0,P|201:60|205:29,3,62.9999980773926,6|0|0|0,1:1|3:0|3:0|3:0,3:0:0:0:
123,63,205394,2,0,P|122:16|141:-7,3,62.9999980773926,4|0|0|0,1:0|3:0|3:0|3:0,3:0:0:0:
10,162,205737,1,4,1:0:0:0:
20,169,205823,1,0,3:0:0:0:
32,172,205908,1,2,3:2:0:0:
44,172,205994,1,2,3:2:0:0:
55,167,206080,5,6,1:1:0:0:
113,130,206166,1,0,3:0:0:0:
181,125,206251,1,0,3:0:0:0:
242,157,206337,1,0,3:0:0:0:
275,217,206423,1,0,1:0:0:0:
325,263,206508,1,0,3:0:0:0:
393,273,206594,1,0,3:0:0:0:
459,252,206680,1,0,3:0:0:0:
502,197,206766,5,2,1:1:0:0:
447,154,206851,1,0,3:0:0:0:
377,156,206937,1,0,3:0:0:0:
320,196,207023,1,0,3:0:0:0:
291,258,207108,1,2,1:1:0:0:
237,301,207194,1,0,3:0:0:0:
169,318,207280,1,2,3:1:0:0:
105,290,207366,1,0,3:0:0:0:
77,227,207451,6,0,P|87:197|110:169,3,62.9999980773926,4|0|2|0,1:1|3:0|3:1|3:0,3:0:0:0:
76,109,207794,2,0,P|99:88|133:75,3,62.9999980773926,6|0|0|0,1:1|3:0|3:0|3:0,3:0:0:0:
151,5,208137,1,0,1:0:0:0:
182,8,208223,1,0,1:0:0:0:
211,19,208308,1,0,1:0:0:0:
236,37,208394,1,0,1:0:0:0:
254,62,208480,1,0,1:0:0:0:
445,114,208651,5,0,1:0:0:0:
445,114,208737,1,2,3:2:0:0:
445,114,208823,2,0,P|351:80|315:233,1,251.999992309571,6|0,0:1|3:0,0:0:0:0:
408,376,209337,1,0,1:0:0:0:
457,371,209422,1,0,3:0:0:0:
496,340,209508,1,0,3:0:0:0:
511,293,209594,1,0,3:0:0:0:
497,245,209679,1,0,1:0:0:0:
460,213,209765,1,0,3:0:0:0:
410,207,209851,1,2,0:1:0:0:
366,229,209937,1,0,3:0:0:0:
338,271,210023,1,0,1:0:0:0:
289,284,210108,1,0,3:0:0:0:
242,264,210194,6,0,P|206:231|205:191,3,62.9999980773926,6|0|0|0,0:1|3:0|1:0|3:0,0:0:0:0:
132,216,210537,2,0,P|117:169|136:134,3,62.9999980773926,0|0|0|0,3:0|3:0|1:0|3:0,0:0:0:0:
78,100,210880,5,6,0:1:0:0:
96,52,210966,1,0,3:0:0:0:
136,23,211051,1,0,1:0:0:0:
186,15,211137,1,2,0:1:0:0:
234,29,211223,1,0,3:0:0:0:
266,66,211308,1,0,3:0:0:0:
308,93,211394,1,2,1:1:0:0:
358,88,211480,1,0,3:0:0:0:
400,60,211566,5,6,0:1:0:0:
347,25,211651,1,0,3:0:0:0:
285,20,211737,1,0,1:0:0:0:
229,46,211823,1,0,3:0:0:0:
191,95,211908,1,0,3:0:0:0:
182,157,211994,1,0,3:0:0:0:
204,215,212080,1,0,1:0:0:0:
252,256,212166,1,0,3:0:0:0:
313,268,212251,1,0,3:0:0:0:
367,251,212337,1,0,3:0:0:0:
420,235,212423,1,4,1:1:0:0:
464,251,212508,1,0,3:0:0:0:
488,283,212594,1,4,0:1:0:0:
491,319,212680,1,0,3:0:0:0:
480,346,212766,1,0,1:0:0:0:
464,362,212851,1,0,0:0:0:0:
445,368,212937,6,0,P|420:359|394:357,2,41.9999987182618,0|0|0,3:0|3:0|3:0,0:0:0:0:
361,296,213108,2,0,P|334:300|311:311,2,41.9999987182618,4|4|4,3:0|3:0|3:0,0:0:0:0:
262,264,213280,2,0,P|241:281|226:302,2,41.9999987182618,0|0|0,3:0|3:0|3:0,0:0:0:0:
157,300,213451,2,0,P|148:325|146:351,2,41.9999987182618,4|4|4,3:0|3:0|3:0,0:0:0:0:
86,377,213623,5,0,3:0:0:0:
11,223,213794,1,4,3:3:0:0:
19,220,213851,1,4,0:3:0:0:
27,217,213908,1,4,3:3:0:0:
35,214,213966,1,4,3:0:0:0:
12,41,214137,1,0,1:0:0:0:
477,215,215680,6,0,P|424:125|420:65,1,144,6|0,3:1|1:0,0:0:0:0:
212,21,216023,1,0,3:0:0:0:
252,35,216108,1,0,3:0:0:0:
275,71,216194,1,0,1:0:0:0:
320,252,216366,2,0,P|232:287|190:319,1,144,2|0,0:1|1:0,0:0:0:0:
138,261,216623,1,2,0:1:0:0:
128,269,216708,2,0,P|35:240|-1:183,1,144,0|2,3:0|1:1,0:0:0:0:
109,16,217051,5,2,0:1:0:0:
189,164,217223,1,0,1:0:0:0:
0,130,217394,1,0,3:0:0:0:
17,90,217480,1,0,3:0:0:0:
37,51,217566,1,0,1:0:0:0:
222,13,217737,6,0,P|300:33|317:93,1,144,2|0,0:1|1:0,0:0:0:0:
285,154,217994,1,2,0:1:0:0:
271,161,218080,2,0,P|193:141|176:81,1,144,0|2,3:0|1:1,0:0:0:0:
448,23,218423,6,0,P|340:94|314:247,1,288,2|0,0:1|3:0,0:0:0:0:
352,298,218851,1,0,3:0:0:0:
361,305,218937,1,0,1:0:0:0:
498,161,219108,2,0,P|412:166|393:232,1,144,2|0,0:1|1:0,0:0:0:0:
447,367,219451,1,0,3:0:0:0:
486,349,219537,1,0,3:0:0:0:
499,307,219623,1,2,1:1:0:0:
270,290,219794,6,0,P|182:326|119:318,1,144,6|0,0:1|1:0,0:0:0:0:
22,199,220137,1,0,3:0:0:0:
42,160,220223,1,0,3:0:0:0:
62,122,220308,1,2,1:0:0:0:
141,225,220480,5,0,3:1:0:0:
9,65,220651,1,0,1:0:0:0:
220,23,220823,5,0,3:1:0:0:
220,23,220880,2,0,P|200:63|194:78,2,48,0|0|0,3:0|3:0|1:0,0:0:0:0:
325,195,221166,6,0,P|409:160|480:145,1,144,6|0,0:1|1:0,0:0:0:0:
500,93,221423,1,2,0:1:0:0:
492,81,221508,1,0,3:0:0:0:
484,68,221594,1,0,3:0:0:0:
476,55,221680,1,2,1:1:0:0:
299,111,221851,1,2,0:1:0:0:
257,99,221937,1,0,3:0:0:0:
214,88,222023,1,0,1:0:0:0:
136,208,222194,1,2,0:1:0:0:
93,216,222280,1,0,3:0:0:0:
50,225,222366,1,0,1:0:0:0:
10,373,222537,6,0,P|90:347|170:309,1,144,2|0,0:1|1:0,0:0:0:0:
208,348,222794,1,2,0:1:0:0:
228,353,222880,1,0,3:0:0:0:
249,356,222966,1,0,3:0:0:0:
269,361,223051,1,2,1:1:0:0:
349,240,223223,1,2,0:1:0:0:
391,234,223308,1,0,3:0:0:0:
434,229,223394,1,0,1:0:0:0:
477,106,223566,5,2,3:1:0:0:
486,103,223623,5,0,3:0:0:0:
495,101,223680,5,0,3:0:0:0:
504,99,223737,5,0,1:0:0:0:
385,37,223908,6,0,P|294:62|244:98,1,144,6|0,0:1|1:0,0:0:0:0:
217,146,224166,1,2,0:1:0:0:
224,166,224251,1,0,3:0:0:0:
231,186,224337,1,0,3:0:0:0:
238,206,224423,1,2,1:1:0:0:
385,115,224594,5,2,0:1:0:0:
169,30,224766,1,0,1:0:0:0:
76,189,224937,5,2,3:1:0:0:
76,189,224994,2,0,P|38:205|18:212,2,48,0|0|0,3:0|3:0|1:0,0:0:0:0:
22,335,225280,5,6,1:0:0:0:
40,351,225366,1,0,3:0:0:0:
82,362,225451,1,0,3:0:0:0:
126,348,225537,1,0,3:0:0:0:
159,303,225623,1,0,1:0:0:0:
198,264,225708,1,0,1:0:0:0:
251,243,225794,1,8,0:3:0:0:
308,249,225880,1,8,0:3:0:0:
349,288,225966,5,4,3:0:0:0:
294,322,226051,1,4,0:3:0:0:
230,306,226137,1,4,0:3:0:0:
196,250,226223,1,4,0:3:0:0:
212,188,226308,1,0,3:0:0:0:
266,152,226394,1,4,0:3:0:0:
331,151,226480,1,8,0:3:0:0:
392,128,226566,1,4,0:3:0:0:
423,72,226651,6,0,P|402:31|400:10,3,58.4999973220826,6|0|0|0,3:1|3:0|1:0|3:0,0:0:0:0:
270,156,226994,2,0,P|249:197|245:221,3,58.4999973220826,0|0|0|0,3:0|3:0|1:0|3:0,0:0:0:0:
200,40,227337,1,2,0:1:0:0:
141,13,227422,1,0,3:0:0:0:
78,24,227508,1,0,1:0:0:0:
32,68,227594,1,2,0:1:0:0:
19,130,227679,1,0,3:0:0:0:
43,190,227765,1,0,3:0:0:0:
101,219,227851,1,2,1:1:0:0:
142,268,227937,1,0,3:0:0:0:
149,332,228023,6,0,P|137:361|102:382,3,58.4999973220826,2|0|0|0,0:1|3:0|1:0|3:0,0:0:0:0:
279,233,228366,2,0,P|247:237|211:221,3,58.4999973220826,0|0|0|0,3:0|3:0|1:0|3:0,0:0:0:0:
344,358,228708,5,2,0:1:0:0:
403,380,228793,1,0,3:0:0:0:
465,364,228879,1,0,1:0:0:0:
505,314,228965,1,2,0:1:0:0:
508,251,229050,1,0,3:0:0:0:
473,197,229136,1,0,3:0:0:0:
409,179,229223,1,2,1:1:0:0:
368,129,229308,1,0,3:0:0:0:
382,65,229394,5,6,0:1:0:0:
441,87,229479,1,0,3:0:0:0:
477,140,229565,1,0,1:0:0:0:
476,204,229651,1,0,3:0:0:0:
438,255,229736,1,0,3:0:0:0:
378,276,229822,1,0,3:0:0:0:
317,258,229908,1,2,1:0:0:0:
274,209,229994,1,0,3:0:0:0:
246,149,230080,1,0,0:1:0:0:
203,99,230166,1,0,3:0:0:0:
142,81,230252,1,2,1:0:0:0:
82,102,230338,1,0,0:1:0:0:
44,153,230423,1,0,3:0:0:0:
43,217,230509,1,0,3:1:0:0:
79,270,230595,1,2,1:1:0:0:
139,292,230680,1,0,3:0:0:0:
206,282,230766,5,6,0:1:0:0:
264,235,230851,1,0,3:0:0:0:
291,166,230937,1,0,1:0:0:0:
279,92,231023,1,0,3:0:0:0:
230,35,231108,1,0,3:0:0:0:
160,11,231194,1,0,3:0:0:0:
87,26,231280,1,2,1:0:0:0:
32,77,231366,1,0,3:2:0:0:
10,149,231451,2,0,P|10:204|23:225,3,58.4999973220826,0|0|0|0,3:2|3:0|1:0|3:0,0:0:0:0:
119,129,231794,5,8,3:0:0:0:
132,117,231880,1,8,3:0:0:0:
147,108,231966,1,4,3:0:0:0:
163,103,232051,1,4,3:0:0:0:
180,101,232137,2,0,P|227:108|245:120,1,58.4999973220826,6|0,1:0|0:0,0:0:0:0:
316,17,232308,5,0,1:0:0:0:
373,25,232394,1,2,0:1:0:0:
418,60,232480,1,0,3:0:0:0:
438,113,232566,1,0,3:0:0:0:
439,170,232651,1,2,1:1:0:0:
407,218,232737,1,0,3:0:0:0:
354,242,232823,2,0,P|308:260|286:290,3,72,2|0|0|0,0:1|3:0|1:0|3:0,0:0:0:0:
229,237,233166,2,0,P|198:275|194:312,3,72,2|0|0|0,0:1|3:0|1:0|3:0,0:0:0:0:
121,363,233508,5,2,0:1:0:0:
65,349,233593,1,0,3:0:0:0:
26,308,233679,1,0,1:0:0:0:
15,252,233765,1,2,0:1:0:0:
35,199,233850,1,0,3:0:0:0:
80,165,233936,1,0,3:0:0:0:
137,160,234022,1,2,1:1:0:0:
193,146,234108,1,0,3:0:0:0:
236,107,234194,2,0,P|255:68|253:27,3,72,2|0|4|0,0:1|3:0|1:0|3:0,0:0:0:0:
168,12,234537,2,0,P|149:51|151:92,3,72,6|0|0|0,0:1|3:0|3:0|3:0,0:0:0:0:
206,238,234880,5,6,0:1:0:0:
213,249,234966,1,0,3:0:0:0:
231,265,235051,1,0,1:0:0:0:
274,280,235137,1,2,0:1:0:0:
323,276,235223,1,0,3:0:0:0:
370,245,235308,1,0,3:0:0:0:
392,191,235394,1,2,1:1:0:0:
378,134,235480,1,0,0:0:0:0:
331,99,235566,1,2,0:1:0:0:
280,95,235651,1,0,3:0:0:0:
241,114,235737,1,0,1:0:0:0:
221,141,235823,1,0,3:0:0:0:
222,171,235908,1,0,3:0:0:0:
236,190,235994,1,0,3:0:0:0:
254,199,236080,1,0,1:0:0:0:
271,199,236166,1,0,3:0:0:0:
281,196,236251,5,6,1:0:0:0:
302,135,236336,1,0,3:0:0:0:
286,74,236422,1,0,3:0:0:0:
237,32,236508,1,0,3:0:0:0:
174,26,236593,1,0,1:0:0:0:
114,51,236679,1,0,1:0:0:0:
78,105,236766,1,8,0:3:0:0:
78,169,236851,1,8,0:3:0:0:
113,223,236937,1,4,3:0:0:0:
173,246,237023,1,4,0:3:0:0:
236,238,237108,1,4,0:3:0:0:
291,204,237194,1,4,0:3:0:0:
355,209,237280,1,0,3:0:0:0:
407,248,237366,1,4,0:3:0:0:
424,289,237451,1,8,0:3:0:0:
418,326,237537,1,4,0:3:0:0:
404,345,237623,5,6,3:1:0:0:
404,345,237966,1,4,3:0:0:0:
248,209,238137,1,4,3:0:0:0:
322,380,238308,5,4,3:0:0:0:
161,169,238480,1,4,3:0:0:0:
218,374,238651,5,4,3:0:0:0:
105,98,238823,1,4,3:0:0:0:
32,330,238994,6,0,P|13:352|-5:369,5,48,0|0|0|4|4|4,3:0|3:0|3:0|3:0|3:0|3:0,0:0:0:0:
122,304,239337,2,0,P|116:332|109:356,5,48,0|0|0|4|4|4,3:0|3:0|3:0|3:0|3:0|3:0,0:0:0:0:
186,236,239680,2,0,P|195:263|201:287,5,48,0|0|0|4|4|4,3:0|3:0|3:0|3:0|3:0|3:0,0:0:0:0:
202,154,240023,5,4,1:1:0:0:
501,176,240366,6,0,P|438:172|385:140,1,125.999996154785,6|0,3:1|1:0,0:0:0:0:
315,163,240623,1,0,0:0:0:0:
306,155,240708,2,0,P|285:117|285:88,1,62.9999980773926,0|0,3:0|3:0,0:0:0:0:
356,11,240880,5,0,1:0:0:0:
126,101,241051,1,0,3:1:0:0:
113,143,241137,1,0,3:0:0:0:
135,181,241223,1,0,1:0:0:0:
256,256,241394,1,0,3:0:0:0:
256,256,241480,1,0,3:0:0:0:
256,256,241566,1,0,1:0:0:0:
192,371,241737,6,0,P|110:347|83:294,1,125.999996154785,2|0,3:1|1:0,0:0:0:0:
30,271,241994,1,0,0:0:0:0:
27,261,242080,2,0,P|34:216|54:190,1,62.9999980773926,0|0,3:0|3:0,0:0:0:0:
126,101,242251,1,0,1:0:0:0:
256,256,242423,5,2,3:1:0:0:
299,252,242508,1,0,0:0:0:0:
337,230,242594,1,0,1:0:0:0:
362,193,242680,1,0,0:1:0:0:
369,149,242766,1,0,3:0:0:0:
285,24,242937,1,0,1:0:0:0:
285,24,243023,1,0,0:0:0:0:
285,24,243108,6,0,P|228:70|212:136,1,125.999996154785,2|0,3:1|1:0,0:0:0:0:
153,164,243366,1,0,0:0:0:0:
151,175,243451,2,0,P|158:205|182:238,1,62.9999980773926,0|0,3:0|3:0,0:0:0:0:
253,370,243623,5,0,1:0:0:0:
388,302,243794,1,0,3:1:0:0:
409,263,243880,1,0,3:0:0:0:
397,220,243966,1,0,1:0:0:0:
288,160,244137,1,0,3:0:0:0:
267,199,244223,1,0,3:0:0:0:
279,242,244309,1,0,1:0:0:0:
512,174,244480,6,0,P|435:136|409:88,1,125.999996154785,0|0,3:1|1:0,0:0:0:0:
339,87,244737,1,0,0:0:0:0:
333,78,244823,2,0,P|332:29|350:3,1,62.9999980773926,0|0,3:0|3:0,0:0:0:0:
481,77,244994,5,0,1:0:0:0:
393,227,245166,1,0,3:1:0:0:
349,228,245251,1,0,3:0:0:0:
314,200,245337,1,0,1:0:0:0:
212,50,245508,5,2,3:1:0:0:
212,50,245566,2,0,L|143:61,2,41.9999987182618,0|0|2,3:0|3:0|1:1,0:0:0:0:
45,117,245851,6,0,P|113:175|144:237,1,125.999996154785,6|0,3:1|1:0,0:0:0:0:
191,243,246108,1,0,0:0:0:0:
198,251,246194,2,0,P|197:295|185:327,1,62.9999980773926,0|0,3:0|3:0,0:0:0:0:
110,379,246366,5,2,1:0:0:0:
6,236,246537,1,0,3:1:0:0:
49,225,246623,1,0,3:0:0:0:
74,189,246708,1,0,1:0:0:0:
193,157,246880,1,2,3:1:0:0:
224,125,246966,1,0,3:0:0:0:
228,82,247051,1,0,1:0:0:0:
49,18,247223,6,0,P|102:79|125:134,1,125.999996154785,2|0,3:1|1:0,0:0:0:0:
198,251,247566,1,2,3:1:0:0:
234,275,247651,1,0,3:0:0:0:
278,271,247737,1,0,1:0:0:0:
360,348,247909,1,2,3:1:0:0:
403,350,247994,1,0,3:0:0:0:
439,325,248080,1,0,1:0:0:0:
500,218,248251,5,2,3:1:0:0:
500,218,248308,2,0,L|490:173,2,41.9999987182618,0|0|0,3:0|3:0|1:0,0:0:0:0:
385,60,248594,6,0,P|309:95|282:142,1,125.999996154785,6|0,3:1|1:0,0:0:0:0:
222,96,248851,1,0,0:0:0:0:
182,116,248937,1,0,3:0:0:0:
138,107,249023,1,0,3:0:0:0:
102,81,249108,1,0,1:0:0:0:
0,169,249280,1,2,0:1:0:0:
17,174,249366,1,0,3:0:0:0:
34,181,249451,1,0,1:0:0:0:
82,283,249623,5,2,3:1:0:0:
82,283,249680,2,0,L|62:346,2,41.9999987182618,0|0|0,3:0|3:0|1:0,0:0:0:0:
219,230,249966,6,0,P|275:259|318:319,1,125.999996154785,2|0,3:1|1:0,0:0:0:0:
377,338,250223,1,0,0:0:0:0:
420,331,250308,1,2,0:1:0:0:
450,298,250394,1,0,3:0:0:0:
452,253,250480,1,0,1:0:0:0:
363,153,250651,6,0,P|332:141|318:134,2,41.9999987182618,2|0|0,3:1|3:0|3:0,0:0:0:0:
413,103,250823,1,0,1:0:0:0:
227,7,250994,6,0,P|196:19|182:26,2,41.9999987182618,2|0|0,3:1|3:0|3:0,0:0:0:0:
277,57,251166,1,0,1:0:0:0:
122,87,251337,6,0,P|187:118|223:178,1,125.999996154785,6|0,3:1|1:0,0:0:0:0:
259,223,251594,1,0,0:0:0:0:
264,234,251680,2,0,P|248:267|225:289,1,62.9999980773926,0|0,3:0|3:0,0:0:0:0:
137,370,251851,5,0,1:0:0:0:
43,164,252023,1,0,3:1:0:0:
86,171,252108,1,0,3:0:0:0:
112,206,252194,1,0,1:0:0:0:
234,290,252366,1,2,3:1:0:0:
277,283,252451,1,0,3:0:0:0:
303,248,252537,1,0,1:0:0:0:
355,42,252708,6,0,P|414:62|468:114,1,125.999996154785,2|0,3:1|1:0,0:0:0:0:
441,172,252966,1,0,0:0:0:0:
431,174,253051,2,0,P|386:155|365:129,1,62.9999980773926,0|0,3:0|3:0,0:0:0:0:
287,3,253223,5,0,1:0:0:0:
171,182,253394,1,2,3:1:0:0:
309,102,253566,1,0,1:0:0:0:
151,17,253737,1,0,3:0:0:0:
107,6,253823,1,0,3:0:0:0:
70,29,253908,1,0,1:0:0:0:
0,222,254080,6,0,P|76:189|107:118,1,125.999996154785,2|0,3:1|1:0,0:0:0:0:
51,103,254337,1,0,3:0:0:0:
42,98,254423,2,0,P|1:125|-11:147,1,62.9999980773926,0|0,3:0|3:0,0:0:0:0:
78,277,254594,6,0,P|138:298|174:347,1,125.999996154785,0|0,1:0|3:1,0:0:0:0:
244,366,254851,1,0,0:0:0:0:
253,363,254937,2,0,P|270:332|260:290,1,62.9999980773926,0|0,1:0|0:1,0:0:0:0:
200,155,255108,1,0,3:0:0:0:
164,181,255194,1,0,3:0:0:0:
165,225,255280,1,0,1:0:0:0:
342,312,255451,6,0,P|393:263|453:248,1,125.999996154785,0|0,3:1|1:0,0:0:0:0:
469,177,255708,1,0,3:0:0:0:
489,164,255794,2,0,P|484:120|432:101,1,62.9999980773926,0|0,3:0|3:0,0:0:0:0:
275,42,255966,6,0,P|348:74|369:128,1,125.999996154785,0|0,1:0|3:1,0:0:0:0:
332,176,256223,1,0,0:0:0:0:
305,177,256308,2,0,P|270:213|267:243,1,62.9999980773926,0|0,1:0|0:0,0:0:0:0:
427,324,256480,5,2,3:1:0:0:
427,324,256537,2,0,P|416:362|412:383,2,41.9999987182618,0|0|2,3:0|3:0|1:0,0:0:0:0:
295,362,256823,6,0,P|200:341|188:293,1,125.999996154785,6|0,3:1|1:0,0:0:0:0:
131,265,257080,1,0,0:0:0:0:
145,268,257166,2,0,P|171:241|171:205,1,62.9999980773926,0|0,3:0|3:0,0:0:0:0:
102,65,257337,5,2,1:0:0:0:
0,222,257508,1,0,3:1:0:0:
43,214,257594,1,0,3:0:0:0:
86,207,257680,1,0,1:0:0:0:
182,108,257851,1,2,3:1:0:0:
223,122,257937,1,0,3:0:0:0:
263,138,258023,1,0,1:0:0:0:
372,235,258194,6,0,P|429:180|426:119,1,125.999996154785,2|0,3:1|1:0,0:0:0:0:
371,93,258451,1,0,0:0:0:0:
361,97,258537,2,0,P|337:71|333:39,1,62.9999980773926,2|0,3:1|3:0,0:0:0:0:
465,6,258708,5,0,1:0:0:0:
304,144,258880,1,2,3:1:0:0:
272,116,258965,1,0,3:0:0:0:
260,74,259051,1,0,1:0:0:0:
76,25,259223,5,2,3:1:0:0:
76,25,259280,2,0,L|21:36,2,41.9999987182618,0|0|0,3:0|3:0|1:0,0:0:0:0:
217,177,259566,5,8,3:3:0:0:
182,150,259651,1,4,0:3:0:0:
137,145,259737,1,4,0:3:0:0:
94,156,259823,1,0,1:3:0:0:
65,189,259908,2,0,P|71:222|74:264,1,62.9999980773926,0|8,1:3|0:3,0:0:0:0:
77,368,260080,5,0,3:3:0:0:
77,368,260166,1,0,1:3:0:0:
77,368,260251,1,2,1:0:0:0:
266,253,260423,1,4,1:3:0:0:
133,223,260594,1,0,3:0:0:0:
147,264,260680,1,4,1:3:0:0:
160,305,260766,1,0,1:3:0:0:
294,371,260937,5,6,3:1:0:0:
324,379,261023,1,4,0:3:0:0:
353,371,261108,1,4,0:3:0:0:
380,345,261194,1,4,0:3:0:0:
395,303,261280,1,8,1:3:0:0:
384,249,261366,1,8,0:3:0:0:
331,211,261451,1,4,0:3:0:0:
292,156,261537,1,4,0:3:0:0:
311,90,261623,5,2,1:1:0:0:
373,48,261708,1,4,0:3:0:0:
447,61,261794,1,4,0:3:0:0:
486,125,261880,1,4,0:3:0:0:
477,200,261966,1,0,3:0:0:0:
419,248,262051,1,4,0:3:0:0:
345,230,262137,1,8,0:3:0:0:
301,168,262223,1,4,0:3:0:0:
311,90,262308,6,0,P|276:44|203:8,1,125.999996154785,4|0,3:2|1:0,0:0:0:0:
176,69,262566,1,0,3:0:0:0:
164,104,262651,2,0,P|115:132|75:134,1,62.9999980773926,0|0,0:2|3:0,0:0:0:0:
62,240,262823,2,0,P|5:239|-30:221,1,62.9999980773926,2|0,1:0|3:0,0:0:0:0:
7,65,262994,5,0,0:2:0:0:
70,41,263079,1,0,3:0:0:0:
133,61,263165,1,0,1:2:0:0:
179,109,263251,1,0,3:0:0:0:
195,173,263336,1,2,0:1:0:0:
192,242,263423,1,0,3:0:0:0:
204,306,263508,1,0,1:0:0:0:
249,354,263594,1,0,3:0:0:0:
312,372,263680,5,2,3:1:0:0:
375,352,263765,1,0,3:0:0:0:
418,302,263851,1,0,1:0:0:0:
428,237,263937,1,0,3:0:0:0:
399,177,264022,1,0,0:2:0:0:
343,138,264108,1,0,3:0:0:0:
275,134,264194,1,2,1:0:0:0:
222,177,264280,1,0,3:0:0:0:
192,242,264366,1,0,0:2:0:0:
137,281,264451,1,0,3:0:0:0:
69,279,264537,1,0,1:2:0:0:
24,228,264623,1,0,3:0:0:0:
29,161,264708,1,2,0:1:0:0:
63,124,264794,1,0,3:0:0:0:
106,113,264880,1,0,1:0:0:0:
135,121,264966,1,0,3:0:0:0:
156,145,265051,5,2,3:1:0:0:
180,208,265137,1,0,3:0:0:0:
234,248,265223,1,0,1:0:0:0:
300,251,265308,1,0,3:0:0:0:
363,226,265394,1,0,0:2:0:0:
400,169,265480,1,0,3:0:0:0:
406,101,265566,1,2,1:0:0:0:
376,41,265651,1,0,3:0:0:0:
315,11,265737,1,0,0:2:0:0:
248,23,265823,1,0,3:0:0:0:
222,84,265908,1,0,1:2:0:0:
237,139,265994,1,0,3:0:0:0:
277,171,266080,1,2,0:1:0:0:
305,197,266166,1,0,3:0:0:0:
317,229,266251,1,0,1:0:0:0:
316,259,266337,1,0,3:0:0:0:
306,278,266423,5,2,3:1:0:0:
272,305,266508,1,0,3:0:0:0:
227,305,266594,1,0,1:0:0:0:
190,280,266680,1,0,3:0:0:0:
173,238,266766,1,0,0:2:0:0:
145,204,266851,1,0,3:0:0:0:
101,193,266937,1,2,1:0:0:0:
58,205,267023,1,0,3:0:0:0:
30,239,267108,5,0,0:2:0:0:
32,295,267194,1,0,3:0:0:0:
77,329,267280,1,0,1:2:0:0:
133,324,267366,1,0,3:0:0:0:
169,281,267451,1,2,0:1:0:0:
177,224,267537,1,0,3:0:0:0:
166,168,267623,1,0,1:0:0:0:
178,113,267708,1,0,3:0:0:0:
220,75,267794,6,0,P|259:93|291:92,3,62.9999980773926,2|0|0|0,3:1|3:0|1:0|3:0,0:0:0:0:
343,128,268137,2,0,P|385:124|412:107,1,62.9999980773926,0|0,0:2|3:0,0:0:0:0:
461,156,268308,2,0,P|496:131|511:103,1,62.9999980773926,2|0,1:0|3:0,0:0:0:0:
390,13,268480,5,0,0:2:0:0:
334,23,268565,1,0,3:0:0:0:
284,50,268651,1,0,1:2:0:0:
245,90,268737,1,0,3:0:0:0:
218,140,268822,1,2,0:1:0:0:
208,196,268908,1,0,3:0:0:0:
214,252,268994,1,0,1:0:0:0:
235,305,269080,1,0,3:0:0:0:
275,344,269166,5,2,3:1:0:0:
315,304,269251,1,0,3:0:0:0:
319,251,269337,1,0,1:1:0:0:
288,209,269423,1,0,3:0:0:0:
247,193,269508,1,0,0:2:0:0:
204,203,269594,1,0,3:0:0:0:
166,225,269680,1,2,1:0:0:0:
122,230,269766,1,0,3:0:0:0:
81,213,269851,1,0,0:2:0:0:
56,176,269937,1,0,3:0:0:0:
59,131,270023,1,2,1:1:0:0:
89,99,270108,1,0,3:0:0:0:
131,86,270194,1,0,0:1:0:0:
165,59,270280,1,0,3:0:0:0:
175,36,270366,1,0,1:0:0:0:
172,22,270451,1,0,3:0:0:0:
165,12,270537,6,0,P|111:13|79:43,1,62.9999980773926,4|0,3:1|3:0,0:0:0:0:
15,161,270708,1,2,1:2:0:0:
11,183,270794,1,2,3:2:0:0:
23,206,270880,1,2,0:2:0:0:
54,226,270966,1,2,3:2:0:0:
104,229,271051,1,2,1:2:0:0:
147,194,271137,1,2,3:2:0:0:
174,145,271223,6,0,P|207:123|253:126,1,62.9999980773926,2|0,0:2|3:0,0:0:0:0:
229,49,271394,2,0,P|267:45|305:71,1,62.9999980773926,2|0,1:1|3:0,0:0:0:0:
348,8,271566,2,0,P|370:40|366:86,1,62.9999980773926,2|0,0:1|3:0,0:0:0:0:
444,88,271737,2,0,P|426:123|384:143,1,62.9999980773926,2|0,1:1|3:0,0:0:0:0:
471,224,271908,5,8,3:3:0:0:
430,274,271993,1,4,0:3:0:0:
367,289,272079,1,4,0:3:0:0:
308,261,272165,1,4,0:3:0:0:
279,202,272250,1,8,1:3:0:0:
293,139,272336,1,8,0:3:0:0:
345,96,272423,1,4,0:3:0:0:
409,105,272508,1,4,0:3:0:0:
435,165,272594,5,4,3:0:0:0:
384,207,272680,1,4,0:3:0:0:
317,211,272766,1,4,0:3:0:0:
257,182,272851,1,4,0:3:0:0:
193,162,272937,1,0,3:0:0:0:
128,176,273023,1,4,0:3:0:0:
81,222,273108,1,8,0:3:0:0:
71,287,273194,1,4,0:3:0:0:
102,345,273280,6,0,P|125:367|170:378,3,62.9999980773926,6|0|0|0,3:1|3:0|1:0|3:0,0:0:0:0:
213,329,273623,2,0,P|243:336|288:323,1,62.9999980773926,0|0,3:1|3:0,0:0:0:0:
301,259,273794,2,0,P|331:250|363:216,1,62.9999980773926,2|2,1:2|3:2,0:0:0:0:
366,106,273966,5,2,3:1:0:0:
342,44,274051,1,0,3:0:0:0:
280,19,274137,1,0,1:0:0:0:
217,41,274223,1,0,3:0:0:0:
182,85,274308,1,2,3:2:0:0:
181,132,274394,1,2,3:2:0:0:
196,171,274480,1,2,1:2:0:0:
219,191,274566,1,2,3:2:0:0:
241,198,274651,5,2,3:2:0:0:
305,175,274736,1,2,3:2:0:0:
369,198,274822,1,2,1:2:0:0:
405,255,274908,1,0,3:2:0:0:
398,323,274993,1,2,3:2:0:0:
351,372,275079,1,2,3:2:0:0:
284,381,275165,1,2,1:2:0:0:
224,345,275251,1,0,3:2:0:0:
193,282,275337,1,2,3:2:0:0:
202,213,275423,1,2,3:2:0:0:
247,161,275508,1,2,1:2:0:0:
250,93,275593,1,0,3:2:0:0:
208,40,275679,1,2,3:2:0:0:
142,28,275765,1,2,3:2:0:0:
84,64,275850,1,2,1:2:0:0:
65,129,275936,1,0,3:2:0:0:
94,190,276022,5,4,3:1:0:0:
153,154,276108,1,2,3:2:0:0:
221,145,276194,1,2,1:2:0:0:
286,168,276280,1,0,3:2:0:0:
328,208,276366,1,2,3:2:0:0:
373,229,276451,1,2,3:2:0:0:
419,227,276537,1,2,1:2:0:0:
453,210,276623,1,0,3:2:0:0:
471,177,276708,1,2,3:2:0:0:
470,139,276794,1,2,3:2:0:0:
453,104,276880,1,2,1:2:0:0:
419,86,276966,1,0,3:2:0:0:
381,81,277051,1,2,3:2:0:0:
346,95,277137,1,2,3:2:0:0:
311,111,277223,1,2,1:2:0:0:
279,110,277308,1,0,3:2:0:0:
255,102,277394,6,0,P|217:70|209:42,1,62.9999980773926,2|2,3:2|3:2,0:0:0:0:
328,0,277566,1,2,1:2:0:0:
369,14,277651,1,0,3:2:0:0:
393,50,277737,1,2,3:2:0:0:
395,94,277823,1,2,3:2:0:0:
378,134,277908,1,2,1:2:0:0:
341,159,277994,1,0,3:2:0:0:
313,193,278080,1,2,3:2:0:0:
308,236,278166,1,2,3:2:0:0:
322,277,278251,1,2,1:2:0:0:
355,306,278337,1,0,3:2:0:0:
398,310,278423,1,2,3:2:0:0:
432,298,278508,1,2,3:2:0:0:
450,272,278594,1,2,1:2:0:0:
452,251,278680,1,0,3:2:0:0:
446,233,278766,6,0,P|413:196|405:166,3,62.9999980773926,6|0|0|0,3:1|3:0|1:0|3:0,0:0:0:0:
341,159,279108,2,0,P|330:110|338:80,3,62.9999980773926,0|0|0|0,3:0|3:0|1:0|3:0,0:0:0:0:
278,39,279451,5,2,3:1:0:0:
238,18,279537,1,0,3:0:0:0:
194,26,279623,1,0,1:0:0:0:
162,56,279708,1,2,3:1:0:0:
150,98,279794,1,0,3:0:0:0:
192,111,279880,1,0,3:0:0:0:
220,145,279966,1,2,1:1:0:0:
227,188,280051,1,0,3:0:0:0:
207,227,280137,6,0,P|141:248|110:314,1,125.999996154785,4|0,3:1|1:0,0:0:0:0:
60,343,280394,1,2,3:1:0:0:
52,349,280480,2,0,P|2:324|-2:300,1,62.9999980773926,0|0,3:0|3:0,0:0:0:0:
81,201,280651,1,2,1:1:0:0:
192,356,280823,5,0,3:0:0:0:
235,363,280908,1,0,3:0:0:0:
278,370,280994,1,6,1:1:0:0:
422,227,281166,5,4,1:1:0:0:
268,292,281337,2,0,P|298:281|338:262,1,62.9999980773926,0|0,3:0|3:0,0:0:0:0:
485,156,281508,5,6,1:1:0:0:
503,91,281593,1,0,3:0:0:0:
469,33,281679,1,0,3:0:0:0:
403,18,281765,1,0,3:0:0:0:
347,55,281850,1,2,1:1:0:0:
335,121,281936,1,0,3:0:0:0:
368,182,282023,1,0,3:0:0:0:
426,217,282108,1,0,3:0:0:0:
455,280,282194,5,2,1:1:0:0:
427,350,282280,1,0,3:0:0:0:
354,372,282366,1,2,3:2:0:0:
283,347,282451,1,0,3:0:0:0:
251,277,282537,1,2,1:1:0:0:
257,201,282623,1,0,3:0:0:0:
308,146,282708,1,2,3:2:0:0:
381,127,282794,1,0,3:0:0:0:
455,139,282880,6,0,B|363:209|289:116|284:107|279:98|220:10|113:68,1,377.999988464356,6|0,1:1|3:0,0:0:0:0:
6,162,283566,1,0,1:2:0:0:
68,170,283651,1,0,1:2:0:0:
124,197,283737,1,0,1:2:0:0:
168,242,283823,1,0,1:2:0:0:
195,299,283908,2,0,P|191:331|185:349,4,41.9999987182618,8|8|8|4|4,0:3|3:0|3:0|3:3|3:0,0:0:0:0:
73,370,284251,5,6,1:0:0:0:
32,340,284336,1,0,3:0:0:0:
7,296,284422,1,0,3:0:0:0:
2,247,284508,1,0,3:0:0:0:
16,199,284593,1,0,1:0:0:0:
49,161,284679,1,0,3:0:0:0:
94,139,284765,1,2,3:1:0:0:
144,137,284850,1,0,3:0:0:0:
191,155,284936,1,0,1:0:0:0:
226,191,285022,1,0,3:0:0:0:
245,237,285108,1,0,3:0:0:0:
285,267,285194,1,0,3:0:0:0:
335,268,285280,1,0,1:0:0:0:
376,239,285366,1,0,3:0:0:0:
395,192,285451,1,2,3:2:0:0:
382,142,285537,1,2,3:2:0:0:
340,113,285623,6,0,P|316:96|293:52,3,62.9999980773926,2|0|0|0,1:0|3:0|3:0|3:0,0:0:0:0:
223,73,285966,2,0,P|210:46|212:-3,3,62.9999980773926,2|0|0|0,1:0|3:0|3:0|3:0,0:0:0:0:
72,106,286308,2,0,P|96:123|119:167,3,62.9999980773926,2|0|0|0,1:0|3:0|3:0|3:0,0:0:0:0:
189,146,286651,2,0,P|201:172|199:222,3,62.9999980773926,2|0|0|0,1:0|3:0|3:0|3:0,0:0:0:0:
295,303,286994,5,2,1:0:0:0:
327,342,287079,1,0,3:0:0:0:
372,362,287165,1,0,3:0:0:0:
422,361,287251,1,0,3:0:0:0:
467,338,287336,1,0,1:0:0:0:
496,298,287422,1,0,3:0:0:0:
506,249,287508,1,2,3:1:0:0:
492,200,287593,1,2,3:2:0:0:
459,163,287679,5,0,1:0:0:0:
416,191,287766,1,0,3:0:0:0:
366,200,287851,1,0,3:0:0:0:
317,184,287937,1,0,3:0:0:0:
282,147,288023,1,0,1:0:0:0:
260,101,288108,1,0,3:0:0:0:
217,74,288194,1,0,3:0:0:0:
166,69,288280,1,0,3:0:0:0:
121,92,288366,5,2,1:0:0:0:
134,105,288451,1,0,3:0:0:0:
143,121,288537,1,0,3:0:0:0:
149,138,288623,1,0,3:0:0:0:
150,156,288708,5,2,1:0:0:0:
186,146,288794,1,0,3:0:0:0:
213,120,288880,1,0,3:0:0:0:
230,86,288966,1,0,3:0:0:0:
230,48,289051,5,2,1:0:0:0:
272,76,289137,1,0,3:0:0:0:
291,122,289223,1,0,3:0:0:0:
287,171,289308,1,0,3:0:0:0:
261,214,289394,5,2,1:0:0:0:
311,216,289480,1,0,3:0:0:0:
355,192,289566,1,0,3:0:0:0:
384,151,289651,1,0,3:0:0:0:
394,101,289737,5,6,1:0:0:0:
444,127,289822,1,0,3:0:0:0:
476,173,289908,1,0,3:0:0:0:
482,229,289994,1,0,3:0:0:0:
462,282,290079,1,0,1:0:0:0:
420,318,290165,1,0,3:0:0:0:
365,331,290251,1,2,3:1:0:0:
317,314,290337,1,0,3:0:0:0:
274,286,290423,2,0,P|230:282|189:301,3,62.9999980773926,0|0|0|0,1:0|3:0|3:0|3:0,0:0:0:0:
152,229,290766,2,0,P|111:247|85:284,3,62.9999980773926,0|0|0|0,1:0|3:0|3:0|3:0,0:0:0:0:
68,164,291108,6,0,P|8:122|17:62,1,125.999996154785,2|0,1:0|3:0,0:0:0:0:
66,32,291366,1,2,3:1:0:0:
74,42,291451,2,0,P|107:64|137:70,1,62.9999980773926,0|0,1:0|3:0,0:0:0:0:
226,128,291623,2,0,P|259:106|289:100,1,62.9999980773926,2|0,3:1|3:0,0:0:0:0:
355,16,291794,6,0,P|429:33|453:92,1,125.999996154785,2|0,1:0|3:0,0:0:0:0:
506,117,292051,1,2,3:1:0:0:
512,129,292137,2,0,P|494:171|466:189,1,62.9999980773926,0|0,1:0|3:0,0:0:0:0:
371,202,292308,2,0,P|340:228|331:264,1,62.9999980773926,2|0,3:1|3:0,0:0:0:0:
418,373,292480,5,6,1:0:0:0:
469,351,292565,1,0,3:0:0:0:
502,306,292651,1,0,3:0:0:0:
505,250,292737,1,0,3:0:0:0:
478,201,292822,1,0,1:0:0:0:
429,174,292908,1,0,3:0:0:0:
373,178,292994,1,0,3:0:0:0:
328,211,293079,1,0,3:0:0:0:
299,253,293166,1,0,1:0:0:0:
254,286,293251,1,0,3:0:0:0:
198,290,293337,1,0,3:0:0:0:
149,263,293423,1,0,3:0:0:0:
122,214,293508,1,0,1:0:0:0:
125,158,293594,1,0,3:0:0:0:
158,113,293680,1,0,3:0:0:0:
210,92,293765,1,0,3:0:0:0:
260,98,293851,5,6,1:0:0:0:
273,107,293937,1,0,3:0:0:0:
286,129,294023,1,0,3:0:0:0:
286,167,294108,1,0,3:0:0:0:
264,202,294194,1,4,1:0:0:0:
212,225,294280,1,0,3:0:0:0:
180,274,294366,1,0,3:0:0:0:
188,334,294451,1,0,3:0:0:0:
246,372,294537,1,6,1:0:0:0:
314,362,294623,1,0,3:0:0:0:
363,314,294708,1,0,1:0:0:0:
386,248,294794,1,0,1:0:0:0:
371,173,294880,1,0,1:0:0:0:
323,113,294966,1,0,1:0:0:0:
254,82,295051,1,0,1:0:0:0:
178,90,295137,1,0,1:0:0:0:
120,139,295223,6,0,P|73:172|53:176,3,62.9999980773926,6|0|0|0,3:1|3:0|1:0|3:0,0:0:0:0:
1,241,295566,2,0,P|29:260|53:294,1,62.9999980773926,0|0,3:0|3:0,0:0:0:0:
122,292,295737,2,0,P|136:322|140:363,1,62.9999980773926,2|0,1:0|3:0,0:0:0:0:
237,378,295908,5,0,3:0:0:0:
293,373,295993,1,0,3:0:0:0:
346,355,296079,1,0,1:0:0:0:
393,323,296165,1,0,3:0:0:0:
430,280,296250,1,0,3:0:0:0:
454,229,296336,1,0,3:0:0:0:
464,173,296422,1,2,1:0:0:0:
459,117,296507,1,0,3:0:0:0:
426,69,296594,6,0,P|393:33|381:2,3,62.9999980773926,2|0|0|0,3:1|3:0|1:0|3:0,0:0:0:0:
330,154,296937,2,0,P|319:106|324:73,3,62.9999980773926,2|0|0|0,3:1|3:0|1:0|3:0,0:0:0:0:
204,179,297280,2,0,P|218:132|239:106,3,62.9999980773926,2|0|0|0,3:1|3:0|1:0|3:0,0:0:0:0:
82,137,297623,2,0,P|118:104|149:92,1,62.9999980773926,2|0,3:1|3:0,0:0:0:0:
5,30,297794,2,0,P|52:19|85:24,1,62.9999980773926,0|0,1:0|3:0,0:0:0:0:
76,225,297966,5,6,3:1:0:0:
117,263,298051,1,0,3:0:0:0:
169,283,298137,1,0,1:0:0:0:
226,284,298223,1,0,3:0:0:0:
278,263,298308,1,0,3:0:0:0:
320,225,298394,1,0,3:0:0:0:
345,174,298480,1,2,1:0:0:0:
349,118,298565,1,0,3:0:0:0:
331,64,298651,5,2,3:1:0:0:
285,97,298737,1,0,3:0:0:0:
264,149,298823,1,0,1:0:0:0:
277,203,298908,1,0,3:0:0:0:
316,237,298994,1,2,3:2:0:0:
369,242,299080,1,0,3:0:0:0:
409,258,299166,1,0,1:0:0:0:
440,286,299251,1,0,3:0:0:0:
450,319,299337,5,6,3:2:0:0:
447,343,299423,1,0,3:0:0:0:
433,367,299508,1,0,1:0:0:0:
399,383,299594,1,0,3:0:0:0:
357,376,299680,1,2,3:2:0:0:
324,336,299766,1,0,3:0:0:0:
300,287,299851,1,0,3:0:0:0:
253,255,299937,1,0,3:0:0:0:
196,264,300023,1,6,3:2:0:0:
153,302,300108,1,0,3:0:0:0:
92,318,300194,1,0,1:0:0:0:
34,291,300280,1,0,3:0:0:0:
16,230,300366,1,0,1:0:0:0:
49,169,300451,1,0,1:0:0:0:
110,137,300537,1,0,1:0:0:0:
163,92,300623,1,0,1:0:0:0:
174,24,300708,6,0,P|137:15|111:-2,3,62.9999980773926,6|0|0|0,3:1|3:0|1:0|3:0,0:0:0:0:
48,65,301051,2,0,P|20:38|6:10,3,62.9999980773926,0|0|2|0,3:0|3:0|1:0|3:0,0:0:0:0:
185,171,301394,5,0,3:0:0:0:
232,122,301480,1,0,3:0:0:0:
297,108,301566,1,0,1:0:0:0:
360,128,301651,1,0,3:0:0:0:
402,180,301737,1,0,3:0:0:0:
417,246,301823,1,0,3:0:0:0:
394,308,301908,1,0,1:0:0:0:
341,351,301994,1,0,3:0:0:0:
274,351,302080,6,0,P|215:327|206:257,1,125.999996154785,2|0,3:1|1:0,0:0:0:0:
255,217,302337,1,2,3:1:0:0:
270,238,302423,2,0,P|305:261|334:257,1,62.9999980773926,0|0,3:0|3:0,0:0:0:0:
422,335,302594,2,0,P|454:308|459:280,1,62.9999980773926,2|0,1:0|3:0,0:0:0:0:
496,125,302766,5,2,3:1:0:0:
483,156,302851,1,0,3:0:0:0:
453,172,302937,1,0,1:0:0:0:
409,164,303023,1,2,3:1:0:0:
369,129,303108,1,0,3:0:0:0:
354,77,303194,1,0,3:0:0:0:
312,28,303280,1,2,1:0:0:0:
245,25,303366,1,0,3:0:0:0:
195,68,303451,6,0,P|176:98|170:137,3,62.9999980773926,2|0|0|0,1:0|3:0|1:0|3:0,0:0:0:0:
225,244,303794,1,4,3:0:0:0:
206,309,303879,1,4,0:3:0:0:
153,353,303965,1,8,0:3:0:0:
85,359,304051,1,8,0:3:0:0:
26,325,304136,1,4,3:0:0:0:
0,263,304222,1,4,0:3:0:0:
8,196,304308,1,8,0:3:0:0:
55,147,304393,1,8,0:3:0:0:
126,136,304480,2,0,P|169:151|193:171,1,62.9999980773926,0|8,1:0|0:3,0:0:0:0:
303,155,304651,2,0,P|332:189|343:218,1,62.9999980773926,4|4,0:3|0:3,0:0:0:0:
447,258,304823,6,0,P|476:245|496:242,5,41.9999987182618,2|0|0|4|4|4,1:1|3:0|3:0|3:0|3:0|3:0,0:0:0:0:
382,337,305166,2,0,P|361:342|343:352,5,41.9999987182618,0|0|0|4|4|4,3:0|3:0|3:0|3:0|3:0|3:0,0:0:0:0:
458,294,305508,2,0,P|487:309|502:323,5,41.9999987182618,2|0|0|4|4|4,1:1|3:0|3:0|3:0|3:0|3:0,0:0:0:0:
294,290,305851,6,0,P|235:334|220:386,1,125.999996154785,4|0,1:1|0:0,0:0:0:0:
18,321,306194,5,4,3:3:0:0:
66,335,306280,1,0,3:0:0:0:
115,322,306366,1,0,1:0:0:0:
140,279,306451,1,0,1:0:0:0:
143,228,306537,1,0,1:0:0:0:
120,182,306623,1,0,1:0:0:0:
77,156,306708,1,4,0:3:0:0:
54,110,306794,1,4,0:3:0:0:
70,62,306880,1,4,3:0:0:0:
117,30,306966,1,4,0:3:0:0:
172,40,307051,1,4,0:3:0:0:
212,79,307137,1,4,0:3:0:0:
230,132,307223,1,4,3:0:0:0:
215,186,307308,1,4,0:3:0:0:
177,228,307394,1,4,1:3:0:0:
121,239,307480,1,4,0:3:0:0:
68,216,307566,5,4,3:0:0:0:
118,164,307651,1,4,0:3:0:0:
190,155,307737,1,4,0:3:0:0:
258,181,307823,1,4,0:3:0:0:
287,247,307908,1,8,3:0:0:0:
326,308,307994,1,4,0:3:0:0:
397,325,308080,1,4,0:3:0:0:
466,300,308166,1,4,0:3:0:0:
491,232,308251,1,4,3:0:0:0:
484,158,308337,1,4,0:3:0:0:
440,99,308423,1,4,0:3:0:0:
371,75,308508,1,4,0:3:0:0:
296,77,308594,5,8,3:0:0:0:
238,131,308680,5,8,0:3:0:0:
209,219,308766,5,8,0:3:0:0:
236,312,308851,5,8,0:3:0:0:
321,378,308937,5,6,1:2:0:0:
