osu file format v14

[General]
AudioFilename: Demetori - _______ Innumerable Eyes.mp3
AudioLeadIn: 0
PreviewTime: 197218
Countdown: 0
SampleSet: Soft
StackLeniency: 0.7
Mode: 0
LetterboxInBreaks: 0
EpilepsyWarning: 1
WidescreenStoryboard: 1

[Editor]
Bookmarks: 115823
DistanceSpacing: 0.9
BeatDivisor: 4
GridSize: 4
TimelineZoom: 1.2

[Metadata]
Title:Shoujo Satori ~ Innumerable Eyes
TitleUnicode:少女さとり ~ Innumerable Eyes
Artist:Demetori
ArtistUnicode:Demetori
Creator:A Mystery
Version:Advanced
Source:東方Project
Tags:曼衍珠汝華 ~ Nada Upasana Pundarika Comiket77 Stage 4 Boss Satori Maiden 3rd eye komeji Touhou Chireiden Subterranean Animism pishifat
BeatmapID:657476
BeatmapSetID:288656

[Difficulty]
HPDrainRate:4
CircleSize:3.5
OverallDifficulty:4.5
ApproachRate:6
SliderMultiplier:1.2
SliderTickRate:1

[Events]
//Background and Video events
0,0,"Komeiji grijzig.jpg",0,0
//Break Periods
2,58550,64879
2,159602,164668
//Storyboard Layer 0 (Background)
//Storyboard Layer 1 (Fail)
//Storyboard Layer 2 (Pass)
//Storyboard Layer 3 (Foreground)
Sprite,Foreground,Centre,"sparkles.jpg",320,240 M,0,1192,,355.9298,346.5919 F,0,1192,1349,1,0 S,0,1192,1349,0.3532631,1.455111
Sprite,Foreground,Centre,"sparkles.jpg",320,240 M,0,1666,,509.8293,366.3533 F,0,1666,1823,1,0 S,0,1666,1823,0.3532631,1.455111
Sprite,Foreground,Centre,"sparkles.jpg",320,240 M,0,2139,,525.3988,201.0761 F,0,2139,2296,1,0 S,0,2139,2296,0.3532631,1.455111
Sprite,Foreground,Centre,"sparkles.jpg",320,240 M,0,2455,,480.4866,100.4726 F,0,2455,2612,1,0 S,0,2455,2612,0.3532631,1.455111
Sprite,Foreground,Centre,"sparkles.jpg",320,240 M,0,718,,340.3603,176.524 F,0,718,875,1,0 S,0,718,875,0.3532631,1.455111
Sprite,Foreground,Centre,"sparkles.jpg",320,240 M,0,2771,,399.0457,171.1346 F,0,2771,2928,1,0 S,0,2771,2928,0.3532631,1.455111
Sprite,Foreground,Centre,"sparkles.jpg",320,240 M,0,3245,,245.7451,107.0597 F,0,3245,3402,1,0 S,0,3245,3402,0.3532631,1.455111
Sprite,Foreground,Centre,"sparkles.jpg",320,240 M,0,3718,,116.9965,192.6925 F,0,3718,3875,1,0 S,0,3718,3875,0.3532631,1.455111
Sprite,Foreground,Centre,"splashhh.jpg",320,240 M,0,1192,,360.1216,353.179 F,0,1192,1507,1,0 S,0,1192,1507,0.6287251,0.6466901
Sprite,Foreground,Centre,"splashhh.jpg",320,240 M,0,1666,,509.2305,369.9463 F,0,1666,1981,1,0 S,0,1666,1981,0.6287251,0.6466901
Sprite,Foreground,Centre,"splashhh.jpg",320,240 M,0,2139,,523.0035,206.4656 F,0,2139,2454,1,0 S,0,2139,2454,0.6287251,0.6466901
Sprite,Foreground,Centre,"splashhh.jpg",320,240 M,0,2455,,483.4807,105.8621 F,0,2455,2770,1,0 S,0,2455,2770,0.6287251,0.6466901
Sprite,Foreground,Centre,"splashhh.jpg",320,240 M,0,2771,,400.2432,176.524 F,0,2771,3086,1,0 S,0,2771,3086,0.6287251,0.6466901
Sprite,Foreground,Centre,"splashhh.jpg",320,240 M,0,3245,,248.7392,111.2515 F,0,3245,3560,1,0 S,0,3245,3560,0.6287251,0.6466901
Sprite,Foreground,Centre,"splashhh.jpg",320,240 M,0,3718,,120.5895,195.0879 F,0,3718,4033,1,0 S,0,3718,4033,0.6287251,0.6466901
Sprite,Foreground,Centre,"splashhh.jpg",320,240 M,0,4192,,257.1228,268.744 F,0,4192,4507,1,0 S,0,4192,4507,0.6287251,0.6466901
Sprite,Foreground,Centre,"splashhh.jpg",320,240 M,0,5297,,100.2292,270.5404 F,0,5297,5612,1,0 S,0,5297,5612,0.6287251,0.6466901
Sprite,Foreground,Centre,"splashhh.jpg",320,240 M,0,5771,,173.2865,120.8328 F,0,5771,6086,1,0 S,0,5771,6086,0.6287251,0.6466901
Sprite,Foreground,Centre,"splashhh.jpg",320,240 M,0,6245,,342.7556,141.7919 F,0,6245,6560,1,0 S,0,6245,6560,0.6287251,0.6466901
Sprite,Foreground,Centre,"splashhh.jpg",320,240 M,0,6718,,286.4655,233.4129 F,0,6718,7033,1,0 S,0,6718,7033,0.6287251,0.6466901
Sprite,Foreground,Centre,"splashhh.jpg",320,240 M,0,9087,,294.8492,173.5299 F,0,9087,9402,1,0 S,0,9087,9402,0.6287251,0.6466901
Sprite,Foreground,Centre,"splashhh.jpg",320,240 M,0,10350,,245.745,231.6165 F,0,10350,10665,1,0 S,0,10350,10665,0.6287251,0.6466901
Sprite,Foreground,Centre,"splashhh.jpg",320,240 M,0,126560,,338.5638,166.344 F,0,126560,126875,1,0 S,0,126560,126875,0.6287251,0.6466901
Sprite,Foreground,Centre,"splashhh.jpg",320,240 M,0,127034,,173.8854,131.0129 F,0,127034,127349,1,0 S,0,127034,127349,0.6287251,0.6466901
Sprite,Foreground,Centre,"splashhh.jpg",320,240 M,0,127508,,146.3392,269.9416 F,0,127508,127823,1,0 S,0,127508,127823,0.6287251,0.6466901
Sprite,Foreground,Centre,"splashhh.jpg",320,240 M,0,127981,,217.6,347.1907 F,0,127981,128296,1,0 S,0,127981,128296,0.6287251,0.6466901
Sprite,Foreground,Centre,"splashhh.jpg",320,240 M,0,128455,,392.4585,378.3299 F,0,128455,128770,1,0 S,0,128455,128770,0.6287251,0.6466901
Sprite,Foreground,Centre,"splashhh.jpg",320,240 M,0,128771,,452.9404,293.8949 F,0,128771,129086,1,0 S,0,128771,129086,0.6287251,0.6466901
Sprite,Foreground,Centre,"splashhh.jpg",320,240 M,0,129087,,424.7953,188.5007 F,0,129087,129402,1,0 S,0,129087,129402,0.6287251,0.6466901
Sprite,Foreground,Centre,"splashhh.jpg",320,240 M,0,129560,,275.0877,223.8317 F,0,129560,129875,1,0 S,0,129560,129875,0.6287251,0.6466901
Sprite,Foreground,Centre,"splashhh.jpg",320,240 M,0,130034,,333.1743,378.9287 F,0,130034,130349,1,0 S,0,130034,130349,0.6287251,0.6466901
Sprite,Foreground,Centre,"splashhh.jpg",320,240 M,0,130508,,225.9837,416.6551 F,0,130508,130823,1,0 S,0,130508,130823,0.6287251,0.6466901
Sprite,Foreground,Centre,"splashhh.jpg",320,240 M,0,130981,,111.6071,316.6504 F,0,130981,131296,1,0 S,0,130981,131296,0.6287251,0.6466901
Sprite,Foreground,Centre,"splashhh.jpg",320,240 M,0,131297,,214.6059,308.2668 F,0,131297,131612,1,0 S,0,131297,131612,0.6287251,0.6466901
Sprite,Foreground,Centre,"splashhh.jpg",320,240 M,0,718,,340.3602,181.3147 F,0,718,1033,1,0 S,0,718,1033,0.6287251,0.6466901
Sprite,Foreground,Centre,"sparkles.jpg",320,240 M,0,4192,,254.7275,263.9533 F,0,4192,4349,1,0 S,0,4192,4349,0.3532631,1.455111
Sprite,Foreground,Centre,"sparkles.jpg",320,240 M,0,5297,,96.03744,265.151 F,0,5297,5454,1,0 S,0,5297,5454,0.3532631,1.455111
Sprite,Foreground,Centre,"sparkles.jpg",320,240 M,0,5771,,170.8912,117.2399 F,0,5771,5928,1,0 S,0,5771,5928,0.3532631,1.455111
Sprite,Foreground,Centre,"sparkles.jpg",320,240 M,0,6245,,342.1567,138.1989 F,0,6245,6402,1,0 S,0,6245,6402,0.3532631,1.455111
Sprite,Foreground,Centre,"sparkles.jpg",320,240 M,0,6718,,280.4772,224.4305 F,0,6718,6875,1,0 S,0,6718,6875,0.3532631,1.455111
Sprite,Foreground,Centre,"sparkles.jpg",320,240 M,0,9087,,293.0526,167.5416 F,0,9087,9244,1,0 S,0,9087,9244,0.3532631,1.455111
Sprite,Foreground,Centre,"sparkles.jpg",320,240 M,0,10350,,242.7509,226.227 F,0,10350,10507,1,0 S,0,10350,10507,0.3532631,1.455111
Sprite,Foreground,Centre,"sparkles.jpg",320,240 M,0,126560,,337.3661,160.3557 F,0,126560,126717,1,0 S,0,126560,126717,0.3532631,1.455111
Sprite,Foreground,Centre,"sparkles.jpg",320,240 M,0,127034,,174.4842,127.42 F,0,127034,127191,1,0 S,0,127034,127191,0.3532631,1.455111
Sprite,Foreground,Centre,"sparkles.jpg",320,240 M,0,127508,,145.7404,265.151 F,0,127508,127665,1,0 S,0,127508,127665,0.3532631,1.455111
Sprite,Foreground,Centre,"sparkles.jpg",320,240 M,0,127981,,215.2047,341.2025 F,0,127981,128138,1,0 S,0,127981,128138,0.3532631,1.455111
Sprite,Foreground,Centre,"sparkles.jpg",320,240 M,0,128455,,391.2608,370.5451 F,0,128455,128612,1,0 S,0,128455,128612,0.3532631,1.455111
Sprite,Foreground,Centre,"sparkles.jpg",320,240 M,0,128771,,451.1439,287.9066 F,0,128771,128928,1,0 S,0,128771,128928,0.3532631,1.455111
Sprite,Foreground,Centre,"sparkles.jpg",320,240 M,0,129087,,422.4,181.9136 F,0,129087,129244,1,0 S,0,129087,129244,0.3532631,1.455111
Sprite,Foreground,Centre,"sparkles.jpg",320,240 M,0,129560,,272.6924,219.041 F,0,129560,129717,1,0 S,0,129560,129717,0.3532631,1.455111
Sprite,Foreground,Centre,"sparkles.jpg",320,240 M,0,130034,,329.5813,374.7369 F,0,130034,130191,1,0 S,0,130034,130191,0.3532631,1.455111
Sprite,Foreground,Centre,"sparkles.jpg",320,240 M,0,130508,,225.9836,414.2597 F,0,130508,130665,1,0 S,0,130508,130665,0.3532631,1.455111
Sprite,Foreground,Centre,"sparkles.jpg",320,240 M,0,130981,,109.8105,311.8598 F,0,130981,131138,1,0 S,0,130981,131138,0.3532631,1.455111
Sprite,Foreground,Centre,"sparkles.jpg",320,240 M,0,131297,,211.6117,305.2726 F,0,131297,131454,1,0 S,0,131297,131454,0.3532631,1.455111
Sprite,Foreground,Centre,"sparkles.jpg",320,240 M,0,245,,189.455,169.3381 F,0,245,402,1,0 S,0,245,402,0.3532631,1.455111
Sprite,Foreground,Centre,"splashhh.jpg",320,240 M,0,245,,191.2515,176.5241 F,0,245,560,1,0 S,0,245,560,0.6287251,0.6466901
//Storyboard Sound Samples

[TimingPoints]
245,315.789473684211,4,2,1,70,1,0
106350,-100,4,2,1,70,0,1
116297,-100,4,2,1,70,0,0
116455,-100,4,2,1,70,0,1
125297,-100,4,2,1,70,0,0
202350,-100,4,2,1,70,0,1
217350,-100,4,2,1,70,0,0
217508,-100,4,2,1,70,0,1
227613,-100,4,2,1,70,0,0
230139,-100,4,2,1,30,0,0
230297,-100,4,2,1,70,0,0
234087,-100,4,2,1,30,0,0
234560,-100,4,2,1,70,0,0

[Colours]
Combo1 : 129,176,182
Combo2 : 255,40,40
Combo3 : 170,28,255
Combo4 : 209,103,39
Combo5 : 53,189,255
Combo6 : 205,95,95
Combo7 : 162,124,171
Combo8 : 200,139,111

[HitObjects]
122,114,245,70,0,P|158:86|230:86,1,120,12|2,0:0|0:0,0:0:0:0:
272,119,718,2,0,B|282:243,1,120,12|2,0:0|0:0,0:0:0:0:
289,292,1192,1,12,0:0:0:0:
392,323,1508,1,2,0:0:0:0:
443,307,1666,2,0,B|470:274|470:274|460:188,1,120,12|2,0:0|0:0,0:0:0:0:
457,143,2139,1,12,0:0:0:0:
418,42,2455,1,12,0:0:0:0:
335,113,2771,6,0,P|274:112|216:71,1,120,12|2,0:0|0:0,0:0:0:0:
180,50,3245,2,0,P|119:51|61:92,1,120,12|2,0:0|0:0,0:0:0:0:
53,132,3718,1,12,0:0:0:0:
155,167,4034,1,2,0:0:0:0:
189,208,4192,2,0,B|196:268|196:268|168:337,1,120,12|2,0:0|0:0,0:0:0:0:
154,374,4666,1,8,0:0:0:0:
64,313,4981,1,8,0:0:0:0:
35,208,5297,6,0,P|46:140|70:79,1,120,12|0,0:0|0:0,0:0:0:0:
107,59,5771,2,0,B|165:42|165:42|231:61,1,120,12|0,0:0|0:0,0:0:0:0:
272,78,6245,1,12,0:0:0:0:
217,171,6560,1,0,0:0:0:0:
217,171,6718,2,0,B|275:187|275:187|340:166,1,120,12|2,0:0|0:0,0:0:0:0:
383,152,7192,2,0,L|380:226,1,60,2|2,3:2|3:2,0:0:0:0:
351,257,7508,2,0,L|354:331,1,60,2|2,0:0|0:0,0:0:0:0:
317,357,7823,6,0,B|246:382|187:342|187:342|175:284,1,180,8|8,0:0|0:0,0:0:0:0:
157,191,8613,1,10,0:0:0:0:
157,191,8771,1,8,0:0:0:0:
227,109,9087,2,0,B|285:95|285:95|344:105,1,120,4|8,0:0|0:0,0:0:0:0:
400,197,9718,2,0,B|342:211|342:211|282:200,1,120,2|2,0:0|0:0,0:0:0:0:
178,169,10350,70,0,P|147:118|155:60,1,120,4|8,0:0|0:0,0:0:0:0:
204,38,10823,2,0,B|331:22,1,120,2|2,0:0|0:0,0:0:0:0:
370,49,11297,1,8,0:0:0:0:
291,123,11613,1,2,0:0:0:0:
291,123,11771,2,0,P|279:185|313:242,1,120,2|2,0:0|0:0,0:0:0:0:
348,264,12245,1,2,0:0:0:0:
261,328,12560,1,8,0:0:0:0:
159,290,12876,6,0,P|136:225|145:164,1,120,2|8,0:0|0:0,0:0:0:0:
177,134,13350,2,0,B|238:120|238:120|312:140,1,120,2|2,0:0|0:0,0:0:0:0:
343,154,13823,1,8,0:0:0:0:
307,255,14139,1,2,0:0:0:0:
307,255,14297,2,0,P|315:337|361:371,1,120,0|2,0:0|0:0,0:0:0:0:
393,365,14771,1,2,0:0:0:0:
470,289,15087,2,0,L|481:217,1,60,8|2,0:0|0:0,0:0:0:0:
468,176,15402,6,0,P|413:143|343:172,1,120,2|8,0:0|0:0,0:0:0:0:
320,191,15876,2,0,P|262:202|213:170,1,120,2|2,0:0|0:0,0:0:0:0:
192,120,16350,1,8,0:0:0:0:
104,183,16666,1,2,0:0:0:0:
104,183,16823,2,0,B|89:244|89:244|114:322,1,120,2|2,0:0|0:0,0:0:0:0:
154,324,17297,2,0,L|150:383,2,60,2|0|8,0:0|0:0|0:0,0:0:0:0:
194,287,17771,6,0,P|259:271|314:309,1,120,6|2,0:0|0:0,0:0:0:0:
334,339,18245,1,8,0:0:0:0:
414,266,18560,2,0,L|491:274,2,60,2|2|8,0:0|0:0|0:0,0:0:0:0:
384,220,19034,2,0,B|329:201|329:201|261:210,1,120,6|2,0:0|0:0,0:0:0:0:
236,254,19508,1,12,0:0:0:0:
236,254,19666,2,0,B|174:262|174:262|119:243,1,120,2|0,0:0|0:0,0:0:0:0:
75,212,20139,2,0,L|65:152,1,60,4|2,0:3|0:0,0:0:0:0:
94,106,20455,70,0,P|149:86|205:106,1,120,6|8,0:0|0:0,0:0:0:0:
236,150,20929,2,0,B|244:218|244:218|207:263,1,120,0|2,0:0|0:0,0:0:0:0:
172,295,21402,1,8,0:0:0:0:
260,356,21718,1,2,0:0:0:0:
260,356,21876,2,0,P|334:345|368:291,1,120,2|0,0:0|0:0,0:0:0:0:
375,260,22350,1,2,0:0:0:0:
335,159,22666,1,8,0:0:0:0:
269,244,22981,6,0,L|128:226,1,120,2|8,0:0|0:0,0:0:0:0:
101,204,23455,2,0,P|82:146|93:84,1,120,2|2,0:0|0:0,0:0:0:0:
122,44,23929,1,8,0:0:0:0:
225,90,24245,1,2,0:0:0:0:
225,90,24402,2,0,B|295:104|295:104|353:79,1,120,2|2,0:0|0:0,0:0:0:0:
398,91,24876,1,2,0:0:0:0:
398,91,25034,2,0,P|419:177|402:209,1,120,12|12,0:0|0:0,0:0:0:0:
364,234,25508,6,0,B|308:256|308:256|233:226,1,120,6|8,0:0|0:0,0:0:0:0:
232,183,25981,2,0,B|176:160|176:160|120:182,1,120,2|2,0:0|0:0,0:0:0:0:
91,228,26455,1,8,0:0:0:0:
120,332,26771,1,2,0:0:0:0:
120,332,26929,2,0,P|189:349|246:322,1,120,2|8,0:0|0:0,0:0:0:0:
277,301,27402,2,0,L|282:236,1,60,8|8,0:0|0:0,0:0:0:0:
240,205,27718,2,0,L|235:140,1,60,8|4,0:3|0:3,0:0:0:0:
221,92,28034,6,0,P|161:73|100:104,1,120,6|8,0:0|0:0,0:0:0:0:
68,193,28666,2,0,L|90:267,1,60,2|2,0:0|0:0,0:0:0:0:
104,301,28981,1,12,0:0:0:0:
198,354,29297,2,0,B|247:366|247:366|328:345,1,120,2|8,0:0|0:0,0:0:0:0:
370,336,29771,1,2,0:0:0:0:
370,336,29929,2,0,P|387:269|351:207,1,120,8|4,0:0|0:3,0:0:0:0:
291,147,30560,70,0,L|225:154,2,60,12|2|2,0:0|0:0|0:0,0:0:0:0:
345,142,31034,1,2,0:0:0:0:
415,224,31350,2,0,L|481:231,2,60,2|2|2,0:0|0:0|0:0,0:0:0:0:
335,296,31981,6,0,L|269:303,2,60,2|2|2,0:0|0:0|0:0,0:0:0:0:
273,206,32613,2,0,L|207:213,2,60,2|2|2,0:0|0:0|0:0,0:0:0:0:
333,116,33245,6,0,L|392:122,2,60,2|2|2,0:0|0:0|0:0,0:0:0:0:
255,41,33876,2,0,L|195:34,1,60,2|2,0:0|0:0,0:0:0:0:
141,28,34192,1,2,0:0:0:0:
299,310,35139,5,2,0:0:0:0:
299,310,35297,1,8,0:0:0:0:
239,220,35613,70,0,L|109:229,1,120,6|8,0:0|0:0,0:0:0:0:
68,208,36087,2,0,P|50:155|84:88,1,120,2|2,0:0|0:0,0:0:0:0:
118,68,36560,2,0,L|183:71,2,60,8|2|0,0:0|0:0|0:0,0:0:0:0:
173,160,37192,2,0,L|232:157,1,60,8|2,0:0|0:0,0:0:0:0:
287,161,37508,2,0,P|317:226|291:285,1,120,2|8,0:0|0:0,0:0:0:0:
205,314,38139,6,0,B|119:291|119:291|70:311,1,120,2|8,0:0|0:0,0:0:0:0:
45,272,38613,2,0,P|37:217|67:153,1,120,2|2,0:0|0:0,0:0:0:0:
106,129,39087,1,8,0:0:0:0:
182,204,39402,2,0,B|215:227|265:213|265:213|291:227|302:242,1,120,0|8,0:0|0:0,0:0:0:0:
336,264,39876,2,0,B|395:268|395:268|456:225,1,120,2|2,0:0|0:0,0:0:0:0:
485,197,40350,1,8,0:0:0:0:
434,101,40666,6,0,P|364:89|311:131,1,120,2|8,0:0|0:0,0:0:0:0:
294,157,41139,2,0,P|224:169|171:127,1,120,2|2,0:0|0:0,0:0:0:0:
162,95,41613,1,8,0:0:0:0:
83,168,41929,2,0,L|92:253,1,60,0|2,0:0|0:0,0:0:0:0:
131,262,42245,2,0,L|122:347,1,60,8|2,0:0|0:0,0:0:0:0:
163,359,42560,2,0,P|225:368|285:318,1,120,2|8,0:0|0:0,0:0:0:0:
324,244,43192,6,0,L|316:184,2,60,2|2|8,0:0|0:0|0:0,0:0:0:0:
359,285,43666,2,0,P|414:305|469:284,1,120,2|2,0:0|0:0,0:0:0:0:
502,242,44139,1,8,0:0:0:0:
447,148,44455,2,0,L|370:141,1,60,0|2,0:0|0:0,0:0:0:0:
350,182,44771,2,0,L|224:188,1,120,8|2,0:0|0:0,0:0:0:0:
192,226,45245,1,2,0:0:0:0:
192,226,45402,1,12,0:0:0:0:
91,185,45718,70,0,P|64:132|77:75,1,120,6|8,0:0|0:0,0:0:0:0:
121,43,46192,2,0,B|191:30|191:30|261:46,1,120,2|2,0:0|0:0,0:0:0:0:
279,76,46666,2,0,P|289:101|300:153,2,60,8|2|0,0:0|0:0|0:0,0:0:0:0:
213,161,47297,2,0,P|220:190|231:217,1,60,8|2,0:0|0:0,0:0:0:0:
277,247,47613,2,0,B|318:257|318:257|347:248|347:248|398:261,1,120,0|8,0:0|0:0,0:0:0:0:
345,162,48245,6,0,P|331:106|362:54,1,120,2|8,0:0|0:0,0:0:0:0:
403,21,48718,2,0,B|327:8|327:8|278:25,1,120,2|2,0:0|0:0,0:0:0:0:
234,39,49192,1,8,0:0:0:0:
152,109,49508,2,0,B|127:162|127:162|138:222,1,120,0|8,0:0|0:0,0:0:0:0:
181,254,49981,2,0,P|244:274|305:244,1,120,2|2,0:0|0:0,0:0:0:0:
324,212,50455,1,8,0:0:0:0:
419,263,50771,6,0,L|438:140,1,120,6|8,0:0|0:0,0:0:0:0:
414,94,51245,2,0,P|338:74|299:95,1,120,2|2,0:0|0:0,0:0:0:0:
264,127,51718,1,8,0:0:0:0:
210,220,52034,2,0,P|154:223|130:216,1,60,0|2,0:0|0:0,0:0:0:0:
113,182,52350,2,0,P|57:179|33:186,1,60,8|2,0:0|0:0,0:0:0:0:
11,213,52666,1,2,0:0:0:0:
79,295,52981,1,8,0:0:0:0:
187,294,53297,6,0,P|220:227|202:165,1,120,2|8,0:0|0:0,0:0:0:0:
137,106,53929,2,0,P|104:173|122:235,1,120,2|8,0:0|0:0,0:0:0:0:
213,185,54560,2,0,P|247:183|296:198,1,60,2|2,0:0|0:0,0:0:0:0:
307,229,54876,1,12,0:0:0:0:
405,183,55192,2,0,L|397:103,1,60,8|2,0:0|0:0,0:0:0:0:
349,100,55508,2,0,L|357:20,1,60,8|4,0:3|0:3,0:0:0:0:
405,21,55823,69,6,0:0:0:0:
256,192,55981,12,2,58350,0:0:0:0:
273,164,65929,118,0,B|347:146|347:146|403:155,1,120,6|8,0:0|0:0,0:0:0:0:
438,178,66403,2,0,P|442:233|422:298,1,120,2|2,0:0|0:0,0:0:0:0:
371,309,66876,2,0,L|306:306,2,60,8|2|0,0:0|0:0|0:0,0:0:0:0:
348,202,67508,2,0,L|289:199,1,60,8|2,0:0|0:0,0:0:0:0:
238,177,67824,2,0,P|215:102|232:48,1,120,2|8,0:0|0:0,0:0:0:0:
321,109,68455,6,0,B|445:99,1,120,2|8,0:0|0:0,0:0:0:0:
489,122,68929,2,0,P|505:177|472:236,1,120,2|2,0:0|0:0,0:0:0:0:
432,257,69403,1,8,0:0:0:0:
347,190,69718,2,0,B|296:169|296:169|268:175|235:191,1,120,0|8,0:0|0:0,0:0:0:0:
214,241,70192,2,0,B|154:254|154:254|84:211,1,120,2|2,0:0|0:0,0:0:0:0:
74,177,70666,1,8,0:0:0:0:
176,144,70982,6,0,P|229:138|290:171,1,120,2|8,0:0|0:0,0:0:0:0:
310,216,71455,2,0,B|295:300|295:300|248:331,1,120,2|2,0:0|0:0,0:0:0:0:
215,337,71929,1,8,0:0:0:0:
131,268,72245,2,0,L|124:208,1,60,0|2,0:0|0:0,0:0:0:0:
169,178,72560,2,0,L|175:118,1,60,8|0,0:0|0:0,0:0:0:0:
202,71,72876,2,0,P|259:56|322:90,1,120,2|8,0:0|0:0,0:0:0:0:
330,186,73508,6,0,L|338:246,2,60,2|2|8,0:0|0:0|0:0,0:0:0:0:
364,144,73982,2,0,B|405:123|405:123|479:129,1,120,2|2,0:0|0:0,0:0:0:0:
507,174,74455,1,8,0:0:0:0:
480,278,74771,2,0,L|411:284,1,60,0|2,0:0|0:0,0:0:0:0:
378,318,75087,2,0,L|245:309,1,120,8|2,0:0|0:0,0:0:0:0:
225,274,75561,1,0,0:0:0:0:
225,274,75718,1,12,0:0:0:0:
155,190,76034,70,0,B|135:123|135:123|159:67,1,120,6|8,0:0|0:0,0:0:0:0:
193,38,76508,2,0,P|253:27|333:41,1,120,2|2,0:0|0:0,0:0:0:0:
348,73,76982,2,0,L|363:152,2,60,8|2|0,0:0|0:0|0:0,0:0:0:0:
274,151,77613,2,0,L|259:230,1,60,8|2,0:0|0:0,0:0:0:0:
287,258,77929,2,0,B|316:277|347:268|347:268|375:257|408:272,1,120,0|8,0:0|0:0,0:0:0:0:
478,192,78561,6,0,B|498:150|498:150|487:65,1,120,2|8,0:0|0:0,0:0:0:0:
445,43,79034,2,0,P|369:29|320:47,1,120,2|2,0:0|0:0,0:0:0:0:
279,63,79508,1,8,0:0:0:0:
342,150,79824,2,0,B|353:207|353:207|315:285,1,120,0|8,0:0|0:0,0:0:0:0:
298,310,80297,1,2,0:0:0:0:
298,310,80455,2,0,L|231:315,2,60,2|2|8,0:0|0:0|0:0,0:0:0:0:
266,206,81087,6,0,L|123:196,1,120,6|8,0:0|0:0,0:0:0:0:
97,194,81560,1,2,0:0:0:0:
97,194,81718,2,0,P|85:134|104:95,2,90,0|0|2,0:0|0:0|0:0,0:0:0:0:
135,231,82350,2,0,B|151:291|151:291|118:357,2,120,0|8|2,0:0|0:0|0:0,0:0:0:0:
46,174,83297,1,12,0:0:0:0:
94,77,83613,6,0,P|159:55|222:79,1,120,14|8,0:0|0:0,0:0:0:0:
284,143,84245,2,0,P|341:155|396:134,1,120,8|8,0:0|0:0,0:0:0:0:
437,98,84718,1,2,0:0:0:0:
437,98,84876,2,0,P|472:165|409:252,1,180,8|8,0:0|0:0,0:0:0:0:
368,258,85508,2,0,L|301:245,1,60,8|8,0:3|0:3,0:0:0:0:
262,219,85823,2,0,L|203:230,1,60,4|4,0:3|0:3,0:0:0:0:
161,265,86139,69,6,0:0:0:0:
256,192,86297,12,0,87718,0:0:0:0:
256,192,88666,6,0,L|244:260,2,60,2|2|2,0:0|0:0|0:0,0:0:0:0:
269,139,89139,1,8,0:0:0:0:
358,79,89455,2,0,L|347:19,2,60,2|2|8,0:0|0:0|0:0,0:0:0:0:
456,123,90087,2,0,L|445:63,2,60,2|8|2,0:0|0:0|0:0,0:0:0:0:
424,166,90560,2,0,B|439:246|439:246|421:306,1,120,2|12,0:0|0:0,0:0:0:0:
321,301,91192,6,0,L|307:379,2,60,2|2|2,0:0|0:0|0:0,0:0:0:0:
289,256,91666,1,8,0:0:0:0:
197,199,91981,2,0,L|186:139,2,60,2|2|8,0:0|0:0|0:0,0:0:0:0:
116,271,92613,2,0,L|105:211,2,60,2|8|0,0:0|0:0|0:0,0:0:0:0:
151,311,93087,2,0,P|194:325|270:277,1,120,2|8,0:0|0:0,0:0:0:0:
318,204,93718,70,0,L|308:132,2,60,2|2|2,0:0|0:0|0:0,0:0:0:0:
363,233,94192,1,8,0:0:0:0:
452,173,94508,2,0,L|442:101,2,60,2|8|0,0:0|0:0|0:0,0:0:0:0:
471,279,95139,1,2,0:0:0:0:
471,279,95297,2,0,P|404:308|343:282,1,120,12|2,0:0|0:0,0:0:0:0:
275,229,95929,1,12,0:0:0:0:
208,143,96245,6,0,B|129:131|129:131|82:173,1,120,2|8,0:0|0:0,0:0:0:0:
70,203,96718,2,0,P|62:239|94:317,1,120,2|2,0:0|0:0,0:0:0:0:
142,345,97192,1,8,0:0:0:0:
142,345,97350,2,0,L|268:332,1,120,2|0,0:0|0:0,0:0:0:0:
315,327,97823,1,8,0:0:0:0:
379,240,98139,2,0,P|385:175|346:117,1,120,2|8,0:0|0:0,0:0:0:0:
261,81,98771,6,0,B|194:96|194:96|136:76,1,120,2|8,0:0|0:0,0:0:0:0:
92,91,99245,2,0,P|78:155|108:209,1,120,2|2,0:0|0:0,0:0:0:0:
150,235,99718,1,8,0:0:0:0:
150,235,99876,2,0,L|289:223,1,120,2|2,0:0|0:0,0:0:0:0:
323,219,100350,1,8,0:0:0:0:
289,116,100666,2,0,L|217:106,2,60,2|2|12,0:0|0:0|0:0,0:0:0:0:
232,23,101297,6,0,L|96:35,1,120,6|8,0:0|0:0,0:0:0:0:
66,62,101771,2,0,P|56:116|105:185,1,120,2|2,0:0|0:0,0:0:0:0:
138,200,102245,1,8,0:0:0:0:
138,200,102402,2,0,B|198:187|198:187|268:214,1,120,2|0,0:0|0:0,0:0:0:0:
301,232,102876,1,8,0:0:0:0:
386,165,103192,1,2,0:0:0:0:
348,63,103508,1,12,0:0:0:0:
270,137,103823,6,0,P|214:131|161:70,1,120,12|2,0:0|0:0,0:0:0:0:
148,38,104297,2,0,P|110:25|78:22,1,60,2|8,0:0|0:0,0:0:0:0:
36,116,104771,1,8,0:0:0:0:
105,198,105087,2,0,B|99:270|99:270|115:319,1,120,8|8,0:0|0:0,0:0:0:0:
221,312,105718,2,0,B|235:266|235:266|229:194,1,120,8|4,0:3|0:3,0:0:0:0:
246,87,106350,6,0,P|287:58|359:59,1,120,6|8,0:0|0:0,0:0:0:0:
324,161,106981,2,0,P|372:173|418:229,1,120,2|8,0:0|0:0,0:0:0:0:
318,270,107613,2,0,P|339:315|325:386,1,120,2|8,0:0|0:0,0:0:0:0:
274,367,108087,2,0,B|214:358|214:358|144:375,1,120,2|2,0:0|0:0,0:0:0:0:
108,347,108560,1,8,0:0:0:0:
45,258,108876,6,0,P|35:200|66:150,1,120,2|8,0:0|0:0,0:0:0:0:
121,142,109350,2,0,B|176:152|176:152|243:121,1,120,2|2,0:0|0:0,0:0:0:0:
283,102,109823,1,8,0:0:0:0:
261,208,110139,2,0,P|271:273|327:313,1,120,2|8,0:0|0:0,0:0:0:0:
368,314,110613,1,2,0:0:0:0:
368,314,110771,2,0,L|449:303,2,60,2|2|8,0:0|0:0|0:0,0:0:0:0:
413,216,111402,6,0,L|418:97,1,120,6|8,0:0|0:0,0:0:0:0:
386,52,111876,2,0,P|321:38|268:63,1,120,2|2,0:0|0:0,0:0:0:0:
242,102,112350,1,8,0:0:0:0:
214,206,112666,2,0,B|130:215|130:215|88:192,1,120,2|8,0:0|0:0,0:0:0:0:
70,152,113139,2,0,P|61:91|105:34,1,120,2|2,0:0|0:0,0:0:0:0:
144,39,113613,1,8,0:0:0:0:
224,110,113929,6,0,P|281:122|333:95,1,120,2|8,0:0|0:0,0:0:0:0:
367,53,114402,2,0,B|423:35|423:35|485:53,1,120,2|2,0:0|0:0,0:0:0:0:
512,96,114876,1,8,0:0:0:0:
419,151,115192,2,0,L|431:223,2,60,2|2|12,0:0|0:0|0:0,0:0:0:0:
316,184,115823,2,0,L|328:256,2,60,2|2|12,0:0|0:0|0:0,0:0:0:0:
288,79,116455,70,0,P|220:64|169:87,1,120,6|8,0:0|0:0,0:0:0:0:
235,171,117087,2,0,P|180:209|161:268,1,120,2|8,0:0|0:0,0:0:0:0:
271,275,117718,2,0,P|265:341|299:390,1,120,2|8,0:0|0:0,0:0:0:0:
341,360,118192,2,0,B|397:343|397:343|457:355,1,120,2|2,0:0|0:0,0:0:0:0:
509,341,118666,1,8,0:0:0:0:
434,262,118981,6,0,P|421:202|471:137,1,120,2|8,0:0|0:0,0:0:0:0:
415,108,119455,2,0,B|340:102|340:102|294:131,1,120,2|2,0:0|0:0,0:0:0:0:
258,157,119929,1,8,0:0:0:0:
168,217,120245,2,0,L|183:341,1,120,2|8,0:0|0:0,0:0:0:0:
232,368,120718,1,2,0:0:0:0:
232,368,120876,2,0,L|303:361,1,60,2|2,0:0|0:0,0:0:0:0:
345,355,121192,1,12,0:0:0:0:
389,256,121508,6,0,L|261:242,1,120,6|8,0:0|0:0,0:0:0:0:
218,225,121981,2,0,P|200:166|230:109,1,120,2|2,0:0|0:0,0:0:0:0:
270,88,122455,1,8,0:0:0:0:
372,123,122771,2,0,P|390:182|360:239,1,120,2|8,0:0|0:0,0:0:0:0:
326,269,123245,2,0,B|251:280|251:280|209:259,1,120,2|2,0:0|0:0,0:0:0:0:
166,230,123718,1,8,0:0:0:0:
235,147,124034,6,0,L|353:163,1,120,6|8,0:0|0:0,0:0:0:0:
400,191,124508,2,0,P|409:256|363:318,1,120,2|2,0:0|0:0,0:0:0:0:
331,315,124981,1,8,0:0:0:0:
245,248,125297,2,0,B|206:243|206:243|166:251,2,80,8|8|4,0:0|0:0|0:3,0:0:0:0:
318,257,125929,2,0,P|365:207|312:109,1,180,6|2,0:0|0:0,0:0:0:0:
272,105,126560,6,0,B|204:114|204:114|148:92,1,120,12|2,0:0|0:0,0:0:0:0:
108,69,127034,2,0,P|57:108|54:175,1,120,12|2,0:0|0:0,0:0:0:0:
80,205,127508,1,12,0:0:0:0:
156,289,127823,1,2,0:0:0:0:
156,289,127981,2,0,B|215:281|215:281|279:299,1,120,12|2,0:0|0:0,0:0:0:0:
324,315,128455,1,12,0:0:0:0:
390,229,128771,1,12,0:0:0:0:
359,125,129087,6,0,P|296:104|236:133,1,120,12|2,0:0|0:0,0:0:0:0:
211,161,129560,2,0,B|207:233|207:233|234:279,1,120,12|2,0:0|0:0,0:0:0:0:
263,318,130034,1,12,0:0:0:0:
162,357,130350,1,2,0:0:0:0:
162,357,130508,2,0,P|73:327|51:292,1,120,12|2,0:0|0:0,0:0:0:0:
45,256,130981,1,12,0:0:0:0:
152,247,131297,1,12,0:0:0:0:
259,237,131613,6,0,B|298:262|298:262|307:345,1,120,8|8,0:0|0:0,0:0:0:0:
348,368,132087,2,0,P|407:369|464:317,1,120,8|8,0:0|0:0,0:0:0:0:
478,285,132560,2,0,B|489:238|478:208|478:208|499:187|512:147,1,120,8|8,0:0|0:0,0:0:0:0:
481,122,133034,2,0,P|420:93|353:125,1,120,8|8,0:0|0:0,0:0:0:0:
341,151,133508,1,8,0:0:0:0:
336,261,133823,1,8,0:0:0:0:
336,261,133981,5,6,0:0:0:0:
246,199,134297,2,0,L|236:127,2,60,8|8|6,0:0|0:0|0:0,0:0:0:0:
140,174,134929,2,0,L|130:102,2,60,8|8|6,0:0|0:0|0:0,0:0:0:0:
35,145,135560,2,0,L|25:73,2,60,8|8|6,0:0|0:0|0:0,0:0:0:0:
10,193,136034,2,0,B|25:275|25:275|11:325,1,120,8|8,0:0|0:3,0:0:0:0:
94,236,136666,6,0,P|173:212|218:234,1,120,6|8,0:0|0:0,0:0:0:0:
238,266,137139,2,0,B|293:292|293:292|360:268,1,120,6|2,0:0|0:0,0:0:0:0:
401,251,137613,1,8,0:0:0:0:
401,251,137771,2,0,P|409:191|400:132,1,120,2|2,0:0|0:0,0:0:0:0:
368,88,138245,1,8,0:0:0:0:
273,36,138560,2,0,L|194:39,2,60,2|2|8,0:0|0:0|0:0,0:0:0:0:
239,139,139192,6,0,L|112:125,1,120,2|8,0:0|0:0,0:0:0:0:
69,146,139666,2,0,P|49:213|92:273,1,120,2|0,0:0|0:0,0:0:0:0:
116,281,140139,2,0,L|248:274,1,120,8|0,0:0|0:0,0:0:0:0:
286,254,140613,2,0,P|307:199|286:144,1,120,2|2,0:0|0:0,0:0:0:0:
250,103,141087,2,0,B|281:53|281:53|346:22,1,120,0|8,0:0|0:0,0:0:0:0:
393,40,141560,1,2,0:0:0:0:
393,40,141718,6,0,P|437:88|426:154,1,120,2|8,0:0|0:0,0:0:0:0:
385,164,142192,2,0,P|375:241|446:208,1,180,2|8,0:0|0:0,0:0:0:0:
353,276,142981,2,0,B|281:292|281:292|228:271,1,120,0|8,0:0|0:0,0:0:0:0:
167,193,143613,2,0,B|239:177|239:177|292:198,1,120,2|8,0:0|0:0,0:0:0:0:
389,182,144245,6,0,P|426:140|408:60,1,120,2|8,0:0|0:0,0:0:0:0:
319,46,144876,2,0,P|282:88|300:168,1,120,0|8,0:0|0:0,0:0:0:0:
320,190,145350,2,0,B|328:230|328:230|310:284|310:284|322:319,1,120,2|2,0:0|0:0,0:0:0:0:
337,360,145823,1,8,0:0:0:0:
337,360,145981,2,0,P|260:380|216:355,1,120,2|2,0:0|0:0,0:0:0:0:
185,327,146455,1,12,0:0:0:0:
280,276,146771,70,0,B|293:225|293:225|272:159,1,120,6|8,0:0|0:0,0:0:0:0:
225,134,147245,2,0,B|212:83|212:83|233:17,1,120,2|2,0:0|0:0,0:0:0:0:
288,8,147718,1,8,0:0:0:0:
288,8,147876,2,0,P|358:29|427:6,1,120,2|2,0:0|0:0,0:0:0:0:
447,49,148350,1,8,0:0:0:0:
377,131,148666,1,2,0:0:0:0:
436,220,148981,1,8,0:0:0:0:
373,308,149297,6,0,P|316:318|251:270,1,120,2|8,0:0|0:0,0:0:0:0:
234,243,149771,2,0,P|184:230|118:275,1,120,2|2,0:0|0:0,0:0:0:0:
97,307,150245,1,8,0:0:0:0:
97,307,150402,2,0,B|75:231|75:231|86:176,1,120,2|2,0:0|0:0,0:0:0:0:
133,170,150876,2,0,B|155:94|155:94|144:39,2,120,8|2|8,0:0|0:0|0:0,0:0:0:0:
179,267,151823,6,0,P|263:276|300:243,1,120,6|8,0:0|0:0,0:0:0:0:
320,214,152297,2,0,P|373:188|429:204,1,120,2|2,0:0|0:0,0:0:0:0:
465,245,152771,1,8,0:0:0:0:
434,348,153087,2,0,B|376:362|376:362|304:339,1,120,0|8,0:0|0:0,0:0:0:0:
301,292,153560,2,0,B|243:273|243:273|185:287,1,120,2|2,0:0|0:0,0:0:0:0:
152,330,154034,1,8,0:0:0:0:
48,298,154350,6,0,L|33:161,1,120,2|8,0:0|0:0,0:0:0:0:
86,161,154823,2,0,L|99:41,1,120,2|2,0:0|0:0,0:0:0:0:
151,26,155297,1,8,0:0:0:0:
222,107,155613,2,0,P|232:147|232:194,1,60,8|8,0:0|0:0,0:0:0:0:
200,208,155929,2,0,P|203:237|211:266,1,60,8|8,0:0|0:0,0:0:0:0:
256,296,156245,2,0,L|333:309,1,60,8|8,0:3|0:3,0:0:0:0:
358,273,156560,2,0,L|417:263,1,60,4|4,0:3|0:3,0:0:0:0:
457,226,156876,69,6,0:0:0:0:
256,192,157034,12,2,159402,0:0:0:0:
180,117,165718,54,0,L|110:123,2,60,2|2|12,3:2|3:2|0:0,0:0:0:0:
226,214,166350,2,0,L|296:220,2,60,2|2|12,3:2|3:2|0:0,0:0:0:0:
118,226,166981,6,0,P|102:276|140:352,1,120,6|8,0:0|0:0,0:0:0:0:
177,328,167455,2,0,P|218:360|302:350,1,120,2|2,0:0|0:0,0:0:0:0:
293,307,167929,2,0,P|337:278|357:196,1,120,8|2,0:0|0:0,0:0:0:0:
312,190,168402,2,0,P|300:138|285:115,2,60,2|8|2,0:0|0:0|0:0,0:0:0:0:
265,217,168876,1,2,0:0:0:0:
209,124,169192,1,8,0:0:0:0:
276,39,169508,6,0,P|328:41|386:102,1,120,6|8,0:0|0:0,0:0:0:0:
351,130,169982,2,0,P|366:179|329:256,1,120,2|2,0:0|0:0,0:0:0:0:
292,231,170456,2,0,P|250:263|166:253,1,120,8|2,0:0|0:0,0:0:0:0:
175,209,170929,2,0,P|130:180|113:157,2,60,2|8|2,0:0|0:0|0:0,0:0:0:0:
217,174,171403,1,2,0:0:0:0:
247,70,171719,1,12,0:0:0:0:
314,154,172034,6,0,P|314:206|256:268,1,120,6|8,0:0|0:0,0:0:0:0:
226,235,172508,2,0,P|176:253|99:219,1,120,2|2,0:0|0:0,0:0:0:0:
123,181,172982,2,0,P|88:141|94:56,1,120,8|2,0:0|0:0,0:0:0:0:
138,64,173455,2,0,P|163:18|185:0,2,60,2|8|2,0:0|0:0|0:0,0:0:0:0:
176,103,173929,1,2,0:0:0:0:
256,30,174245,1,12,0:0:0:0:
329,108,174560,70,0,B|385:132|385:132|447:116,1,120,6|8,0:0|0:0,0:0:0:0:
481,154,175034,2,0,B|496:213|496:213|470:278,1,120,8|12,0:0|0:0,0:0:0:0:
450,316,175508,1,8,0:0:0:0:
351,272,175823,1,8,0:0:0:0:
264,337,176139,1,8,0:0:0:0:
165,293,176455,1,8,0:0:0:0:
250,226,176771,2,0,P|255:167|249:145,1,60,4|4,0:3|0:3,0:0:0:0:
221,123,177087,6,0,L|91:132,1,120,6|8,0:0|0:0,0:0:0:0:
50,150,177561,2,0,P|27:204|45:260,1,120,2|2,0:0|0:0,0:0:0:0:
90,289,178034,2,0,L|155:292,2,60,8|2|0,0:0|0:0|0:0,0:0:0:0:
152,200,178666,2,0,L|211:197,1,60,8|2,0:0|0:0,0:0:0:0:
266,201,178982,2,0,P|296:266|270:325,1,120,2|8,0:0|0:0,0:0:0:0:
181,345,179613,6,0,B|143:339|103:348|103:348|54:309,1,120,2|8,0:0|0:0,0:0:0:0:
36,279,180087,2,0,L|47:160,1,120,2|2,0:0|0:0,0:0:0:0:
84,119,180561,1,8,0:0:0:0:
148,205,180876,2,0,P|191:225|268:243,1,120,0|8,0:0|0:0,0:0:0:0:
308,214,181350,2,0,B|356:197|356:197|443:219,1,120,2|2,0:0|0:0,0:0:0:0:
473,232,181824,1,8,0:0:0:0:
417,324,182140,6,0,P|347:336|294:294,1,120,2|8,0:0|0:0,0:0:0:0:
274,269,182613,2,0,P|221:242|164:257,1,120,2|2,0:0|0:0,0:0:0:0:
118,287,183087,1,8,0:0:0:0:
49,203,183403,2,0,L|42:143,1,60,0|2,0:0|0:0,0:0:0:0:
84,109,183719,2,0,L|90:49,1,60,8|2,0:0|0:0,0:0:0:0:
140,29,184034,2,0,P|204:22|270:62,1,120,2|8,0:0|0:0,0:0:0:0:
333,117,184666,70,0,L|341:177,2,60,2|2|8,0:0|0:0|0:0,0:0:0:0:
367,75,185139,2,0,B|439:57|439:57|502:75,1,120,2|2,0:0|0:0,0:0:0:0:
506,118,185613,1,8,0:0:0:0:
449,210,185929,2,0,L|372:203,1,60,0|2,0:0|0:0,0:0:0:0:
351,243,186245,2,0,L|225:249,1,120,8|2,0:0|0:0,0:0:0:0:
181,255,186719,1,12,0:0:0:0:
181,255,186876,1,12,0:0:0:0:
92,192,187192,6,0,P|64:138|78:82,1,120,6|8,0:0|0:0,0:0:0:0:
119,47,187666,2,0,B|179:32|179:32|259:50,1,120,2|2,0:0|0:0,0:0:0:0:
279,76,188140,2,0,L|274:156,2,60,8|2|0,0:0|0:0|0:0,0:0:0:0:
364,142,188771,2,0,L|359:222,1,60,8|2,0:0|0:0,0:0:0:0:
330,247,189087,2,0,B|284:258|284:258|255:240|255:240|214:234,1,120,0|8,0:0|0:0,0:0:0:0:
116,193,189719,6,0,P|107:135|146:69,1,120,2|8,0:0|0:0,0:0:0:0:
184,96,190192,2,0,B|222:109|222:109|300:94,1,120,2|2,0:0|0:0,0:0:0:0:
352,78,190666,1,8,0:0:0:0:
450,121,190982,2,0,B|475:174|475:174|464:234,1,120,0|8,0:0|0:0,0:0:0:0:
419,263,191455,2,0,P|363:281|307:261,1,120,0|2,0:0|0:0,0:0:0:0:
266,226,191929,1,8,0:0:0:0:
201,139,192245,6,0,L|182:257,1,120,6|8,0:0|0:0,0:0:0:0:
148,300,192719,2,0,P|92:318|37:296,1,120,2|2,0:0|0:0,0:0:0:0:
15,247,193192,1,8,0:0:0:0:
81,161,193508,2,0,L|160:154,1,60,2|2,0:0|0:0,0:0:0:0:
168,109,193823,2,0,L|247:102,1,60,8|2,0:0|0:0,0:0:0:0:
272,71,194140,1,2,0:0:0:0:
355,138,194455,1,8,0:0:0:0:
424,221,194771,70,0,P|428:279|398:330,1,120,12|2,0:0|0:0,0:0:0:0:
294,362,195403,2,0,P|289:303|319:252,1,120,12|2,0:0|0:0,0:0:0:0:
288,149,196034,2,0,P|258:143|228:146,1,60,12|2,0:0|0:0,0:0:0:0:
192,186,196350,1,12,0:0:0:0:
156,287,196666,2,0,B|71:306|71:306|14:288,2,120,8|4|6,0:0|0:3|0:0,0:0:0:0:
346,237,199192,6,0,P|399:256|435:248,2,80,8|8|4,0:0|0:3|0:3,0:0:0:0:
298,180,199823,6,0,P|246:186|276:280,2,180,6|6|6,0:0|0:0|0:0,0:0:0:0:
401,147,201087,2,0,L|409:77,1,60,2|2,0:0|0:0,0:0:0:0:
359,63,201402,2,0,L|352:3,2,60,8|0|8,0:0|0:0|0:0,0:0:0:0:
319,100,201876,2,0,B|290:114|290:114|265:108|265:108|233:113|233:113|202:101,1,120,6|2,0:0|0:0,0:0:0:0:
160,132,202350,22,0,L|165:251,1,120,6|8,0:0|0:0,0:0:0:0:
200,292,202824,2,0,P|265:306|318:281,1,120,2|2,0:0|0:0,0:0:0:0:
352,249,203298,1,8,0:0:0:0:
431,175,203614,2,0,B|446:122|446:122|420:48,1,120,2|8,0:0|0:0,0:0:0:0:
370,59,204087,2,0,P|339:109|349:167,1,120,2|2,0:0|0:0,0:0:0:0:
386,207,204561,1,8,0:0:0:0:
332,301,204877,6,0,P|280:328|222:316,1,120,2|8,0:0|0:0,0:0:0:0:
176,288,205350,2,0,B|163:224|163:224|180:170,1,120,2|2,0:0|0:0,0:0:0:0:
204,123,205824,1,8,0:0:0:0:
303,164,206140,2,0,L|315:236,2,60,2|2|12,0:0|0:0|0:0,0:0:0:0:
411,166,206771,2,0,L|423:238,2,60,2|2|12,0:0|0:0|0:0,0:0:0:0:
334,89,207403,6,0,P|267:98|227:142,1,120,6|8,0:0|0:0,0:0:0:0:
321,195,208035,2,0,P|285:251|293:311,1,120,2|8,0:0|0:0,0:0:0:0:
395,276,208666,2,0,P|415:339|465:370,1,120,2|8,0:0|0:0,0:0:0:0:
505,344,209139,2,0,B|506:284|506:284|461:222,1,120,2|2,0:0|0:0,0:0:0:0:
431,198,209613,1,8,0:0:0:0:
325,219,209929,6,0,P|276:196|245:121,1,120,2|8,0:0|0:0,0:0:0:0:
216,93,210403,2,0,B|141:87|141:87|95:116,1,120,2|2,0:0|0:0,0:0:0:0:
71,155,210877,1,8,0:0:0:0:
166,206,211193,2,0,L|181:330,1,120,2|8,0:0|0:0,0:0:0:0:
211,369,211666,2,0,P|265:375|332:327,1,120,2|2,0:0|0:0,0:0:0:0:
349,297,212139,1,8,0:0:0:0:
251,249,212456,70,0,B|174:240|174:240|131:197,1,120,6|8,0:0|0:0,0:0:0:0:
158,157,212929,2,0,B|127:126|127:126|50:117,1,120,2|2,0:0|0:0,0:0:0:0:
5,147,213403,1,8,0:0:0:0:
69,233,213719,2,0,P|87:292|57:349,1,120,2|8,0:0|0:0,0:0:0:0:
117,333,214193,2,0,B|254:318,1,120,2|2,0:0|0:0,0:0:0:0:
289,313,214666,1,8,0:0:0:0:
372,244,214982,6,0,P|382:181|355:128,1,120,2|8,0:0|0:0,0:0:0:0:
304,138,215455,2,0,B|242:150|242:150|166:128,1,120,2|2,0:0|0:0,0:0:0:0:
134,122,215929,1,8,0:0:0:0:
36,75,216245,2,0,L|40:-1,2,60,2|2|8,0:0|0:0|0:0,0:0:0:0:
10,179,216876,2,0,P|17:228|23:243,1,60,8|4,0:0|0:3,0:0:0:0:
54,280,217192,2,0,P|47:329|41:344,1,60,8|4,0:3|0:3,0:0:0:0:
86,372,217508,6,0,B|126:384|126:384|223:357,1,120,6|8,0:0|0:0,0:0:0:0:
166,260,218139,2,0,B|200:237|200:237|242:145,1,120,2|8,0:0|0:0,0:0:0:0:
131,129,218771,2,0,B|135:87|135:87|92:-3,1,120,2|8,0:0|0:0,0:0:0:0:
47,17,219245,2,0,P|18:63|33:128,1,120,2|2,0:0|0:0,0:0:0:0:
66,164,219718,2,0,P|71:194|55:242,1,60,8|2,0:0|0:0,0:0:0:0:
44,272,220034,6,0,P|80:338|114:264,2,180,12|12|12,0:0|0:0|0:0,0:0:0:0:
89,173,221297,2,0,B|122:151|122:151|202:160,1,120,6|8,0:0|0:0,0:0:0:0:
244,260,221929,1,8,0:0:0:0:
343,216,222245,1,4,0:3:0:0:
310,113,222560,70,0,P|265:74|206:70,1,120,6|8,0:0|0:0,0:0:0:0:
182,119,223034,2,0,P|129:142|51:114,1,120,2|2,0:0|0:0,0:0:0:0:
42,82,223508,1,8,0:0:0:0:
3,182,223823,2,0,L|21:308,1,120,2|8,0:0|0:0,0:0:0:0:
66,329,224297,2,0,B|122:346|122:346|181:328,1,120,2|2,0:0|0:0,0:0:0:0:
231,307,224771,1,8,0:0:0:0:
260,202,225087,6,0,P|319:184|381:216,1,120,6|8,0:0|0:0,0:0:0:0:
380,258,225560,2,0,P|434:279|490:261,1,120,2|2,0:0|0:0,0:0:0:0:
511,211,226034,1,8,0:0:0:0:
436,132,226350,2,0,L|446:72,2,60,2|2|12,0:0|0:0|0:0,0:0:0:0:
351,199,226981,2,0,P|321:201|292:193,1,60,8|8,0:0|0:0,0:0:0:0:
268,144,227297,2,0,P|227:136|190:146,1,60,8|8,0:0|0:0,0:0:0:0:
168,174,227613,5,6,0:0:0:0:
168,174,229508,5,6,0:0:0:0:
179,281,229823,1,6,0:0:0:0:
266,217,230139,69,4,0:0:0:0:
266,217,232034,6,0,L|273:153,1,60,8|8,0:0|0:3,0:0:0:0:
232,120,232350,2,0,L|239:56,1,60,4|2,0:3|0:0,0:0:0:0:
205,17,232666,5,6,0:0:0:0:
48,59,233139,1,6,0:0:0:0:
101,211,233613,1,6,0:0:0:0:
253,154,234087,2,0,P|263:212|236:291,1,120,8|8,0:0|0:0,0:0:0:0:
212,310,234560,2,0,L|224:386,2,60,12|4|4,0:3|0:3|0:3,0:0:0:0:
162,287,235034,5,6,0:0:0:0:
89,206,235350,2,0,L|97:141,2,60,4|8|8,0:3|0:0|0:0,0:0:0:0:
37,223,235823,2,0,L|30:282,2,60,2|2|8,3:2|3:2|0:0,0:0:0:0:
9,175,236297,2,0,B|-3:91|-3:91|19:47,1,120,6|2,0:0|0:0,0:0:0:0:
67,42,236771,1,8,0:0:0:0:
67,42,236929,2,0,P|138:59|203:39,1,120,6|2,0:0|0:0,0:0:0:0:
234,33,237402,1,12,0:0:0:0:
192,132,237718,6,0,B|188:189|188:189|221:260,1,120,6|8,0:0|0:0,0:0:0:0:
263,268,238192,2,0,B|320:253|320:253|395:262,1,120,2|2,0:0|0:0,0:0:0:0:
434,268,238666,1,8,0:0:0:0:
373,178,238981,1,2,0:0:0:0:
373,178,239139,2,0,P|368:82|380:52,1,120,2|2,0:0|0:0,0:0:0:0:
334,25,239613,2,0,P|269:31|212:36,1,120,2|8,0:0|0:0,0:0:0:0:
119,87,240245,6,0,B|105:150|105:150|132:223,1,120,2|8,0:0|0:0,0:0:0:0:
170,229,240718,2,0,B|201:247|229:237|228:228|256:216|285:231,1,120,2|2,0:0|0:0,0:0:0:0:
327,265,241192,1,8,0:0:0:0:
422,215,241508,1,2,0:0:0:0:
422,215,241666,2,0,P|456:167|449:108,1,120,2|2,0:0|0:0,0:0:0:0:
412,70,242139,2,0,L|281:58,1,120,2|8,0:0|0:0,0:0:0:0:
187,84,242771,6,0,B|169:141|169:141|182:200,1,120,6|8,0:0|0:0,0:0:0:0:
230,226,243245,2,0,B|243:285|243:285|225:342,1,120,2|2,0:0|0:0,0:0:0:0:
174,358,243718,1,8,0:0:0:0:
75,313,244034,1,2,0:0:0:0:
75,313,244192,2,0,P|68:233|89:192,1,120,2|2,0:0|0:0,0:0:0:0:
123,160,244666,2,0,L|195:155,1,60,12|2,0:0|0:0,0:0:0:0:
223,200,244981,1,2,3:2:0:0:
223,200,245139,6,0,L|354:204,1,120,6|2,0:0|0:0,0:0:0:0:
397,206,245613,1,8,0:0:0:0:
367,102,245929,2,0,L|304:87,1,60,2|2,0:0|0:0,0:0:0:0:
264,119,246245,2,0,L|201:104,1,60,8|2,0:0|0:0,0:0:0:0:
151,108,246560,2,0,P|121:172|141:224,1,120,2|8,0:0|0:0,0:0:0:0:
231,265,247192,2,0,P|261:329|241:381,1,120,8|4,0:0|0:3,0:0:0:0:
342,323,247823,6,0,B|403:312|403:312|477:343,1,120,6|2,0:0|0:0,0:0:0:0:
502,305,248297,2,0,P|510:265|508:239,1,60,2|8,0:0|0:0,0:0:0:0:
402,227,248771,2,0,P|384:177|408:102,1,120,2|8,0:0|0:0,0:0:0:0:
375,64,249245,2,0,B|316:44|316:44|237:64,1,120,2|2,0:0|0:0,0:0:0:0:
208,74,249718,1,12,0:0:0:0:
250,173,250034,1,12,0:0:0:0:
156,227,250350,6,0,B|132:279|132:279|145:340,1,120,12|2,0:0|0:0,0:0:0:0:
193,363,250823,2,0,P|234:365|257:358,1,60,2|8,0:0|0:0,0:0:0:0:
311,269,251297,2,0,P|362:249|437:285,1,120,2|12,0:0|0:0,0:0:0:0:
472,248,251771,2,0,L|479:179,1,60,2|12,0:0|0:0,0:0:0:0:
419,97,252245,2,0,P|365:94|341:104,1,60,8|8,0:0|0:0,0:0:0:0:
325,137,252560,2,0,P|295:141|266:135,1,60,8|8,0:0|0:0,0:0:0:0:
222,102,252876,6,0,P|141:109|107:157,1,120,6|8,0:0|0:0,0:0:0:0:
83,177,253350,2,0,B|75:240|75:240|107:303,1,120,2|2,0:0|0:0,0:0:0:0:
127,337,253823,1,8,0:0:0:0:
224,290,254139,1,2,0:0:0:0:
224,290,254297,2,0,P|285:277|349:320,1,120,2|2,0:0|0:0,0:0:0:0:
362,348,254771,2,0,L|438:342,1,60,2|2,0:0|0:0,0:0:0:0:
475,338,255087,1,12,0:0:0:0:
411,250,255402,6,0,P|392:183|423:119,1,120,12|2,0:0|0:0,0:0:0:0:
441,94,255876,2,0,P|417:38|350:51,1,120,12|2,0:0|0:0,0:0:0:0:
328,78,256350,2,0,B|279:110|279:110|201:107,1,120,12|2,0:0|0:0,0:0:0:0:
163,109,256823,2,0,P|122:158|139:229,1,120,12|2,0:0|0:0,0:0:0:0:
157,255,257297,2,0,L|233:270,1,60,12|2,0:0|0:0,0:0:0:0:
268,279,257613,1,12,0:0:0:0:
