osu file format v14

[General]
AudioFilename: audio.mp3
AudioLeadIn: 0
PreviewTime: 105087
Countdown: 0
SampleSet: Soft
StackLeniency: 0.7
Mode: 1
LetterboxInBreaks: 0
EpilepsyWarning: 1
WidescreenStoryboard: 1

[Editor]
Bookmarks: -2281,245,10350,20455,30560,35613,45718,55823,63402,65929,76034,86139,96245,106350,116455,126560,131613,136666,146771,156876,166981,177087,187192,197297,202350,207402,217508,227613,237718,247823,257929
DistanceSpacing: 1
BeatDivisor: 2
GridSize: 4
TimelineZoom: 1

[Metadata]
Title:Shoujo Satori - Innumerable Eyes
TitleUnicode:少女さとり - Innumerable Eyes
Artist:Demetori
ArtistUnicode:Demetori
Creator:Monkey Sly
Version:Kantan
Source:東方Project
Tags:東方Project Touhou Demetori Rock Satori Komeiji Maiden
BeatmapID:1392146
BeatmapSetID:655717

[Difficulty]
HPDrainRate:5
CircleSize:2
OverallDifficulty:5
ApproachRate:5
SliderMultiplier:1.20000000596046
SliderTickRate:1

[Events]
//Background and Video events
0,0,"1.jpg",0,0
//Break Periods
2,30760,34413
2,96444,105150
2,126760,130413
2,157076,165781
2,197497,201150
//Storyboard Layer 0 (Background)
//Storyboard Layer 1 (Fail)
//Storyboard Layer 2 (Pass)
//Storyboard Layer 3 (Foreground)
//Storyboard Sound Samples

[TimingPoints]
245,315.789473684211,4,2,0,100,1,0
106350,-100,4,2,0,100,0,1
126560,-100,4,2,0,100,0,0
136666,-100,4,2,0,100,0,1
156876,-100,4,2,0,100,0,0
207402,-100,4,2,0,100,0,1
227613,-100,4,2,0,100,0,0

[HitObjects]
212,92,245,5,0,0:0:0:0:
240,156,1508,1,0,0:0:0:0:
240,156,2771,1,0,0:0:0:0:
240,156,4034,1,8,0:0:0:0:
240,156,4666,1,8,0:0:0:0:
240,156,5297,1,8,0:0:0:0:
240,156,6560,1,0,0:0:0:0:
232,152,7823,1,8,0:0:0:0:
232,164,9087,1,4,0:0:0:0:
160,164,10350,5,0,0:0:0:0:
248,180,11613,1,0,0:0:0:0:
248,180,12876,1,0,0:0:0:0:
248,180,14139,1,8,0:0:0:0:
248,180,15402,1,8,0:0:0:0:
248,180,16666,1,0,0:0:0:0:
240,168,17929,1,8,0:0:0:0:
224,168,19192,1,4,0:0:0:0:
188,196,20455,5,0,0:0:0:0:
188,196,21718,1,0,0:0:0:0:
188,196,22981,1,0,0:0:0:0:
188,196,24245,1,8,0:0:0:0:
188,196,25508,1,8,0:0:0:0:
188,196,26771,1,0,0:0:0:0:
188,196,28034,1,4,0:0:0:0:
188,196,29297,1,4,0:0:0:0:
216,156,30560,1,4,0:0:0:0:
248,176,35613,5,0,0:0:0:0:
248,176,36876,1,8,0:0:0:0:
248,176,37508,1,0,0:0:0:0:
248,176,38139,1,0,0:0:0:0:
248,176,39402,1,0,0:0:0:0:
248,176,40034,1,8,0:0:0:0:
248,176,40666,1,0,0:0:0:0:
248,176,41929,1,0,0:0:0:0:
248,176,42560,1,8,0:0:0:0:
248,176,43192,1,0,0:0:0:0:
248,176,44455,1,0,0:0:0:0:
248,176,45087,1,8,0:0:0:0:
248,176,45718,5,0,0:0:0:0:
248,176,46981,1,8,0:0:0:0:
248,176,47613,1,0,0:0:0:0:
248,176,48244,1,0,0:0:0:0:
248,176,49507,1,0,0:0:0:0:
248,176,50139,1,8,0:0:0:0:
248,176,50771,1,0,0:0:0:0:
248,176,52034,1,0,0:0:0:0:
248,176,52665,1,0,0:0:0:0:
248,176,53297,1,8,0:0:0:0:
248,176,54560,1,0,0:0:0:0:
248,176,55192,1,8,0:0:0:0:
248,176,55823,5,0,0:0:0:0:
248,176,57087,1,0,0:0:0:0:
224,172,58034,1,0,0:0:0:0:
224,172,58350,1,8,0:0:0:0:
224,172,59613,1,0,0:0:0:0:
224,172,60876,1,8,0:0:0:0:
224,172,62139,1,8,0:0:0:0:
224,172,63402,1,4,0:0:0:0:
224,172,64666,1,4,0:0:0:0:
248,176,65613,5,8,0:0:0:0:
248,176,65929,1,0,0:0:0:0:
248,176,67192,1,8,0:0:0:0:
248,176,67824,1,0,0:0:0:0:
248,176,68455,1,0,0:0:0:0:
248,176,69718,1,0,0:0:0:0:
248,176,70350,1,8,0:0:0:0:
248,176,70982,1,0,0:0:0:0:
248,176,72245,1,0,0:0:0:0:
248,176,72876,1,8,0:0:0:0:
248,176,73508,1,0,0:0:0:0:
248,176,74771,1,0,0:0:0:0:
248,176,75403,1,8,0:0:0:0:
248,176,76034,5,0,0:0:0:0:
248,176,77297,1,8,0:0:0:0:
248,176,77929,1,0,0:0:0:0:
248,176,78560,1,0,0:0:0:0:
248,176,79823,1,0,0:0:0:0:
248,176,80455,1,8,0:0:0:0:
248,176,81087,1,0,0:0:0:0:
248,176,82350,1,0,0:0:0:0:
248,176,82981,1,0,0:0:0:0:
248,176,83613,1,8,0:0:0:0:
248,176,84876,1,0,0:0:0:0:
248,176,86139,5,4,0:0:0:0:
248,176,86771,1,8,0:0:0:0:
248,176,87402,1,8,0:0:0:0:
248,176,88666,1,8,0:0:0:0:
248,176,89297,1,8,0:0:0:0:
248,176,89929,1,8,0:0:0:0:
248,176,91192,1,0,0:0:0:0:
248,176,91823,1,0,0:0:0:0:
248,176,92454,1,8,0:0:0:0:
248,176,93718,1,8,0:0:0:0:
248,176,94349,1,8,0:0:0:0:
248,176,94981,1,8,0:0:0:0:
248,176,95612,1,0,0:0:0:0:
248,176,96244,1,0,0:0:0:0:
248,176,106350,5,0,0:0:0:0:
248,176,106981,1,8,0:0:0:0:
248,176,107613,1,8,0:0:0:0:
248,176,108876,1,0,0:0:0:0:
248,176,110139,1,0,0:0:0:0:
248,176,111402,1,8,0:0:0:0:
248,176,112666,1,12,0:0:0:0:
248,176,113929,1,4,0:0:0:0:
248,176,114876,1,0,0:0:0:0:
248,176,115192,1,0,0:0:0:0:
248,176,116455,5,0,0:0:0:0:
248,176,117086,1,8,0:0:0:0:
248,176,117718,1,8,0:0:0:0:
248,176,118981,1,0,0:0:0:0:
248,176,120244,1,8,0:0:0:0:
248,176,121507,1,8,0:0:0:0:
248,176,122771,1,4,0:0:0:0:
248,176,124034,1,4,0:0:0:0:
248,176,124981,1,0,0:0:0:0:
248,176,125297,1,0,0:0:0:0:
216,168,126560,1,4,0:0:0:0:
256,192,131613,5,0,0:0:0:0:
256,192,132245,1,0,0:0:0:0:
256,192,132876,1,0,0:0:0:0:
256,192,133508,1,0,0:0:0:0:
208,160,134139,1,8,0:0:0:0:
200,152,135402,1,8,0:0:0:0:
260,100,136666,5,0,0:0:0:0:
256,96,137297,1,0,0:0:0:0:
256,96,137929,1,8,0:0:0:0:
252,156,139192,1,8,0:0:0:0:
252,156,140455,1,0,0:0:0:0:
252,156,141718,1,0,0:0:0:0:
260,100,142981,5,8,0:0:0:0:
256,96,143612,1,8,0:0:0:0:
256,96,144245,1,0,0:0:0:0:
252,156,145508,1,0,0:0:0:0:
252,156,146770,5,0,0:0:0:0:
252,156,148033,1,8,0:0:0:0:
228,172,149297,1,0,0:0:0:0:
228,172,150560,1,8,0:0:0:0:
228,172,151192,1,8,0:0:0:0:
228,172,151823,1,0,0:0:0:0:
228,172,153087,1,0,0:0:0:0:
228,172,153718,1,8,0:0:0:0:
228,172,154350,1,0,0:0:0:0:
204,168,155613,1,4,0:0:0:0:
184,160,156876,1,4,0:0:0:0:
244,180,166981,5,0,0:0:0:0:
236,176,167613,1,8,0:0:0:0:
236,176,168245,1,0,0:0:0:0:
236,176,169508,1,0,0:0:0:0:
236,176,170139,1,0,0:0:0:0:
236,176,170771,1,8,0:0:0:0:
236,176,172034,1,8,0:0:0:0:
236,176,172666,1,8,0:0:0:0:
236,176,173297,1,0,0:0:0:0:
236,176,174245,1,0,0:0:0:0:
236,176,174560,1,8,0:0:0:0:
236,176,175823,1,8,0:0:0:0:
248,176,177087,5,0,0:0:0:0:
248,176,178350,1,8,0:0:0:0:
248,176,178982,1,0,0:0:0:0:
248,176,179613,1,0,0:0:0:0:
248,176,180876,1,0,0:0:0:0:
248,176,181508,1,8,0:0:0:0:
248,176,182140,1,0,0:0:0:0:
248,176,183403,1,0,0:0:0:0:
248,176,184034,1,8,0:0:0:0:
248,176,184666,1,0,0:0:0:0:
248,176,185929,1,0,0:0:0:0:
248,176,186561,1,8,0:0:0:0:
248,176,187192,5,0,0:0:0:0:
248,176,188455,1,8,0:0:0:0:
248,176,189087,1,0,0:0:0:0:
248,176,189718,1,0,0:0:0:0:
248,176,190981,1,0,0:0:0:0:
248,176,191613,1,8,0:0:0:0:
248,176,192245,1,0,0:0:0:0:
248,176,193508,1,0,0:0:0:0:
248,176,194139,1,0,0:0:0:0:
248,176,194771,1,8,0:0:0:0:
248,176,196034,1,0,0:0:0:0:
280,184,197297,1,0,0:0:0:0:
248,176,202350,5,0,0:0:0:0:
248,176,203614,1,4,0:0:0:0:
248,176,204877,1,4,0:0:0:0:
248,176,205824,1,0,0:0:0:0:
248,176,206139,1,0,0:0:0:0:
248,176,207403,5,0,0:0:0:0:
248,176,208034,1,8,0:0:0:0:
248,176,208666,1,8,0:0:0:0:
248,176,209929,1,0,0:0:0:0:
248,176,211192,1,8,0:0:0:0:
248,176,212140,5,8,0:0:0:0:
248,176,212455,1,8,0:0:0:0:
248,176,213719,1,4,0:0:0:0:
248,176,214982,1,4,0:0:0:0:
248,176,215929,1,0,0:0:0:0:
248,176,216245,1,0,0:0:0:0:
248,176,217508,5,0,0:0:0:0:
248,176,218139,1,8,0:0:0:0:
248,176,218771,1,8,0:0:0:0:
248,176,220034,1,0,0:0:0:0:
248,176,221297,1,8,0:0:0:0:
248,176,222245,5,8,0:0:0:0:
248,176,222560,1,8,0:0:0:0:
248,176,223824,1,4,0:0:0:0:
248,176,225087,1,4,0:0:0:0:
248,176,226034,1,0,0:0:0:0:
248,176,226350,1,0,0:0:0:0:
248,176,227613,5,4,0:0:0:0:
240,176,229508,1,4,0:0:0:0:
240,176,230139,1,4,0:0:0:0:
240,176,232034,1,4,0:0:0:0:
240,176,232666,1,4,0:0:0:0:
228,176,234560,1,0,0:0:0:0:
228,176,235192,1,4,0:0:0:0:
160,164,237718,5,0,0:0:0:0:
248,180,238981,1,0,0:0:0:0:
248,180,239928,1,0,0:0:0:0:
248,180,240244,1,0,0:0:0:0:
248,180,241507,1,8,0:0:0:0:
248,180,242455,1,8,0:0:0:0:
248,180,242770,1,8,0:0:0:0:
248,180,244034,1,0,0:0:0:0:
248,180,245297,1,0,0:0:0:0:
224,136,246560,1,4,0:0:0:0:
188,196,247823,5,0,0:0:0:0:
188,196,249087,1,0,0:0:0:0:
188,196,250350,1,4,0:0:0:0:
188,196,251613,1,0,0:0:0:0:
188,196,252876,1,4,0:0:0:0:
188,196,254139,1,0,0:0:0:0:
188,196,255402,1,0,0:0:0:0:
188,196,256665,1,4,0:0:0:0:
188,196,257297,1,0,0:0:0:0:
192,160,257929,1,0,0:0:0:0:
