osu file format v14

[General]
AudioFilename: audio.mp3
AudioLeadIn: 0
PreviewTime: 105087
Countdown: 0
SampleSet: Normal
StackLeniency: 0.7
Mode: 1
LetterboxInBreaks: 0
EpilepsyWarning: 1
WidescreenStoryboard: 1

[Editor]
Bookmarks: -2281,245,10350,20455,30560,34350,35060,35376,35613,45718,55823,63402,65929,76034,86139,86455,90797,91271,96245,106350,116455,126560,131613,136666,146771,156876,166981,177087,187192,197297,202350,207402,217508,227613,237718,247823,249718,250350,252245,252876,255323,255481,255797,255955,256271,256429,256745,256902,257218,257376,257534,257929
DistanceSpacing: 1
BeatDivisor: 8
GridSize: 4
TimelineZoom: 2.2

[Metadata]
Title:Shoujo Satori - Innumerable Eyes
TitleUnicode:少女さとり - Innumerable Eyes
Artist:Demetori
ArtistUnicode:Demetori
Creator:Monkey Sly
Version:Inner Oni
Source:東方Project
Tags:東方Project Touhou Demetori Rock Satori Komeiji Maiden
BeatmapID:1423978
BeatmapSetID:655717

[Difficulty]
HPDrainRate:5
CircleSize:2
OverallDifficulty:5
ApproachRate:5
SliderMultiplier:1.39999990463257
SliderTickRate:1

[Events]
//Background and Video events
0,0,"1.jpg",0,0
//Break Periods
//Storyboard Layer 0 (Background)
//Storyboard Layer 1 (Fail)
//Storyboard Layer 2 (Pass)
//Storyboard Layer 3 (Foreground)
//Storyboard Sound Samples

[TimingPoints]
245,315.789473684211,4,1,0,100,1,0
30560,-200,4,1,0,100,0,0
34350,-100,4,1,0,100,0,0
35060,-66.6666666666667,4,1,0,100,0,0
35376,-100,4,1,0,100,0,0
57955,-66.6666666666667,4,1,0,100,0,0
58429,-100,4,1,0,100,0,0
60639,-83.3333333333333,4,1,0,100,0,0
60955,-100,4,1,0,100,0,0
79310,-66.6666666666667,4,1,0,100,0,0
79547,-100,4,1,0,100,0,0
86455,-200,4,1,0,100,0,0
90797,-66.6666666666667,4,1,0,100,0,0
91271,-200,4,1,0,100,0,0
96245,-100,4,1,0,100,0,0
106350,-100,4,1,0,100,0,1
110376,-133.333333333333,4,1,0,100,0,1
110692,-66.6666666666667,4,1,0,100,0,1
110850,-100,4,1,0,100,0,1
126560,-100,4,1,0,100,0,0
131613,-95.2380952380952,4,1,0,100,0,0
131692,-90.9090909090909,4,1,0,100,0,0
131771,-86.9565217391304,4,1,0,100,0,0
131850,-83.3333333333333,4,1,0,100,0,0
131929,-80,4,1,0,100,0,0
132008,-76.9230769230769,4,1,0,100,0,0
132087,-74.0740740740741,4,1,0,100,0,0
132166,-71.4285714285714,4,1,0,100,0,0
132245,-68.9655172413793,4,1,0,100,0,0
132323,-66.6666666666667,4,1,0,100,0,0
133034,-68.9655172413793,4,1,0,100,0,0
133113,-71.4285714285714,4,1,0,100,0,0
133192,-74.0740740740741,4,1,0,100,0,0
133271,-76.9230769230769,4,1,0,100,0,0
133350,-80,4,1,0,100,0,0
133429,-83.3333333333333,4,1,0,100,0,0
133508,-86.9565217391304,4,1,0,100,0,0
133587,-90.9090909090909,4,1,0,100,0,0
133666,-95.2380952380952,4,1,0,100,0,0
133705,-100,4,1,0,100,0,0
136666,-100,4,1,0,100,0,1
156876,-100,4,1,0,100,0,0
159008,-83.3333333333333,4,1,0,100,0,0
159166,-100,4,1,0,100,0,0
159323,-83.3333333333333,4,1,0,100,0,0
159481,-100,4,1,0,100,0,0
161534,-133.333333333333,4,1,0,100,0,0
162008,-100,4,1,0,100,0,0
164060,-83.3333333333333,4,1,0,100,0,0
164218,-100,4,1,0,100,0,0
164376,-83.3333333333333,4,1,0,100,0,0
164534,-100,4,1,0,100,0,0
165718,-97.0873786407767,4,1,0,100,0,0
165876,-94.3396226415094,4,1,0,100,0,0
166034,-91.743119266055,4,1,0,100,0,0
166192,-89.2857142857143,4,1,0,100,0,0
166350,-86.9565217391304,4,1,0,100,0,0
166508,-84.7457627118644,4,1,0,100,0,0
166666,-82.6446280991736,4,1,0,100,0,0
166823,-80.6451612903226,4,1,0,100,0,0
166981,-79.3650793650794,4,1,0,100,0,0
167060,-100,4,1,0,100,0,0
207402,-100,4,1,0,100,0,1
219955,-66.6666666666667,4,1,0,100,0,1
220113,-100,4,1,0,100,0,1
220429,-66.6666666666667,4,1,0,100,0,1
220587,-100,4,1,0,100,0,1
220902,-66.6666666666667,4,1,0,100,0,1
221060,-100,4,1,0,100,0,1
227613,-100,4,1,0,100,0,0
249639,-66.6666666666667,4,1,0,100,0,0
250429,-100,4,1,0,100,0,0
252166,-66.6666666666667,4,1,0,100,0,0
252955,-90.9090909090909,4,1,0,100,0,0
255323,-62.5,4,1,0,100,0,0
255481,-83.3333333333333,4,1,0,100,0,0
255797,-58.8235294117647,4,1,0,100,0,0
255955,-76.9230769230769,4,1,0,100,0,0
256271,-55.5555555555556,4,1,0,100,0,0
256429,-71.4285714285714,4,1,0,100,0,0
256745,-52.6315789473684,4,1,0,100,0,0
256902,-66.6666666666667,4,1,0,100,0,0
257218,-50,4,1,0,100,0,0
257376,-62.5,4,1,0,100,0,0
257534,-47.6190476190476,4,1,0,100,0,0

[HitObjects]
212,92,245,5,4,1:0:0:0:
240,156,718,1,0,1:0:0:0:
240,156,1034,1,0,1:0:0:0:
240,156,1192,1,8,1:0:0:0:
240,156,1666,1,0,1:0:0:0:
240,156,1745,1,0,1:0:0:0:
240,156,1823,1,8,1:0:0:0:
240,156,2139,1,0,1:0:0:0:
240,156,2297,1,8,1:0:0:0:
240,156,2455,1,0,1:0:0:0:
240,156,2613,1,8,1:0:0:0:
240,156,2692,1,8,1:0:0:0:
240,156,2771,1,4,1:0:0:0:
240,156,3087,1,8,1:0:0:0:
240,156,3245,1,0,1:0:0:0:
240,156,3560,1,8,1:0:0:0:
240,156,3718,1,0,1:0:0:0:
225,163,4034,1,0,1:0:0:0:
226,164,4139,1,8,1:0:0:0:
226,166,4245,1,0,1:0:0:0:
226,166,4350,1,8,1:0:0:0:
232,156,4508,1,8,1:0:0:0:
240,156,4666,1,0,1:0:0:0:
240,156,4823,1,8,1:0:0:0:
228,156,4902,1,8,1:0:0:0:
228,156,4981,1,0,1:0:0:0:
228,156,5060,1,0,1:0:0:0:
240,156,5139,1,8,1:0:0:0:
240,156,5218,1,8,1:0:0:0:
232,160,5297,1,0,1:0:0:0:
240,156,5771,1,0,1:0:0:0:
240,156,6087,1,0,1:0:0:0:
240,156,6166,1,0,1:0:0:0:
240,156,6245,1,8,1:0:0:0:
240,156,6718,1,0,1:0:0:0:
240,156,7192,1,4,1:0:0:0:
240,156,7350,1,0,1:0:0:0:
240,156,7429,1,0,1:0:0:0:
240,156,7508,1,12,1:0:0:0:
240,156,7823,5,0,1:0:0:0:
240,156,7902,1,8,1:0:0:0:
240,156,7981,1,8,1:0:0:0:
248,164,8060,1,8,1:0:0:0:
240,156,8139,1,0,1:0:0:0:
240,156,8297,1,8,1:0:0:0:
240,156,8376,1,0,1:0:0:0:
240,156,8455,1,8,1:0:0:0:
240,156,8613,1,0,1:0:0:0:
240,156,8692,1,8,1:0:0:0:
240,156,8771,1,8,1:0:0:0:
240,156,8929,1,4,1:0:0:0:
240,156,9087,1,8,1:0:0:0:
240,156,9166,1,8,1:0:0:0:
240,156,9323,1,0,1:0:0:0:
240,156,9402,1,8,1:0:0:0:
240,156,9560,1,8,1:0:0:0:
240,156,9639,1,8,1:0:0:0:
240,156,9718,1,0,1:0:0:0:
240,156,9876,1,0,1:0:0:0:
240,156,10034,1,8,1:0:0:0:
240,156,10113,1,0,1:0:0:0:
240,156,10192,1,8,1:0:0:0:
216,152,10350,5,0,1:0:0:0:
216,152,10666,1,0,1:0:0:0:
216,152,10823,1,8,1:0:0:0:
212,152,10981,1,8,1:0:0:0:
232,148,11139,1,0,1:0:0:0:
232,148,11297,1,12,1:0:0:0:
232,144,11613,1,0,1:0:0:0:
232,144,11771,1,4,1:0:0:0:
232,144,11929,1,8,1:0:0:0:
232,148,12087,1,12,1:0:0:0:
232,144,12245,1,0,1:0:0:0:
232,144,12402,1,4,1:0:0:0:
232,144,12560,1,8,1:0:0:0:
232,144,12718,1,12,1:0:0:0:
232,144,12876,1,12,1:0:0:0:
216,144,13192,5,8,1:0:0:0:
216,140,13271,1,8,1:0:0:0:
216,140,13350,1,0,1:0:0:0:
208,144,13508,1,8,1:0:0:0:
208,144,13666,1,8,1:0:0:0:
208,144,13823,1,4,1:0:0:0:
200,144,14139,1,0,1:0:0:0:
216,144,14218,1,8,1:0:0:0:
200,144,14297,1,0,1:0:0:0:
216,140,14376,1,8,1:0:0:0:
224,140,14455,1,0,1:0:0:0:
216,140,14613,1,8,1:0:0:0:
216,136,14692,1,8,1:0:0:0:
216,140,14771,1,0,1:0:0:0:
216,136,14850,1,8,1:0:0:0:
216,140,14929,1,4,1:0:0:0:
206,144,15087,1,4,1:0:0:0:
211,143,15245,1,4,1:0:0:0:
212,143,15402,1,4,1:0:0:0:
232,144,15718,1,0,1:0:0:0:
232,144,15797,1,0,1:0:0:0:
232,144,15876,1,8,1:0:0:0:
232,144,15955,1,8,1:0:0:0:
232,144,16113,1,0,1:0:0:0:
232,144,16271,1,8,1:0:0:0:
232,144,16350,1,0,1:0:0:0:
232,144,16665,1,0,1:0:0:0:
232,144,16981,1,4,1:0:0:0:
216,148,17297,1,8,1:0:0:0:
248,152,17455,1,8,1:0:0:0:
248,152,17613,1,8,1:0:0:0:
248,152,17771,1,4,1:0:0:0:
256,156,18087,1,0,1:0:0:0:
256,156,18245,1,0,1:0:0:0:
256,156,18402,1,8,1:0:0:0:
256,156,18560,1,8,1:0:0:0:
256,156,18718,1,0,1:0:0:0:
232,152,18797,1,0,1:0:0:0:
256,156,18876,1,8,1:0:0:0:
232,152,18955,1,8,1:0:0:0:
256,156,19034,1,0,1:0:0:0:
232,156,19350,1,8,1:0:0:0:
231,155,19429,1,0,1:0:0:0:
232,156,19508,1,0,1:0:0:0:
231,154,19587,1,0,1:0:0:0:
232,156,19666,1,8,1:0:0:0:
231,152,19745,1,0,1:0:0:0:
224,152,19823,1,0,1:0:0:0:
213,151,19902,1,8,1:0:0:0:
232,156,19981,1,8,1:0:0:0:
214,151,20060,1,8,1:0:0:0:
232,156,20139,1,0,1:0:0:0:
214,151,20218,1,0,1:0:0:0:
224,156,20297,1,8,1:0:0:0:
216,152,20455,5,12,1:0:0:0:
216,152,20613,1,0,1:0:0:0:
216,152,20692,1,0,1:0:0:0:
212,152,20771,1,8,1:0:0:0:
216,152,20929,1,8,1:0:0:0:
216,152,21087,1,0,1:0:0:0:
232,148,21245,1,0,1:0:0:0:
232,148,21402,1,8,1:0:0:0:
220,144,21560,1,0,1:0:0:0:
220,144,21639,1,0,1:0:0:0:
232,144,21718,1,12,1:0:0:0:
232,144,21876,1,0,1:0:0:0:
232,144,22034,1,12,1:0:0:0:
232,144,22350,1,0,1:0:0:0:
240,144,22587,1,0,1:0:0:0:
232,144,22666,1,8,1:0:0:0:
212,148,22902,1,8,1:0:0:0:
216,152,22981,5,0,1:0:0:0:
216,152,23139,1,0,1:0:0:0:
216,152,23218,1,0,1:0:0:0:
212,152,23297,1,8,1:0:0:0:
224,168,23376,1,0,1:0:0:0:
220,160,23508,1,0,1:0:0:0:
220,160,23613,1,0,1:0:0:0:
220,160,23719,1,8,1:0:0:0:
220,160,23824,1,8,1:0:0:0:
220,160,23929,1,8,1:0:0:0:
232,144,24244,1,0,1:0:0:0:
232,144,24560,1,8,1:0:0:0:
220,148,24876,1,0,1:0:0:0:
220,148,24981,1,8,1:0:0:0:
220,148,25087,1,8,1:0:0:0:
220,148,25192,1,0,1:0:0:0:
220,148,25297,1,8,1:0:0:0:
220,152,25402,1,0,1:0:0:0:
216,152,25508,5,8,1:0:0:0:
216,152,25666,1,0,1:0:0:0:
216,152,25745,1,0,1:0:0:0:
212,152,25823,1,8,1:0:0:0:
216,152,25982,1,0,1:0:0:0:
232,152,26060,1,8,1:0:0:0:
216,152,26140,1,8,1:0:0:0:
228,152,26218,1,0,1:0:0:0:
232,148,26297,1,0,1:0:0:0:
232,148,26376,1,8,1:0:0:0:
232,148,26455,1,0,1:0:0:0:
224,144,26771,1,0,1:0:0:0:
200,148,27087,1,4,1:0:0:0:
200,144,27244,1,8,1:0:0:0:
200,144,27323,1,8,1:0:0:0:
200,144,27402,1,4,1:0:0:0:
200,140,27560,1,4,1:0:0:0:
200,140,27718,1,4,1:0:0:0:
200,140,27876,1,4,1:0:0:0:
200,140,28034,1,8,1:0:0:0:
200,140,28113,1,8,1:0:0:0:
200,144,28192,1,8,1:0:0:0:
192,144,28350,1,0,1:0:0:0:
192,144,28666,1,12,1:0:0:0:
192,148,28823,1,0,1:0:0:0:
192,144,28981,1,12,1:0:0:0:
200,144,29297,5,0,1:0:0:0:
200,144,29376,1,0,1:0:0:0:
200,144,29455,1,0,1:0:0:0:
200,144,29534,1,0,1:0:0:0:
200,144,29613,1,8,1:0:0:0:
196,152,29771,1,8,1:0:0:0:
200,144,29929,1,0,1:0:0:0:
200,144,30008,1,0,1:0:0:0:
200,144,30087,1,0,1:0:0:0:
200,144,30166,1,0,1:0:0:0:
200,144,30245,1,8,1:0:0:0:
192,136,30402,1,8,1:0:0:0:
216,136,30560,5,4,1:0:0:0:
216,136,30718,1,4,1:0:0:0:
216,136,30876,1,0,1:0:0:0:
212,134,30955,1,8,1:0:0:0:
216,136,31034,1,4,1:0:0:0:
216,136,31350,1,4,1:0:0:0:
216,136,31508,1,12,1:0:0:0:
216,136,31666,1,4,1:0:0:0:
216,136,31981,1,4,1:0:0:0:
216,136,32139,1,0,1:0:0:0:
216,136,32218,1,8,1:0:0:0:
216,136,32297,1,4,1:0:0:0:
216,136,32613,1,4,1:0:0:0:
216,136,32771,1,12,1:0:0:0:
216,136,32929,1,4,1:0:0:0:
216,136,33245,1,4,1:0:0:0:
216,136,33402,1,0,1:0:0:0:
216,136,33481,1,8,1:0:0:0:
216,136,33560,1,4,1:0:0:0:
216,136,33876,1,4,1:0:0:0:
216,136,34034,1,12,1:0:0:0:
216,136,34192,1,4,1:0:0:0:
216,124,34508,1,8,1:0:0:0:
216,123,34666,1,8,1:0:0:0:
206,135,34823,1,0,1:0:0:0:
206,135,34902,1,0,1:0:0:0:
204,152,34981,1,8,1:0:0:0:
220,144,35139,5,0,1:0:0:0:
220,144,35218,1,8,1:0:0:0:
220,144,35297,1,8,1:0:0:0:
208,140,35613,1,0,1:0:0:0:
220,136,35929,1,0,1:0:0:0:
220,136,36087,1,8,1:0:0:0:
220,136,36402,1,0,1:0:0:0:
220,136,36560,1,0,1:0:0:0:
220,136,36718,1,0,1:0:0:0:
220,136,36797,1,0,1:0:0:0:
220,136,36876,1,8,1:0:0:0:
220,136,37034,1,8,1:0:0:0:
220,136,37192,1,8,1:0:0:0:
220,136,37271,1,0,1:0:0:0:
220,136,37350,1,0,1:0:0:0:
224,128,37429,1,8,1:0:0:0:
220,136,37508,1,0,1:0:0:0:
220,136,37587,1,0,1:0:0:0:
220,136,37666,1,0,1:0:0:0:
220,136,37823,1,8,1:0:0:0:
220,136,38139,1,0,1:0:0:0:
220,136,38297,1,8,1:0:0:0:
220,136,38455,1,0,1:0:0:0:
220,136,38613,1,8,1:0:0:0:
220,136,38692,1,0,1:0:0:0:
212,136,38850,1,8,1:0:0:0:
220,136,38929,1,0,1:0:0:0:
220,136,39087,1,0,1:0:0:0:
220,136,39402,5,0,1:0:0:0:
220,136,39481,1,0,1:0:0:0:
220,136,39560,1,0,1:0:0:0:
220,136,39639,1,8,1:0:0:0:
220,136,39718,1,8,1:0:0:0:
220,136,39876,1,0,1:0:0:0:
220,136,39955,1,8,1:0:0:0:
220,136,40113,1,0,1:0:0:0:
220,136,40192,1,8,1:0:0:0:
220,136,40350,1,0,1:0:0:0:
236,128,40429,1,8,1:0:0:0:
232,128,40508,1,8,1:0:0:0:
232,128,40587,1,8,1:0:0:0:
220,136,40666,1,4,1:0:0:0:
220,136,40823,1,8,1:0:0:0:
220,136,40981,1,4,1:0:0:0:
220,136,41139,1,8,1:0:0:0:
220,136,41297,1,4,1:0:0:0:
220,136,41613,5,0,1:0:0:0:
220,136,41771,1,0,1:0:0:0:
220,136,41929,1,8,1:0:0:0:
208,124,42034,1,0,1:0:0:0:
208,124,42139,1,8,1:0:0:0:
208,124,42245,1,0,1:0:0:0:
208,124,42402,1,0,1:0:0:0:
208,124,42560,1,8,1:0:0:0:
208,124,42665,1,8,1:0:0:0:
208,124,42770,1,0,1:0:0:0:
208,124,42876,1,8,1:0:0:0:
200,140,43034,1,0,1:0:0:0:
200,140,43073,1,0,1:0:0:0:
200,140,43113,1,0,1:0:0:0:
200,140,43152,1,0,1:0:0:0:
200,140,43192,1,8,1:0:0:0:
220,136,43429,1,0,1:0:0:0:
220,136,43508,1,0,1:0:0:0:
220,136,43666,1,8,1:0:0:0:
220,136,43745,1,8,1:0:0:0:
192,136,43823,1,0,1:0:0:0:
192,136,43902,1,0,1:0:0:0:
220,136,43981,1,8,1:0:0:0:
220,136,44139,1,0,1:0:0:0:
220,136,44297,1,0,1:0:0:0:
220,136,44455,1,8,1:0:0:0:
220,136,44613,1,0,1:0:0:0:
220,136,44771,1,8,1:0:0:0:
220,136,44929,1,0,1:0:0:0:
220,136,45087,1,0,1:0:0:0:
220,136,45166,1,0,1:0:0:0:
220,136,45245,1,8,1:0:0:0:
220,136,45323,1,8,1:0:0:0:
220,136,45402,1,8,1:0:0:0:
220,136,45560,1,0,1:0:0:0:
212,144,45639,1,8,1:0:0:0:
220,144,45718,5,0,1:0:0:0:
212,136,45876,1,8,1:0:0:0:
220,144,46034,1,0,1:0:0:0:
212,136,46192,1,8,1:0:0:0:
212,152,46508,1,0,1:0:0:0:
212,152,46587,1,0,1:0:0:0:
212,152,46666,1,8,1:0:0:0:
212,152,46745,1,8,1:0:0:0:
212,152,46823,1,0,1:0:0:0:
216,164,46902,1,0,1:0:0:0:
216,160,46981,1,8,1:0:0:0:
212,136,47297,1,4,1:0:0:0:
212,152,47455,1,8,1:0:0:0:
212,136,47613,1,4,1:0:0:0:
212,152,47771,1,8,1:0:0:0:
212,136,47928,1,8,1:0:0:0:
212,136,48245,1,8,1:0:0:0:
216,156,48323,1,0,1:0:0:0:
216,156,48402,1,0,1:0:0:0:
212,136,48718,1,8,1:0:0:0:
212,136,48876,1,0,1:0:0:0:
189,143,48955,1,0,1:0:0:0:
212,136,49034,1,0,1:0:0:0:
208,144,49192,1,8,1:0:0:0:
204,152,49271,1,0,1:0:0:0:
212,136,49507,1,0,1:0:0:0:
212,136,49586,1,0,1:0:0:0:
212,136,49665,1,0,1:0:0:0:
212,136,49744,1,0,1:0:0:0:
212,136,49823,1,8,1:0:0:0:
212,136,50139,5,0,1:0:0:0:
212,136,50218,1,12,1:0:0:0:
212,136,50376,1,8,1:0:0:0:
212,136,50455,1,4,1:0:0:0:
204,136,50613,1,8,1:0:0:0:
212,136,50771,1,4,1:0:0:0:
212,136,51086,1,0,1:0:0:0:
212,136,51244,1,8,1:0:0:0:
212,136,51402,1,8,1:0:0:0:
212,136,51560,1,8,1:0:0:0:
212,136,51718,1,0,1:0:0:0:
212,136,52034,1,4,1:0:0:0:
212,136,52192,1,8,1:0:0:0:
232,124,52271,1,0,1:0:0:0:
232,124,52350,1,0,1:0:0:0:
200,108,52455,1,8,1:0:0:0:
200,108,52560,1,8,1:0:0:0:
200,108,52666,1,8,1:0:0:0:
208,140,52981,5,0,1:0:0:0:
208,120,53218,1,0,1:0:0:0:
204,136,53297,1,8,1:0:0:0:
204,120,53455,1,0,1:0:0:0:
200,144,53534,1,8,1:0:0:0:
202,129,53613,1,0,1:0:0:0:
208,140,53771,1,8,1:0:0:0:
208,140,53810,1,0,1:0:0:0:
208,140,53850,1,0,1:0:0:0:
208,140,53889,1,0,1:0:0:0:
200,144,53929,1,8,1:0:0:0:
232,136,54166,1,0,1:0:0:0:
200,144,54245,1,8,1:0:0:0:
232,136,54323,1,0,1:0:0:0:
208,148,54560,1,0,1:0:0:0:
208,148,54639,5,0,1:0:0:0:
208,148,54718,1,0,1:0:0:0:
208,148,54797,1,0,1:0:0:0:
232,148,54876,1,8,1:0:0:0:
224,144,55034,1,8,1:0:0:0:
224,144,55192,1,8,1:0:0:0:
224,144,55350,1,0,1:0:0:0:
228,140,55429,1,0,1:0:0:0:
224,144,55508,1,8,1:0:0:0:
228,140,55587,1,8,1:0:0:0:
220,136,55666,1,8,1:0:0:0:
212,136,55823,5,12,1:0:0:0:
223,127,56060,1,0,1:0:0:0:
223,127,56139,1,8,1:0:0:0:
223,127,56297,1,0,1:0:0:0:
223,127,56376,1,8,1:0:0:0:
223,127,56534,1,8,1:0:0:0:
223,127,56613,1,8,1:0:0:0:
222,130,56771,1,0,1:0:0:0:
222,130,56850,1,0,1:0:0:0:
223,127,56929,1,8,1:0:0:0:
223,127,57008,1,8,1:0:0:0:
223,127,57087,1,0,1:0:0:0:
285,171,57245,1,8,1:0:0:0:
285,171,57323,1,0,1:0:0:0:
285,171,57481,1,8,1:0:0:0:
285,171,57560,1,0,1:0:0:0:
215,146,57718,1,0,1:0:0:0:
223,146,57797,1,0,1:0:0:0:
215,146,57876,1,8,1:0:0:0:
221,146,58034,1,4,1:0:0:0:
215,146,58192,1,8,1:0:0:0:
215,146,58350,1,4,1:0:0:0:
223,127,58587,1,8,1:0:0:0:
223,127,58666,1,8,1:0:0:0:
223,127,58823,1,8,1:0:0:0:
223,127,58903,1,8,1:0:0:0:
223,127,59061,1,0,1:0:0:0:
223,127,59140,1,0,1:0:0:0:
222,130,59298,1,8,1:0:0:0:
222,130,59377,1,0,1:0:0:0:
223,127,59456,1,8,1:0:0:0:
223,127,59535,1,8,1:0:0:0:
223,127,59614,1,8,1:0:0:0:
285,171,59772,1,0,1:0:0:0:
285,171,59850,1,0,1:0:0:0:
285,171,60008,1,0,1:0:0:0:
285,171,60087,1,0,1:0:0:0:
215,146,60166,1,0,1:0:0:0:
223,146,60245,1,8,1:0:0:0:
215,146,60323,1,8,1:0:0:0:
216,148,60402,1,8,1:0:0:0:
221,160,60560,1,8,1:0:0:0:
228,151,60718,1,4,1:0:0:0:
228,151,60876,1,4,1:0:0:0:
223,127,61113,1,0,1:0:0:0:
223,127,61192,1,8,1:0:0:0:
223,127,61350,1,0,1:0:0:0:
223,127,61429,1,8,1:0:0:0:
223,127,61587,1,8,1:0:0:0:
223,127,61666,1,8,1:0:0:0:
222,130,61824,1,0,1:0:0:0:
222,130,61903,1,0,1:0:0:0:
223,127,61982,1,8,1:0:0:0:
223,127,62061,1,8,1:0:0:0:
223,127,62140,1,0,1:0:0:0:
285,171,62298,1,8,1:0:0:0:
285,171,62376,1,0,1:0:0:0:
285,171,62534,1,8,1:0:0:0:
285,171,62613,1,0,1:0:0:0:
241,159,62771,1,8,1:0:0:0:
241,159,62929,1,8,1:0:0:0:
241,159,63008,1,8,1:0:0:0:
241,159,63087,1,8,1:0:0:0:
225,152,63245,1,4,1:0:0:0:
214,161,63560,1,0,1:0:0:0:
214,161,63718,1,0,1:0:0:0:
200,157,63876,1,8,1:0:0:0:
200,157,63955,1,8,1:0:0:0:
200,157,64034,1,0,1:0:0:0:
212,155,64192,1,12,1:0:0:0:
215,151,64350,1,12,1:0:0:0:
207,151,64508,1,0,1:0:0:0:
208,166,64823,1,0,1:0:0:0:
208,166,64902,1,8,1:0:0:0:
208,166,64981,1,0,1:0:0:0:
208,167,65139,1,8,1:0:0:0:
208,167,65218,1,8,1:0:0:0:
208,167,65297,1,0,1:0:0:0:
208,172,65455,1,4,1:0:0:0:
208,166,65613,1,4,1:0:0:0:
206,174,65771,1,4,1:0:0:0:
208,140,65929,5,8,1:0:0:0:
199,132,66087,1,0,1:0:0:0:
220,136,66245,1,0,1:0:0:0:
220,136,66403,1,12,1:0:0:0:
220,136,66718,1,0,1:0:0:0:
220,136,66876,1,0,1:0:0:0:
220,136,67034,1,0,1:0:0:0:
220,136,67113,1,0,1:0:0:0:
220,136,67192,1,8,1:0:0:0:
220,136,67350,1,8,1:0:0:0:
220,136,67508,1,8,1:0:0:0:
220,136,67587,1,0,1:0:0:0:
220,136,67666,1,0,1:0:0:0:
224,128,67745,1,8,1:0:0:0:
220,136,67824,1,0,1:0:0:0:
220,136,67903,1,0,1:0:0:0:
220,136,67982,1,0,1:0:0:0:
220,136,68139,1,8,1:0:0:0:
220,136,68455,1,8,1:0:0:0:
220,136,68613,1,8,1:0:0:0:
220,136,68771,1,0,1:0:0:0:
220,136,68929,1,8,1:0:0:0:
220,136,69008,1,0,1:0:0:0:
210,136,69087,1,8,1:0:0:0:
212,136,69166,1,0,1:0:0:0:
220,136,69245,1,8,1:0:0:0:
220,136,69403,1,0,1:0:0:0:
220,136,69718,1,0,1:0:0:0:
220,136,69876,1,8,1:0:0:0:
220,136,70034,1,8,1:0:0:0:
210,136,70113,1,0,1:0:0:0:
220,136,70192,1,8,1:0:0:0:
220,136,70271,1,8,1:0:0:0:
210,136,70350,1,0,1:0:0:0:
212,136,70429,1,0,1:0:0:0:
220,136,70508,1,8,1:0:0:0:
220,136,70587,1,8,1:0:0:0:
220,136,70666,1,0,1:0:0:0:
236,128,70745,1,0,1:0:0:0:
232,128,70824,1,8,1:0:0:0:
232,128,70903,1,8,1:0:0:0:
220,136,70981,1,0,1:0:0:0:
220,136,71139,1,0,1:0:0:0:
220,136,71297,1,4,1:0:0:0:
220,136,71455,1,8,1:0:0:0:
220,136,71613,1,4,1:0:0:0:
220,136,71929,5,0,1:0:0:0:
220,136,72087,1,0,1:0:0:0:
220,136,72245,1,8,1:0:0:0:
208,124,72350,1,0,1:0:0:0:
208,124,72455,1,8,1:0:0:0:
208,124,72561,1,0,1:0:0:0:
208,124,72718,1,0,1:0:0:0:
208,124,72876,1,8,1:0:0:0:
208,124,72981,1,8,1:0:0:0:
208,124,73086,1,0,1:0:0:0:
208,124,73192,1,8,1:0:0:0:
200,140,73350,1,0,1:0:0:0:
200,140,73389,1,0,1:0:0:0:
200,140,73429,1,0,1:0:0:0:
200,140,73468,1,0,1:0:0:0:
200,140,73508,1,8,1:0:0:0:
220,136,73745,1,0,1:0:0:0:
220,136,73824,1,0,1:0:0:0:
220,136,73982,1,8,1:0:0:0:
220,136,74061,1,8,1:0:0:0:
192,136,74139,1,0,1:0:0:0:
192,136,74218,1,0,1:0:0:0:
220,136,74297,1,8,1:0:0:0:
220,136,74455,1,0,1:0:0:0:
220,136,74613,1,0,1:0:0:0:
220,136,74771,1,8,1:0:0:0:
210,134,74850,1,8,1:0:0:0:
220,136,74929,1,0,1:0:0:0:
210,134,75008,1,8,1:0:0:0:
220,136,75087,1,8,1:0:0:0:
210,133,75166,1,0,1:0:0:0:
220,136,75245,1,0,1:0:0:0:
210,133,75323,1,0,1:0:0:0:
220,136,75403,1,0,1:0:0:0:
220,136,75482,1,0,1:0:0:0:
220,136,75561,1,8,1:0:0:0:
220,136,75639,1,8,1:0:0:0:
220,136,75718,1,8,1:0:0:0:
220,136,75876,1,0,1:0:0:0:
212,144,75955,1,8,1:0:0:0:
220,144,76034,1,0,1:0:0:0:
212,136,76192,1,12,1:0:0:0:
220,144,76350,1,12,1:0:0:0:
212,136,76508,1,12,1:0:0:0:
212,152,76824,1,0,1:0:0:0:
212,152,76903,1,0,1:0:0:0:
212,152,76982,1,8,1:0:0:0:
212,152,77139,1,0,1:0:0:0:
216,164,77218,1,0,1:0:0:0:
216,160,77297,1,8,1:0:0:0:
201,139,77376,1,8,1:0:0:0:
201,139,77455,1,0,1:0:0:0:
201,139,77534,1,8,1:0:0:0:
212,136,77613,1,4,1:0:0:0:
212,152,77771,1,8,1:0:0:0:
212,136,77929,1,4,1:0:0:0:
212,152,78087,1,12,1:0:0:0:
212,136,78244,1,12,1:0:0:0:
212,136,78561,1,8,1:0:0:0:
216,156,78639,1,0,1:0:0:0:
216,156,78797,1,0,1:0:0:0:
212,136,78876,1,8,1:0:0:0:
212,136,79034,1,0,1:0:0:0:
189,143,79113,1,0,1:0:0:0:
212,136,79350,1,4,1:0:0:0:
208,144,79508,1,12,1:0:0:0:
212,136,79823,1,0,1:0:0:0:
212,136,79902,1,0,1:0:0:0:
212,136,80060,1,8,1:0:0:0:
212,136,80139,1,8,1:0:0:0:
212,136,80297,1,0,1:0:0:0:
212,136,80376,1,8,1:0:0:0:
212,136,80534,1,8,1:0:0:0:
212,136,80613,1,8,1:0:0:0:
212,136,80692,1,8,1:0:0:0:
212,136,80771,1,0,1:0:0:0:
212,136,80850,1,0,1:0:0:0:
204,136,80929,1,8,1:0:0:0:
212,136,81008,1,0,1:0:0:0:
212,136,81087,1,8,1:0:0:0:
212,136,81402,1,0,1:0:0:0:
212,136,81560,1,8,1:0:0:0:
212,136,81718,1,8,1:0:0:0:
212,136,81876,1,8,1:0:0:0:
212,136,82034,1,0,1:0:0:0:
212,136,82350,1,4,1:0:0:0:
212,136,82508,1,8,1:0:0:0:
232,124,82587,1,0,1:0:0:0:
232,124,82666,1,0,1:0:0:0:
200,108,82771,1,8,1:0:0:0:
200,108,82876,1,8,1:0:0:0:
200,108,82982,1,8,1:0:0:0:
208,140,83297,5,0,1:0:0:0:
208,120,83534,1,0,1:0:0:0:
204,136,83613,1,8,1:0:0:0:
204,120,83771,1,0,1:0:0:0:
200,144,83850,1,8,1:0:0:0:
202,129,83929,1,0,1:0:0:0:
208,140,84087,1,8,1:0:0:0:
208,140,84126,1,0,1:0:0:0:
208,140,84166,1,0,1:0:0:0:
208,140,84205,1,0,1:0:0:0:
200,144,84245,1,8,1:0:0:0:
232,136,84482,1,0,1:0:0:0:
200,144,84561,1,8,1:0:0:0:
232,136,84639,1,0,1:0:0:0:
208,148,84876,1,0,1:0:0:0:
208,148,84955,5,0,1:0:0:0:
208,148,85034,1,0,1:0:0:0:
208,148,85113,1,0,1:0:0:0:
232,148,85192,1,8,1:0:0:0:
224,144,85350,1,8,1:0:0:0:
224,144,85508,1,8,1:0:0:0:
224,144,85666,1,0,1:0:0:0:
228,140,85745,1,0,1:0:0:0:
224,144,85824,1,8,1:0:0:0:
228,140,85903,1,8,1:0:0:0:
220,136,85982,1,8,1:0:0:0:
248,176,86139,5,4,1:0:0:0:
192,156,86455,1,8,1:0:0:0:
192,156,86613,1,0,1:0:0:0:
192,156,86929,1,8,1:0:0:0:
192,156,87087,1,0,1:0:0:0:
203,149,87402,1,0,1:0:0:0:
192,156,87560,1,8,1:0:0:0:
192,156,87639,1,8,1:0:0:0:
192,156,87718,1,0,1:0:0:0:
192,156,88034,1,0,1:0:0:0:
192,156,88113,1,8,1:0:0:0:
192,156,88350,1,8,1:0:0:0:
192,156,88666,1,8,1:0:0:0:
192,156,88981,1,0,1:0:0:0:
192,156,89139,1,8,1:0:0:0:
192,156,89455,1,8,1:0:0:0:
192,156,89613,1,8,1:0:0:0:
192,156,89929,1,8,1:0:0:0:
192,156,90008,1,8,1:0:0:0:
192,156,90087,1,0,1:0:0:0:
192,156,90166,1,8,1:0:0:0:
192,156,90245,1,8,1:0:0:0:
192,156,90481,1,8,1:0:0:0:
192,156,90560,1,8,1:0:0:0:
192,156,90876,1,4,1:0:0:0:
192,156,91034,1,4,1:0:0:0:
192,156,91192,1,12,1:0:0:0:
192,156,91508,1,8,1:0:0:0:
192,156,91666,1,8,1:0:0:0:
203,156,91823,1,0,1:0:0:0:
192,156,91981,1,8,1:0:0:0:
196,144,92060,1,0,1:0:0:0:
192,156,92139,1,8,1:0:0:0:
192,156,92455,1,8,1:0:0:0:
192,156,92534,1,8,1:0:0:0:
192,156,92771,1,8,1:0:0:0:
192,156,93087,1,8,1:0:0:0:
192,156,93245,1,8,1:0:0:0:
192,156,93402,1,8,1:0:0:0:
188,60,93560,1,0,1:0:0:0:
192,156,93718,1,8,1:0:0:0:
192,156,94034,1,8,1:0:0:0:
192,156,94113,1,8,1:0:0:0:
192,156,94192,1,8,1:0:0:0:
192,156,94508,1,8,1:0:0:0:
192,156,94587,1,8,1:0:0:0:
192,156,94666,1,8,1:0:0:0:
192,156,94981,1,8,1:0:0:0:
192,156,95139,1,8,1:0:0:0:
192,156,95297,1,8,1:0:0:0:
191,167,95534,1,0,1:0:0:0:
192,156,95613,1,8,1:0:0:0:
191,167,95771,1,0,1:0:0:0:
192,156,95850,1,8,1:0:0:0:
210,148,96008,1,8,1:0:0:0:
210,148,96087,1,0,1:0:0:0:
192,156,96245,1,8,1:0:0:0:
192,156,96560,1,8,1:0:0:0:
192,156,96718,1,8,1:0:0:0:
192,156,97034,1,8,1:0:0:0:
192,156,97192,1,8,1:0:0:0:
192,156,97508,1,8,1:0:0:0:
192,156,97587,1,8,1:0:0:0:
192,156,97666,1,0,1:0:0:0:
192,156,97745,1,0,1:0:0:0:
192,156,97823,1,0,1:0:0:0:
192,156,97981,1,8,1:0:0:0:
192,156,98060,1,0,1:0:0:0:
192,156,98297,1,8,1:0:0:0:
192,156,98455,1,8,1:0:0:0:
192,156,98534,1,0,1:0:0:0:
192,156,98613,1,8,1:0:0:0:
192,156,98771,1,8,1:0:0:0:
192,156,98850,1,0,1:0:0:0:
192,156,99008,1,8,1:0:0:0:
192,156,99087,1,0,1:0:0:0:
192,156,99245,1,0,1:0:0:0:
192,156,99323,1,0,1:0:0:0:
192,156,99560,1,8,1:0:0:0:
192,156,99718,1,8,1:0:0:0:
192,156,100034,1,8,1:0:0:0:
192,156,100192,1,8,1:0:0:0:
192,156,100271,1,8,1:0:0:0:
192,156,100429,1,0,1:0:0:0:
192,156,100508,1,0,1:0:0:0:
192,156,100666,1,8,1:0:0:0:
192,156,100745,1,8,1:0:0:0:
192,156,100902,1,8,1:0:0:0:
192,156,100981,1,0,1:0:0:0:
192,156,101060,1,0,1:0:0:0:
192,156,101139,1,0,1:0:0:0:
192,156,101218,1,8,1:0:0:0:
192,156,101297,1,8,1:0:0:0:
192,156,101613,1,8,1:0:0:0:
192,156,101771,1,8,1:0:0:0:
192,156,101929,1,4,1:0:0:0:
192,156,102087,1,4,1:0:0:0:
192,156,102245,1,0,1:0:0:0:
192,156,102481,1,8,1:0:0:0:
192,156,102560,1,0,1:0:0:0:
192,156,102718,1,8,1:0:0:0:
192,156,102797,1,0,1:0:0:0:
192,156,102955,1,8,1:0:0:0:
192,156,103034,1,0,1:0:0:0:
192,156,103192,1,8,1:0:0:0:
192,156,103350,1,0,1:0:0:0:
192,156,103508,1,8,1:0:0:0:
208,152,103823,5,0,1:0:0:0:
208,152,103902,1,0,1:0:0:0:
208,152,103981,1,8,1:0:0:0:
208,152,104060,1,8,1:0:0:0:
208,152,104139,1,0,1:0:0:0:
208,152,104218,1,0,1:0:0:0:
208,152,104297,1,8,1:0:0:0:
208,152,104376,1,8,1:0:0:0:
208,152,104455,1,0,1:0:0:0:
208,152,104534,1,0,1:0:0:0:
208,152,104613,1,0,1:0:0:0:
208,152,104692,1,8,1:0:0:0:
208,152,104771,1,8,1:0:0:0:
208,152,104850,1,8,1:0:0:0:
208,152,104929,1,0,1:0:0:0:
208,152,105008,1,0,1:0:0:0:
208,152,105087,1,4,1:0:0:0:
220,40,105245,1,12,1:0:0:0:
224,52,105402,1,4,1:0:0:0:
228,52,105560,1,12,1:0:0:0:
228,52,105718,1,4,1:0:0:0:
228,48,105876,1,4,1:0:0:0:
228,48,106034,1,4,1:0:0:0:
232,48,106192,1,12,1:0:0:0:
200,144,106350,5,0,1:0:0:0:
200,144,106508,1,0,1:0:0:0:
200,144,106666,1,8,1:0:0:0:
194,137,106745,1,8,1:0:0:0:
194,138,106823,1,0,1:0:0:0:
194,138,106902,1,0,1:0:0:0:
200,144,106981,1,8,1:0:0:0:
200,144,107297,1,0,1:0:0:0:
220,141,107455,1,8,1:0:0:0:
219,142,107613,1,8,1:0:0:0:
219,142,107692,1,0,1:0:0:0:
218,142,107850,1,8,1:0:0:0:
218,142,107929,1,0,1:0:0:0:
207,148,108087,1,0,1:0:0:0:
207,148,108166,1,0,1:0:0:0:
200,144,108245,1,8,1:0:0:0:
200,144,108560,1,0,1:0:0:0:
200,144,108639,1,0,1:0:0:0:
200,144,108718,1,8,1:0:0:0:
200,144,108797,1,8,1:0:0:0:
200,144,108876,1,0,1:0:0:0:
207,148,109034,1,12,1:0:0:0:
200,144,109192,1,0,1:0:0:0:
200,144,109350,1,8,1:0:0:0:
223,148,109508,1,0,1:0:0:0:
223,148,109587,1,0,1:0:0:0:
200,144,109666,1,0,1:0:0:0:
192,144,109745,1,0,1:0:0:0:
200,144,109823,1,8,1:0:0:0:
192,144,109981,1,8,1:0:0:0:
200,144,110139,1,0,1:0:0:0:
200,144,110455,1,12,1:0:0:0:
204,140,110771,1,12,1:0:0:0:
192,160,111008,1,8,1:0:0:0:
200,144,111087,1,0,1:0:0:0:
205,153,111166,1,0,1:0:0:0:
211,153,111245,1,8,1:0:0:0:
211,153,111323,1,8,1:0:0:0:
200,144,111402,5,8,1:0:0:0:
200,144,111718,1,8,1:0:0:0:
200,150,111876,1,0,1:0:0:0:
200,149,112034,1,8,1:0:0:0:
205,153,112192,1,0,1:0:0:0:
200,144,112350,1,8,1:0:0:0:
200,144,112508,1,8,1:0:0:0:
200,144,112666,1,8,1:0:0:0:
194,126,112745,1,0,1:0:0:0:
193,125,112823,1,0,1:0:0:0:
200,144,112902,1,0,1:0:0:0:
200,144,112981,1,8,1:0:0:0:
192,124,113060,1,8,1:0:0:0:
200,144,113139,1,0,1:0:0:0:
200,144,113455,1,0,1:0:0:0:
200,144,113613,1,8,1:0:0:0:
200,144,113771,1,0,1:0:0:0:
200,144,113929,1,8,1:0:0:0:
200,144,114008,1,0,1:0:0:0:
204,139,114087,1,8,1:0:0:0:
200,144,114166,1,0,1:0:0:0:
200,144,114244,1,8,1:0:0:0:
200,144,114323,1,0,1:0:0:0:
200,144,114402,1,0,1:0:0:0:
200,144,114718,1,0,1:0:0:0:
200,144,114876,1,0,1:0:0:0:
200,144,115034,1,0,1:0:0:0:
200,144,115192,1,12,1:0:0:0:
200,144,115350,1,12,1:0:0:0:
200,144,115508,1,4,1:0:0:0:
200,144,115666,1,4,1:0:0:0:
200,144,115823,1,12,1:0:0:0:
200,144,115981,1,12,1:0:0:0:
200,144,116139,1,4,1:0:0:0:
200,144,116297,1,4,1:0:0:0:
200,144,116455,5,4,1:0:0:0:
200,144,116771,1,8,1:0:0:0:
188,143,117008,1,0,1:0:0:0:
200,144,117086,1,8,1:0:0:0:
200,144,117402,1,0,1:0:0:0:
206,149,117481,1,0,1:0:0:0:
200,144,117560,1,0,1:0:0:0:
200,144,117718,1,8,1:0:0:0:
189,111,117823,1,0,1:0:0:0:
189,111,117929,1,0,1:0:0:0:
200,144,118034,1,8,1:0:0:0:
189,111,118139,1,0,1:0:0:0:
189,111,118245,1,0,1:0:0:0:
200,144,118350,1,8,1:0:0:0:
200,144,118665,1,0,1:0:0:0:
200,144,118744,1,0,1:0:0:0:
200,144,118823,1,8,1:0:0:0:
200,144,118902,1,8,1:0:0:0:
200,144,118981,1,0,1:0:0:0:
200,152,119139,1,8,1:0:0:0:
200,152,119297,1,0,1:0:0:0:
200,152,119455,1,8,1:0:0:0:
200,152,119613,1,8,1:0:0:0:
200,152,119771,1,0,1:0:0:0:
192,131,119850,1,8,1:0:0:0:
200,144,119929,1,0,1:0:0:0:
200,144,120087,1,0,1:0:0:0:
200,144,120166,1,8,1:0:0:0:
200,144,120245,1,8,1:0:0:0:
200,144,120560,1,12,1:0:0:0:
200,144,120718,1,0,1:0:0:0:
204,140,120797,1,12,1:0:0:0:
200,144,120955,1,0,1:0:0:0:
200,144,121192,5,8,1:0:0:0:
204,152,121350,1,8,1:0:0:0:
200,144,121389,1,8,1:0:0:0:
200,144,121429,1,8,1:0:0:0:
200,144,121468,1,8,1:0:0:0:
200,144,121507,1,4,1:0:0:0:
200,144,121823,1,0,1:0:0:0:
196,152,121902,1,0,1:0:0:0:
200,144,121981,1,8,1:0:0:0:
200,144,122297,1,8,1:0:0:0:
200,144,122376,1,8,1:0:0:0:
200,144,122455,1,0,1:0:0:0:
200,144,122613,1,0,1:0:0:0:
200,144,122771,1,8,1:0:0:0:
208,152,123008,1,0,1:0:0:0:
200,144,123086,1,0,1:0:0:0:
200,144,123244,1,8,1:0:0:0:
200,144,123560,1,0,1:0:0:0:
200,144,123639,1,0,1:0:0:0:
200,144,123718,1,8,1:0:0:0:
200,144,123876,1,0,1:0:0:0:
190,164,123916,1,0,1:0:0:0:
190,164,123955,1,0,1:0:0:0:
190,164,123995,1,0,1:0:0:0:
200,144,124034,1,8,1:0:0:0:
212,164,124271,1,8,1:0:0:0:
208,152,124350,1,0,1:0:0:0:
200,144,124508,1,0,1:0:0:0:
192,144,124823,1,8,1:0:0:0:
200,144,124981,1,0,1:0:0:0:
200,144,125297,1,4,1:0:0:0:
200,144,125508,5,4,1:0:0:0:
200,144,125718,1,4,1:0:0:0:
200,144,125929,1,12,1:0:0:0:
214,147,126402,1,0,1:0:0:0:
213,147,126481,1,0,1:0:0:0:
208,160,126560,5,12,1:0:0:0:
184,164,126718,1,8,1:0:0:0:
168,144,126797,1,0,1:0:0:0:
152,168,126876,5,0,1:0:0:0:
152,168,127034,1,8,1:0:0:0:
176,160,127192,1,8,1:0:0:0:
168,144,127271,1,0,1:0:0:0:
152,168,127350,1,0,1:0:0:0:
152,168,127508,1,8,1:0:0:0:
148,164,127666,1,8,1:0:0:0:
168,144,127745,1,0,1:0:0:0:
152,168,127823,1,0,1:0:0:0:
152,168,127981,1,8,1:0:0:0:
152,164,128139,1,8,1:0:0:0:
168,144,128218,1,0,1:0:0:0:
152,168,128455,1,8,1:0:0:0:
160,148,128534,1,0,1:0:0:0:
152,168,128613,1,0,1:0:0:0:
160,148,128692,1,8,1:0:0:0:
152,168,128771,1,8,1:0:0:0:
156,148,128850,1,0,1:0:0:0:
152,168,128929,1,8,1:0:0:0:
156,144,129008,1,8,1:0:0:0:
152,168,129087,1,4,1:0:0:0:
147,148,129245,1,8,1:0:0:0:
168,144,129323,1,0,1:0:0:0:
152,168,129402,1,8,1:0:0:0:
152,168,129560,1,0,1:0:0:0:
147,147,129718,1,8,1:0:0:0:
168,144,129797,1,0,1:0:0:0:
152,168,129876,1,8,1:0:0:0:
152,168,130034,1,0,1:0:0:0:
147,148,130192,1,0,1:0:0:0:
168,144,130271,1,8,1:0:0:0:
152,168,130350,1,0,1:0:0:0:
152,168,130508,1,0,1:0:0:0:
168,157,130666,1,12,1:0:0:0:
152,168,130823,1,0,1:0:0:0:
152,168,130902,1,8,1:0:0:0:
152,168,130981,1,8,1:0:0:0:
160,170,131060,1,0,1:0:0:0:
152,168,131139,1,0,1:0:0:0:
158,168,131218,1,8,1:0:0:0:
152,168,131297,1,8,1:0:0:0:
152,168,131613,5,0,1:0:0:0:
156,156,131692,1,0,1:0:0:0:
156,156,131771,1,8,1:0:0:0:
156,156,131850,1,8,1:0:0:0:
156,156,131929,1,0,1:0:0:0:
156,156,132008,1,0,1:0:0:0:
160,156,132087,1,8,1:0:0:0:
160,156,132166,1,8,1:0:0:0:
160,156,132245,1,0,1:0:0:0:
160,156,132323,1,0,1:0:0:0:
164,156,132402,1,8,1:0:0:0:
164,156,132481,1,8,1:0:0:0:
168,152,132560,1,0,1:0:0:0:
168,156,132639,1,0,1:0:0:0:
168,156,132718,1,8,1:0:0:0:
168,156,132797,1,8,1:0:0:0:
168,156,132876,1,0,1:0:0:0:
168,156,132955,1,0,1:0:0:0:
168,156,133034,1,8,1:0:0:0:
168,156,133113,1,8,1:0:0:0:
172,152,133192,1,0,1:0:0:0:
172,152,133271,1,0,1:0:0:0:
172,152,133350,1,8,1:0:0:0:
172,152,133429,1,8,1:0:0:0:
172,152,133508,1,0,1:0:0:0:
176,152,133587,1,0,1:0:0:0:
176,148,133666,1,8,1:0:0:0:
180,152,133824,1,8,1:0:0:0:
180,152,133982,1,12,1:0:0:0:
128,176,134297,1,8,1:0:0:0:
116,176,134455,1,0,1:0:0:0:
116,176,134613,1,4,1:0:0:0:
116,176,134929,1,8,1:0:0:0:
116,176,135087,1,8,1:0:0:0:
116,176,135245,1,4,1:0:0:0:
116,176,135560,1,8,1:0:0:0:
116,176,135718,1,0,1:0:0:0:
116,176,135876,1,12,1:0:0:0:
201,158,136034,1,0,1:0:0:0:
201,158,136113,1,0,1:0:0:0:
116,176,136192,1,0,1:0:0:0:
201,158,136271,1,0,1:0:0:0:
116,176,136350,1,0,1:0:0:0:
201,158,136429,1,8,1:0:0:0:
232,152,136666,5,8,1:0:0:0:
234,149,136745,1,8,1:0:0:0:
220,158,136823,1,0,1:0:0:0:
221,158,136902,1,0,1:0:0:0:
232,152,136981,1,8,1:0:0:0:
227,152,137060,1,8,1:0:0:0:
220,160,137139,1,0,1:0:0:0:
243,160,137297,1,0,1:0:0:0:
243,160,137376,1,0,1:0:0:0:
224,160,137455,1,8,1:0:0:0:
236,160,137534,1,8,1:0:0:0:
219,162,137613,1,8,1:0:0:0:
243,159,137692,1,8,1:0:0:0:
191,141,137771,1,0,1:0:0:0:
236,166,137929,1,0,1:0:0:0:
236,166,138008,1,0,1:0:0:0:
228,164,138087,1,0,1:0:0:0:
232,164,138166,1,0,1:0:0:0:
232,164,138245,1,8,1:0:0:0:
232,164,138402,1,0,1:0:0:0:
239,151,138481,1,8,1:0:0:0:
194,139,138639,1,0,1:0:0:0:
184,144,138718,1,8,1:0:0:0:
184,144,138876,1,8,1:0:0:0:
184,144,138955,1,0,1:0:0:0:
216,131,139113,1,0,1:0:0:0:
216,131,139192,1,0,1:0:0:0:
200,152,139429,1,0,1:0:0:0:
184,144,139508,1,8,1:0:0:0:
184,144,139587,1,8,1:0:0:0:
184,144,139666,1,0,1:0:0:0:
184,144,139745,1,0,1:0:0:0:
216,137,139823,1,0,1:0:0:0:
184,144,139981,1,8,1:0:0:0:
204,152,140060,1,8,1:0:0:0:
184,144,140139,1,0,1:0:0:0:
204,152,140218,1,8,1:0:0:0:
184,144,140297,1,0,1:0:0:0:
221,138,140455,1,0,1:0:0:0:
215,139,140534,1,0,1:0:0:0:
208,148,140613,1,8,1:0:0:0:
208,148,140692,1,8,1:0:0:0:
208,148,140771,1,0,1:0:0:0:
204,134,140929,1,0,1:0:0:0:
206,135,141008,1,0,1:0:0:0:
206,135,141087,1,8,1:0:0:0:
206,135,141166,1,8,1:0:0:0:
206,137,141245,1,8,1:0:0:0:
208,138,141323,1,8,1:0:0:0:
208,148,141402,1,0,1:0:0:0:
208,148,141481,1,0,1:0:0:0:
208,148,141560,1,8,1:0:0:0:
208,148,141639,1,8,1:0:0:0:
208,148,141718,1,0,1:0:0:0:
184,144,142034,1,0,1:0:0:0:
184,144,142192,1,12,1:0:0:0:
184,144,142508,1,8,1:0:0:0:
184,144,142666,1,0,1:0:0:0:
192,140,142745,1,8,1:0:0:0:
184,144,142823,1,8,1:0:0:0:
203,136,142981,1,0,1:0:0:0:
203,136,143139,1,0,1:0:0:0:
203,136,143218,1,8,1:0:0:0:
202,136,143376,1,8,1:0:0:0:
202,136,143455,1,0,1:0:0:0:
202,136,143613,1,0,1:0:0:0:
202,136,143692,1,8,1:0:0:0:
202,136,143771,1,0,1:0:0:0:
203,136,143929,1,8,1:0:0:0:
203,136,144008,1,0,1:0:0:0:
203,136,144166,1,8,1:0:0:0:
203,136,144245,1,0,1:0:0:0:
202,136,144402,1,0,1:0:0:0:
202,136,144481,1,8,1:0:0:0:
202,136,144560,1,8,1:0:0:0:
202,136,144718,1,8,1:0:0:0:
202,136,144797,1,0,1:0:0:0:
203,136,144876,1,8,1:0:0:0:
203,136,145034,1,8,1:0:0:0:
203,136,145113,1,0,1:0:0:0:
203,136,145271,1,0,1:0:0:0:
202,136,145350,1,0,1:0:0:0:
216,164,145508,1,8,1:0:0:0:
216,164,145666,1,0,1:0:0:0:
216,164,145823,1,0,1:0:0:0:
216,164,145981,1,8,1:0:0:0:
216,164,146139,1,8,1:0:0:0:
184,144,146455,1,0,1:0:0:0:
212,172,146534,1,0,1:0:0:0:
184,144,146613,1,0,1:0:0:0:
212,168,146692,1,0,1:0:0:0:
184,144,146771,1,12,1:0:0:0:
184,144,147087,5,0,1:0:0:0:
184,144,147245,1,8,1:0:0:0:
184,144,147560,1,8,1:0:0:0:
184,144,147639,1,0,1:0:0:0:
184,144,147718,1,8,1:0:0:0:
178,137,147797,1,0,1:0:0:0:
184,144,147876,1,8,1:0:0:0:
184,144,148192,1,8,1:0:0:0:
192,123,148271,1,8,1:0:0:0:
184,144,148350,1,0,1:0:0:0:
168,64,148429,1,0,1:0:0:0:
184,144,148508,1,8,1:0:0:0:
184,144,148824,1,8,1:0:0:0:
184,144,148902,1,0,1:0:0:0:
184,144,148981,1,0,1:0:0:0:
184,144,149139,1,12,1:0:0:0:
184,144,149297,1,0,1:0:0:0:
184,144,149455,1,0,1:0:0:0:
184,144,149534,1,8,1:0:0:0:
184,144,149692,1,8,1:0:0:0:
184,144,149771,1,0,1:0:0:0:
175,142,149929,1,4,1:0:0:0:
184,144,150087,1,4,1:0:0:0:
184,144,150245,1,12,1:0:0:0:
184,144,150402,1,12,1:0:0:0:
168,132,150560,1,0,1:0:0:0:
184,144,150639,1,0,1:0:0:0:
184,144,150797,1,8,1:0:0:0:
212,132,150876,1,0,1:0:0:0:
184,144,151034,1,0,1:0:0:0:
188,160,151113,1,12,1:0:0:0:
184,144,151350,1,0,1:0:0:0:
184,144,151508,1,0,1:0:0:0:
184,144,151666,1,0,1:0:0:0:
184,136,151745,1,0,1:0:0:0:
184,144,151823,1,8,1:0:0:0:
192,130,152139,1,0,1:0:0:0:
192,130,152297,1,8,1:0:0:0:
176,144,152376,1,0,1:0:0:0:
214,132,152455,1,0,1:0:0:0:
212,132,152534,1,0,1:0:0:0:
192,130,152613,1,8,1:0:0:0:
192,130,152771,1,0,1:0:0:0:
192,130,152929,1,8,1:0:0:0:
184,136,153008,1,0,1:0:0:0:
192,130,153087,1,0,1:0:0:0:
209,92,153245,1,0,1:0:0:0:
209,92,153323,1,0,1:0:0:0:
192,130,153402,1,0,1:0:0:0:
209,92,153481,1,0,1:0:0:0:
192,130,153560,1,0,1:0:0:0:
184,124,153718,1,8,1:0:0:0:
192,130,153876,1,0,1:0:0:0:
192,130,154034,1,8,1:0:0:0:
192,130,154192,1,0,1:0:0:0:
200,124,154271,1,8,1:0:0:0:
192,130,154350,1,0,1:0:0:0:
192,130,154508,1,0,1:0:0:0:
192,130,154587,1,0,1:0:0:0:
192,130,154666,1,8,1:0:0:0:
184,124,154745,1,0,1:0:0:0:
192,130,154823,1,0,1:0:0:0:
224,136,154981,1,8,1:0:0:0:
200,136,155139,5,4,1:0:0:0:
200,136,155297,1,4,1:0:0:0:
192,130,155455,1,0,1:0:0:0:
192,130,155495,1,0,1:0:0:0:
192,130,155534,1,0,1:0:0:0:
192,130,155573,1,0,1:0:0:0:
179,142,155613,1,8,1:0:0:0:
192,136,155771,1,4,1:0:0:0:
192,136,155929,1,4,1:0:0:0:
192,136,156087,1,0,1:0:0:0:
192,136,156245,1,8,1:0:0:0:
192,136,156402,1,0,1:0:0:0:
192,136,156560,1,8,1:0:0:0:
192,136,156718,1,8,1:0:0:0:
192,136,156758,1,0,1:0:0:0:
192,136,156797,1,0,1:0:0:0:
192,136,156837,1,0,1:0:0:0:
192,136,156876,1,8,1:0:0:0:
172,144,157192,5,0,1:0:0:0:
172,144,157350,1,8,1:0:0:0:
172,144,157508,1,0,1:0:0:0:
172,144,157666,1,0,1:0:0:0:
172,144,157823,1,8,1:0:0:0:
192,144,157981,1,0,1:0:0:0:
192,144,158139,1,0,1:0:0:0:
192,144,158297,1,8,1:0:0:0:
192,144,158455,1,0,1:0:0:0:
192,144,158613,1,0,1:0:0:0:
192,144,158771,1,8,1:0:0:0:
192,144,158929,1,0,1:0:0:0:
192,144,159087,1,8,1:0:0:0:
192,144,159245,1,0,1:0:0:0:
192,144,159402,1,8,1:0:0:0:
192,144,159560,1,0,1:0:0:0:
192,144,159718,1,0,1:0:0:0:
192,144,159876,1,8,1:0:0:0:
192,144,160034,1,0,1:0:0:0:
192,144,160192,1,0,1:0:0:0:
192,144,160350,1,8,1:0:0:0:
192,144,160508,1,0,1:0:0:0:
192,144,160666,1,0,1:0:0:0:
192,144,160823,1,8,1:0:0:0:
192,144,160981,1,0,1:0:0:0:
192,144,161139,1,0,1:0:0:0:
192,144,161297,1,8,1:0:0:0:
192,144,161455,1,0,1:0:0:0:
192,144,161613,1,12,1:0:0:0:
192,144,161929,1,12,1:0:0:0:
192,144,162087,1,0,1:0:0:0:
192,144,162245,1,0,1:0:0:0:
192,144,162402,1,8,1:0:0:0:
192,144,162560,1,0,1:0:0:0:
192,144,162718,1,0,1:0:0:0:
192,144,162876,1,8,1:0:0:0:
192,144,163034,1,0,1:0:0:0:
192,144,163192,1,0,1:0:0:0:
192,144,163350,1,8,1:0:0:0:
192,144,163508,1,0,1:0:0:0:
192,144,163666,1,0,1:0:0:0:
192,144,163823,1,8,1:0:0:0:
192,144,163981,1,0,1:0:0:0:
192,144,164139,1,8,1:0:0:0:
192,144,164297,1,0,1:0:0:0:
192,144,164455,1,8,1:0:0:0:
192,144,164613,1,0,1:0:0:0:
192,144,164771,1,0,1:0:0:0:
192,144,164929,1,8,1:0:0:0:
192,144,165087,1,0,1:0:0:0:
192,144,165244,1,0,1:0:0:0:
192,144,165402,1,8,1:0:0:0:
192,144,165560,1,0,1:0:0:0:
192,144,165718,1,8,1:0:0:0:
192,144,165876,1,8,1:0:0:0:
192,144,166034,1,0,1:0:0:0:
192,144,166192,1,0,1:0:0:0:
192,144,166350,1,8,1:0:0:0:
192,144,166508,1,8,1:0:0:0:
192,144,166666,1,0,1:0:0:0:
192,144,166823,1,0,1:0:0:0:
192,144,166981,1,12,1:0:0:0:
228,156,167297,5,0,1:0:0:0:
240,172,167455,1,0,1:0:0:0:
228,156,167613,1,8,1:0:0:0:
228,156,167929,1,0,1:0:0:0:
228,156,168245,1,8,1:0:0:0:
240,172,168402,1,8,1:0:0:0:
216,140,168560,1,0,1:0:0:0:
216,140,168876,1,0,1:0:0:0:
216,140,169192,1,8,1:0:0:0:
216,152,169350,1,0,1:0:0:0:
216,140,169508,1,12,1:0:0:0:
228,156,169823,5,0,1:0:0:0:
228,156,170139,1,0,1:0:0:0:
240,172,170297,1,8,1:0:0:0:
228,156,170455,1,0,1:0:0:0:
228,156,170771,1,0,1:0:0:0:
228,156,171087,1,0,1:0:0:0:
240,172,171244,1,8,1:0:0:0:
216,140,171402,1,8,1:0:0:0:
228,156,171718,1,12,1:0:0:0:
232,152,171876,1,0,1:0:0:0:
228,156,172034,1,12,1:0:0:0:
232,152,172350,1,0,1:0:0:0:
228,156,172666,1,8,1:0:0:0:
232,152,172823,1,0,1:0:0:0:
228,156,172982,1,0,1:0:0:0:
228,156,173298,1,0,1:0:0:0:
228,156,173614,1,0,1:0:0:0:
236,156,173692,1,8,1:0:0:0:
256,152,173771,1,8,1:0:0:0:
232,152,173850,1,8,1:0:0:0:
216,140,173929,1,0,1:0:0:0:
216,140,174244,1,8,1:0:0:0:
208,152,174560,1,0,1:0:0:0:
212,152,174639,1,8,1:0:0:0:
212,152,174718,1,8,1:0:0:0:
216,152,174797,1,0,1:0:0:0:
216,140,175034,1,0,1:0:0:0:
216,140,175113,1,0,1:0:0:0:
216,140,175192,1,8,1:0:0:0:
216,140,175271,1,8,1:0:0:0:
217,138,175350,1,0,1:0:0:0:
219,139,175429,1,0,1:0:0:0:
220,138,175508,1,8,1:0:0:0:
216,141,175823,1,8,1:0:0:0:
216,141,175902,1,8,1:0:0:0:
216,140,175981,1,8,1:0:0:0:
216,140,176060,1,8,1:0:0:0:
228,140,176139,1,0,1:0:0:0:
216,140,176297,1,0,1:0:0:0:
216,140,176455,1,8,1:0:0:0:
216,141,176534,1,8,1:0:0:0:
216,141,176613,1,8,1:0:0:0:
216,141,176692,1,8,1:0:0:0:
216,129,176771,1,0,1:0:0:0:
216,140,176929,1,0,1:0:0:0:
208,140,177087,5,0,1:0:0:0:
220,136,177403,1,0,1:0:0:0:
220,136,177561,1,8,1:0:0:0:
220,136,177876,1,0,1:0:0:0:
220,136,178034,1,0,1:0:0:0:
220,136,178192,1,0,1:0:0:0:
220,136,178271,1,0,1:0:0:0:
220,136,178350,1,8,1:0:0:0:
220,136,178508,1,8,1:0:0:0:
220,136,178666,1,8,1:0:0:0:
220,136,178745,1,0,1:0:0:0:
220,136,178824,1,0,1:0:0:0:
224,128,178903,1,8,1:0:0:0:
220,136,178982,1,0,1:0:0:0:
220,136,179061,1,0,1:0:0:0:
220,136,179140,1,0,1:0:0:0:
220,136,179297,1,8,1:0:0:0:
220,136,179613,1,0,1:0:0:0:
220,136,179771,1,8,1:0:0:0:
220,136,179929,1,0,1:0:0:0:
220,136,180087,1,8,1:0:0:0:
220,136,180166,1,0,1:0:0:0:
212,136,180324,1,8,1:0:0:0:
220,136,180403,1,0,1:0:0:0:
220,136,180561,1,0,1:0:0:0:
220,136,180876,5,0,1:0:0:0:
220,136,180955,1,0,1:0:0:0:
220,136,181034,1,0,1:0:0:0:
220,136,181113,1,8,1:0:0:0:
220,136,181192,1,8,1:0:0:0:
220,136,181350,1,0,1:0:0:0:
220,136,181429,1,8,1:0:0:0:
220,136,181587,1,0,1:0:0:0:
220,136,181666,1,8,1:0:0:0:
220,136,181824,1,0,1:0:0:0:
236,128,181903,1,8,1:0:0:0:
232,128,181982,1,8,1:0:0:0:
232,128,182061,1,8,1:0:0:0:
220,136,182140,1,4,1:0:0:0:
220,136,182297,1,8,1:0:0:0:
220,136,182455,1,4,1:0:0:0:
220,136,182613,1,8,1:0:0:0:
220,136,182771,1,4,1:0:0:0:
220,136,183087,5,0,1:0:0:0:
220,136,183245,1,0,1:0:0:0:
220,136,183403,1,8,1:0:0:0:
208,124,183508,1,0,1:0:0:0:
208,124,183613,1,8,1:0:0:0:
208,124,183719,1,0,1:0:0:0:
208,124,183876,1,0,1:0:0:0:
208,124,184034,1,8,1:0:0:0:
208,124,184139,1,8,1:0:0:0:
208,124,184244,1,0,1:0:0:0:
208,124,184350,1,8,1:0:0:0:
200,140,184508,1,0,1:0:0:0:
200,140,184547,1,0,1:0:0:0:
200,140,184587,1,0,1:0:0:0:
200,140,184626,1,0,1:0:0:0:
200,140,184666,1,8,1:0:0:0:
220,136,184903,1,0,1:0:0:0:
220,136,184982,1,0,1:0:0:0:
220,136,185140,1,8,1:0:0:0:
220,136,185219,1,8,1:0:0:0:
192,136,185297,1,0,1:0:0:0:
192,136,185376,1,0,1:0:0:0:
220,136,185455,1,8,1:0:0:0:
220,136,185613,1,0,1:0:0:0:
220,136,185771,1,0,1:0:0:0:
220,136,185929,1,8,1:0:0:0:
220,136,186087,5,0,1:0:0:0:
220,136,186245,1,8,1:0:0:0:
220,136,186403,1,0,1:0:0:0:
220,136,186561,1,0,1:0:0:0:
220,136,186640,1,0,1:0:0:0:
220,136,186719,1,8,1:0:0:0:
220,136,186797,1,8,1:0:0:0:
220,136,186876,1,8,1:0:0:0:
220,136,187034,1,0,1:0:0:0:
212,144,187113,1,8,1:0:0:0:
220,144,187192,5,0,1:0:0:0:
212,136,187350,1,8,1:0:0:0:
220,144,187508,1,0,1:0:0:0:
212,136,187666,1,8,1:0:0:0:
212,152,187982,1,0,1:0:0:0:
212,152,188061,1,0,1:0:0:0:
212,152,188140,1,8,1:0:0:0:
212,152,188219,1,8,1:0:0:0:
212,152,188297,1,0,1:0:0:0:
216,164,188376,1,0,1:0:0:0:
216,160,188455,1,8,1:0:0:0:
212,136,188771,1,4,1:0:0:0:
212,152,188929,1,8,1:0:0:0:
212,136,189087,1,4,1:0:0:0:
212,152,189245,1,8,1:0:0:0:
212,136,189402,1,8,1:0:0:0:
212,136,189719,1,8,1:0:0:0:
216,156,189797,1,0,1:0:0:0:
216,156,189876,1,0,1:0:0:0:
212,136,190192,1,8,1:0:0:0:
212,136,190350,1,0,1:0:0:0:
189,143,190429,1,0,1:0:0:0:
212,136,190508,1,0,1:0:0:0:
208,144,190666,1,8,1:0:0:0:
204,152,190745,1,0,1:0:0:0:
212,136,190981,1,0,1:0:0:0:
212,136,191060,1,0,1:0:0:0:
212,136,191139,1,0,1:0:0:0:
212,136,191218,1,0,1:0:0:0:
212,136,191297,1,8,1:0:0:0:
212,136,191613,5,0,1:0:0:0:
212,136,191692,1,12,1:0:0:0:
212,136,191850,1,8,1:0:0:0:
212,136,191929,1,4,1:0:0:0:
204,136,192087,1,8,1:0:0:0:
212,136,192245,1,4,1:0:0:0:
212,136,192560,1,0,1:0:0:0:
212,136,192718,1,8,1:0:0:0:
212,136,192876,1,8,1:0:0:0:
212,136,193034,1,8,1:0:0:0:
212,136,193192,1,0,1:0:0:0:
212,136,193508,1,4,1:0:0:0:
212,136,193666,1,8,1:0:0:0:
232,124,193745,1,0,1:0:0:0:
232,124,193824,1,0,1:0:0:0:
200,108,193929,1,8,1:0:0:0:
200,108,194034,1,8,1:0:0:0:
200,108,194140,1,8,1:0:0:0:
208,140,194455,5,0,1:0:0:0:
208,120,194692,1,0,1:0:0:0:
204,136,194771,1,8,1:0:0:0:
204,120,194929,1,0,1:0:0:0:
200,144,195008,1,8,1:0:0:0:
202,129,195087,1,0,1:0:0:0:
208,140,195245,1,8,1:0:0:0:
208,140,195284,1,0,1:0:0:0:
208,140,195324,1,0,1:0:0:0:
208,140,195363,1,0,1:0:0:0:
200,144,195403,1,8,1:0:0:0:
232,136,195640,1,0,1:0:0:0:
200,144,195719,1,8,1:0:0:0:
232,136,195797,1,0,1:0:0:0:
208,148,196034,1,0,1:0:0:0:
208,148,196113,5,0,1:0:0:0:
208,148,196192,1,0,1:0:0:0:
208,148,196271,1,0,1:0:0:0:
232,148,196350,1,8,1:0:0:0:
224,144,196508,1,8,1:0:0:0:
224,144,196666,1,8,1:0:0:0:
224,144,196824,1,0,1:0:0:0:
228,140,196903,1,0,1:0:0:0:
224,144,196982,1,8,1:0:0:0:
228,140,197061,1,8,1:0:0:0:
220,136,197140,1,8,1:0:0:0:
223,140,197179,1,0,1:0:0:0:
223,140,197218,1,0,1:0:0:0:
223,140,197258,1,0,1:0:0:0:
223,140,197297,1,8,1:0:0:0:
219,149,199034,5,8,1:0:0:0:
208,133,199073,1,8,1:0:0:0:
219,149,199113,1,8,1:0:0:0:
207,133,199152,1,8,1:0:0:0:
208,152,199192,1,4,1:0:0:0:
208,152,199402,1,0,1:0:0:0:
213,143,199613,1,0,1:0:0:0:
212,143,199823,1,12,1:0:0:0:
199,137,200218,1,0,1:0:0:0:
208,152,200297,1,12,1:0:0:0:
199,137,200613,1,0,1:0:0:0:
199,137,200692,1,0,1:0:0:0:
208,152,200771,1,12,1:0:0:0:
208,152,201087,1,0,1:0:0:0:
208,152,201166,1,0,1:0:0:0:
208,152,201245,1,0,1:0:0:0:
208,152,201323,1,0,1:0:0:0:
216,150,201402,1,8,1:0:0:0:
208,152,201560,1,8,1:0:0:0:
208,152,201639,1,8,1:0:0:0:
208,152,201718,1,0,1:0:0:0:
208,152,201797,1,0,1:0:0:0:
212,160,201876,1,8,1:0:0:0:
216,157,202034,1,0,1:0:0:0:
208,152,202192,1,8,1:0:0:0:
208,152,202271,1,8,1:0:0:0:
200,144,202350,5,0,1:0:0:0:
197,149,202508,1,0,1:0:0:0:
199,147,202587,1,0,1:0:0:0:
200,144,202666,1,8,1:0:0:0:
200,150,202824,1,0,1:0:0:0:
200,149,202982,1,8,1:0:0:0:
205,153,203140,1,0,1:0:0:0:
200,144,203298,1,8,1:0:0:0:
200,144,203456,1,8,1:0:0:0:
200,144,203614,1,8,1:0:0:0:
194,126,203693,1,0,1:0:0:0:
193,125,203771,1,0,1:0:0:0:
200,144,203850,1,0,1:0:0:0:
200,144,203929,1,8,1:0:0:0:
192,124,204008,1,8,1:0:0:0:
200,144,204087,1,0,1:0:0:0:
200,144,204403,1,0,1:0:0:0:
200,144,204561,1,8,1:0:0:0:
200,144,204719,1,0,1:0:0:0:
200,144,204877,1,8,1:0:0:0:
200,144,204956,1,0,1:0:0:0:
204,139,205035,1,8,1:0:0:0:
200,144,205114,1,0,1:0:0:0:
200,144,205192,1,8,1:0:0:0:
200,144,205271,1,0,1:0:0:0:
200,144,205350,1,0,1:0:0:0:
200,144,205666,1,0,1:0:0:0:
200,144,205824,1,0,1:0:0:0:
200,144,205982,1,0,1:0:0:0:
200,144,206140,1,12,1:0:0:0:
200,144,206298,5,12,1:0:0:0:
200,144,206456,1,4,1:0:0:0:
200,144,206614,1,4,1:0:0:0:
200,144,206771,1,12,1:0:0:0:
200,144,206929,1,12,1:0:0:0:
200,144,207087,1,4,1:0:0:0:
200,144,207245,1,4,1:0:0:0:
200,144,207402,5,12,1:0:0:0:
200,144,207718,1,8,1:0:0:0:
236,147,207876,1,0,1:0:0:0:
188,143,207955,1,0,1:0:0:0:
200,144,208033,1,8,1:0:0:0:
207,157,208192,1,12,1:0:0:0:
200,144,208349,1,0,1:0:0:0:
206,149,208428,1,0,1:0:0:0:
200,144,208507,1,0,1:0:0:0:
200,144,208665,1,8,1:0:0:0:
189,111,208770,1,0,1:0:0:0:
189,111,208876,1,0,1:0:0:0:
200,144,208981,1,8,1:0:0:0:
189,111,209086,1,0,1:0:0:0:
189,111,209192,1,0,1:0:0:0:
200,144,209297,1,8,1:0:0:0:
202,141,209455,1,4,1:0:0:0:
200,144,209612,1,0,1:0:0:0:
200,144,209691,1,0,1:0:0:0:
200,144,209770,1,8,1:0:0:0:
200,144,209849,1,8,1:0:0:0:
200,144,209928,1,0,1:0:0:0:
200,152,210086,1,8,1:0:0:0:
200,152,210244,1,0,1:0:0:0:
200,152,210402,1,8,1:0:0:0:
200,152,210560,1,8,1:0:0:0:
200,152,210718,1,0,1:0:0:0:
192,131,210797,1,8,1:0:0:0:
200,144,210876,1,0,1:0:0:0:
200,144,211034,1,0,1:0:0:0:
200,144,211113,1,8,1:0:0:0:
200,144,211192,1,8,1:0:0:0:
200,144,211507,1,12,1:0:0:0:
200,144,211665,1,0,1:0:0:0:
204,140,211744,1,12,1:0:0:0:
200,144,211902,1,0,1:0:0:0:
206,147,211981,1,8,1:0:0:0:
200,144,212139,5,8,1:0:0:0:
204,152,212297,1,8,1:0:0:0:
200,144,212336,1,0,1:0:0:0:
200,144,212376,1,0,1:0:0:0:
200,144,212415,1,0,1:0:0:0:
200,144,212454,1,8,1:0:0:0:
200,144,212770,1,0,1:0:0:0:
196,152,212849,1,0,1:0:0:0:
200,144,212928,1,8,1:0:0:0:
200,144,213244,1,8,1:0:0:0:
200,144,213323,1,8,1:0:0:0:
200,144,213402,1,0,1:0:0:0:
200,144,213560,1,0,1:0:0:0:
200,144,213718,1,8,1:0:0:0:
209,140,213823,1,0,1:0:0:0:
209,140,213929,1,8,1:0:0:0:
209,141,214034,1,8,1:0:0:0:
207,143,214139,1,8,1:0:0:0:
207,143,214245,1,0,1:0:0:0:
207,144,214350,1,8,1:0:0:0:
200,144,214507,1,0,1:0:0:0:
200,144,214586,1,0,1:0:0:0:
200,144,214665,1,8,1:0:0:0:
200,144,214823,1,0,1:0:0:0:
190,164,214863,1,0,1:0:0:0:
190,164,214902,1,0,1:0:0:0:
190,164,214942,1,0,1:0:0:0:
200,144,214981,1,8,1:0:0:0:
211,154,215087,1,0,1:0:0:0:
208,152,215192,1,8,1:0:0:0:
241,149,215297,1,8,1:0:0:0:
228,148,215402,1,0,1:0:0:0:
227,149,215508,1,8,1:0:0:0:
223,148,215613,1,0,1:0:0:0:
192,144,215770,1,8,1:0:0:0:
200,144,215928,1,0,1:0:0:0:
205,142,216245,1,8,1:0:0:0:
200,144,216350,1,0,1:0:0:0:
200,144,216455,1,8,1:0:0:0:
204,141,216560,1,8,1:0:0:0:
204,141,216666,1,8,1:0:0:0:
203,139,216771,1,8,1:0:0:0:
200,144,216876,1,0,1:0:0:0:
204,136,216955,1,8,1:0:0:0:
205,142,217034,1,8,1:0:0:0:
205,142,217113,1,0,1:0:0:0:
205,142,217192,1,8,1:0:0:0:
205,142,217271,1,0,1:0:0:0:
200,144,217350,1,8,1:0:0:0:
200,144,217429,1,8,1:0:0:0:
204,141,217508,1,0,1:0:0:0:
200,144,217823,1,0,1:0:0:0:
200,144,218138,1,8,1:0:0:0:
202,151,218376,1,0,1:0:0:0:
200,144,218454,1,0,1:0:0:0:
200,144,218612,1,0,1:0:0:0:
200,144,218770,1,8,1:0:0:0:
203,150,218850,1,0,1:0:0:0:
200,144,219086,1,0,1:0:0:0:
200,144,219402,1,8,1:0:0:0:
195,152,219481,1,0,1:0:0:0:
195,152,219560,1,0,1:0:0:0:
200,144,219717,1,0,1:0:0:0:
200,144,219796,1,0,1:0:0:0:
200,144,219875,1,0,1:0:0:0:
200,144,220034,1,12,1:0:0:0:
200,144,220350,1,0,1:0:0:0:
212,152,220508,1,12,1:0:0:0:
200,144,220823,1,0,1:0:0:0:
212,152,220981,1,12,1:0:0:0:
212,152,221297,1,12,1:0:0:0:
200,140,221455,1,0,1:0:0:0:
207,149,221613,1,8,1:0:0:0:
207,149,221652,1,8,1:0:0:0:
207,148,221692,1,8,1:0:0:0:
208,147,221731,1,8,1:0:0:0:
208,147,221771,1,8,1:0:0:0:
208,147,221810,1,8,1:0:0:0:
206,158,221929,1,4,1:0:0:0:
217,161,222087,1,4,1:0:0:0:
200,144,222244,5,4,1:0:0:0:
212,152,222323,1,8,1:0:0:0:
204,152,222402,1,4,1:0:0:0:
212,152,222481,1,8,1:0:0:0:
200,144,222559,1,4,1:0:0:0:
200,144,222875,1,0,1:0:0:0:
196,152,222954,1,0,1:0:0:0:
200,144,223034,1,8,1:0:0:0:
186,136,223192,1,0,1:0:0:0:
186,136,223271,1,0,1:0:0:0:
200,144,223428,1,0,1:0:0:0:
200,144,223507,1,8,1:0:0:0:
200,144,223665,1,0,1:0:0:0:
200,144,223823,1,8,1:0:0:0:
200,144,224138,1,0,1:0:0:0:
200,144,224297,1,8,1:0:0:0:
200,144,224455,1,0,1:0:0:0:
200,144,224534,1,0,1:0:0:0:
200,144,224691,1,0,1:0:0:0:
200,144,224770,1,8,1:0:0:0:
200,144,224928,1,0,1:0:0:0:
182,142,225008,1,0,1:0:0:0:
200,144,225086,1,8,1:0:0:0:
200,144,225401,1,0,1:0:0:0:
200,144,225559,1,8,1:0:0:0:
182,174,225718,1,8,1:0:0:0:
182,175,225797,1,0,1:0:0:0:
180,160,225955,1,0,1:0:0:0:
180,160,226034,1,12,1:0:0:0:
178,172,226113,1,0,1:0:0:0:
178,172,226192,1,8,1:0:0:0:
176,168,226350,1,8,1:0:0:0:
176,168,226508,1,8,1:0:0:0:
176,168,226666,1,0,1:0:0:0:
224,160,226981,1,4,1:0:0:0:
224,160,227139,1,4,1:0:0:0:
236,156,227297,1,0,1:0:0:0:
236,156,227376,1,8,1:0:0:0:
236,156,227455,1,8,1:0:0:0:
236,156,227534,1,0,1:0:0:0:
236,156,227613,1,8,1:0:0:0:
240,176,229508,5,4,1:0:0:0:
136,172,229587,1,8,1:0:0:0:
136,172,229666,1,8,1:0:0:0:
136,172,229745,1,8,1:0:0:0:
240,176,229823,1,4,1:0:0:0:
136,172,229902,1,8,1:0:0:0:
136,172,229981,1,8,1:0:0:0:
136,172,230060,1,8,1:0:0:0:
240,176,230139,1,0,1:0:0:0:
236,180,231402,1,8,1:0:0:0:
238,160,232034,1,0,1:0:0:0:
238,160,232113,1,0,1:0:0:0:
238,160,232192,1,8,1:0:0:0:
238,160,232271,1,8,1:0:0:0:
238,160,232350,1,0,1:0:0:0:
238,160,232429,1,8,1:0:0:0:
238,160,232508,1,0,1:0:0:0:
238,160,232587,1,8,1:0:0:0:
238,160,232666,1,12,1:0:0:0:
201,123,232902,1,0,1:0:0:0:
201,123,232981,1,0,1:0:0:0:
201,123,233060,1,0,1:0:0:0:
240,176,233139,1,12,1:0:0:0:
260,162,233376,1,0,1:0:0:0:
260,161,233455,1,0,1:0:0:0:
260,161,233534,1,0,1:0:0:0:
240,176,233613,1,12,1:0:0:0:
260,161,233850,1,0,1:0:0:0:
260,161,233929,1,0,1:0:0:0:
260,161,234008,1,0,1:0:0:0:
240,176,234087,1,12,1:0:0:0:
252,164,234245,1,0,1:0:0:0:
252,164,234284,1,0,1:0:0:0:
252,164,234323,1,8,1:0:0:0:
252,164,234363,1,8,1:0:0:0:
252,164,234402,1,8,1:0:0:0:
252,164,234442,1,8,1:0:0:0:
252,164,234481,1,8,1:0:0:0:
252,164,234521,1,8,1:0:0:0:
228,176,234560,1,8,1:0:0:0:
227,169,234718,1,4,1:0:0:0:
228,176,234876,1,4,1:0:0:0:
228,176,235034,1,12,1:0:0:0:
224,164,235350,1,0,1:0:0:0:
224,164,235508,1,0,1:0:0:0:
227,169,235587,1,0,1:0:0:0:
224,160,235666,1,8,1:0:0:0:
212,172,235823,1,8,1:0:0:0:
218,156,235981,1,8,1:0:0:0:
218,156,236139,1,8,1:0:0:0:
199,166,236297,1,0,1:0:0:0:
199,166,236376,1,8,1:0:0:0:
201,144,236455,1,0,1:0:0:0:
188,152,236613,1,0,1:0:0:0:
188,152,236771,1,8,1:0:0:0:
188,152,236850,1,8,1:0:0:0:
188,152,236929,1,0,1:0:0:0:
176,160,237087,1,0,1:0:0:0:
176,160,237245,1,8,1:0:0:0:
176,160,237402,1,0,1:0:0:0:
169,149,237481,1,8,1:0:0:0:
170,150,237560,1,8,1:0:0:0:
170,150,237639,1,8,1:0:0:0:
208,160,237718,5,4,1:0:0:0:
237,166,237876,1,0,1:0:0:0:
212,160,237955,1,8,1:0:0:0:
152,168,238034,1,0,1:0:0:0:
152,168,238192,1,8,1:0:0:0:
194,169,238350,1,8,1:0:0:0:
212,160,238429,1,0,1:0:0:0:
152,168,238508,1,0,1:0:0:0:
152,168,238666,1,8,1:0:0:0:
195,169,238823,1,0,1:0:0:0:
212,160,238902,1,8,1:0:0:0:
152,168,238981,1,8,1:0:0:0:
152,168,239139,1,8,1:0:0:0:
194,169,239297,1,0,1:0:0:0:
212,160,239376,1,8,1:0:0:0:
152,168,239455,1,0,1:0:0:0:
152,168,239613,1,8,1:0:0:0:
170,162,239771,1,0,1:0:0:0:
170,162,239850,1,0,1:0:0:0:
152,168,239929,1,8,1:0:0:0:
180,168,240008,1,8,1:0:0:0:
212,160,240087,1,8,1:0:0:0:
181,167,240166,1,0,1:0:0:0:
152,168,240245,1,12,1:0:0:0:
176,175,240402,1,0,1:0:0:0:
212,160,240481,1,8,1:0:0:0:
152,168,240560,1,0,1:0:0:0:
152,168,240718,1,8,1:0:0:0:
176,175,240876,1,0,1:0:0:0:
212,160,240955,1,8,1:0:0:0:
152,168,241034,1,8,1:0:0:0:
152,168,241192,1,8,1:0:0:0:
176,175,241350,1,8,1:0:0:0:
212,160,241429,1,8,1:0:0:0:
152,168,241508,1,8,1:0:0:0:
152,168,241666,1,0,1:0:0:0:
176,175,241823,1,0,1:0:0:0:
212,160,241902,1,8,1:0:0:0:
152,168,241981,1,8,1:0:0:0:
152,168,242139,1,8,1:0:0:0:
152,168,242455,1,8,1:0:0:0:
168,144,242560,1,0,1:0:0:0:
168,144,242666,1,0,1:0:0:0:
168,144,242771,1,0,1:0:0:0:
152,168,243087,1,0,1:0:0:0:
164,129,243166,1,0,1:0:0:0:
152,168,243245,1,8,1:0:0:0:
164,129,243402,1,4,1:0:0:0:
152,168,243561,1,8,1:0:0:0:
164,129,243639,1,0,1:0:0:0:
152,168,243719,1,8,1:0:0:0:
164,129,243876,1,12,1:0:0:0:
152,168,244034,1,8,1:0:0:0:
164,129,244113,1,0,1:0:0:0:
152,168,244192,1,0,1:0:0:0:
164,129,244350,1,4,1:0:0:0:
152,168,244508,1,8,1:0:0:0:
164,129,244587,1,0,1:0:0:0:
152,168,244666,1,12,1:0:0:0:
199,147,244823,1,0,1:0:0:0:
164,129,244902,1,0,1:0:0:0:
152,168,244982,1,12,1:0:0:0:
164,129,245060,1,0,1:0:0:0:
199,147,245139,1,0,1:0:0:0:
219,143,245297,1,8,1:0:0:0:
196,153,245376,1,0,1:0:0:0:
216,144,245455,1,8,1:0:0:0:
196,153,245534,1,0,1:0:0:0:
199,147,245613,1,8,1:0:0:0:
199,147,245929,1,0,1:0:0:0:
199,147,246087,1,8,1:0:0:0:
199,147,246245,1,0,1:0:0:0:
199,147,246402,1,8,1:0:0:0:
206,147,246481,1,0,1:0:0:0:
206,147,246560,1,0,1:0:0:0:
206,147,246639,1,0,1:0:0:0:
199,147,246718,1,8,1:0:0:0:
199,147,246876,1,0,1:0:0:0:
199,147,247034,1,0,1:0:0:0:
199,147,247192,1,8,1:0:0:0:
199,147,247350,1,0,1:0:0:0:
199,147,247508,1,8,1:0:0:0:
234,156,247587,1,8,1:0:0:0:
199,147,247666,1,0,1:0:0:0:
232,153,247745,1,0,1:0:0:0:
212,172,247823,5,8,1:0:0:0:
212,172,248139,1,0,1:0:0:0:
210,185,248297,1,0,1:0:0:0:
210,185,248376,1,0,1:0:0:0:
212,172,248455,1,12,1:0:0:0:
197,156,248613,1,8,1:0:0:0:
197,157,248692,1,8,1:0:0:0:
212,172,248771,1,0,1:0:0:0:
212,172,249087,1,12,1:0:0:0:
233,168,249245,1,8,1:0:0:0:
218,156,249323,1,8,1:0:0:0:
212,172,249402,1,0,1:0:0:0:
212,172,249718,1,12,1:0:0:0:
230,156,249876,1,0,1:0:0:0:
227,155,249955,1,0,1:0:0:0:
212,172,250034,1,12,1:0:0:0:
227,155,250192,1,0,1:0:0:0:
212,172,250350,1,12,1:0:0:0:
212,172,250666,1,0,1:0:0:0:
212,172,250823,1,0,1:0:0:0:
212,172,250981,1,8,1:0:0:0:
214,163,251139,1,0,1:0:0:0:
215,163,251218,1,8,1:0:0:0:
212,172,251297,1,0,1:0:0:0:
212,172,251613,1,8,1:0:0:0:
200,179,251692,1,0,1:0:0:0:
200,179,251771,1,8,1:0:0:0:
200,179,251850,1,0,1:0:0:0:
212,172,251929,1,8,1:0:0:0:
212,172,252087,1,0,1:0:0:0:
212,172,252245,1,12,1:0:0:0:
212,172,252402,1,0,1:0:0:0:
212,172,252560,1,12,1:0:0:0:
212,172,252718,1,0,1:0:0:0:
212,172,252876,1,12,1:0:0:0:
212,172,253192,1,0,1:0:0:0:
212,172,253350,1,0,1:0:0:0:
212,172,253508,1,8,1:0:0:0:
212,172,253823,1,0,1:0:0:0:
212,172,254139,1,8,1:0:0:0:
216,164,254218,1,0,1:0:0:0:
217,164,254297,1,0,1:0:0:0:
217,162,254376,1,8,1:0:0:0:
212,172,254455,1,8,1:0:0:0:
215,161,254534,1,8,1:0:0:0:
215,161,254613,1,0,1:0:0:0:
215,161,254692,1,8,1:0:0:0:
212,172,254771,1,8,1:0:0:0:
215,161,254850,1,0,1:0:0:0:
215,161,254929,1,0,1:0:0:0:
215,161,255008,1,8,1:0:0:0:
212,172,255087,1,0,1:0:0:0:
184,184,255402,1,12,1:0:0:0:
181,167,255560,1,0,1:0:0:0:
183,168,255639,1,0,1:0:0:0:
192,176,255718,1,0,1:0:0:0:
184,184,255876,1,12,1:0:0:0:
208,151,256034,1,0,1:0:0:0:
208,151,256113,1,0,1:0:0:0:
192,176,256192,1,0,1:0:0:0:
184,184,256350,1,12,1:0:0:0:
207,149,256508,1,0,1:0:0:0:
207,149,256587,1,0,1:0:0:0:
192,176,256666,1,0,1:0:0:0:
184,184,256823,1,12,1:0:0:0:
208,151,256981,1,0,1:0:0:0:
208,151,257060,1,0,1:0:0:0:
192,176,257139,1,0,1:0:0:0:
184,184,257297,1,12,1:0:0:0:
184,184,257613,1,12,1:0:0:0:
