osu file format v14

[General]
AudioFilename: Sinkouha Hakanaki Ningenno Tameni.mp3
AudioLeadIn: 0
PreviewTime: 238820
Countdown: 0
SampleSet: Soft
StackLeniency: 0.3
Mode: 0
LetterboxInBreaks: 0
WidescreenStoryboard: 0

[Editor]
Bookmarks: 35173,40082,115628,149719,210673,210810
DistanceSpacing: 1.2
BeatDivisor: 4
GridSize: 16
TimelineZoom: 3.1

[Metadata]
Title:Shinkou wa Hakanaki Ningen no Tame ni ~ Jehovah's YaHVeH
TitleUnicode:信仰は儚き人間の為に ~ Jehovah's YaHVeH
Artist:Demetori
ArtistUnicode:Demetori
Creator:[Crz]Makii
Version:Extra Stage
Source:東方風神録 ~ Mountain of Faith.
Tags:東方project sanae kochiya 東風谷 早苗 I am who I am Il Mondo dove e finito il Tempo metal wind god Japanese [Crz]Sword rock Video Game Instrumental Faith is for the Transient People th10 Touhou Fuujinroku
BeatmapID:1229493
BeatmapSetID:580743

[Difficulty]
HPDrainRate:4.7
CircleSize:4
OverallDifficulty:9.5
ApproachRate:9.8
SliderMultiplier:1.8
SliderTickRate:1

[Events]
//Background and Video events
0,0,"93250936_p0_1.jpg",0,0
//Break Periods
//Storyboard Layer 0 (Background)
//Storyboard Layer 1 (Fail)
//Storyboard Layer 2 (Pass)
//Storyboard Layer 3 (Foreground)
//Storyboard Layer 4 (Overlay)
//Storyboard Sound Samples

[TimingPoints]
457,272.727272727273,4,2,1,20,1,0
457,-500,4,2,2,10,0,0
4820,-500,4,2,2,15,0,0
9184,-250,4,2,2,20,0,0
31002,-250,4,2,2,30,0,0
32093,-250,4,2,2,35,0,0
33184,-250,4,2,2,40,0,0
34275,-250,4,2,2,45,0,0
35366,-100,4,2,1,65,0,0
39729,-200,4,2,1,65,0,0
40820,-133.333333333333,4,2,1,65,0,0
41638,-100,4,2,1,65,0,0
62638,-100,4,2,1,65,0,0
87729,-300,4,2,1,65,0,0
88002,-151.515151515152,4,2,1,65,0,0
88275,-100,4,2,1,65,0,0
88820,-90.9090909090909,4,2,1,75,0,1
106275,-100,4,2,1,65,0,0
124275,272.727272727273,4,2,1,65,1,0
150456,-90.9090909090909,4,2,1,75,0,1
167911,-100,4,2,1,65,0,0
169002,-125,4,2,1,65,0,0
172275,-100,4,2,1,65,0,0
176638,-90.9090909090909,4,2,1,75,0,1
188638,-133.333333333333,4,2,1,75,0,1
189184,-90.9090909090909,4,2,1,75,0,1
194093,-100,4,2,1,65,0,0
201729,-66.6666666666667,4,2,1,65,0,0
202411,-100,4,2,1,65,0,0
214547,-100,4,2,1,65,0,0
215229,-142.857142857143,4,2,1,65,0,0
215911,-133.333333333333,4,2,1,65,0,0
216865,-117.647058823529,4,2,1,65,0,0
217547,-100,4,2,1,65,0,0
238820,-90.9090909090909,4,2,1,75,0,1
256274,-83.3333333333333,4,2,1,85,0,1
273729,-100,4,2,1,65,0,0

[Colours]
Combo1 : 0,255,64
Combo2 : 0,255,255
Combo3 : 128,0,255
Combo4 : 255,255,0

[HitObjects]
87,75,457,6,0,L|128:72,1,36,2|0,0:0|0:0,0:0:0:0:
135,153,1002,2,0,L|176:156,1,36
205,67,1547,2,0,L|246:64,1,36
253,145,2093,2,0,L|294:148,1,36
425,309,2638,6,0,L|384:312,1,36,2|0,0:0|0:0,0:0:0:0:
377,231,3184,2,0,L|336:228,1,36
307,317,3729,2,0,L|266:320,1,36
259,239,4274,2,0,L|218:236,1,36
101,320,4820,6,0,L|61:323,3,36,2|0|0|0,0:0|0:0|0:0|0:0,0:0:0:0:
128,244,5911,2,0,L|130:209,1,36,2|0,0:0|0:0,0:0:0:0:
57,169,6457,2,0,L|55:134,1,36
139,54,7002,6,0,L|181:56,3,36,2|0|0|0,0:0|0:0|0:0|0:0,0:0:0:0:
210,134,8093,2,0,L|248:130,1,36,2|0,0:0|0:0,0:0:0:0:
284,68,8638,1,0,0:0:0:0:
358,71,8911,1,0,0:0:0:0:
399,131,9184,6,0,L|398:215,1,72,2|0,0:0|0:0,0:0:0:0:
329,293,9729,1,0,0:0:0:0:
266,216,10002,1,0,0:0:0:0:
297,121,10275,2,0,B|246:103|219:126,1,72,2|0,0:0|0:0,0:0:0:0:
147,195,10820,1,0,0:0:0:0:
189,296,11093,1,0,0:0:0:0:
241,222,11366,6,0,L|246:143,1,72,2|0,0:0|0:0,0:0:0:0:
312,56,11911,1,0,0:0:0:0:
379,136,12184,1,0,0:0:0:0:
345,242,12457,2,0,B|313:271|269:260,1,72,2|0,0:0|0:0,0:0:0:0:
158,189,13002,2,0,P|188:167|232:169,1,72
79,285,13547,6,0,P|56:235|62:207,1,72,2|0,0:0|0:0,0:0:0:0:
96,96,14093,1,0,0:0:0:0:
203,132,14366,1,0,0:0:0:0:
284,48,14638,2,0,L|361:60,1,72,2|0,0:0|0:0,0:0:0:0:
425,131,15184,2,0,P|429:166|413:206,1,72
311,265,15729,6,0,L|233:252,1,72,2|0,0:0|0:0,0:0:0:0:
182,155,16275,1,0,0:0:0:0:
69,163,16547,1,0,0:0:0:0:
92,267,16820,2,0,B|161:249,1,72,2|0,0:0|0:0,0:0:0:0:
210,162,17366,1,0,0:0:0:0:
44,47,17911,6,0,L|49:204,1,144,2|0,0:0|0:0,0:0:0:0:
286,179,18729,1,0,0:0:0:0:
157,117,19002,2,0,L|159:203,1,72,2|0,0:0|0:0,0:0:0:0:
221,288,19547,1,0,0:0:0:0:
326,262,19820,1,0,0:0:0:0:
392,167,20093,6,0,P|388:126|362:96,1,72,2|0,0:0|0:0,0:0:0:0:
219,82,20638,2,0,L|137:64,2,72,0|0|2,0:0|0:0|0:0,0:0:0:0:
206,222,21457,1,0,0:0:0:0:
82,196,21729,2,0,L|82:276,1,72
174,351,22275,6,0,B|246:323|324:358,1,144,2|0,0:0|0:0,0:0:0:0:
430,293,23093,1,0,0:0:0:0:
375,204,23366,2,0,L|289:191,1,72,2|0,0:0|0:0,0:0:0:0:
254,100,23911,2,0,L|172:118,1,72
25,189,24457,5,2,0:0:0:0:
145,248,24729,1,0,0:0:0:0:
130,134,25002,1,0,0:0:0:0:
44,290,25275,1,0,0:0:0:0:
174,322,25547,5,2,0:0:0:0:
308,305,25820,1,0,0:0:0:0:
409,215,26093,1,0,0:0:0:0:
453,87,26366,1,0,0:0:0:0:
341,25,26638,6,0,P|271:35|233:104,1,144,2|0,0:0|0:0,0:0:0:0:
149,202,27457,1,0,0:0:0:0:
42,269,27729,2,0,P|28:218|35:199,1,72,2|0,0:0|0:0,0:0:0:0:
118,103,28275,2,0,B|161:115|204:106,1,72
339,39,28820,5,2,0:0:0:0:
423,110,29093,1,0,0:0:0:0:
318,149,29366,1,0,0:0:0:0:
339,39,29638,1,0,0:0:0:0:
393,251,29911,5,2,0:0:0:0:
299,316,30184,1,0,0:0:0:0:
176,325,30457,1,0,0:0:0:0:
70,288,30729,1,0,0:0:0:0:
25,190,31002,6,0,L|20:109,2,72,2|0|0,0:0|0:0|0:0,0:0:0:0:
148,68,31820,1,0,0:0:0:0:
220,173,32093,2,0,L|303:175,2,72,2|0|0,0:0|0:0|0:0,0:0:0:0:
110,297,32911,1,0,0:0:0:0:
263,344,33184,6,0,P|311:339|349:341,1,72,2|0,0:0|0:0,0:0:0:0:
461,283,33729,2,0,L|464:196,1,72,2|0,0:0|0:0,0:0:0:0:
449,85,34275,1,2,0:0:0:0:
371,196,34547,1,2,0:0:0:0:
307,62,34820,1,2,0:0:0:0:
86,35,35366,5,6,0:0:0:0:
88,57,35434,1,0,0:0:0:0:
90,79,35502,1,0,0:0:0:0:
92,102,35570,1,0,0:0:0:0:
93,123,35638,2,0,L|98:176,3,45,8|0|0|0,0:0|0:0|0:0|0:0,0:0:0:0:
27,212,35911,2,0,L|19:274,3,45,2|0|0|0,0:0|0:0|0:0|0:0,0:0:0:0:
90,294,36184,2,0,L|96:342,3,45,8|0|0|0,0:0|0:0|0:0|0:0,0:0:0:0:
191,329,36457,5,2,0:0:0:0:
211,337,36525,1,0,0:0:0:0:
233,341,36593,1,0,0:0:0:0:
256,339,36661,1,0,0:0:0:0:
277,332,36729,1,8,0:0:0:0:
298,325,36797,1,0,0:0:0:0:
320,323,36865,1,0,0:0:0:0:
342,327,36933,1,0,0:0:0:0:
364,336,37002,2,0,L|409:355,3,45,2|0|0|0,0:0|0:0|0:0|0:0,0:0:0:0:
409,255,37275,2,0,L|387:206,3,45,8|0|0|0,0:0|0:0|0:0|0:0,0:0:0:0:
494,289,37547,6,0,P|470:171|435:138,1,135,6|0,0:0|0:0,0:0:0:0:
309,147,37820,2,0,P|351:133|380:136,1,45,2|0,0:0|0:0,0:0:0:0:
259,45,37957,6,0,P|159:57|93:32,1,135,4|0,0:0|0:0,0:0:0:0:
71,137,38229,2,0,P|48:134|19:139,1,45,2|0,0:0|0:0,0:0:0:0:
74,264,38366,2,0,B|164:226|219:271|219:271|293:323|385:279,1,315,4|0,0:0|0:0,0:0:0:0:
410,178,38911,6,0,P|419:149|419:127,3,45,0|0|0|0,3:3|3:3|3:3|3:3,3:3:0:0:
325,111,39184,6,0,P|322:80|311:49,2,60,0|0|0,3:3|3:3|3:3,3:3:0:0:
196,96,39457,6,0,P|179:73|156:52,2,60,0|0|0,3:3|3:3|3:3,3:3:0:0:
86,139,39729,6,0,B|58:214|87:365|87:365|130:283,1,315,6|0,0:0|0:0,0:0:0:0:
197,151,40820,2,0,B|305:115|444:149|444:149|373:200,1,337.500012874604,6|0,0:0|0:0,0:0:0:0:
470,61,41638,2,0,P|469:42|464:15,3,45,0|0|0|0,3:3|3:3|3:3|3:3,3:3:0:0:
465,239,41911,5,14,0:0:0:0:
275,317,42047,1,0,0:0:0:0:
452,330,42184,5,10,0:0:0:0:
272,209,42320,1,0,0:0:0:0:
373,102,42457,5,10,0:0:0:0:
332,350,42593,1,0,0:0:0:0:
221,126,42729,5,10,0:0:0:0:
150,275,42866,2,0,L|154:343,2,45,0|0|10,0:0|0:0|0:0,0:0:0:0:
109,99,43138,5,0,0:0:0:0:
100,78,43207,1,0,0:0:0:0:
91,57,43275,1,10,0:0:0:0:
63,203,43411,5,0,0:0:0:0:
41,197,43479,1,0,0:0:0:0:
19,191,43547,1,10,0:0:0:0:
459,56,44093,5,6,0:0:0:0:
404,171,44229,1,0,0:0:0:0:
326,75,44366,1,8,0:0:0:0:
326,75,44434,1,0,0:0:0:0:
326,75,44502,1,0,0:0:0:0:
249,169,44638,2,0,L|254:272,1,90,2|0,0:0|0:0,0:0:0:0:
379,314,44911,1,8,0:0:0:0:
379,314,44979,1,0,0:0:0:0:
379,314,45047,1,0,0:0:0:0:
246,370,45184,6,0,P|187:376|155:372,1,90,2|0,0:0|0:0,0:0:0:0:
74,261,45457,1,8,0:0:0:0:
74,261,45525,1,0,0:0:0:0:
74,261,45593,1,0,0:0:0:0:
134,148,45729,2,0,L|140:101,2,45,2|0|0,0:0|0:0|0:0,0:0:0:0:
62,41,46002,1,8,0:0:0:0:
62,41,46070,1,0,0:0:0:0:
62,41,46138,1,0,0:0:0:0:
214,53,46275,6,0,L|306:56,1,90,2|0,0:0|0:0,0:0:0:0:
355,164,46547,1,8,0:0:0:0:
355,164,46616,1,0,0:0:0:0:
355,164,46684,1,0,0:0:0:0:
469,72,46820,2,0,P|478:139|470:180,1,90,2|0,0:0|0:0,0:0:0:0:
365,252,47093,2,0,L|312:263,2,45,8|0|0,0:0|0:0|0:0,0:0:0:0:
465,338,47366,6,0,P|427:357|374:359,1,90,2|0,0:0|0:0,0:0:0:0:
255,317,47638,1,8,0:0:0:0:
255,317,47707,1,0,0:0:0:0:
255,317,47775,1,0,0:0:0:0:
126,356,47911,2,0,L|80:365,2,45,2|0|0,0:0|0:0|0:0,0:0:0:0:
60,258,48184,1,8,0:0:0:0:
60,258,48252,1,0,0:0:0:0:
60,258,48320,1,0,0:0:0:0:
140,163,48457,5,6,0:0:0:0:
53,79,48593,1,0,0:0:0:0:
169,30,48729,1,10,0:0:0:0:
169,30,48797,1,0,0:0:0:0:
169,30,48866,1,0,0:0:0:0:
237,107,49002,2,0,B|293:102|336:109,1,90,2|0,0:0|0:0,0:0:0:0:
381,212,49275,1,8,0:0:0:0:
381,212,49343,1,0,0:0:0:0:
381,212,49411,1,0,0:0:0:0:
442,29,49547,6,0,B|446:86|446:86|440:146,1,90,2|0,0:0|0:0,0:0:0:0:
298,182,49820,1,8,0:0:0:0:
298,182,49888,1,0,0:0:0:0:
298,182,49957,1,0,0:0:0:0:
380,304,50093,2,0,P|435:308|479:325,1,90,2|0,0:0|0:0,0:0:0:0:
209,313,50366,1,8,0:0:0:0:
209,313,50434,1,0,0:0:0:0:
209,313,50502,1,0,0:0:0:0:
45,273,50638,6,0,P|36:324|50:374,1,90,2|0,0:0|0:0,0:0:0:0:
201,221,50911,1,8,0:0:0:0:
201,221,50979,1,0,0:0:0:0:
201,221,51047,1,0,0:0:0:0:
105,139,51184,2,0,P|50:133|7:135,1,90,2|0,0:0|0:0,0:0:0:0:
182,55,51457,2,0,L|191:6,2,45,8|0|0,0:0|0:0|0:0,0:0:0:0:
270,62,51729,5,10,0:0:0:0:
286,77,51797,1,0,0:0:0:0:
306,87,51866,1,0,0:0:0:0:
328,92,51934,1,0,0:0:0:0:
351,86,52002,1,10,0:0:0:0:
378,66,52070,1,0,0:0:0:0:
411,61,52138,1,0,0:0:0:0:
443,72,52207,1,0,0:0:0:0:
466,96,52275,2,0,L|472:158,3,45,10|0|0|0,0:0|0:0|0:0|0:0,0:0:0:0:
401,203,52547,2,8,L|400:260,3,45,10|8|8|8,0:0|0:0|0:0|0:0,0:0:0:0:
463,349,52820,6,0,P|408:347|337:354,1,90,14|0,0:0|0:0,0:0:0:0:
288,253,53093,1,8,0:0:0:0:
288,253,53161,1,0,0:0:0:0:
288,253,53229,1,0,0:0:0:0:
199,356,53366,2,0,P|144:354|97:333,1,90,2|0,0:0|0:0,0:0:0:0:
136,209,53638,1,8,0:0:0:0:
136,209,53707,1,0,0:0:0:0:
136,209,53775,1,0,0:0:0:0:
25,271,53911,6,0,P|16:193|18:175,1,90,2|0,0:0|0:0,0:0:0:0:
79,73,54184,1,8,0:0:0:0:
79,73,54252,1,0,0:0:0:0:
79,73,54320,1,0,0:0:0:0:
201,134,54457,2,0,L|214:189,2,45,2|0|0,0:0|0:0|0:0,0:0:0:0:
316,69,54729,1,8,0:0:0:0:
316,69,54797,1,0,0:0:0:0:
316,69,54866,1,0,0:0:0:0:
466,28,55002,6,0,L|464:152,1,90,2|0,0:0|0:0,0:0:0:0:
358,199,55275,1,8,0:0:0:0:
358,199,55343,1,0,0:0:0:0:
358,199,55411,1,0,0:0:0:0:
446,346,55547,2,0,P|457:288|452:251,1,90,2|0,0:0|0:0,0:0:0:0:
286,291,55820,1,8,0:0:0:0:
286,291,55888,1,0,0:0:0:0:
286,291,55957,1,0,0:0:0:0:
171,190,56093,6,0,L|51:198,1,90,2|0,0:0|0:0,0:0:0:0:
47,321,56366,1,8,0:0:0:0:
47,321,56434,1,0,0:0:0:0:
47,321,56502,1,0,0:0:0:0:
153,186,56638,2,0,L|246:195,1,90,2|0,0:0|0:0,0:0:0:0:
41,75,56911,1,8,0:0:0:0:
41,75,56979,1,0,0:0:0:0:
41,75,57047,1,0,0:0:0:0:
241,44,57184,5,6,0:0:0:0:
323,155,57320,1,0,0:0:0:0:
419,60,57457,1,8,0:0:0:0:
419,60,57525,1,0,0:0:0:0:
419,60,57593,1,0,0:0:0:0:
337,156,57729,2,0,P|332:211|362:253,1,90,2|0,0:0|0:0,0:0:0:0:
452,344,58002,1,8,0:0:0:0:
452,344,58070,1,0,0:0:0:0:
452,344,58138,1,0,0:0:0:0:
302,336,58275,6,0,L|202:342,1,90,2|0,0:0|0:0,0:0:0:0:
73,274,58547,1,8,0:0:0:0:
73,274,58616,1,0,0:0:0:0:
73,274,58684,1,0,0:0:0:0:
185,180,58820,2,0,L|250:171,2,45,2|0|0,0:0|0:0|0:0,0:0:0:0:
51,98,59093,1,8,0:0:0:0:
51,98,59161,1,0,0:0:0:0:
51,98,59229,1,0,0:0:0:0:
174,35,59366,5,6,0:0:0:0:
196,34,59434,1,0,0:0:0:0:
218,34,59502,1,0,0:0:0:0:
241,33,59570,1,0,0:0:0:0:
263,33,59638,1,10,0:0:0:0:
286,33,59706,1,0,0:0:0:0:
308,32,59775,1,0,0:0:0:0:
331,32,59843,1,0,0:0:0:0:
353,32,59911,2,0,L|397:34,3,45,2|0|0|0,0:0|0:0|0:0|0:0,0:0:0:0:
442,125,60184,2,0,L|503:128,3,45,10|0|0|0,0:0|0:0|0:0|0:0,0:0:0:0:
295,151,60457,5,2,0:0:0:0:
267,185,60525,1,0,0:0:0:0:
258,229,60593,1,0,0:0:0:0:
271,272,60661,1,0,0:0:0:0:
302,304,60729,1,10,0:0:0:0:
352,328,60797,1,0,0:0:0:0:
407,319,60866,1,0,0:0:0:0:
446,280,60934,1,0,0:0:0:0:
454,225,61002,2,0,L|448:172,3,45,2|0|0|0,0:0|0:0|0:0|0:0,0:0:0:0:
393,104,61275,2,0,L|399:51,3,45,10|0|0|0,0:0|0:0|0:0|0:0,0:0:0:0:
498,15,61547,1,6,0:0:0:0:
52,134,62638,6,0,P|43:197|63:245,1,90,6|0,0:0|0:0,0:0:0:0:
179,291,62911,1,8,0:0:0:0:
179,291,62979,1,0,0:0:0:0:
179,291,63047,1,0,0:0:0:0:
137,96,63184,1,2,0:0:0:0:
246,181,63320,1,0,0:0:0:0:
275,44,63457,1,8,0:0:0:0:
275,44,63525,1,0,0:0:0:0:
275,44,63593,1,0,0:0:0:0:
359,234,63729,6,0,P|367:191|360:147,1,90,2|0,0:0|0:0,0:0:0:0:
393,20,64002,1,8,0:0:0:0:
393,20,64070,1,0,0:0:0:0:
393,20,64138,1,0,0:0:0:0:
496,113,64275,2,0,L|489:211,1,90,2|0,0:0|0:0,0:0:0:0:
403,326,64547,1,8,0:0:0:0:
403,326,64616,1,0,0:0:0:0:
403,326,64684,1,0,0:0:0:0:
292,219,64820,6,0,P|275:287|162:312,1,180,2|8,0:0|0:0,0:0:0:0:
58,68,65229,2,0,P|112:57|154:55,1,90,2|0,0:0|0:0,0:0:0:0:
211,177,65502,1,0,0:0:0:0:
91,272,65638,1,8,0:0:0:0:
91,272,65707,1,0,0:0:0:0:
91,272,65775,1,0,0:0:0:0:
165,109,65911,5,2,0:0:0:0:
242,289,66047,1,0,0:0:0:0:
327,186,66184,1,8,0:0:0:0:
327,186,66252,1,0,0:0:0:0:
327,186,66320,1,0,0:0:0:0:
448,253,66457,2,0,P|464:186|454:151,1,90,2|0,0:0|0:0,0:0:0:0:
318,48,66729,1,8,0:0:0:0:
295,49,66797,1,0,0:0:0:0:
273,50,66866,1,0,0:0:0:0:
250,51,66934,1,0,0:0:0:0:
228,52,67002,5,6,0:0:0:0:
98,75,67138,1,0,0:0:0:0:
221,173,67275,2,0,L|280:176,2,45,8|0|0,0:0|0:0|0:0,0:0:0:0:
155,284,67547,1,2,0:0:0:0:
54,186,67684,1,0,0:0:0:0:
26,316,67820,1,8,0:0:0:0:
26,316,67888,1,0,0:0:0:0:
26,316,67957,1,0,0:0:0:0:
162,363,68093,5,2,0:0:0:0:
275,269,68229,1,0,0:0:0:0:
170,176,68366,2,0,L|123:173,2,45,8|0|0,0:0|0:0|0:0,0:0:0:0:
295,98,68638,1,2,0:0:0:0:
192,27,68775,1,0,0:0:0:0:
330,192,68911,1,8,0:0:0:0:
330,192,68979,1,0,0:0:0:0:
330,192,69047,1,0,0:0:0:0:
478,30,69184,6,0,L|386:28,1,90,2|0,0:0|0:0,0:0:0:0:
330,192,69457,2,0,L|324:267,2,45,8|0|0,0:0|0:0|0:0,0:0:0:0:
287,43,69729,1,2,0:0:0:0:
209,221,69866,1,0,0:0:0:0:
168,83,70002,1,8,0:0:0:0:
168,83,70070,1,0,0:0:0:0:
168,83,70138,1,0,0:0:0:0:
54,35,70275,6,0,L|-10:39,3,45,14|0|0|0,0:0|0:0|0:0|0:0,0:0:0:0:
94,149,70547,2,0,L|158:153,3,45,8|0|0|0,0:0|0:0|0:0|0:0,0:0:0:0:
34,244,70820,5,10,0:0:0:0:
34,255,70888,1,0,0:0:0:0:
35,266,70956,1,0,0:0:0:0:
36,277,71024,1,0,0:0:0:0:
36,288,71092,1,8,0:0:0:0:
37,300,71160,1,0,0:0:0:0:
38,311,71229,1,0,0:0:0:0:
38,322,71297,1,0,0:0:0:0:
39,333,71365,5,6,0:0:0:0:
154,240,71502,1,0,0:0:0:0:
228,361,71638,1,8,0:0:0:0:
228,361,71707,1,0,0:0:0:0:
228,361,71775,1,0,0:0:0:0:
334,286,71911,2,0,L|426:287,1,90,2|0,0:0|0:0,0:0:0:0:
480,200,72184,1,8,0:0:0:0:
480,200,72252,1,0,0:0:0:0:
480,200,72320,1,0,0:0:0:0:
411,28,72457,6,0,P|401:91|413:129,1,90,2|0,0:0|0:0,0:0:0:0:
276,135,72729,2,0,L|261:198,2,45,8|0|0,0:0|0:0|0:0,0:0:0:0:
203,29,73002,2,0,L|104:34,1,90,2|0,0:0|0:0,0:0:0:0:
47,161,73275,1,8,0:0:0:0:
47,161,73343,1,0,0:0:0:0:
47,161,73411,1,0,0:0:0:0:
25,328,73547,6,0,P|87:309|195:360,1,180,2|8,0:0|0:0,0:0:0:0:
128,199,73957,2,0,P|129:145|145:100,1,90,2|0,0:0|0:0,0:0:0:0:
361,61,74229,1,0,0:0:0:0:
252,161,74366,1,8,0:0:0:0:
252,161,74434,1,0,0:0:0:0:
252,161,74502,1,0,0:0:0:0:
368,238,74638,5,2,0:0:0:0:
239,301,74775,1,0,0:0:0:0:
345,367,74911,1,8,0:0:0:0:
345,367,74979,1,0,0:0:0:0:
345,367,75047,1,0,0:0:0:0:
464,319,75184,2,0,L|468:212,1,90,2|0,0:0|0:0,0:0:0:0:
403,129,75457,1,8,0:0:0:0:
411,108,75525,1,0,0:0:0:0:
415,86,75593,1,0,0:0:0:0:
415,63,75661,1,0,0:0:0:0:
410,41,75729,5,6,0:0:0:0:
300,121,75866,1,0,0:0:0:0:
361,237,76002,2,0,L|417:244,2,45,8|0|0,0:0|0:0|0:0,0:0:0:0:
235,23,76275,1,2,0:0:0:0:
176,163,76411,1,0,0:0:0:0:
91,49,76547,1,8,0:0:0:0:
91,49,76616,1,0,0:0:0:0:
91,49,76684,1,0,0:0:0:0:
20,143,76820,6,0,L|22:263,1,90,2|0,0:0|0:0,0:0:0:0:
77,348,77093,1,8,0:0:0:0:
77,348,77161,1,0,0:0:0:0:
77,348,77229,1,0,0:0:0:0:
175,252,77366,1,2,0:0:0:0:
257,348,77502,1,0,0:0:0:0:
360,259,77638,1,8,0:0:0:0:
360,259,77707,1,0,0:0:0:0:
360,259,77775,1,0,0:0:0:0:
452,355,77911,6,0,B|465:300|465:300|458:264,1,90,6|0,0:0|0:0,0:0:0:0:
460,135,78184,2,0,L|511:145,2,45,8|0|0,0:0|0:0|0:0,0:0:0:0:
385,38,78457,1,2,0:0:0:0:
334,173,78593,1,0,0:0:0:0:
237,68,78729,1,8,0:0:0:0:
237,68,78797,1,0,0:0:0:0:
237,68,78866,1,0,0:0:0:0:
53,32,79002,6,0,L|4:40,3,45,14|0|0|0,0:0|0:0|0:0|0:0,0:0:0:0:
131,126,79275,2,0,L|180:134,3,45,10|0|0|0,0:0|0:0|0:0|0:0,0:0:0:0:
70,228,79547,5,10,0:0:0:0:
51,269,79615,1,0,0:0:0:0:
52,313,79683,1,0,0:0:0:0:
74,352,79751,1,0,0:0:0:0:
111,376,79819,1,10,0:0:0:0:
156,380,79887,1,8,0:0:0:0:
197,364,79956,1,8,0:0:0:0:
226,330,80024,1,8,0:0:0:0:
236,286,80093,6,0,L|241:188,1,90,6|0,0:0|0:0,0:0:0:0:
363,329,80366,2,0,L|367:234,1,90,8|0,0:0|0:0,0:0:0:0:
411,127,80638,1,2,0:0:0:0:
478,236,80775,1,0,0:0:0:0:
478,236,80843,1,0,0:0:0:0:
478,236,80911,1,8,0:0:0:0:
388,330,81047,1,0,0:0:0:0:
309,220,81184,6,0,L|215:204,1,90,2|0,0:0|0:0,0:0:0:0:
313,99,81457,2,0,L|219:83,1,90,8|0,0:0|0:0,0:0:0:0:
59,36,81729,2,0,L|64:96,1,45,2|0,0:0|0:0,0:0:0:0:
140,113,81866,2,0,L|134:177,1,45
54,219,82002,2,0,P|27:268|94:338,1,135,8|0,0:0|0:0,0:0:0:0:
98,340,82275,6,0,P|141:334|202:333,1,90,2|0,0:0|0:0,0:0:0:0:
236,245,82547,2,0,L|222:153,1,90,8|0,0:0|0:0,0:0:0:0:
323,115,82820,1,2,0:0:0:0:
381,223,82957,1,0,0:0:0:0:
381,223,83025,1,0,0:0:0:0:
381,223,83093,1,8,0:0:0:0:
307,315,83229,1,0,0:0:0:0:
381,223,83366,5,6,0:0:0:0:
422,238,83434,1,0,0:0:0:0:
466,232,83502,1,0,0:0:0:0:
502,205,83570,1,0,0:0:0:0:
512,164,83638,1,8,0:0:0:0:
512,120,83707,1,0,0:0:0:0:
492,83,83775,1,0,0:0:0:0:
453,62,83843,1,0,0:0:0:0:
410,73,83911,2,0,L|332:78,3,45,2|0|0|0,0:0|0:0|0:0|0:0,0:0:0:0:
287,28,84184,2,0,L|218:27,3,45,8|0|0|0,0:0|0:0|0:0|0:0,0:0:0:0:
144,23,84457,6,0,L|149:152,1,90,6|0,0:0|0:0,0:0:0:0:
33,189,84729,2,0,L|28:60,1,90,8|0,0:0|0:0,0:0:0:0:
147,112,85002,1,2,0:0:0:0:
264,170,85138,2,0,L|261:221,1,45
142,254,85275,1,8,0:0:0:0:
255,317,85411,1,0,0:0:0:0:
55,358,85547,5,2,0:0:0:0:
134,236,85684,1,0,0:0:0:0:
238,351,85820,1,8,0:0:0:0:
314,205,85957,1,0,0:0:0:0:
314,205,86025,1,0,0:0:0:0:
314,205,86093,5,2,0:0:0:0:
206,97,86229,2,0,L|157:102,2,45,0|0|8,0:0|0:0|0:0,0:0:0:0:
379,302,86502,1,0,0:0:0:0:
379,302,86570,1,0,0:0:0:0:
379,302,86638,6,0,L|433:306,3,45,6|0|0|0,0:0|0:0|0:0|0:0,0:0:0:0:
491,188,86911,2,0,L|496:134,3,45,10|0|0|0,0:0|0:0|0:0|0:0,0:0:0:0:
431,16,87184,1,2,0:0:0:0:
427,60,87252,1,0,0:0:0:0:
408,100,87320,1,0,0:0:0:0:
375,131,87388,1,0,0:0:0:0:
333,147,87457,1,10,0:0:0:0:
288,147,87525,1,0,0:0:0:0:
247,131,87593,1,0,0:0:0:0:
214,101,87661,1,0,0:0:0:0:
194,61,87729,6,0,L|196:16,1,45,14|0,0:0|0:0,0:0:0:0:
117,136,88002,6,0,L|120:44,1,89.0999997280884,12|0,0:0|0:0,0:0:0:0:
36,219,88275,6,0,L|40:82,1,135,14|0,0:0|0:0,0:0:0:0:
35,335,88547,2,0,P|107:346|127:283,1,135,12|0,0:0|0:0,0:0:0:0:
225,189,88820,5,6,0:0:0:0:
254,339,88957,1,0,0:0:0:0:
388,232,89093,1,8,0:0:0:0:
363,228,89161,1,0,0:0:0:0:
339,224,89229,1,0,0:0:0:0:
454,356,89366,1,2,0:0:0:0:
505,215,89502,1,0,0:0:0:0:
416,65,89638,1,8,0:0:0:0:
412,89,89706,1,0,0:0:0:0:
409,114,89774,1,0,0:0:0:0:
309,29,89911,6,0,L|208:47,1,99.0000030212403,2|0,0:0|0:0,0:0:0:0:
162,177,90184,1,8,0:0:0:0:
186,179,90252,1,0,0:0:0:0:
211,181,90320,1,0,0:0:0:0:
47,36,90457,2,0,L|50:142,1,99.0000030212403,2|0,0:0|0:0,0:0:0:0:
52,317,90729,1,8,0:0:0:0:
27,313,90797,1,0,0:0:0:0:
2,310,90865,1,0,0:0:0:0:
161,269,91002,6,0,P|217:274|258:290,1,99.0000030212403,2|0,0:0|0:0,0:0:0:0:
369,354,91275,1,8,0:0:0:0:
393,351,91343,1,0,0:0:0:0:
418,349,91411,1,0,0:0:0:0:
337,197,91547,1,2,0:0:0:0:
490,254,91684,1,0,0:0:0:0:
434,75,91820,1,8,0:0:0:0:
431,99,91888,1,0,0:0:0:0:
428,124,91956,1,0,0:0:0:0:
313,33,92093,6,0,L|262:37,3,49.5000015106202,14|0|0|0,0:0|0:0|0:0|0:0,0:0:0:0:
221,106,92366,2,0,L|170:102,3,49.5000015106202,10|0|0|0,0:0|0:0|0:0|0:0,0:0:0:0:
134,34,92638,2,0,L|83:38,3,49.5000015106202,10|0|0|0,0:0|0:0|0:0|0:0,0:0:0:0:
21,99,92911,1,10,0:0:0:0:
24,148,92979,1,8,0:0:0:0:
27,197,93047,1,8,0:0:0:0:
30,247,93116,1,8,0:0:0:0:
33,296,93184,6,0,P|54:336|114:342,1,99.0000030212403,6|0,0:0|0:0,0:0:0:0:
201,207,93457,1,8,0:0:0:0:
176,204,93525,1,0,0:0:0:0:
151,202,93593,1,0,0:0:0:0:
246,339,93729,1,2,0:0:0:0:
357,227,93866,1,0,0:0:0:0:
469,323,94002,1,8,0:0:0:0:
465,347,94070,1,0,0:0:0:0:
462,372,94138,1,0,0:0:0:0:
491,192,94275,6,0,P|497:146|496:89,1,99.0000030212403,2|0,0:0|0:0,0:0:0:0:
328,32,94547,1,8,0:0:0:0:
352,31,94615,1,0,0:0:0:0:
377,30,94683,1,0,0:0:0:0:
304,149,94820,1,2,0:0:0:0:
200,37,94957,1,0,0:0:0:0:
111,149,95093,1,8,0:0:0:0:
116,173,95161,1,0,0:0:0:0:
122,197,95229,1,0,0:0:0:0:
127,221,95297,1,0,0:0:0:0:
133,245,95366,5,14,0:0:0:0:
174,219,95434,1,0,0:0:0:0:
197,176,95502,1,0,0:0:0:0:
196,127,95570,1,0,0:0:0:0:
170,85,95638,1,0,0:0:0:0:
126,62,95706,1,0,0:0:0:0:
78,63,95775,5,10,0:0:0:0:
78,112,95843,1,0,0:0:0:0:
99,156,95911,1,0,0:0:0:0:
138,185,95979,1,0,0:0:0:0:
186,195,96047,1,0,0:0:0:0:
234,183,96115,1,0,0:0:0:0:
271,150,96184,2,0,L|280:100,3,49.5000015106202,10|0|0|0,0:0|0:0|0:0|0:0,0:0:0:0:
216,284,96457,5,6,0:0:0:0:
209,332,96525,1,0,0:0:0:0:
174,365,96593,1,0,0:0:0:0:
125,368,96661,1,0,0:0:0:0:
86,339,96729,2,0,L|38:342,3,49.5000015106202,8|0|0|0,0:0|0:0|0:0|0:0,0:0:0:0:
297,330,97002,5,2,3:3:0:0:
340,352,97070,1,0,3:3:0:0:
389,351,97138,1,0,3:3:0:0:
433,328,97207,1,0,3:3:0:0:
459,288,97275,1,2,3:3:0:0:
465,239,97343,1,0,3:3:0:0:
447,194,97411,1,0,3:3:0:0:
411,162,97479,1,0,3:3:0:0:
357,167,97547,5,6,0:0:0:0:
228,265,97684,1,0,0:0:0:0:
205,98,97820,1,8,0:0:0:0:
180,101,97888,1,0,0:0:0:0:
156,105,97956,1,0,0:0:0:0:
309,4,98093,2,0,L|310:121,1,99.0000030212403,2|0,0:0|0:0,0:0:0:0:
160,202,98366,1,8,0:0:0:0:
184,198,98434,1,0,0:0:0:0:
208,194,98502,1,0,0:0:0:0:
48,42,98638,6,0,L|48:152,1,99.0000030212403,2|0,0:0|0:0,0:0:0:0:
48,313,98911,1,8,0:0:0:0:
44,337,98979,1,0,0:0:0:0:
40,361,99047,1,0,0:0:0:0:
212,211,99184,1,2,0:0:0:0:
81,191,99320,1,0,0:0:0:0:
232,350,99457,1,8,0:0:0:0:
207,353,99525,1,0,0:0:0:0:
182,356,99593,1,0,0:0:0:0:
346,308,99729,6,0,P|402:309|447:316,1,99.0000030212403,2|0,0:0|0:0,0:0:0:0:
462,158,100002,1,8,0:0:0:0:
462,182,100070,1,0,0:0:0:0:
463,207,100138,1,0,0:0:0:0:
378,53,100275,1,2,0:0:0:0:
311,214,100411,1,0,0:0:0:0:
196,59,100547,1,8,0:0:0:0:
220,57,100615,1,0,0:0:0:0:
245,55,100683,1,0,0:0:0:0:
63,35,100820,6,0,L|14:30,3,49.5000015106202,14|0|0|0,0:0|0:0|0:0|0:0,0:0:0:0:
100,121,101093,2,0,L|149:116,3,49.5000015106202,10|0|0|0,0:0|0:0|0:0|0:0,0:0:0:0:
59,203,101366,2,0,L|10:198,3,49.5000015106202,10|0|0|0,0:0|0:0|0:0|0:0,0:0:0:0:
72,311,101638,1,10,0:0:0:0:
115,288,101707,1,8,0:0:0:0:
164,290,101775,1,8,0:0:0:0:
205,315,101843,1,8,0:0:0:0:
229,358,101911,6,0,L|356:362,1,99.0000030212403,6|0,0:0|0:0,0:0:0:0:
385,216,102184,1,8,0:0:0:0:
360,213,102252,1,0,0:0:0:0:
335,211,102320,1,0,0:0:0:0:
496,314,102457,1,2,0:0:0:0:
486,134,102593,1,0,0:0:0:0:
337,39,102729,1,8,0:0:0:0:
361,36,102797,1,0,0:0:0:0:
386,33,102865,1,0,0:0:0:0:
246,131,103002,6,0,P|245:181|234:228,1,99.0000030212403,6|0,0:0|0:0,0:0:0:0:
130,52,103275,1,8,0:0:0:0:
154,49,103343,1,0,0:0:0:0:
179,47,103411,1,0,0:0:0:0:
91,175,103547,1,2,0:0:0:0:
15,39,103684,1,0,0:0:0:0:
204,143,103820,1,8,0:0:0:0:
228,141,103888,1,0,0:0:0:0:
253,139,103956,1,0,0:0:0:0:
12,169,104093,6,0,L|14:302,1,99.0000030212403,6|0,0:0|0:0,0:0:0:0:
158,348,104366,1,8,0:0:0:0:
133,349,104434,1,0,0:0:0:0:
108,350,104502,1,0,0:0:0:0:
195,213,104638,1,2,0:0:0:0:
312,343,104775,1,0,0:0:0:0:
326,112,104911,1,8,0:0:0:0:
327,124,104979,1,0,0:0:0:0:
329,136,105047,1,0,0:0:0:0:
331,148,105115,1,0,0:0:0:0:
333,160,105184,5,6,0:0:0:0:
381,176,105252,1,0,0:0:0:0:
430,168,105320,1,0,0:0:0:0:
463,132,105388,1,0,0:0:0:0:
470,84,105456,1,10,0:0:0:0:
448,41,105524,1,0,0:0:0:0:
405,18,105593,1,0,0:0:0:0:
356,25,105661,1,0,0:0:0:0:
321,58,105729,5,2,0:0:0:0:
298,68,105797,1,0,0:0:0:0:
274,71,105865,1,0,0:0:0:0:
249,67,105933,1,0,0:0:0:0:
224,55,106002,5,10,0:0:0:0:
180,31,106070,1,8,0:0:0:0:
131,25,106138,1,8,0:0:0:0:
84,38,106206,1,8,0:0:0:0:
44,67,106275,5,14,0:0:0:0:
256,192,106343,12,10,108184,0:0:0:0:
427,77,108457,6,0,L|337:72,1,90,6|0,0:0|0:0,0:0:0:0:
250,195,108729,1,8,0:0:0:0:
250,195,108797,1,0,0:0:0:0:
250,195,108866,1,0,0:0:0:0:
322,333,109002,2,0,L|430:324,1,90,2|0,0:0|0:0,0:0:0:0:
378,170,109275,1,8,0:0:0:0:
378,170,109343,1,0,0:0:0:0:
378,170,109411,1,0,0:0:0:0:
256,58,109547,6,0,P|196:55|167:58,1,90,2|0,0:0|0:0,0:0:0:0:
46,207,109820,1,8,0:0:0:0:
46,207,109888,1,0,0:0:0:0:
46,207,109957,1,0,0:0:0:0:
184,270,110093,2,0,L|166:324,2,45,2|0|0,0:0|0:0|0:0,0:0:0:0:
217,130,110366,1,8,0:0:0:0:
217,130,110434,1,0,0:0:0:0:
217,130,110502,1,0,0:0:0:0:
50,34,110638,6,0,L|45:145,1,90,6|0,0:0|0:0,0:0:0:0:
151,211,110911,1,8,0:0:0:0:
151,211,110979,1,0,0:0:0:0:
151,211,111047,1,0,0:0:0:0:
41,323,111184,2,0,P|95:354|137:348,1,90,2|0,0:0|0:0,0:0:0:0:
261,309,111457,1,8,0:0:0:0:
261,309,111525,1,0,0:0:0:0:
261,309,111593,1,0,0:0:0:0:
240,148,111729,6,0,L|241:56,1,90,2|0,0:0|0:0,0:0:0:0:
366,101,112002,1,8,0:0:0:0:
366,101,112070,1,0,0:0:0:0:
366,101,112138,1,0,0:0:0:0:
455,32,112275,2,0,P|483:29|504:32,2,45,2|0|0,0:0|0:0|0:0,0:0:0:0:
490,165,112547,1,8,0:0:0:0:
490,165,112616,1,0,0:0:0:0:
490,165,112684,1,0,0:0:0:0:
382,212,112820,6,0,L|385:310,1,90,2|0,0:0|0:0,0:0:0:0:
483,281,113093,1,8,0:0:0:0:
483,281,113161,1,0,0:0:0:0:
483,281,113229,1,0,0:0:0:0:
288,239,113366,2,0,P|223:241|184:257,1,90,2|0,0:0|0:0,0:0:0:0:
74,356,113638,1,8,0:0:0:0:
74,356,113707,1,0,0:0:0:0:
74,356,113775,1,0,0:0:0:0:
42,244,113911,5,14,0:0:0:0:
27,213,113979,1,0,0:0:0:0:
21,180,114047,1,0,0:0:0:0:
24,146,114115,1,0,0:0:0:0:
34,114,114184,1,10,0:0:0:0:
48,97,114252,1,0,0:0:0:0:
57,76,114320,1,0,0:0:0:0:
60,54,114388,1,0,0:0:0:0:
58,31,114457,5,10,0:0:0:0:
41,71,114525,1,0,0:0:0:0:
60,110,114593,1,0,0:0:0:0:
102,122,114661,1,0,0:0:0:0:
139,99,114729,1,10,0:0:0:0:
158,72,114797,1,8,0:0:0:0:
188,57,114865,1,8,0:0:0:0:
222,58,114933,1,8,0:0:0:0:
251,74,115002,6,0,L|258:145,3,45,14|0|0|0,0:0|0:0|0:0|0:0,0:0:0:0:
354,199,115275,2,0,L|347:270,3,45,10|0|0|0,0:0|0:0|0:0|0:0,0:0:0:0:
212,319,115547,2,0,L|148:326,3,45,10|0|0|0,0:0|0:0|0:0|0:0,0:0:0:0:
75,220,115820,2,0,L|11:213,3,45,10|0|0|0,0:0|0:0|0:0|0:0,0:0:0:0:
119,87,116093,5,10,0:0:0:0:
132,81,116161,1,0,0:0:0:0:
147,78,116229,1,0,0:0:0:0:
162,77,116297,1,0,0:0:0:0:
177,78,116366,1,10,0:0:0:0:
191,82,116434,1,0,0:0:0:0:
204,87,116502,1,0,0:0:0:0:
217,92,116570,1,0,0:0:0:0:
232,96,116638,1,10,0:0:0:0:
247,97,116706,1,0,0:0:0:0:
262,96,116774,1,0,0:0:0:0:
276,93,116842,1,0,0:0:0:0:
291,87,116911,2,0,L|287:37,3,45,10|0|0|0,0:0|0:0|0:0|0:0,0:0:0:0:
420,43,117184,5,10,0:0:0:0:
442,68,117252,1,0,0:0:0:0:
452,100,117320,1,0,0:0:0:0:
447,133,117388,1,0,0:0:0:0:
430,161,117457,2,0,L|402:209,3,45,10|0|0|0,0:0|0:0|0:0|0:0,0:0:0:0:
324,138,117729,5,10,0:0:0:0:
301,163,117797,1,0,0:0:0:0:
291,195,117865,1,0,0:0:0:0:
296,228,117933,1,0,0:0:0:0:
313,256,118002,2,0,L|341:303,3,45,10|0|0|0,0:0|0:0|0:0|0:0,0:0:0:0:
456,287,118275,5,10,0:0:0:0:
417,266,118343,1,0,0:0:0:0:
378,245,118411,1,0,0:0:0:0:
336,227,118479,1,0,0:0:0:0:
294,213,118547,1,10,0:0:0:0:
256,230,118616,1,0,0:0:0:0:
216,249,118684,6,0,L|174:266,1,45,4|0,3:1|3:3,3:3:0:0:
147,138,118820,2,0,L|189:154,1,45,0|0,3:3|3:3,3:3:0:0:
230,42,118957,2,0,L|187:58,1,45,0|0,3:3|3:3,3:3:0:0:
304,113,119093,2,8,L|351:110,3,45,10|8|8|8,0:0|0:0|0:0|0:0,0:0:0:0:
453,25,119366,5,14,0:0:0:0:
464,44,119434,1,0,0:0:0:0:
473,65,119502,1,0,0:0:0:0:
478,86,119570,1,0,0:0:0:0:
481,109,119638,1,10,0:0:0:0:
481,131,119706,1,0,0:0:0:0:
477,153,119775,1,0,0:0:0:0:
470,175,119843,1,0,0:0:0:0:
451,197,119911,6,0,P|446:227|446:254,3,45,10|0|0|0,0:0|0:0|0:0|0:0,0:0:0:0:
261,318,120184,2,0,P|262:340|266:362,3,45,10|0|0|0,0:0|0:0|0:0|0:0,0:0:0:0:
478,327,120457,5,14,0:0:0:0:
462,285,120525,1,0,0:0:0:0:
435,249,120593,1,0,0:0:0:0:
399,221,120661,1,0,0:0:0:0:
358,204,120729,1,10,0:0:0:0:
313,199,120797,1,0,0:0:0:0:
269,206,120866,1,0,0:0:0:0:
228,224,120934,1,0,0:0:0:0:
194,253,121002,6,0,P|167:258|142:255,3,45,10|0|0|0,0:0|0:0|0:0|0:0,0:0:0:0:
58,52,121275,2,0,P|85:47|110:50,3,45,10|0|0|0,0:0|0:0|0:0|0:0,0:0:0:0:
291,120,121547,6,0,L|290:177,3,45,6|0|0|0,0:0|0:0|0:0|0:0,0:0:0:0:
398,162,121820,1,10,0:0:0:0:
409,161,121888,1,0,0:0:0:0:
420,160,121956,1,0,0:0:0:0:
431,160,122024,1,0,0:0:0:0:
456,136,122093,2,0,L|454:79,3,45,6|0|0|0,0:0|0:0|0:0|0:0,0:0:0:0:
370,38,122366,1,10,0:0:0:0:
358,38,122434,1,0,0:0:0:0:
347,38,122502,1,0,0:0:0:0:
336,39,122570,1,0,0:0:0:0:
318,70,122638,5,6,0:0:0:0:
164,322,122820,5,2,0:0:0:0:
82,38,123002,5,10,0:0:0:0:
48,44,124275,6,0,L|248:36,1,180,6|8,0:0|0:0,0:0:0:0:
331,87,124684,1,0,0:0:0:0:
331,87,124820,2,0,L|323:191,1,90,2|0,0:0|0:0,0:0:0:0:
154,299,125093,2,0,L|162:195,1,90,8|0,0:0|0:0,0:0:0:0:
434,126,125366,6,0,P|470:171|418:298,1,180,2|8,0:0|0:0,0:0:0:0:
272,206,125775,2,0,P|236:161|288:34,1,180,2|0,0:0|0:0,0:0:0:0:
364,36,126116,1,0,0:0:0:0:
364,36,126184,2,0,L|453:40,1,90,8|0,0:0|0:0,0:0:0:0:
434,148,126456,6,0,P|440:216|425:247,1,90,2|0,0:0|0:0,0:0:0:0:
335,328,126729,1,8,0:0:0:0:
335,328,126797,1,0,0:0:0:0:
335,328,126866,1,0,0:0:0:0:
236,241,127002,2,0,L|145:246,1,90,2|0,0:0|0:0,0:0:0:0:
75,338,127275,1,8,0:0:0:0:
26,170,127411,1,0,0:0:0:0:
128,57,127547,6,0,L|180:63,2,45,2|0|0,0:0|0:0|0:0,0:0:0:0:
250,169,127820,1,8,0:0:0:0:
316,48,127957,1,0,0:0:0:0:
316,48,128025,1,0,0:0:0:0:
316,48,128093,1,2,0:0:0:0:
422,228,128229,1,0,0:0:0:0:
412,39,128366,1,8,0:0:0:0:
321,245,128502,1,0,0:0:0:0:
199,114,128638,6,0,P|150:111|110:115,1,90,6|0,0:0|0:0,0:0:0:0:
44,244,128911,1,8,0:0:0:0:
147,350,129047,1,0,0:0:0:0:
147,350,129116,1,0,0:0:0:0:
147,350,129184,1,2,0:0:0:0:
227,228,129320,1,0,0:0:0:0:
322,327,129457,2,0,L|416:318,1,90,8|0,0:0|0:0,0:0:0:0:
458,192,129729,6,0,L|462:139,1,45,2|0,0:0|0:0,0:0:0:0:
370,46,129866,2,0,L|366:99,1,45
329,187,130002,1,8,0:0:0:0:
238,64,130138,1,0,0:0:0:0:
215,67,130206,1,0,0:0:0:0:
193,70,130275,1,2,0:0:0:0:
103,232,130411,1,0,0:0:0:0:
94,55,130547,1,8,0:0:0:0:
207,250,130684,1,0,0:0:0:0:
340,40,130820,5,14,0:0:0:0:
394,31,130888,1,0,0:0:0:0:
439,62,130956,1,0,0:0:0:0:
450,116,131024,1,0,0:0:0:0:
420,162,131093,1,10,0:0:0:0:
379,177,131161,1,0,0:0:0:0:
362,217,131229,1,0,0:0:0:0:
380,257,131297,1,0,0:0:0:0:
421,272,131366,2,0,B|455:277|482:270|481:270,3,45,10|0|0|0,0:0|0:0|0:0|0:0,0:0:0:0:
320,359,131638,2,8,B|286:363|259:356|260:356,3,45,10|8|8|8,0:0|0:0|0:0|0:0,0:0:0:0:
227,72,131911,5,6,0:0:0:0:
256,192,131979,12,0,132934,0:0:0:0:
52,43,133002,5,6,0:0:0:0:
94,198,133138,1,0,0:0:0:0:
116,196,133206,1,0,0:0:0:0:
138,194,133274,1,8,0:0:0:0:
210,64,133411,1,0,0:0:0:0:
248,246,133547,2,0,P|315:243|343:229,1,90,2|0,0:0|0:0,0:0:0:0:
398,84,133820,2,0,L|400:31,2,45,8|0|0,0:0|0:0|0:0,0:0:0:0:
461,221,134093,5,2,0:0:0:0:
377,340,134229,1,0,0:0:0:0:
291,193,134366,1,8,0:0:0:0:
268,195,134434,1,0,0:0:0:0:
246,197,134502,1,0,0:0:0:0:
167,331,134638,2,0,L|171:376,2,45,2|0|0,0:0|0:0|0:0,0:0:0:0:
37,189,134911,1,8,0:0:0:0:
60,191,134979,1,0,0:0:0:0:
82,193,135047,1,0,0:0:0:0:
126,63,135184,6,0,L|224:68,1,90,2|0,0:0|0:0,0:0:0:0:
288,187,135457,1,8,0:0:0:0:
288,187,135525,1,0,0:0:0:0:
288,187,135593,1,0,0:0:0:0:
358,52,135729,1,2,0:0:0:0:
446,154,135866,1,0,0:0:0:0:
381,282,136002,1,8,0:0:0:0:
358,285,136070,1,0,0:0:0:0:
336,288,136138,1,0,0:0:0:0:
175,134,136275,5,2,0:0:0:0:
217,348,136411,1,0,0:0:0:0:
266,143,136547,1,8,0:0:0:0:
127,348,136684,1,0,0:0:0:0:
296,244,136820,2,0,L|360:245,2,45,2|0|0,0:0|0:0|0:0,0:0:0:0:
61,189,137093,1,8,0:0:0:0:
39,149,137161,1,0,0:0:0:0:
40,105,137229,1,0,0:0:0:0:
63,67,137297,1,0,0:0:0:0:
101,44,137365,5,6,0:0:0:0:
189,112,137502,1,0,0:0:0:0:
271,44,137638,1,8,0:0:0:0:
336,129,137775,1,0,0:0:0:0:
404,51,137911,1,2,0:0:0:0:
426,49,137979,1,0,0:0:0:0:
448,48,138047,1,0,0:0:0:0:
480,168,138184,2,0,P|476:225|464:268,1,90,8|0,0:0|0:0,0:0:0:0:
101,339,138457,5,2,0:0:0:0:
189,272,138592,1,0,0:0:0:0:
271,340,138730,1,8,0:0:0:0:
336,255,138865,1,0,0:0:0:0:
404,333,139003,1,2,0:0:0:0:
426,334,139070,1,0,0:0:0:0:
448,335,139139,1,0,0:0:0:0:
413,160,139275,1,8,0:0:0:0:
390,158,139343,1,0,0:0:0:0:
368,157,139411,1,0,0:0:0:0:
255,58,139547,5,14,0:0:0:0:
232,59,139615,1,0,0:0:0:0:
210,61,139683,1,0,0:0:0:0:
187,63,139751,1,0,0:0:0:0:
165,64,139819,1,10,0:0:0:0:
142,66,139887,1,0,0:0:0:0:
120,68,139956,1,0,0:0:0:0:
97,69,140024,1,0,0:0:0:0:
73,73,140093,5,10,0:0:0:0:
48,95,140161,1,0,0:0:0:0:
38,127,140229,1,0,0:0:0:0:
47,159,140297,1,0,0:0:0:0:
71,181,140366,1,10,0:0:0:0:
95,203,140434,1,0,0:0:0:0:
104,235,140502,1,0,0:0:0:0:
94,267,140570,1,0,0:0:0:0:
69,289,140638,6,0,L|11:293,1,45,10|0,0:0|0:0,0:0:0:0:
232,55,140775,1,2,0:0:0:0:
211,360,141047,1,2,0:0:0:0:
313,101,141320,1,2,0:0:0:0:
331,274,141456,1,8,0:0:0:0:
345,273,141524,1,8,0:0:0:0:
360,272,141592,1,8,0:0:0:0:
375,271,141660,1,8,0:0:0:0:
391,270,141729,5,8,0:0:0:0:
388,247,141797,1,8,0:0:0:0:
385,225,141865,1,14,0:0:0:0:
204,29,142138,1,2,0:0:0:0:
196,118,142275,1,2,0:0:0:0:
189,208,142411,2,0,P|239:222|286:209,1,90,2|0,0:0|0:0,0:0:0:0:
382,83,142684,1,2,0:0:0:0:
441,284,142820,6,0,L|494:295,2,45,2|0|2,0:0|0:0|0:0,0:0:0:0:
405,164,143093,1,2,0:0:0:0:
441,284,143229,1,2,0:0:0:0:
476,125,143365,1,2,0:0:0:0:
336,192,143502,1,2,0:0:0:0:
301,33,143638,1,2,0:0:0:0:
219,122,143775,1,2,0:0:0:0:
158,38,143911,6,0,L|88:48,2,45,6|0|10,0:0|0:0|0:0,0:0:0:0:
158,38,144320,2,0,P|221:59|256:55,1,90,2|2,0:0|0:0,0:0:0:0:
390,155,144593,2,0,P|380:233|278:225,1,180,2|2,0:0|0:0,0:0:0:0:
156,156,145002,6,0,P|142:220|151:270,1,90,2|2,0:0|0:0,0:0:0:0:
249,321,145275,1,2,0:0:0:0:
395,272,145411,1,2,0:0:0:0:
389,134,145547,1,2,0:0:0:0:
253,48,145684,2,0,L|138:45,1,90,2|2,0:0|0:0,0:0:0:0:
90,269,145956,2,0,L|39:276,1,45,2|0,0:0|0:0,0:0:0:0:
165,130,146093,6,0,L|226:136,2,45,6|0|10,0:0|0:0|0:0,0:0:0:0:
421,331,146502,1,2,0:0:0:0:
432,241,146638,1,2,0:0:0:0:
444,152,146775,2,0,P|400:144|350:145,1,90,2|2,0:0|0:0,0:0:0:0:
246,259,147047,1,2,0:0:0:0:
91,178,147184,6,0,L|39:194,2,45,2|0|2,0:0|0:0|0:0,0:0:0:0:
192,48,147456,2,0,L|244:64,2,45,2|0|2,0:0|0:0|0:0,0:0:0:0:
344,109,147729,1,2,0:0:0:0:
343,120,147797,1,0,0:0:0:0:
343,131,147865,1,2,0:0:0:0:
342,142,147934,1,0,0:0:0:0:
342,153,148002,1,2,0:0:0:0:
342,165,148070,1,0,0:0:0:0:
341,176,148138,1,2,0:0:0:0:
341,187,148206,1,0,0:0:0:0:
340,202,148275,1,2,0:0:0:0:
256,285,148411,5,6,0:0:0:0:
233,286,148479,1,0,0:0:0:0:
211,288,148547,1,2,0:0:0:0:
188,289,148615,1,0,0:0:0:0:
166,290,148684,1,0,0:0:0:0:
143,291,148752,1,0,0:0:0:0:
119,291,148820,1,2,0:0:0:0:
78,254,148888,1,0,0:0:0:0:
76,199,148956,1,0,0:0:0:0:
113,159,149024,1,0,0:0:0:0:
168,158,149093,1,2,0:0:0:0:
216,130,149161,1,0,0:0:0:0:
228,77,149229,1,0,0:0:0:0:
197,32,149297,1,0,0:0:0:0:
143,23,149365,1,14,0:0:0:0:
56,48,150456,6,0,P|115:48|170:35,1,99.0000030212403,6|0,0:0|0:0,0:0:0:0:
218,180,150729,1,8,0:0:0:0:
193,182,150797,1,0,0:0:0:0:
168,184,150865,1,0,0:0:0:0:
456,48,151002,2,0,P|406:50|342:35,1,99.0000030212403,2|0,0:0|0:0,0:0:0:0:
294,180,151275,1,8,0:0:0:0:
318,182,151343,1,0,0:0:0:0:
343,184,151411,1,0,0:0:0:0:
199,55,151547,5,2,0:0:0:0:
91,176,151684,1,0,0:0:0:0:
216,269,151820,2,0,L|280:271,2,49.5000015106202,8|0|0,0:0|0:0|0:0,0:0:0:0:
350,131,152093,1,2,0:0:0:0:
460,240,152229,1,0,0:0:0:0:
271,342,152365,1,8,0:0:0:0:
296,340,152433,1,0,0:0:0:0:
321,338,152501,1,0,0:0:0:0:
379,57,152638,6,0,P|317:56|278:98,1,99.0000030212403,2|0,0:0|0:0,0:0:0:0:
162,193,152911,2,0,L|109:204,2,49.5000015106202,8|0|0,0:0|0:0|0:0,0:0:0:0:
380,324,153184,2,0,P|318:325|279:283,1,99.0000030212403,2|0,0:0|0:0,0:0:0:0:
266,93,153456,2,0,L|261:36,2,49.5000015106202,8|0|0,0:0|0:0|0:0,0:0:0:0:
255,359,153729,5,14,0:0:0:0:
223,321,153797,1,0,0:0:0:0:
203,276,153865,1,0,0:0:0:0:
208,227,153933,1,0,0:0:0:0:
235,186,154001,1,10,0:0:0:0:
265,147,154069,1,0,0:0:0:0:
273,99,154138,1,0,0:0:0:0:
254,53,154206,1,0,0:0:0:0:
222,16,154275,5,10,0:0:0:0:
198,21,154343,1,0,0:0:0:0:
173,26,154411,1,0,0:0:0:0:
149,31,154479,1,0,0:0:0:0:
121,37,154547,5,10,0:0:0:0:
118,98,154615,1,8,0:0:0:0:
116,160,154683,1,8,0:0:0:0:
113,222,154751,1,8,0:0:0:0:
111,284,154820,6,0,P|168:319|221:297,1,99.0000030212403,14|0,0:0|0:0,0:0:0:0:
280,151,155093,1,8,0:0:0:0:
281,126,155161,1,0,0:0:0:0:
282,101,155229,1,0,0:0:0:0:
438,323,155366,2,0,P|443:263|439:218,1,99.0000030212403,2|0,0:0|0:0,0:0:0:0:
384,66,155638,1,8,0:0:0:0:
408,62,155706,1,0,0:0:0:0:
433,59,155774,1,0,0:0:0:0:
148,92,155911,5,2,0:0:0:0:
271,264,156047,1,0,0:0:0:0:
329,68,156184,2,0,L|340:17,2,49.5000015106202,8|0|0,0:0|0:0|0:0,0:0:0:0:
352,351,156456,1,2,0:0:0:0:
261,128,156592,1,0,0:0:0:0:
148,336,156729,1,8,0:0:0:0:
151,311,156797,1,0,0:0:0:0:
154,286,156865,1,0,0:0:0:0:
388,73,157002,5,14,0:0:0:0:
435,84,157070,1,0,0:0:0:0:
466,122,157138,1,0,0:0:0:0:
468,170,157206,1,0,0:0:0:0:
440,211,157274,1,0,0:0:0:0:
395,227,157342,1,0,0:0:0:0:
347,212,157411,5,10,0:0:0:0:
300,197,157479,1,0,0:0:0:0:
254,213,157547,1,0,0:0:0:0:
227,253,157615,1,0,0:0:0:0:
229,302,157683,1,0,0:0:0:0:
260,339,157751,1,0,0:0:0:0:
307,351,157820,2,0,L|365:333,3,49.5000015106202,10|0|0|0,0:0|0:0|0:0|0:0,0:0:0:0:
202,143,158093,5,6,0:0:0:0:
189,144,158161,1,0,0:0:0:0:
177,145,158229,1,0,0:0:0:0:
165,146,158297,1,0,0:0:0:0:
152,145,158366,2,0,L|146:210,3,49.5000015106202,10|0|0|0,0:0|0:0|0:0|0:0,0:0:0:0:
397,15,158638,5,2,3:3:0:0:
399,64,158706,1,0,3:3:0:0:
401,113,158774,1,0,3:3:0:0:
404,163,158842,1,0,3:3:0:0:
358,180,158911,1,2,3:3:0:0:
360,229,158979,1,0,3:3:0:0:
363,278,159047,1,0,3:3:0:0:
366,328,159115,1,0,3:3:0:0:
411,357,159184,6,0,P|451:327|449:257,1,99.0000030212403,6|0,0:0|0:0,0:0:0:0:
292,114,159456,1,8,0:0:0:0:
316,109,159524,1,0,0:0:0:0:
340,105,159592,1,0,0:0:0:0:
101,357,159729,2,0,P|61:327|63:257,1,99.0000030212403,2|0,0:0|0:0,0:0:0:0:
220,114,160002,1,8,0:0:0:0:
195,109,160070,1,0,0:0:0:0:
171,105,160138,1,0,0:0:0:0:
290,260,160275,5,2,0:0:0:0:
132,173,160411,1,0,0:0:0:0:
342,73,160547,2,0,L|403:81,2,49.5000015106202,8|0|0,0:0|0:0|0:0,0:0:0:0:
336,344,160820,1,2,0:0:0:0:
187,246,160956,1,0,0:0:0:0:
413,159,161093,1,8,0:0:0:0:
388,160,161161,1,0,0:0:0:0:
363,162,161229,1,0,0:0:0:0:
300,26,161366,6,0,P|243:33|176:35,1,99.0000030212403,2|0,0:0|0:0,0:0:0:0:
81,151,161638,1,8,0:0:0:0:
76,126,161706,1,0,0:0:0:0:
72,102,161774,1,0,0:0:0:0:
300,358,161911,2,0,P|251:348|176:349,1,99.0000030212403,2|0,0:0|0:0,0:0:0:0:
81,233,162184,1,8,0:0:0:0:
76,257,162252,1,0,0:0:0:0:
72,281,162320,1,0,0:0:0:0:
168,49,162456,5,14,0:0:0:0:
185,93,162525,1,0,0:0:0:0:
229,116,162593,1,0,0:0:0:0:
277,107,162661,1,0,0:0:0:0:
306,69,162729,1,10,0:0:0:0:
336,31,162797,1,0,0:0:0:0:
384,21,162865,1,0,0:0:0:0:
427,44,162933,1,0,0:0:0:0:
445,89,163002,2,0,P|448:120|446:151,3,49.5000015106202,10|0|0|0,0:0|0:0|0:0|0:0,0:0:0:0:
389,281,163275,1,10,0:0:0:0:
339,276,163343,1,8,0:0:0:0:
290,272,163411,1,8,0:0:0:0:
241,267,163479,1,8,0:0:0:0:
192,264,163547,6,0,L|205:158,1,99.0000030212403,6|0,0:0|0:0,0:0:0:0:
332,61,163820,2,0,L|386:57,2,49.5000015106202,8|0|0,0:0|0:0|0:0,0:0:0:0:
322,341,164093,2,0,L|335:235,1,99.0000030212403,2|0,0:0|0:0,0:0:0:0:
462,138,164366,2,0,L|516:134,2,49.5000015106202,8|0|0,0:0|0:0|0:0,0:0:0:0:
314,59,164638,6,0,P|254:40|218:48,1,99.0000030212403,2|0,0:0|0:0,0:0:0:0:
88,193,164911,1,8,0:0:0:0:
112,191,164979,1,0,0:0:0:0:
137,189,165047,1,0,0:0:0:0:
198,325,165184,2,0,P|258:344|294:336,1,99.0000030212403,2|0,0:0|0:0,0:0:0:0:
356,110,165456,1,8,0:0:0:0:
353,134,165524,1,0,0:0:0:0:
350,159,165592,1,0,0:0:0:0:
129,40,165729,5,14,0:0:0:0:
84,59,165797,1,0,0:0:0:0:
60,101,165865,1,0,0:0:0:0:
66,149,165933,1,0,0:0:0:0:
99,185,166001,1,0,0:0:0:0:
147,193,166069,1,0,0:0:0:0:
190,171,166138,5,10,0:0:0:0:
237,180,166206,1,0,0:0:0:0:
270,216,166274,1,0,0:0:0:0:
275,264,166342,1,0,0:0:0:0:
250,306,166410,1,0,0:0:0:0:
205,324,166479,1,0,0:0:0:0:
158,312,166547,2,0,L|111:301,3,49.5000015106202,10|0|0|0,0:0|0:0|0:0|0:0,0:0:0:0:
362,340,166820,5,14,0:0:0:0:
422,339,166888,1,0,0:0:0:0:
464,296,166956,1,0,0:0:0:0:
463,235,167024,1,0,0:0:0:0:
419,194,167093,5,10,0:0:0:0:
375,152,167161,1,0,0:0:0:0:
374,91,167229,1,0,0:0:0:0:
416,48,167297,1,0,0:0:0:0:
476,47,167365,5,10,0:0:0:0:
478,60,167433,1,8,0:0:0:0:
480,72,167501,1,8,0:0:0:0:
482,84,167569,1,8,0:0:0:0:
484,96,167638,1,8,0:0:0:0:
164,47,167911,5,6,0:0:0:0:
29,43,169002,5,0,3:3:0:0:
33,130,169138,1,0,3:3:0:0:
36,219,169275,1,0,3:3:0:0:
39,308,169411,1,0,3:3:0:0:
129,85,169684,5,0,3:3:0:0:
134,171,169820,1,0,3:3:0:0:
140,256,169956,1,0,3:3:0:0:
220,284,170093,5,6,0:0:0:0:
247,272,170183,1,0,0:0:0:0:
277,268,170274,1,0,0:0:0:0:
306,271,170365,5,0,0:0:0:0:
335,281,170456,1,0,0:0:0:0:
359,298,170547,1,0,0:0:0:0:
384,323,170638,6,0,L|377:377,5,48,2|0|0|0|0|0,0:0|0:0|0:0|0:0|0:0|0:0,0:0:0:0:
437,210,171184,6,0,L|482:212,2,36,2|0|0,0:0|0:0|0:0,0:0:0:0:
376,80,171457,1,8,0:0:0:0:
257,225,171593,1,0,0:0:0:0:
260,260,171661,1,0,0:0:0:0:
264,296,171729,1,2,0:0:0:0:
299,305,171797,1,0,0:0:0:0:
334,299,171865,1,0,0:0:0:0:
363,279,171933,1,0,0:0:0:0:
382,248,172001,1,8,0:0:0:0:
385,213,172069,1,0,0:0:0:0:
374,179,172138,1,0,0:0:0:0:
349,153,172206,1,0,0:0:0:0:
316,140,172274,5,6,0:0:0:0:
243,41,172411,1,0,0:0:0:0:
163,166,172547,1,8,0:0:0:0:
85,48,172684,1,0,0:0:0:0:
43,248,172820,2,0,L|39:293,2,45,2|0|0,0:0|0:0|0:0,0:0:0:0:
236,225,173093,1,8,0:0:0:0:
237,269,173161,1,0,0:0:0:0:
238,314,173229,1,0,0:0:0:0:
196,140,173366,5,2,0:0:0:0:
269,41,173503,1,0,0:0:0:0:
349,166,173638,1,8,0:0:0:0:
427,48,173776,1,0,0:0:0:0:
469,248,173912,2,0,L|473:293,2,45,2|0|0,0:0|0:0|0:0,0:0:0:0:
276,225,174185,1,8,0:0:0:0:
274,269,174253,1,0,0:0:0:0:
273,314,174321,1,0,0:0:0:0:
122,214,174457,5,6,0:0:0:0:
77,219,174525,1,0,0:0:0:0:
36,202,174593,1,0,0:0:0:0:
10,167,174661,1,0,0:0:0:0:
4,123,174729,1,8,0:0:0:0:
22,82,174797,1,0,0:0:0:0:
58,56,174866,1,0,0:0:0:0:
102,51,174934,1,0,0:0:0:0:
143,70,175002,5,2,0:0:0:0:
158,111,175070,1,0,0:0:0:0:
196,133,175138,1,0,0:0:0:0:
240,125,175206,1,0,0:0:0:0:
268,91,175275,1,8,0:0:0:0:
296,57,175343,1,0,0:0:0:0:
339,49,175411,1,0,0:0:0:0:
378,71,175479,1,0,0:0:0:0:
393,112,175547,5,14,0:0:0:0:
391,155,175820,5,10,0:0:0:0:
386,196,176093,5,10,0:0:0:0:
378,235,176366,6,0,L|368:278,3,45,10|0|0|0,0:0|0:0|0:0|0:0,0:0:0:0:
307,334,176638,5,14,0:0:0:0:
257,334,176706,1,0,0:0:0:0:
208,335,176774,1,0,0:0:0:0:
158,336,176842,1,0,0:0:0:0:
109,336,176911,2,0,L|47:337,1,49.5000015106202
76,224,177047,5,10,0:0:0:0:
48,183,177115,1,0,0:0:0:0:
47,135,177183,1,0,0:0:0:0:
75,95,177251,1,0,0:0:0:0:
126,74,177320,2,0,L|177:80,1,49.5000015106202
355,89,177457,5,10,0:0:0:0:
382,129,177525,1,0,0:0:0:0:
383,177,177593,1,0,0:0:0:0:
355,217,177661,1,0,0:0:0:0:
305,239,177730,2,0,L|254:233,1,49.5000015106202
488,41,177866,5,10,0:0:0:0:
486,90,177934,1,0,0:0:0:0:
484,139,178002,1,0,0:0:0:0:
482,189,178070,1,0,0:0:0:0:
480,238,178138,2,0,L|478:299,1,49.5000015106202
326,342,178275,5,10,0:0:0:0:
277,349,178343,1,0,0:0:0:0:
234,326,178411,1,0,0:0:0:0:
212,282,178479,1,0,0:0:0:0:
220,234,178547,1,10,0:0:0:0:
227,185,178615,1,0,0:0:0:0:
205,142,178683,1,0,0:0:0:0:
162,119,178751,1,0,0:0:0:0:
114,126,178820,5,10,0:0:0:0:
110,176,178888,1,0,0:0:0:0:
106,225,178956,1,0,0:0:0:0:
103,274,179024,1,0,0:0:0:0:
99,324,179093,2,0,L|109:382,1,49.5000015106202,8|0,0:0|0:0,0:0:0:0:
230,316,179229,2,0,L|220:258,1,49.5000015106202
335,337,179366,5,10,0:0:0:0:
347,338,179434,1,0,0:0:0:0:
359,339,179502,1,0,0:0:0:0:
371,341,179570,1,0,0:0:0:0:
385,341,179638,2,0,L|435:346,3,49.5000015106202,8|0|0|0,0:0|0:0|0:0|0:0,0:0:0:0:
466,197,179911,5,10,0:0:0:0:
438,221,179979,1,0,0:0:0:0:
402,229,180047,1,0,0:0:0:0:
367,218,180115,1,0,0:0:0:0:
342,191,180184,1,8,0:0:0:0:
333,155,180251,1,0,0:0:0:0:
343,120,180320,1,0,0:0:0:0:
369,94,180388,1,0,0:0:0:0:
405,84,180456,2,0,L|466:96,3,49.5000015106202,10|0|0|0,0:0|0:0|0:0|0:0,0:0:0:0:
325,19,180729,6,0,L|272:16,5,33.0000010070801,2|0|0|0|0|0,0:0|0:0|0:0|0:0|0:0|0:0,0:0:0:0:
370,105,181002,5,14,0:0:0:0:
355,151,181070,1,0,0:0:0:0:
320,185,181138,1,0,0:0:0:0:
273,198,181206,1,0,0:0:0:0:
221,182,181274,2,0,L|214:133,1,49.5000015106202
24,348,181411,5,10,0:0:0:0:
38,301,181479,1,0,0:0:0:0:
73,267,181547,1,0,0:0:0:0:
120,254,181615,1,0,0:0:0:0:
173,271,181683,2,0,L|180:320,1,49.5000015106202
290,308,181820,5,10,0:0:0:0:
339,306,181888,1,0,0:0:0:0:
388,304,181956,1,0,0:0:0:0:
438,302,182024,1,0,0:0:0:0:
487,301,182093,2,0,L|494:242,1,49.5000015106202
382,76,182229,5,10,0:0:0:0:
332,77,182297,1,0,0:0:0:0:
283,79,182365,1,0,0:0:0:0:
233,81,182433,1,0,0:0:0:0:
184,82,182502,2,0,L|177:141,1,49.5000015106202
78,348,182638,5,10,0:0:0:0:
98,303,182706,1,0,0:0:0:0:
139,277,182774,1,0,0:0:0:0:
188,277,182842,1,0,0:0:0:0:
229,304,182911,1,10,0:0:0:0:
270,330,182979,1,0,0:0:0:0:
318,330,183047,1,0,0:0:0:0:
360,304,183115,1,0,0:0:0:0:
380,259,183183,5,14,0:0:0:0:
445,48,183320,1,0,0:0:0:0:
200,121,183457,2,0,L|126:126,2,49.5000015106202,8|0|0,0:0|0:0|0:0,0:0:0:0:
380,259,183729,1,2,0:0:0:0:
429,256,183797,1,0,0:0:0:0:
478,254,183865,1,0,0:0:0:0:
194,367,184002,2,0,L|120:372,2,49.5000015106202,8|0|0,0:0|0:0|0:0,0:0:0:0:
387,161,184275,5,6,0:0:0:0:
377,113,184343,1,0,0:0:0:0:
339,84,184411,1,0,0:0:0:0:
291,89,184479,1,0,0:0:0:0:
258,125,184547,1,10,0:0:0:0:
225,161,184615,1,0,0:0:0:0:
177,165,184683,1,0,0:0:0:0:
138,136,184751,1,0,0:0:0:0:
129,89,184820,5,10,0:0:0:0:
187,105,184888,1,8,0:0:0:0:
215,158,184956,1,8,0:0:0:0:
194,214,185024,1,8,0:0:0:0:
139,237,185093,2,0,L|79:236,2,49.5000015106202,10|0|0,0:0|0:0|0:0,0:0:0:0:
438,214,185366,5,14,0:0:0:0:
452,166,185434,1,0,0:0:0:0:
452,117,185502,1,0,0:0:0:0:
438,70,185570,1,0,0:0:0:0:
411,28,185638,2,0,L|354:32,1,49.5000015106202
313,140,185775,5,10,0:0:0:0:
298,187,185843,1,0,0:0:0:0:
298,236,185911,1,0,0:0:0:0:
312,283,185979,1,0,0:0:0:0:
339,325,186047,2,0,L|396:321,1,49.5000015106202
212,254,186184,5,10,0:0:0:0:
162,257,186252,1,0,0:0:0:0:
113,260,186320,1,0,0:0:0:0:
63,264,186388,1,0,0:0:0:0:
14,267,186457,2,0,L|3:205,1,49.5000015106202
110,48,186593,5,10,0:0:0:0:
159,44,186661,1,0,0:0:0:0:
208,41,186729,1,0,0:0:0:0:
258,37,186797,1,0,0:0:0:0:
307,34,186866,2,0,L|318:96,1,49.5000015106202
349,198,187002,5,10,0:0:0:0:
397,200,187070,1,0,0:0:0:0:
432,234,187138,1,0,0:0:0:0:
436,282,187206,1,0,0:0:0:0:
408,322,187274,1,0,0:0:0:0:
361,334,187342,1,0,0:0:0:0:
318,312,187411,2,0,B|266:283|266:283|224:314|224:314|176:288|176:288|129:320|88:290,1,247.500007553101,12|0,0:0|0:0,0:0:0:0:
58,234,187820,6,0,L|53:123,1,99.0000030212403,10|0,0:0|0:0,0:0:0:0:
151,96,188025,2,0,L|154:40,2,49.5000015106202,10|0|0,0:0|0:0|0:0,0:0:0:0:
235,230,188229,2,0,L|232:173,1,49.5000015106202,10|0,0:0|0:0,0:0:0:0:
287,61,188365,1,10,0:0:0:0:
311,64,188433,1,0,0:0:0:0:
335,68,188501,1,0,0:0:0:0:
414,202,188638,6,0,L|459:210,2,33.7500012874604,10|0|0,3:2|3:0|3:0,3:0:0:0:
311,296,188911,1,10,0:0:0:0:
265,139,189047,1,0,0:0:0:0:
190,272,189184,2,0,P|145:273|90:283,1,99.0000030212403,10|0,0:0|0:0,0:0:0:0:
100,168,189456,2,0,L|94:114,1,49.5000015106202,2|0,0:0|0:0,0:0:0:0:
204,59,189593,5,14,0:0:0:0:
252,51,189661,1,0,0:0:0:0:
302,51,189729,1,0,0:0:0:0:
351,59,189797,1,0,0:0:0:0:
398,74,189866,2,0,L|393:143,1,49.5000015106202
485,292,190002,5,10,0:0:0:0:
436,299,190070,1,0,0:0:0:0:
386,299,190138,1,0,0:0:0:0:
337,291,190206,1,0,0:0:0:0:
290,276,190275,2,0,L|295:207,1,49.5000015106202
170,148,190411,5,10,0:0:0:0:
173,197,190479,1,0,0:0:0:0:
176,246,190547,1,0,0:0:0:0:
179,296,190615,1,0,0:0:0:0:
182,345,190684,2,0,L|128:349,1,49.5000015106202
19,212,190820,5,10,0:0:0:0:
15,162,190889,1,0,0:0:0:0:
12,113,190957,1,0,0:0:0:0:
9,63,191025,1,0,0:0:0:0:
6,14,191094,2,0,L|59:9,1,49.5000015106202
212,79,191229,5,10,0:0:0:0:
231,104,191298,1,0,0:0:0:0:
238,137,191366,1,0,0:0:0:0:
231,169,191434,1,0,0:0:0:0:
211,195,191502,1,0,0:0:0:0:
183,211,191570,1,0,0:0:0:0:
150,212,191638,2,8,L|101:204,3,49.5000015106202
313,237,191911,5,14,0:0:0:0:
336,194,191979,1,0,0:0:0:0:
378,168,192047,1,0,0:0:0:0:
427,166,192115,1,0,0:0:0:0:
470,189,192183,1,0,0:0:0:0:
497,229,192251,1,0,0:0:0:0:
501,278,192320,1,10,0:0:0:0:
480,322,192388,1,0,0:0:0:0:
440,351,192457,5,0,0:0:0:0:
422,292,192525,1,0,0:0:0:0:
376,252,192593,1,0,0:0:0:0:
315,243,192661,1,0,0:0:0:0:
259,268,192729,1,10,0:0:0:0:
203,292,192797,1,0,0:0:0:0:
142,283,192865,1,0,0:0:0:0:
96,243,192933,1,0,0:0:0:0:
78,185,193002,5,14,0:0:0:0:
123,203,193070,1,0,0:0:0:0:
171,195,193138,1,0,0:0:0:0:
209,163,193206,1,0,0:0:0:0:
224,117,193274,1,0,0:0:0:0:
214,69,193342,1,0,0:0:0:0:
181,33,193411,5,14,0:0:0:0:
145,77,193479,1,0,0:0:0:0:
139,133,193547,1,0,0:0:0:0:
165,184,193615,1,0,0:0:0:0:
215,211,193683,1,0,0:0:0:0:
272,205,193751,1,0,0:0:0:0:
316,168,193820,5,14,0:0:0:0:
382,140,193888,1,0,0:0:0:0:
449,166,193956,1,0,0:0:0:0:
477,233,194024,1,0,0:0:0:0:
450,300,194093,6,0,P|409:308|354:301,1,90,14|0,0:0|0:0,0:0:0:0:
275,42,194366,2,0,L|224:32,2,45,8|0|0,0:0|0:0|0:0,0:0:0:0:
365,190,194638,1,10,0:0:0:0:
195,285,194775,1,0,0:0:0:0:
415,70,194911,2,0,L|470:74,2,45,8|0|0,0:0|0:0|0:0,0:0:0:0:
92,66,195184,6,0,P|87:138|89:166,1,90,10|0,0:0|0:0,0:0:0:0:
282,328,195457,2,0,P|287:256|285:228,1,90,8|0,0:0|0:0,0:0:0:0:
434,119,195729,2,0,L|481:127,2,45,10|0|0,0:0|0:0|0:0,0:0:0:0:
244,37,196002,2,0,L|197:45,2,45,8|0|0,0:0|0:0|0:0,0:0:0:0:
405,257,196274,6,0,P|386:313|246:334,1,180,14|8,0:0|0:0,0:0:0:0:
81,263,196684,1,0,0:0:0:0:
223,151,196820,2,0,P|292:155|318:163,1,90,10|0,0:0|0:0,0:0:0:0:
141,34,197093,2,0,P|72:38|46:46,1,90,8|0,0:0|0:0,0:0:0:0:
405,91,197366,5,10,0:0:0:0:
427,93,197434,1,0,0:0:0:0:
449,96,197502,1,0,0:0:0:0:
143,176,197638,5,10,0:0:0:0:
98,182,197706,1,0,0:0:0:0:
53,188,197774,1,0,0:0:0:0:
337,313,197911,5,10,0:0:0:0:
402,328,197979,1,0,0:0:0:0:
468,344,198047,1,0,0:0:0:0:
179,49,198184,2,0,L|86:65,1,90,10|0,0:0|0:0,0:0:0:0:
70,286,198456,6,0,P|153:265|203:351,1,180,14|8,0:0|0:0,0:0:0:0:
44,149,198866,1,0,0:0:0:0:
290,47,199002,2,0,L|355:51,2,45,10|0|0,0:0|0:0|0:0,0:0:0:0:
95,37,199274,1,8,0:0:0:0:
222,254,199411,1,0,0:0:0:0:
422,110,199547,5,10,0:0:0:0:
424,87,199615,1,0,0:0:0:0:
426,65,199683,1,0,0:0:0:0:
485,233,199820,1,8,0:0:0:0:
299,338,199957,1,0,0:0:0:0:
109,180,200093,2,0,L|54:189,2,45,10|0|0,0:0|0:0|0:0,0:0:0:0:
290,48,200366,2,0,L|345:57,2,45,8|0|0,0:0|0:0|0:0,0:0:0:0:
151,40,200638,5,14,0:0:0:0:
106,43,200706,1,0,0:0:0:0:
72,71,200774,1,0,0:0:0:0:
60,113,200842,1,0,0:0:0:0:
74,155,200910,1,8,0:0:0:0:
110,181,200979,1,0,0:0:0:0:
145,206,201047,1,0,0:0:0:0:
160,248,201115,1,0,0:0:0:0:
148,291,201183,1,10,0:0:0:0:
114,319,201251,1,0,0:0:0:0:
69,322,201320,2,0,L|21:319,1,45
97,218,201456,2,0,B|135:196|165:218|165:218|198:238|238:218,1,135,8|0,0:0|0:0,0:0:0:0:
266,137,201729,6,0,L|339:137,1,67.5000025749208,14|0,0:0|0:0,0:0:0:0:
438,212,201865,2,0,B|458:286|436:349|436:349|404:356|373:318,1,202.500007724762,10|0,0:0|0:0,0:0:0:0:
154,177,202138,2,0,B|134:103|156:40|156:40|188:33|219:71,1,202.500007724762,10|0,0:0|0:0,0:0:0:0:
449,81,202411,6,0,L|441:142,1,45,2|0,0:0|0:0,0:0:0:0:
351,324,202547,2,0,L|343:263,1,45,2|0,0:0|0:0,0:0:0:0:
242,74,202684,2,0,L|234:135,1,45,2|0,0:0|0:0,0:0:0:0:
163,315,202820,5,14,0:0:0:0:
122,330,202888,1,0,0:0:0:0:
83,309,202956,1,0,0:0:0:0:
72,267,203024,1,0,0:0:0:0:
97,231,203093,1,8,0:0:0:0:
121,194,203161,1,0,0:0:0:0:
111,152,203229,1,0,0:0:0:0:
72,132,203297,1,0,0:0:0:0:
31,147,203366,6,0,L|29:207,3,45,10|0|0|0,0:0|0:0|0:0|0:0,0:0:0:0:
211,67,203638,2,0,L|213:7,3,45,8|0|0|0,0:0|0:0|0:0|0:0,0:0:0:0:
349,315,203911,5,14,0:0:0:0:
389,330,203979,1,0,0:0:0:0:
428,309,204047,1,0,0:0:0:0:
439,267,204115,1,0,0:0:0:0:
415,231,204184,1,8,0:0:0:0:
390,194,204252,1,0,0:0:0:0:
400,152,204320,1,0,0:0:0:0:
439,132,204388,1,0,0:0:0:0:
480,147,204457,6,0,L|483:207,3,45,10|0|0|0,0:0|0:0|0:0|0:0,0:0:0:0:
301,67,204729,2,0,L|298:7,3,45,8|0|0|0,0:0|0:0|0:0|0:0,0:0:0:0:
133,172,205002,5,14,0:0:0:0:
114,212,205070,1,0,0:0:0:0:
119,256,205138,1,0,0:0:0:0:
146,291,205206,1,0,0:0:0:0:
187,307,205274,1,8,0:0:0:0:
231,300,205342,1,0,0:0:0:0:
266,272,205411,1,0,0:0:0:0:
299,242,205479,1,0,0:0:0:0:
343,235,205547,1,10,0:0:0:0:
384,251,205615,1,0,0:0:0:0:
411,286,205683,1,0,0:0:0:0:
416,330,205751,1,0,0:0:0:0:
398,371,205820,2,0,P|369:374|343:370,3,45,8|0|0|0,0:0|0:0|0:0|0:0,0:0:0:0:
119,278,206093,5,14,0:0:0:0:
140,271,206161,1,0,0:0:0:0:
162,266,206229,1,0,0:0:0:0:
184,262,206297,1,0,0:0:0:0:
209,254,206365,5,10,0:0:0:0:
189,226,206433,1,0,0:0:0:0:
163,205,206501,1,0,0:0:0:0:
131,194,206569,1,0,0:0:0:0:
98,192,206638,5,14,0:0:0:0:
122,155,206706,1,0,0:0:0:0:
159,130,206774,1,0,0:0:0:0:
204,123,206842,1,0,0:0:0:0:
247,134,206911,5,10,0:0:0:0:
213,90,206979,1,0,0:0:0:0:
165,62,207047,1,0,0:0:0:0:
109,55,207115,1,0,0:0:0:0:
56,71,207184,5,14,0:0:0:0:
22,100,207251,1,0,0:0:0:0:
14,143,207319,1,0,0:0:0:0:
34,182,207387,1,0,0:0:0:0:
74,201,207456,1,8,0:0:0:0:
114,220,207524,1,0,0:0:0:0:
134,259,207592,1,0,0:0:0:0:
126,302,207660,1,0,0:0:0:0:
92,332,207729,6,0,L|26:341,3,45,10|0|0|0,0:0|0:0|0:0|0:0,0:0:0:0:
254,227,208002,2,0,L|243:165,3,45,8|0|0|0,0:0|0:0|0:0|0:0,0:0:0:0:
434,329,208274,5,14,0:0:0:0:
461,294,208342,1,0,0:0:0:0:
460,250,208410,1,0,0:0:0:0:
430,218,208478,1,0,0:0:0:0:
386,212,208547,1,8,0:0:0:0:
342,206,208615,1,0,0:0:0:0:
312,173,208683,1,0,0:0:0:0:
311,129,208751,1,0,0:0:0:0:
338,95,208820,5,10,0:0:0:0:
338,95,208888,1,0,0:0:0:0:
338,95,208956,2,0,L|401:101,1,45
173,95,209093,1,8,0:0:0:0:
173,95,209161,1,0,0:0:0:0:
173,95,209229,2,0,L|111:101,1,45
130,211,209365,5,14,0:0:0:0:
113,252,209433,1,0,0:0:0:0:
123,295,209501,1,0,0:0:0:0:
155,325,209569,1,0,0:0:0:0:
199,331,209638,1,10,0:0:0:0:
203,287,209706,1,0,0:0:0:0:
236,258,209774,1,0,0:0:0:0:
280,259,209842,1,0,0:0:0:0:
311,291,209910,5,14,0:0:0:0:
312,335,209979,1,0,0:0:0:0:
355,328,210047,1,0,0:0:0:0:
388,298,210115,1,0,0:0:0:0:
398,255,210183,2,0,P|429:258|454:267,3,45,10|0|0|0,0:0|0:0|0:0|0:0,0:0:0:0:
381,214,210456,5,8,3:3:0:0:
359,145,210547,1,0,3:3:0:0:
340,75,210638,1,0,3:3:0:0:
253,39,210729,2,0,P|221:35|184:42,2,60,0|0|0,3:3|3:3|3:3,3:3:0:0:
130,169,211002,5,8,3:3:0:0:
153,239,211093,1,0,3:3:0:0:
172,309,211184,1,0,3:3:0:0:
264,353,211275,2,0,P|296:357|333:350,2,60,0|0|0,3:3|3:3|3:3,3:3:0:0:
256,192,211547,5,6,0:0:0:0:
256,192,213729,5,6,0:0:0:0:
439,323,214547,5,0,0:0:0:0:
439,323,214615,1,0,0:0:0:0:
439,323,214683,1,0,0:0:0:0:
439,323,214752,1,0,0:0:0:0:
439,323,214820,6,0,P|411:331|371:325,1,45,14|0,0:0|0:0,0:0:0:0:
324,202,214956,2,0,P|296:194|256:200,1,45,10|0,0:0|0:0,0:0:0:0:
207,332,215093,2,0,P|179:340|139:334,1,45,10|0,0:0|0:0,0:0:0:0:
31,253,215229,6,0,B|66:222|102:235|102:235|131:252|169:233,1,125.999996154785,6|0,0:0|0:0,0:0:0:0:
77,112,215638,1,0,0:0:0:0:
180,33,215774,1,0,0:0:0:0:
268,124,215911,6,0,P|319:164|430:105,1,202.500007724762,6|0,0:0|0:0,0:0:0:0:
428,108,216388,1,0,0:0:0:0:
428,108,216456,1,8,0:0:0:0:
431,314,216865,1,0,0:0:0:0:
392,315,216933,1,0,0:0:0:0:
354,316,217002,6,0,P|307:345|272:338,1,76.5000014591217,2|0,0:0|0:0,0:0:0:0:
201,166,217274,2,0,P|248:194|283:187,1,76.5000014591217,8|0,0:0|0:0,0:0:0:0:
299,121,217547,5,6,0:0:0:0:
203,269,217683,1,2,0:0:0:0:
189,75,217820,5,8,0:0:0:0:
304,291,217956,1,2,0:0:0:0:
165,181,218093,5,0,3:3:0:0:
144,199,218229,5,0,3:3:0:0:
137,252,218365,5,0,3:3:0:0:
177,322,218502,5,0,3:3:0:0:
282,343,218638,5,0,3:3:0:0:
412,311,218774,5,0,3:3:0:0:
471,159,218911,5,0,3:3:0:0:
351,13,219047,5,0,3:3:0:0:
136,36,219183,5,14,0:0:0:0:
98,60,219251,1,0,0:0:0:0:
83,101,219319,1,0,0:0:0:0:
96,143,219387,1,0,0:0:0:0:
131,170,219456,1,10,0:0:0:0:
166,196,219524,1,0,0:0:0:0:
178,238,219592,1,0,0:0:0:0:
163,280,219660,1,0,0:0:0:0:
126,304,219729,5,10,0:0:0:0:
98,270,219797,1,0,0:0:0:0:
89,226,219865,1,0,0:0:0:0:
101,183,219933,1,0,0:0:0:0:
133,151,220001,1,10,0:0:0:0:
175,138,220069,1,0,0:0:0:0:
219,146,220138,1,0,0:0:0:0:
254,174,220206,1,0,0:0:0:0:
272,215,220274,6,0,P|266:253|272:313,1,90,14|0,0:0|0:0,0:0:0:0:
442,122,220547,2,0,L|491:127,2,45,8|0|0,0:0|0:0|0:0,0:0:0:0:
196,266,220820,1,2,0:0:0:0:
393,291,220956,1,0,0:0:0:0:
263,66,221093,2,0,L|261:17,2,45,8|0|0,0:0|0:0|0:0,0:0:0:0:
154,247,221365,5,2,0:0:0:0:
156,291,221433,1,0,0:0:0:0:
159,336,221501,1,0,0:0:0:0:
301,221,221638,1,8,0:0:0:0:
113,92,221774,1,0,0:0:0:0:
68,95,221842,1,0,0:0:0:0:
23,98,221910,1,2,0:0:0:0:
156,291,222047,2,0,L|222:288,2,45,0|0|8,0:0|0:0|0:0,0:0:0:0:
253,107,222320,1,0,0:0:0:0:
346,246,222456,5,6,0:0:0:0:
380,274,222524,1,0,0:0:0:0:
424,275,222592,1,0,0:0:0:0:
460,249,222660,1,0,0:0:0:0:
472,207,222728,1,8,0:0:0:0:
390,45,222865,2,0,P|338:33|268:31,1,90,0|2,0:0|0:0,0:0:0:0:
213,198,223138,1,0,0:0:0:0:
66,45,223274,2,0,P|59:106|64:149,1,90,8|0,0:0|0:0,0:0:0:0:
62,329,223547,5,2,0:0:0:0:
145,175,223683,1,0,0:0:0:0:
233,288,223820,1,8,0:0:0:0:
277,283,223888,1,0,0:0:0:0:
322,279,223956,1,0,0:0:0:0:
450,207,224093,2,0,L|456:154,2,45,2|0|0,0:0|0:0|0:0,0:0:0:0:
377,39,224365,5,8,0:0:0:0:
370,93,224433,1,0,0:0:0:0:
331,132,224501,1,0,0:0:0:0:
276,138,224569,1,0,0:0:0:0:
229,109,224638,5,6,0:0:0:0:
198,77,224706,1,0,0:0:0:0:
154,69,224774,1,0,0:0:0:0:
114,88,224842,1,0,0:0:0:0:
94,127,224910,1,8,0:0:0:0:
100,171,224978,1,0,0:0:0:0:
131,202,225047,5,0,0:0:0:0:
161,233,225115,1,0,0:0:0:0:
168,277,225183,1,2,0:0:0:0:
147,316,225251,1,0,0:0:0:0:
107,335,225319,1,0,0:0:0:0:
64,327,225387,1,0,0:0:0:0:
33,296,225456,2,0,P|27:259|30:240,3,45,8|0|0|0,0:0|0:0|0:0|0:0,0:0:0:0:
213,170,225729,5,2,0:0:0:0:
253,152,225797,1,0,0:0:0:0:
297,159,225865,1,0,0:0:0:0:
332,187,225933,1,0,0:0:0:0:
346,229,226001,1,8,0:0:0:0:
337,272,226069,1,0,0:0:0:0:
308,306,226139,5,0,0:0:0:0:
343,333,226207,1,0,0:0:0:0:
387,338,226275,1,2,0:0:0:0:
427,319,226343,1,0,0:0:0:0:
451,281,226411,6,0,P|458:252|457:225,1,45,2|0,0:0|0:0,0:0:0:0:
362,38,226547,2,0,P|355:67|356:94,1,45,10|0,0:0|0:0,0:0:0:0:
201,265,226684,2,0,P|207:235|206:208,1,45,2|0,0:0|0:0,0:0:0:0:
39,58,226820,5,6,0:0:0:0:
98,30,226888,1,0,0:0:0:0:
158,55,226956,1,0,0:0:0:0:
178,117,227024,1,0,0:0:0:0:
146,174,227093,1,8,0:0:0:0:
113,230,227161,1,0,0:0:0:0:
133,292,227229,1,0,0:0:0:0:
193,318,227297,1,0,0:0:0:0:
253,290,227366,6,0,P|289:285|312:286,2,60,2|0|0,0:0|0:0|0:0,0:0:0:0:
219,133,227638,2,0,P|183:127|160:128,2,60
350,57,227911,5,0,3:3:0:0:
379,51,228001,1,0,3:3:0:0:
409,50,228092,1,0,3:3:0:0:
467,110,228183,5,0,3:3:0:0:
470,139,228275,1,0,3:3:0:0:
467,169,228366,1,0,3:3:0:0:
398,217,228457,6,8,P|374:214|337:220,3,45,10|8|8|8,0:0|0:0|0:0|0:0,0:0:0:0:
309,326,228729,2,8,P|285:329|248:323,3,45,10|8|8|8,0:0|0:0|0:0|0:0,0:0:0:0:
196,214,229002,5,14,0:0:0:0:
196,214,229070,1,0,0:0:0:0:
196,214,229138,2,0,P|195:179|190:142,1,45
67,102,229274,1,8,0:0:0:0:
67,102,229342,1,0,0:0:0:0:
67,102,229410,2,0,P|61:67|66:31,1,45
276,40,229547,2,0,P|304:43|326:47,3,45,2|0|0|0,0:0|0:0|0:0|0:0,0:0:0:0:
96,205,229820,2,0,P|68:208|46:212,3,45,8|0|0|0,0:0|0:0|0:0|0:0,0:0:0:0:
285,297,230093,5,6,0:0:0:0:
305,270,230161,1,0,0:0:0:0:
334,253,230229,1,0,0:0:0:0:
367,245,230297,1,0,0:0:0:0:
400,250,230365,1,8,0:0:0:0:
430,265,230433,1,0,0:0:0:0:
453,289,230502,1,0,0:0:0:0:
467,320,230570,1,0,0:0:0:0:
469,353,230638,6,0,P|439:362|417:358,1,45,2|0,0:0|0:0,0:0:0:0:
298,213,230774,2,0,P|328:221|350:217,1,45
438,77,230911,2,0,L|487:81,3,45,8|0|0|0,0:0|0:0|0:0|0:0,0:0:0:0:
312,29,231183,5,6,0:0:0:0:
312,29,231252,1,0,0:0:0:0:
312,29,231320,2,0,B|288:30|256:34|257:34,1,45
185,163,231456,1,8,0:0:0:0:
185,163,231525,1,0,0:0:0:0:
185,163,231593,2,0,B|161:161|129:158|130:158,1,45
48,57,231729,2,0,L|42:9,3,45,2|0|0|0,0:0|0:0|0:0|0:0,0:0:0:0:
107,251,232002,2,0,L|101:299,3,45,8|0|0|0,0:0|0:0|0:0|0:0,0:0:0:0:
230,56,232274,5,6,0:0:0:0:
260,41,232342,1,0,0:0:0:0:
293,41,232410,1,0,0:0:0:0:
323,56,232478,1,0,0:0:0:0:
344,82,232546,1,8,0:0:0:0:
352,114,232616,1,0,0:0:0:0:
345,147,232683,1,0,0:0:0:0:
324,173,232751,1,0,0:0:0:0:
294,188,232820,5,6,0:0:0:0:
264,202,232888,1,0,0:0:0:0:
243,229,232956,1,0,0:0:0:0:
236,261,233024,1,0,0:0:0:0:
243,294,233092,1,8,0:0:0:0:
264,320,233160,1,0,0:0:0:0:
295,335,233229,1,0,0:0:0:0:
328,335,233297,1,0,0:0:0:0:
358,320,233365,5,6,0:0:0:0:
460,189,233502,1,0,0:0:0:0:
354,76,233638,1,8,0:0:0:0:
462,207,233775,1,0,0:0:0:0:
252,299,233911,5,2,0:0:0:0:
328,96,234047,2,0,L|384:104,1,45
334,241,234184,1,8,0:0:0:0:
232,39,234320,1,0,0:0:0:0:
118,173,234456,6,0,L|55:184,3,45,6|0|0|0,0:0|0:0|0:0|0:0,0:0:0:0:
180,318,234729,2,0,L|164:374,3,45,8|0|0|0,0:0|0:0|0:0|0:0,0:0:0:0:
356,309,235002,1,2,0:0:0:0:
420,292,235070,1,0,0:0:0:0:
460,239,235138,1,0,0:0:0:0:
458,173,235206,1,0,0:0:0:0:
417,121,235274,2,0,L|364:117,1,45,8|0,0:0|0:0,0:0:0:0:
161,230,235411,2,0,L|214:225,1,45
150,35,235547,5,6,0:0:0:0:
84,29,235615,1,0,0:0:0:0:
36,73,235683,1,0,0:0:0:0:
37,139,235751,1,0,0:0:0:0:
85,183,235820,1,8,0:0:0:0:
116,214,235888,1,0,0:0:0:0:
121,258,235956,1,0,0:0:0:0:
97,295,236024,1,0,0:0:0:0:
55,309,236093,6,0,B|28:310|9:307,3,45,2|0|0|0,0:0|0:0|0:0|0:0,0:0:0:0:
201,193,236365,2,0,B|228:192|247:195,3,45,8|0|0|0,0:0|0:0|0:0|0:0,0:0:0:0:
370,343,236638,5,14,0:0:0:0:
407,43,236774,1,12,0:0:0:0:
75,40,237729,5,6,0:0:0:0:
75,43,237797,1,0,0:0:0:0:
75,47,237865,1,0,0:0:0:0:
75,51,237933,1,0,0:0:0:0:
75,54,238002,1,10,0:0:0:0:
76,58,238069,1,0,0:0:0:0:
76,62,238138,1,0,0:0:0:0:
76,66,238206,1,0,0:0:0:0:
76,69,238274,1,6,0:0:0:0:
77,73,238342,1,0,0:0:0:0:
77,77,238410,1,0,0:0:0:0:
77,81,238479,1,0,0:0:0:0:
77,84,238547,1,10,0:0:0:0:
77,88,238615,1,0,0:0:0:0:
78,92,238683,1,0,0:0:0:0:
78,96,238751,1,0,0:0:0:0:
78,101,238820,6,0,P|74:160|84:207,1,99.0000030212403,6|0,0:0|0:0,0:0:0:0:
287,227,239093,2,0,L|346:218,2,49.5000015106202,8|0|0,0:0|0:0|0:0,0:0:0:0:
86,331,239365,1,2,0:0:0:0:
175,102,239502,1,0,0:0:0:0:
284,313,239638,1,8,0:0:0:0:
308,313,239706,1,0,0:0:0:0:
333,313,239774,1,0,0:0:0:0:
447,137,239911,6,0,P|455:78|439:21,1,99.0000030212403,2|0,0:0|0:0,0:0:0:0:
246,36,240183,2,0,L|177:40,2,49.5000015106202,8|0|0,0:0|0:0|0:0,0:0:0:0:
320,202,240456,1,2,0:0:0:0:
369,206,240524,1,0,0:0:0:0:
418,211,240592,1,0,0:0:0:0:
200,360,240729,2,0,L|131:356,2,49.5000015106202,8|0|0,0:0|0:0|0:0,0:0:0:0:
423,300,241002,6,0,P|473:273|445:130,1,198.000006042481,6|8,0:0|0:0,0:0:0:0:
350,27,241411,1,0,0:0:0:0:
255,172,241547,2,0,P|253:227|260:279,1,99.0000030212403,2|0,0:0|0:0,0:0:0:0:
138,50,241820,1,8,0:0:0:0:
138,50,241888,1,0,0:0:0:0:
138,50,241956,1,0,0:0:0:0:
69,209,242093,5,14,0:0:0:0:
81,207,242161,1,0,0:0:0:0:
93,205,242229,1,0,0:0:0:0:
105,204,242297,1,0,0:0:0:0:
118,203,242365,5,8,0:0:0:0:
137,219,242433,1,0,0:0:0:0:
159,229,242501,1,0,0:0:0:0:
184,233,242569,1,0,0:0:0:0:
208,230,242638,5,14,0:0:0:0:
236,206,242706,1,0,0:0:0:0:
270,195,242774,1,0,0:0:0:0:
308,197,242842,1,0,0:0:0:0:
342,212,242911,5,8,0:0:0:0:
338,260,242979,1,8,0:0:0:0:
356,306,243047,1,8,0:0:0:0:
393,338,243115,1,8,0:0:0:0:
440,351,243183,5,14,0:0:0:0:
250,297,243320,1,0,0:0:0:0:
436,167,243456,2,0,P|470:164|492:166,2,49.5000015106202,8|0|0,0:0|0:0|0:0,0:0:0:0:
284,43,243729,2,0,P|222:40|178:43,1,99.0000030212403,2|0,0:0|0:0,0:0:0:0:
56,174,244002,1,8,0:0:0:0:
53,223,244070,1,0,0:0:0:0:
51,272,244138,1,0,0:0:0:0:
221,342,244275,6,0,P|293:336|326:343,1,99.0000030212403,2|0,0:0|0:0,0:0:0:0:
422,207,244547,2,0,L|475:202,2,49.5000015106202,8|0|0,0:0|0:0|0:0,0:0:0:0:
348,46,244820,1,2,0:0:0:0:
248,202,244956,1,0,0:0:0:0:
153,37,245093,2,0,L|93:31,2,49.5000015106202,8|0|0,0:0|0:0|0:0,0:0:0:0:
70,204,245365,5,6,0:0:0:0:
81,251,245433,1,0,0:0:0:0:
119,281,245501,1,0,0:0:0:0:
167,280,245569,1,0,0:0:0:0:
205,249,245638,1,8,0:0:0:0:
242,217,245706,1,0,0:0:0:0:
290,216,245774,1,0,0:0:0:0:
329,246,245842,1,0,0:0:0:0:
348,292,245911,6,0,P|347:324|349:345,3,49.5000015106202,2|0|0|0,0:0|0:0|0:0|0:0,0:0:0:0:
458,197,246183,2,0,P|456:164|458:144,3,49.5000015106202,8|0|0|0,0:0|0:0|0:0|0:0,0:0:0:0:
400,40,246456,5,6,0:0:0:0:
393,40,246524,1,0,0:0:0:0:
387,40,246592,1,0,0:0:0:0:
381,41,246660,1,0,0:0:0:0:
375,41,246728,1,10,0:0:0:0:
369,42,246796,1,0,0:0:0:0:
362,42,246865,1,0,0:0:0:0:
356,43,246933,1,0,0:0:0:0:
353,41,247002,5,2,3:3:0:0:
335,86,247070,1,0,3:3:0:0:
297,117,247138,1,0,3:3:0:0:
249,126,247206,1,0,3:3:0:0:
203,109,247274,1,2,3:3:0:0:
156,92,247342,1,0,3:3:0:0:
108,100,247410,1,0,3:3:0:0:
70,132,247478,1,0,3:3:0:0:
53,177,247547,5,6,0:0:0:0:
150,352,247683,1,0,0:0:0:0:
319,266,247820,2,0,L|377:274,2,49.5000015106202,8|0|0,0:0|0:0|0:0,0:0:0:0:
216,133,248093,2,0,P|212:81|225:33,1,99.0000030212403,2|0,0:0|0:0,0:0:0:0:
479,90,248365,1,8,0:0:0:0:
480,139,248433,1,0,0:0:0:0:
482,188,248501,1,0,0:0:0:0:
381,331,248638,6,0,P|328:313|276:313,1,99.0000030212403,2|0,0:0|0:0,0:0:0:0:
56,345,248911,2,0,P|31:352|5:354,2,49.5000015106202,8|0|0,0:0|0:0|0:0,0:0:0:0:
179,189,249183,2,0,P|204:196|230:198,2,49.5000015106202,2|0|0,0:0|0:0|0:0,0:0:0:0:
66,59,249456,2,0,P|41:66|15:68,2,49.5000015106202,8|0|0,0:0|0:0|0:0,0:0:0:0:
240,31,249729,6,0,P|286:84|430:60,1,198.000006042481,6|8,0:0|0:0,0:0:0:0:
486,188,250138,1,0,0:0:0:0:
297,270,250275,2,0,P|236:276|193:271,1,99.0000030212403,2|0,0:0|0:0,0:0:0:0:
371,127,250547,2,0,L|371:76,2,49.5000015106202,8|0|0,0:0|0:0|0:0,0:0:0:0:
355,336,250820,5,14,0:0:0:0:
328,294,250888,1,0,0:0:0:0:
284,274,250956,1,0,0:0:0:0:
235,281,251024,1,0,0:0:0:0:
199,313,251093,1,10,0:0:0:0:
162,345,251161,1,0,0:0:0:0:
113,352,251229,1,0,0:0:0:0:
69,331,251297,1,0,0:0:0:0:
44,285,251365,2,0,L|38:227,3,49.5000015106202,14|0|0|0,0:0|0:0|0:0|0:0,0:0:0:0:
139,105,251638,5,10,0:0:0:0:
182,82,251706,1,8,0:0:0:0:
231,86,251774,1,8,0:0:0:0:
271,115,251842,1,8,0:0:0:0:
291,160,251911,6,0,P|298:224|284:288,1,99.0000030212403,14|0,0:0|0:0,0:0:0:0:
113,340,252183,2,0,L|60:349,2,49.5000015106202,8|0|0,0:0|0:0|0:0,0:0:0:0:
187,167,252456,1,2,0:0:0:0:
351,337,252593,1,0,0:0:0:0:
444,103,252729,2,0,P|447:79|447:43,2,49.5000015106202,8|0|0,0:0|0:0|0:0,0:0:0:0:
268,349,253002,6,0,P|241:296|263:244,1,99.0000030212403,2|0,0:0|0:0,0:0:0:0:
329,147,253274,2,0,P|361:153|379:159,2,49.5000015106202,8|0|0,0:0|0:0|0:0,0:0:0:0:
106,35,253547,1,2,0:0:0:0:
172,240,253684,1,0,0:0:0:0:
307,43,253820,2,0,L|369:49,2,49.5000015106202,8|0|0,0:0|0:0|0:0,0:0:0:0:
68,236,254093,5,14,0:0:0:0:
71,284,254161,1,0,0:0:0:0:
97,326,254229,1,0,0:0:0:0:
140,350,254297,1,0,0:0:0:0:
189,351,254365,1,0,0:0:0:0:
232,328,254433,1,0,0:0:0:0:
259,286,254502,5,10,0:0:0:0:
286,245,254570,1,0,0:0:0:0:
329,222,254638,1,0,0:0:0:0:
378,223,254706,1,0,0:0:0:0:
421,247,254774,1,0,0:0:0:0:
447,288,254842,1,0,0:0:0:0:
450,337,254911,5,10,0:0:0:0:
421,359,254979,1,0,0:0:0:0:
384,363,255047,1,0,0:0:0:0:
351,348,255115,1,0,0:0:0:0:
330,318,255184,6,0,L|322:265,2,49.5000015106202,6|0|0,0:0|0:0|0:0,0:0:0:0:
252,76,255456,1,8,0:0:0:0:
204,87,255524,1,0,0:0:0:0:
156,98,255592,1,0,0:0:0:0:
482,275,255729,5,6,0:0:0:0:
472,214,255797,1,0,0:0:0:0:
431,170,255865,1,0,0:0:0:0:
371,158,255933,1,0,0:0:0:0:
315,182,256002,1,8,0:0:0:0:
259,206,256070,1,0,0:0:0:0:
199,194,256138,1,0,0:0:0:0:
157,149,256206,1,0,0:0:0:0:
148,89,256274,6,0,P|184:46|245:39,1,107.999996704102,14|0,0:0|0:0,0:0:0:0:
431,221,256547,2,0,P|469:219|492:222,2,53.9999983520508,8|0|0,0:0|0:0|0:0,0:0:0:0:
176,336,256820,1,10,0:0:0:0:
300,71,256956,1,0,0:0:0:0:
70,173,257093,2,0,P|41:174|16:177,2,53.9999983520508,8|0|0,0:0|0:0|0:0,0:0:0:0:
316,335,257365,6,0,P|386:328|438:332,1,107.999996704102,14|0,0:0|0:0,0:0:0:0:
205,147,257638,1,8,0:0:0:0:
200,93,257706,1,0,0:0:0:0:
195,39,257774,1,0,0:0:0:0:
196,335,257911,2,0,P|126:328|74:332,1,107.999996704102,10|0,0:0|0:0,0:0:0:0:
307,147,258184,1,8,0:0:0:0:
311,93,258252,1,0,0:0:0:0:
316,39,258320,1,0,0:0:0:0:
512,98,258456,6,0,P|503:157|478:198,1,107.999996704102,14|0,0:0|0:0,0:0:0:0:
231,34,258729,1,8,0:0:0:0:
177,37,258797,1,0,0:0:0:0:
123,40,258865,1,0,0:0:0:0:
24,269,259002,2,0,P|23:309|26:343,2,53.9999983520508,10|0|0,0:0|0:0|0:0,0:0:0:0:
209,154,259275,1,8,0:0:0:0:
262,160,259343,1,0,0:0:0:0:
316,166,259411,1,0,0:0:0:0:
469,353,259547,5,14,0:0:0:0:
482,329,259615,1,0,0:0:0:0:
486,303,259683,1,0,0:0:0:0:
480,277,259751,1,0,0:0:0:0:
464,255,259820,5,10,0:0:0:0:
431,233,259888,1,0,0:0:0:0:
415,196,259956,1,0,0:0:0:0:
422,157,260024,1,0,0:0:0:0:
450,128,260093,5,14,0:0:0:0:
430,78,260161,1,0,0:0:0:0:
389,44,260229,1,0,0:0:0:0:
337,31,260297,1,0,0:0:0:0:
285,44,260365,5,10,0:0:0:0:
289,110,260433,1,0,0:0:0:0:
255,167,260501,1,0,0:0:0:0:
194,195,260569,1,0,0:0:0:0:
129,185,260638,6,0,P|121:148|130:70,1,107.999996704102,14|0,0:0|0:0,0:0:0:0:
449,52,260911,2,0,P|481:54|504:59,2,53.9999983520508,8|0|0,0:0|0:0|0:0,0:0:0:0:
229,342,261183,1,10,0:0:0:0:
494,206,261320,1,0,0:0:0:0:
194,40,261456,2,0,P|166:39|137:43,2,53.9999983520508,8|0|0,0:0|0:0|0:0,0:0:0:0:
53,345,261729,6,0,P|39:283|48:230,1,107.999996704102,14|0,0:0|0:0,0:0:0:0:
305,40,262002,1,8,0:0:0:0:
306,93,262070,1,0,0:0:0:0:
308,147,262138,1,0,0:0:0:0:
491,343,262274,1,10,0:0:0:0:
367,69,262411,1,0,0:0:0:0:
211,318,262547,2,0,P|177:323|142:326,2,53.9999983520508,8|0|0,0:0|0:0|0:0,0:0:0:0:
133,6,262820,5,14,0:0:0:0:
81,17,262888,1,0,0:0:0:0:
44,56,262956,1,0,0:0:0:0:
34,108,263024,1,0,0:0:0:0:
55,157,263092,1,0,0:0:0:0:
100,186,263160,1,0,0:0:0:0:
154,187,263229,5,10,0:0:0:0:
207,186,263297,1,0,0:0:0:0:
251,216,263365,1,0,0:0:0:0:
272,265,263433,1,0,0:0:0:0:
263,317,263501,1,0,0:0:0:0:
226,355,263569,1,0,0:0:0:0:
174,367,263638,5,10,0:0:0:0:
174,354,263706,1,0,0:0:0:0:
173,340,263774,1,0,0:0:0:0:
173,327,263842,1,0,0:0:0:0:
171,309,263911,5,14,0:0:0:0:
213,287,263979,1,0,0:0:0:0:
258,275,264047,1,0,0:0:0:0:
305,271,264115,1,0,0:0:0:0:
352,276,264183,1,10,0:0:0:0:
397,290,264251,1,0,0:0:0:0:
439,312,264320,1,0,0:0:0:0:
476,341,264388,1,0,0:0:0:0:
506,377,264456,5,14,0:0:0:0:
441,370,264524,1,8,0:0:0:0:
396,322,264592,1,8,0:0:0:0:
394,256,264660,1,8,0:0:0:0:
421,196,264729,5,10,0:0:0:0:
463,145,264797,1,8,0:0:0:0:
461,79,264865,1,8,0:0:0:0:
417,30,264933,1,8,0:0:0:0:
351,23,265002,6,0,L|221:35,1,107.999996704102,14|0,0:0|0:0,0:0:0:0:
32,213,265274,1,8,0:0:0:0:
39,266,265342,1,0,0:0:0:0:
46,320,265410,1,0,0:0:0:0:
321,242,265547,2,0,P|378:231|430:234,1,107.999996704102,10|0,0:0|0:0,0:0:0:0:
136,64,265820,1,8,0:0:0:0:
82,56,265888,1,0,0:0:0:0:
29,49,265956,1,0,0:0:0:0:
175,272,266093,6,0,P|166:332|155:381,1,107.999996704102,14|0,0:0|0:0,0:0:0:0:
364,63,266365,1,8,0:0:0:0:
417,68,266433,1,0,0:0:0:0:
471,73,266501,1,0,0:0:0:0:
337,272,266638,2,0,P|345:332|357:381,1,107.999996704102,10|0,0:0|0:0,0:0:0:0:
148,63,266911,1,8,0:0:0:0:
95,68,266979,1,0,0:0:0:0:
41,73,267047,1,0,0:0:0:0:
357,174,267184,6,0,P|425:183|472:202,1,107.999996704102,14|0,0:0|0:0,0:0:0:0:
49,300,267456,2,0,P|46:330|47:357,2,53.9999983520508,8|0|0,0:0|0:0|0:0,0:0:0:0:
380,193,267729,1,10,0:0:0:0:
193,27,267865,1,0,0:0:0:0:
306,325,268002,1,8,0:0:0:0:
359,328,268070,1,0,0:0:0:0:
413,332,268138,1,0,0:0:0:0:
471,54,268275,5,14,0:0:0:0:
447,43,268342,1,0,0:0:0:0:
420,37,268410,1,0,0:0:0:0:
393,37,268478,1,0,0:0:0:0:
367,43,268547,5,10,0:0:0:0:
405,58,268615,1,0,0:0:0:0:
437,82,268683,1,0,0:0:0:0:
462,114,268751,1,0,0:0:0:0:
480,153,268820,5,14,0:0:0:0:
426,151,268888,1,0,0:0:0:0:
373,163,268956,1,0,0:0:0:0:
325,187,269024,1,0,0:0:0:0:
284,222,269093,5,10,0:0:0:0:
351,221,269161,1,0,0:0:0:0:
413,246,269229,1,0,0:0:0:0:
461,292,269297,1,0,0:0:0:0:
488,354,269365,1,14,0:0:0:0:
83,311,269638,5,8,0:0:0:0:
284,334,269774,1,8,0:0:0:0:
488,354,269911,1,10,0:0:0:0:
45,184,270183,5,8,0:0:0:0:
260,146,270320,1,8,0:0:0:0:
465,108,270456,1,10,0:0:0:0:
30,37,270729,5,8,0:0:0:0:
259,65,270865,1,8,0:0:0:0:
493,92,271002,2,0,L|495:151,3,53.9999983520508,10|0|0|0,0:0|0:0|0:0|0:0,0:0:0:0:
368,77,271274,2,0,L|370:18,3,53.9999983520508,10|0|0|0,0:0|0:0|0:0|0:0,0:0:0:0:
357,268,271547,5,14,0:0:0:0:
365,268,271615,1,0,0:0:0:0:
374,268,271683,1,0,0:0:0:0:
383,269,271751,1,0,0:0:0:0:
392,270,271819,1,0,0:0:0:0:
401,271,271887,1,0,0:0:0:0:
410,274,271956,5,10,0:0:0:0:
392,274,272024,1,0,0:0:0:0:
374,276,272092,1,0,0:0:0:0:
356,280,272160,1,0,0:0:0:0:
339,286,272228,1,0,0:0:0:0:
323,294,272296,1,0,0:0:0:0:
306,305,272365,5,10,0:0:0:0:
346,304,272433,1,0,0:0:0:0:
386,308,272501,1,0,0:0:0:0:
426,317,272569,1,0,0:0:0:0:
464,330,272638,5,14,0:0:0:0:
423,365,272706,1,0,0:0:0:0:
372,378,272774,1,0,0:0:0:0:
319,368,272842,1,0,0:0:0:0:
276,336,272910,1,10,0:0:0:0:
252,288,272978,1,0,0:0:0:0:
251,235,273047,1,0,0:0:0:0:
273,186,273115,1,0,0:0:0:0:
314,152,273184,5,14,0:0:0:0:
284,91,273252,1,8,0:0:0:0:
232,50,273320,1,10,0:0:0:0:
166,36,273388,1,8,0:0:0:0:
101,52,273456,1,10,0:0:0:0:
50,96,273524,1,8,0:0:0:0:
23,157,273593,1,10,0:0:0:0:
26,224,273661,1,8,0:0:0:0:
58,283,273729,5,14,0:0:0:0:
161,359,273865,1,0,0:0:0:0:
213,200,274002,2,0,L|273:194,2,45,8|0|0,0:0|0:0|0:0,0:0:0:0:
455,281,274274,1,2,0:0:0:0:
351,359,274410,1,0,0:0:0:0:
299,200,274547,2,0,L|239:194,2,45,8|0|0,0:0|0:0|0:0,0:0:0:0:
456,57,274820,6,0,P|398:47|347:48,1,90,2|0,0:0|0:0,0:0:0:0:
225,191,275093,2,0,P|222:224|226:252,2,45,8|0|0,0:0|0:0|0:0,0:0:0:0:
151,36,275365,1,2,0:0:0:0:
56,179,275502,1,0,0:0:0:0:
136,330,275638,2,0,P|192:321|276:329,1,135,8|0,0:0|0:0,0:0:0:0:
289,338,275911,6,0,P|344:349|376:338,1,90,2|0,0:0|0:0,0:0:0:0:
475,177,276183,2,0,L|481:120,2,45,8|0|0,0:0|0:0|0:0,0:0:0:0:
223,338,276456,2,0,P|168:349|136:338,1,90,2|0,0:0|0:0,0:0:0:0:
37,177,276729,2,0,L|31:120,2,45,8|0|0,0:0|0:0|0:0,0:0:0:0:
204,40,277002,6,0,L|308:44,1,90,2|0,0:0|0:0,0:0:0:0:
425,191,277274,2,0,P|452:193|473:197,2,45,8|0|0,0:0|0:0|0:0,0:0:0:0:
341,325,277547,2,0,P|313:327|293:331,2,45,2|0|0,0:0|0:0|0:0,0:0:0:0:
243,195,277820,1,8,0:0:0:0:
231,194,277888,1,0,0:0:0:0:
220,193,277956,1,0,0:0:0:0:
209,192,278024,1,0,0:0:0:0:
198,191,278092,5,6,0:0:0:0:
324,332,278229,1,0,0:0:0:0:
426,144,278365,2,0,P|430:120|430:88,2,45,8|0|0,0:0|0:0|0:0,0:0:0:0:
313,191,278638,1,2,0:0:0:0:
188,332,278775,1,0,0:0:0:0:
86,144,278911,2,0,P|82:120|82:88,2,45,8|0|0,0:0|0:0|0:0,0:0:0:0:
271,47,279183,6,0,P|331:42|368:53,1,90,2|0,0:0|0:0,0:0:0:0:
450,240,279456,2,0,P|452:271|453:297,2,45,8|0|0,0:0|0:0|0:0,0:0:0:0:
329,157,279729,1,2,0:0:0:0:
226,267,279865,1,0,0:0:0:0:
107,186,280002,2,0,P|94:139|104:50,1,135,8|0,0:0|0:0,0:0:0:0:
123,38,280274,6,0,P|183:31|215:38,1,90,2|0,0:0|0:0,0:0:0:0:
339,148,280547,2,0,L|394:155,2,45,8|0|0,0:0|0:0|0:0,0:0:0:0:
123,346,280820,2,0,P|183:353|215:346,1,90,2|0,0:0|0:0,0:0:0:0:
339,236,281093,2,0,L|394:229,2,45,8|0|0,0:0|0:0|0:0,0:0:0:0:
201,108,281365,6,0,P|195:81|194:64,3,45,14|0|0|0,0:0|0:0|0:0|0:0,0:0:0:0:
100,204,281638,2,0,P|86:180|79:164,3,45,10|0|0|0,0:0|0:0|0:0|0:0,0:0:0:0:
141,335,281911,1,10,0:0:0:0:
151,331,281979,1,0,0:0:0:0:
162,328,282047,1,0,0:0:0:0:
173,325,282115,1,0,0:0:0:0:
184,324,282183,1,10,0:0:0:0:
195,323,282251,1,8,0:0:0:0:
207,324,282320,1,8,0:0:0:0:
218,325,282388,1,8,0:0:0:0:
230,326,282456,6,0,L|287:324,3,45,14|0|0|0,0:0|0:0|0:0|0:0,0:0:0:0:
408,260,282729,2,0,L|453:264,3,45,10|0|0|0,0:0|0:0|0:0|0:0,0:0:0:0:
311,171,283002,2,0,L|266:172,3,45,10|0|0|0,0:0|0:0|0:0|0:0,0:0:0:0:
384,64,283275,2,0,L|429:68,3,45,10|0|0|0,0:0|0:0|0:0|0:0,0:0:0:0:
245,32,283547,5,10,0:0:0:0:
235,43,283615,1,0,0:0:0:0:
225,54,283683,1,0,0:0:0:0:
213,63,283751,1,0,0:0:0:0:
200,71,283819,1,10,0:0:0:0:
187,78,283887,1,0,0:0:0:0:
173,83,283956,1,0,0:0:0:0:
158,86,284024,1,0,0:0:0:0:
143,88,284093,1,10,0:0:0:0:
128,88,284160,1,0,0:0:0:0:
113,86,284228,1,0,0:0:0:0:
99,83,284297,1,0,0:0:0:0:
83,77,284365,2,0,L|76:24,3,45,10|0|0|0,0:0|0:0|0:0|0:0,0:0:0:0:
178,163,284638,5,10,0:0:0:0:
170,184,284706,1,0,0:0:0:0:
166,206,284774,1,0,0:0:0:0:
166,228,284842,1,0,0:0:0:0:
176,252,284911,2,0,P|205:254|241:250,3,45,8|0|0|0,0:0|0:0|0:0|0:0,0:0:0:0:
341,341,285183,5,10,0:0:0:0:
333,319,285251,1,0,0:0:0:0:
329,297,285319,1,0,0:0:0:0:
329,275,285387,1,0,0:0:0:0:
339,252,285456,2,0,P|368:249|404:254,3,45,8|0|0|0,0:0|0:0|0:0|0:0,0:0:0:0:
454,151,285729,5,10,0:0:0:0:
470,109,285797,1,0,0:0:0:0:
463,65,285865,1,0,0:0:0:0:
434,32,285933,1,0,0:0:0:0:
391,18,286001,1,10,0:0:0:0:
348,29,286069,1,0,0:0:0:0:
317,60,286138,6,0,L|321:116,1,45,4|0,3:1|3:3,3:3:0:0:
241,253,286275,2,0,L|237:197,1,45,0|0,3:3|3:3,3:3:0:0:
125,91,286411,2,0,L|128:146,1,45,0|0,3:3|3:3,3:3:0:0:
60,298,286547,2,8,L|63:349,3,45
45,192,286820,5,14,0:0:0:0:
37,176,286888,1,0,0:0:0:0:
35,160,286956,1,0,0:0:0:0:
39,143,287024,1,0,0:0:0:0:
47,128,287092,1,10,0:0:0:0:
59,117,287160,1,0,0:0:0:0:
74,110,287229,1,0,0:0:0:0:
91,108,287297,1,0,0:0:0:0:
107,111,287365,5,10,0:0:0:0:
123,114,287433,1,0,0:0:0:0:
140,111,287501,1,0,0:0:0:0:
155,104,287569,1,0,0:0:0:0:
167,93,287637,1,10,0:0:0:0:
175,78,287707,1,0,0:0:0:0:
179,61,287774,1,0,0:0:0:0:
177,45,287842,1,0,0:0:0:0:
166,31,287911,6,0,L|111:28,3,45,10|0|0|0,0:0|0:0|0:0|0:0,0:0:0:0:
240,142,288183,2,0,L|295:139,3,45,10|0|0|0,0:0|0:0|0:0|0:0,0:0:0:0:
148,233,288456,1,10,0:0:0:0:
146,255,288524,1,0,0:0:0:0:
150,277,288592,1,0,0:0:0:0:
160,297,288660,1,0,0:0:0:0:
176,313,288728,1,10,0:0:0:0:
195,324,288796,1,0,0:0:0:0:
217,330,288865,1,0,0:0:0:0:
239,329,288933,1,0,0:0:0:0:
259,321,289002,5,10,0:0:0:0:
261,287,289070,1,0,0:0:0:0:
264,253,289138,1,0,0:0:0:0:
267,220,289206,1,0,0:0:0:0:
269,186,289274,2,0,P|264:151|265:131,3,45,8|0|0|0,0:0|0:0|0:0|0:0,0:0:0:0:
173,51,289547,5,10,0:0:0:0:
217,49,289615,1,0,0:0:0:0:
262,48,289683,1,0,0:0:0:0:
307,46,289751,1,0,0:0:0:0:
352,45,289820,2,0,L|411:57,3,45,8|0|0|0,0:0|0:0|0:0|0:0,0:0:0:0:
404,190,290093,6,0,L|463:194,3,45,10|0|0|0,0:0|0:0|0:0|0:0,0:0:0:0:
298,57,290365,2,0,L|313:7,3,45,10|0|0|0,0:0|0:0|0:0|0:0,0:0:0:0:
153,34,290638,1,10,0:0:0:0:
98,44,290706,1,0,0:0:0:0:
64,87,290774,1,2,0:0:0:0:
66,142,290842,1,0,0:0:0:0:
103,183,290911,1,10,0:0:0:0:
139,223,290979,1,0,0:0:0:0:
141,278,291047,1,2,0:0:0:0:
107,322,291115,1,0,0:0:0:0:
53,332,291183,1,14,0:0:0:0:
82,59,291456,5,0,0:0:0:0:
70,186,291593,1,0,0:0:0:0:
53,332,291729,1,10,0:0:0:0:
201,60,292002,5,0,0:0:0:0:
134,189,292138,1,0,0:0:0:0:
53,332,292274,1,10,0:0:0:0:
319,99,292547,5,0,0:0:0:0:
195,212,292683,1,0,0:0:0:0:
53,332,292820,1,10,0:0:0:0:
393,333,293093,1,0,3:3:0:0:
404,334,293161,1,0,3:3:0:0:
415,335,293229,1,0,3:3:0:0:
426,336,293297,1,0,3:3:0:0:
440,339,293365,6,0,L|493:343,4,45,6|0|0|0|0,0:0|0:0|0:0|0:0|0:0,0:0:0:0:
425,189,293774,1,0,0:0:0:0:
412,56,293911,1,10,0:0:0:0:
344,341,294183,5,0,0:0:0:0:
382,196,294320,1,0,0:0:0:0:
412,56,294456,1,10,0:0:0:0:
192,308,294729,5,0,0:0:0:0:
302,182,294865,1,0,0:0:0:0:
412,56,295002,1,10,0:0:0:0:
197,45,295274,1,0,3:3:0:0:
152,41,295342,1,0,3:3:0:0:
107,45,295410,1,0,3:3:0:0:
63,54,295478,1,0,3:3:0:0:
21,70,295547,5,10,0:0:0:0:
22,81,295615,1,0,0:0:0:0:
23,92,295683,1,0,0:0:0:0:
25,103,295751,1,0,0:0:0:0:
26,115,295819,1,0,0:0:0:0:
118,223,295956,6,0,P|190:214|312:230,1,180,14|0,0:0|0:0,0:0:0:0:
353,341,296365,1,0,0:0:0:0:
439,202,296502,1,0,0:0:0:0:
348,69,296638,6,0,L|298:77,3,45,10|0|0|0,0:0|0:0|0:0|0:0,0:0:0:0:
421,229,296911,2,0,L|471:237,3,45,10|0|0|0,0:0|0:0|0:0|0:0,0:0:0:0:
320,346,297183,1,10,0:0:0:0:
308,344,297251,1,0,0:0:0:0:
297,342,297319,1,0,0:0:0:0:
286,341,297387,1,0,0:0:0:0:
275,341,297457,1,10,0:0:0:0:
264,340,297525,1,0,0:0:0:0:
252,341,297592,1,0,0:0:0:0:
241,341,297660,1,0,0:0:0:0:
226,343,297729,5,14,0:0:0:0:
181,348,297797,1,0,0:0:0:0:
140,332,297865,1,0,0:0:0:0:
111,298,297933,1,0,0:0:0:0:
101,254,298001,1,0,0:0:0:0:
113,211,298069,1,0,0:0:0:0:
144,179,298138,5,14,0:0:0:0:
175,147,298206,1,0,0:0:0:0:
187,104,298274,1,0,0:0:0:0:
177,60,298342,1,0,0:0:0:0:
148,26,298410,1,0,0:0:0:0:
107,10,298478,1,0,0:0:0:0:
62,16,298547,5,14,0:0:0:0:
61,30,298615,1,0,0:0:0:0:
59,45,298683,1,0,0:0:0:0:
57,60,298751,1,0,0:0:0:0:
55,75,298819,1,0,0:0:0:0:
54,90,298887,1,0,0:0:0:0:
51,108,298956,5,14,0:0:0:0:
55,122,299024,1,0,0:0:0:0:
59,136,299092,1,0,0:0:0:0:
64,151,299160,1,0,0:0:0:0:
68,165,299228,1,0,0:0:0:0:
72,179,299296,1,0,0:0:0:0:
79,193,299365,5,14,0:0:0:0:
119,230,299433,1,0,0:0:0:0:
174,233,299501,1,0,0:0:0:0:
219,202,299569,1,0,0:0:0:0:
234,149,299638,1,10,0:0:0:0:
249,95,299706,1,0,0:0:0:0:
294,64,299774,1,0,0:0:0:0:
349,67,299842,1,0,0:0:0:0:
390,105,299911,6,0,L|389:144,1,22.5,14|0,0:0|0:0,0:0:0:0:
164,370,300320,6,0,L|167:338,1,22.5,14|0,0:0|0:0,0:0:0:0:
51,17,300729,6,0,L|51:57,1,22.5,14|0,0:0|0:0,0:0:0:0:
