osu file format v14

[General]
AudioFilename: audio.mp3
AudioLeadIn: 0
PreviewTime: 88803
Countdown: 1
SampleSet: Normal
StackLeniency: 0.7
Mode: 1
LetterboxInBreaks: 0
WidescreenStoryboard: 0

[Editor]
Bookmarks: 441,4804,9168,17895,35350,39713,44077,52804,61531,62622,71350,80077,88803,106258,114985,122622,124259,132986,141713,150440,167895,170077,172259,176622,185349,194077,202804,211531,215895,220259,228986,237713,238804,256259,273713,282440,291168,299895
DistanceSpacing: 1.2
BeatDivisor: 4
GridSize: 16
TimelineZoom: 1.7

[Metadata]
Title:Shinkou wa Hakanaki Ningen no Tame ni ~ Jehovah's YaHVeH
TitleUnicode:信仰は儚き人間の為に ~ Jehovah's YaHVeH
Artist:Demetori
ArtistUnicode:Demetori
Creator:lazyboy007
Version:Shinkou Oni
Source:東方風神録 ~ Mountain of Faith.
Tags:metal Fuujinroku Wind God Chronicles 東方Project 東方プロジェクト Touhou Sanae Kochiya 東風谷 早苗 Il Mondo dove e finito il Tempo
BeatmapID:1535364
BeatmapSetID:727256

[Difficulty]
HPDrainRate:5
CircleSize:3
OverallDifficulty:6
ApproachRate:5
SliderMultiplier:1.4
SliderTickRate:1

[Events]
//Background and Video events
0,0,"86432_roztanczona_dziewczyna_noc_gory.jpg",0,0
//Break Periods
//Storyboard Layer 0 (Background)
//Storyboard Layer 1 (Fail)
//Storyboard Layer 2 (Pass)
//Storyboard Layer 3 (Foreground)
//Storyboard Sound Samples

[TimingPoints]
441,545.454545454546,4,1,0,5,1,0
35350,272.727272727273,4,1,0,90,1,0
62077,-133.333333333333,4,1,0,90,0,0
62622,-100,4,1,0,90,0,0
88804,-100,4,1,0,90,0,1
106259,-100,4,1,0,90,0,0
123713,272.727272727273,4,1,0,80,1,8
124259,272.727272727273,4,1,0,80,1,0
149895,-133.333333333333,4,1,0,80,0,0
150440,-100,4,1,0,80,0,1
167895,-100,4,1,0,80,0,0
176622,-100,4,1,0,80,0,1
194077,-100,4,1,0,80,0,0
237168,-133.333333333333,4,1,0,80,0,0
238804,-100,4,1,0,80,0,1
273713,-100,4,1,0,80,0,0

[HitObjects]
448,64,441,5,8,0:0:0:0:
448,64,986,1,8,0:0:0:0:
448,64,1531,1,8,0:0:0:0:
448,64,2077,1,8,0:0:0:0:
448,64,2622,5,8,0:0:0:0:
448,64,3168,1,8,0:0:0:0:
448,64,3713,1,8,0:0:0:0:
448,64,4259,1,8,0:0:0:0:
448,64,4804,5,8,0:0:0:0:
64,64,5076,1,0,0:0:0:0:
448,64,5349,1,8,0:0:0:0:
64,64,5622,1,0,0:0:0:0:
448,64,5895,1,8,0:0:0:0:
448,64,6441,1,8,0:0:0:0:
448,64,6986,5,8,0:0:0:0:
64,64,7259,1,0,0:0:0:0:
448,64,7531,1,8,0:0:0:0:
64,64,7804,1,0,0:0:0:0:
448,64,8077,1,8,0:0:0:0:
64,64,8622,1,0,0:0:0:0:
64,64,8895,1,0,0:0:0:0:
448,320,9168,5,12,0:0:0:0:
64,64,9441,1,0,0:0:0:0:
64,64,9713,1,0,0:0:0:0:
64,64,9986,1,0,0:0:0:0:
448,64,10259,1,8,0:0:0:0:
64,64,10804,1,0,0:0:0:0:
448,64,11077,1,8,0:0:0:0:
448,64,11350,5,8,0:0:0:0:
64,64,11622,1,0,0:0:0:0:
64,64,11895,1,0,0:0:0:0:
64,64,12168,1,0,0:0:0:0:
448,64,12441,1,8,0:0:0:0:
64,64,12986,1,0,0:0:0:0:
448,64,13259,1,8,0:0:0:0:
64,64,13531,5,0,0:0:0:0:
64,64,13804,1,0,0:0:0:0:
448,64,14077,1,8,0:0:0:0:
64,64,14350,1,0,0:0:0:0:
448,64,14622,1,8,0:0:0:0:
64,64,15168,1,0,0:0:0:0:
448,64,15441,1,8,0:0:0:0:
448,64,15713,5,8,0:0:0:0:
64,64,15986,1,0,0:0:0:0:
64,64,16259,1,0,0:0:0:0:
448,64,16531,1,8,0:0:0:0:
64,64,16804,1,0,0:0:0:0:
448,64,17077,1,8,0:0:0:0:
448,64,17350,1,8,0:0:0:0:
448,320,17895,5,12,0:0:0:0:
64,64,18168,1,0,0:0:0:0:
64,64,18441,1,0,0:0:0:0:
64,64,18713,1,0,0:0:0:0:
448,64,18986,1,8,0:0:0:0:
64,64,19259,1,0,0:0:0:0:
64,64,19531,1,0,0:0:0:0:
448,64,19804,1,8,0:0:0:0:
448,64,20077,5,8,0:0:0:0:
64,64,20350,1,0,0:0:0:0:
64,64,20622,1,0,0:0:0:0:
64,64,20895,1,0,0:0:0:0:
448,64,21168,1,8,0:0:0:0:
64,64,21441,1,0,0:0:0:0:
64,64,21713,1,0,0:0:0:0:
448,64,21986,1,8,0:0:0:0:
448,64,22259,5,8,0:0:0:0:
64,64,22531,1,0,0:0:0:0:
64,64,22804,1,0,0:0:0:0:
448,64,23077,1,8,0:0:0:0:
448,64,23350,1,8,0:0:0:0:
64,64,23622,1,0,0:0:0:0:
64,64,23895,1,0,0:0:0:0:
448,64,24168,1,8,0:0:0:0:
64,64,24441,5,0,0:0:0:0:
448,64,24713,1,8,0:0:0:0:
64,64,24986,1,0,0:0:0:0:
448,64,25259,1,8,0:0:0:0:
64,64,25531,1,0,0:0:0:0:
448,64,25804,1,8,0:0:0:0:
448,64,26077,1,8,0:0:0:0:
64,64,26350,1,0,0:0:0:0:
448,320,26622,5,12,0:0:0:0:
64,64,26895,1,0,0:0:0:0:
448,64,27168,1,8,0:0:0:0:
64,64,27441,1,0,0:0:0:0:
64,64,27713,1,0,0:0:0:0:
64,64,27986,1,0,0:0:0:0:
448,64,28259,1,8,0:0:0:0:
448,64,28531,1,8,0:0:0:0:
64,64,28804,5,0,0:0:0:0:
64,64,29077,1,0,0:0:0:0:
64,64,29350,1,0,0:0:0:0:
448,64,29622,1,8,0:0:0:0:
64,64,29895,1,0,0:0:0:0:
64,64,30168,1,0,0:0:0:0:
64,64,30441,1,0,0:0:0:0:
448,64,30713,1,8,0:0:0:0:
448,64,30986,5,8,0:0:0:0:
64,64,31259,1,0,0:0:0:0:
64,64,31531,1,0,0:0:0:0:
448,64,31804,1,8,0:0:0:0:
448,64,32077,1,8,0:0:0:0:
64,64,32350,1,0,0:0:0:0:
64,64,32622,1,0,0:0:0:0:
448,64,32895,1,8,0:0:0:0:
448,64,33168,5,8,0:0:0:0:
64,64,33441,1,0,0:0:0:0:
64,64,33713,1,0,0:0:0:0:
448,64,33986,1,8,0:0:0:0:
448,64,34259,1,8,0:0:0:0:
64,64,34531,1,0,0:0:0:0:
448,64,34804,1,8,0:0:0:0:
64,320,35350,5,4,0:0:0:0:
64,320,37531,5,4,0:0:0:0:
64,320,37940,1,4,0:0:0:0:
64,320,38350,1,4,0:0:0:0:
64,64,38622,5,0,0:0:0:0:
448,64,38759,1,8,0:0:0:0:
448,64,38895,1,8,0:0:0:0:
448,64,38963,1,8,0:0:0:0:
64,64,39031,1,0,0:0:0:0:
64,64,39100,1,0,0:0:0:0:
448,64,39168,1,8,0:0:0:0:
64,64,39259,1,0,0:0:0:0:
64,64,39350,1,0,0:0:0:0:
448,64,39440,1,8,0:0:0:0:
64,64,39531,1,0,0:0:0:0:
64,64,39622,1,0,0:0:0:0:
448,320,39713,5,12,0:0:0:0:
64,320,40804,5,4,0:0:0:0:
64,64,41622,5,0,0:0:0:0:
64,64,41668,1,0,0:0:0:0:
64,64,41713,1,0,0:0:0:0:
64,64,41804,1,0,0:0:0:0:
448,320,41895,5,12,0:0:0:0:
448,64,42168,1,8,0:0:0:0:
64,64,42304,1,0,0:0:0:0:
448,64,42440,1,8,0:0:0:0:
64,64,42577,1,0,0:0:0:0:
448,64,42713,1,8,0:0:0:0:
64,64,42850,1,0,0:0:0:0:
64,64,42918,1,0,0:0:0:0:
448,64,42986,5,8,0:0:0:0:
64,64,43122,1,0,0:0:0:0:
64,64,43190,1,0,0:0:0:0:
448,64,43259,1,8,0:0:0:0:
64,64,43395,1,0,0:0:0:0:
64,64,43463,1,0,0:0:0:0:
448,64,43531,1,8,0:0:0:0:
448,64,43600,1,8,0:0:0:0:
64,64,43668,1,0,0:0:0:0:
64,64,43736,1,0,0:0:0:0:
448,64,43804,1,8,0:0:0:0:
64,64,43872,1,0,0:0:0:0:
64,64,43940,1,8,0:0:0:0:
64,320,44077,5,4,0:0:0:0:
448,64,44213,1,8,0:0:0:0:
64,64,44350,1,0,0:0:0:0:
64,64,44418,1,0,0:0:0:0:
448,64,44486,1,8,0:0:0:0:
64,64,44622,1,0,0:0:0:0:
448,64,44759,1,8,0:0:0:0:
64,64,44895,1,0,0:0:0:0:
64,64,44963,1,0,0:0:0:0:
448,64,45031,1,8,0:0:0:0:
64,64,45168,5,0,0:0:0:0:
448,64,45304,1,8,0:0:0:0:
64,64,45440,1,0,0:0:0:0:
64,64,45509,1,0,0:0:0:0:
448,64,45577,1,8,0:0:0:0:
448,64,45645,1,8,0:0:0:0:
64,64,45713,1,0,0:0:0:0:
64,64,45781,1,0,0:0:0:0:
448,64,45850,1,8,0:0:0:0:
64,64,45986,1,0,0:0:0:0:
64,64,46054,1,0,0:0:0:0:
448,64,46122,1,8,0:0:0:0:
64,64,46259,5,0,0:0:0:0:
448,64,46395,1,8,0:0:0:0:
64,64,46531,1,0,0:0:0:0:
64,64,46600,1,0,0:0:0:0:
448,64,46668,1,8,0:0:0:0:
64,64,46804,1,0,0:0:0:0:
448,64,46940,1,8,0:0:0:0:
64,64,47077,1,0,0:0:0:0:
64,64,47145,1,0,0:0:0:0:
448,64,47213,1,8,0:0:0:0:
64,64,47350,5,0,0:0:0:0:
448,64,47486,1,8,0:0:0:0:
448,64,47554,1,8,0:0:0:0:
64,64,47622,1,0,0:0:0:0:
64,64,47690,1,0,0:0:0:0:
448,64,47759,1,8,0:0:0:0:
448,64,47827,1,8,0:0:0:0:
64,64,47895,1,0,0:0:0:0:
64,64,47963,1,0,0:0:0:0:
448,64,48031,1,8,0:0:0:0:
64,64,48168,1,0,0:0:0:0:
64,64,48213,1,0,0:0:0:0:
64,64,48259,1,0,0:0:0:0:
448,64,48304,1,8,0:0:0:0:
64,320,48440,5,4,0:0:0:0:
448,64,48577,1,8,0:0:0:0:
64,64,48713,1,0,0:0:0:0:
64,64,48781,1,0,0:0:0:0:
448,64,48850,1,8,0:0:0:0:
64,64,48986,1,0,0:0:0:0:
448,64,49122,1,8,0:0:0:0:
64,64,49259,1,0,0:0:0:0:
64,64,49327,1,0,0:0:0:0:
448,64,49395,1,8,0:0:0:0:
64,64,49531,5,0,0:0:0:0:
448,64,49668,1,8,0:0:0:0:
64,64,49804,1,0,0:0:0:0:
64,64,49872,1,0,0:0:0:0:
448,64,49940,1,8,0:0:0:0:
448,64,50009,1,8,0:0:0:0:
64,64,50077,1,0,0:0:0:0:
64,64,50145,1,0,0:0:0:0:
448,64,50213,1,8,0:0:0:0:
64,64,50350,1,0,0:0:0:0:
64,64,50418,1,0,0:0:0:0:
448,64,50486,1,8,0:0:0:0:
64,320,50622,5,4,0:0:0:0:
448,64,50759,1,8,0:0:0:0:
64,64,50895,1,0,0:0:0:0:
64,64,50963,1,0,0:0:0:0:
448,64,51031,1,8,0:0:0:0:
64,64,51168,1,0,0:0:0:0:
448,64,51304,1,8,0:0:0:0:
448,64,51372,1,8,0:0:0:0:
64,64,51440,1,0,0:0:0:0:
64,64,51509,1,0,0:0:0:0:
448,64,51577,1,8,0:0:0:0:
64,64,51713,5,0,0:0:0:0:
64,64,51781,1,0,0:0:0:0:
64,64,51850,1,0,0:0:0:0:
64,64,51918,1,0,0:0:0:0:
448,64,51986,1,8,0:0:0:0:
64,64,52054,1,0,0:0:0:0:
448,64,52122,1,8,0:0:0:0:
64,64,52190,1,0,0:0:0:0:
448,64,52259,1,8,0:0:0:0:
448,64,52327,1,8,0:0:0:0:
448,64,52395,1,8,0:0:0:0:
448,64,52463,1,8,0:0:0:0:
64,64,52531,1,0,0:0:0:0:
64,64,52600,1,0,0:0:0:0:
448,64,52668,1,8,0:0:0:0:
64,320,52804,5,4,0:0:0:0:
448,64,52940,1,8,0:0:0:0:
64,64,53077,1,0,0:0:0:0:
64,64,53145,1,0,0:0:0:0:
448,64,53213,1,8,0:0:0:0:
64,64,53350,1,0,0:0:0:0:
448,64,53486,1,8,0:0:0:0:
448,64,53554,1,8,0:0:0:0:
64,64,53622,1,0,0:0:0:0:
64,64,53690,1,0,0:0:0:0:
448,64,53759,1,8,0:0:0:0:
64,64,53895,5,0,0:0:0:0:
448,64,54031,1,8,0:0:0:0:
64,64,54168,1,0,0:0:0:0:
64,64,54236,1,0,0:0:0:0:
448,64,54304,1,8,0:0:0:0:
448,64,54372,1,8,0:0:0:0:
64,64,54440,1,0,0:0:0:0:
64,64,54509,1,0,0:0:0:0:
448,64,54577,1,8,0:0:0:0:
64,64,54713,1,0,0:0:0:0:
64,64,54781,1,0,0:0:0:0:
448,64,54850,1,8,0:0:0:0:
64,64,54986,5,0,0:0:0:0:
448,64,55122,1,8,0:0:0:0:
64,64,55259,1,0,0:0:0:0:
64,64,55327,1,0,0:0:0:0:
448,64,55395,1,8,0:0:0:0:
64,64,55531,1,0,0:0:0:0:
448,64,55668,1,8,0:0:0:0:
448,64,55736,1,8,0:0:0:0:
64,64,55804,1,0,0:0:0:0:
64,64,55872,1,0,0:0:0:0:
448,64,55940,1,8,0:0:0:0:
64,64,56077,5,0,0:0:0:0:
448,64,56213,1,8,0:0:0:0:
64,64,56350,1,0,0:0:0:0:
64,64,56418,1,0,0:0:0:0:
448,64,56486,1,8,0:0:0:0:
448,64,56554,1,8,0:0:0:0:
64,64,56622,1,0,0:0:0:0:
64,64,56690,1,0,0:0:0:0:
448,64,56759,1,8,0:0:0:0:
64,64,56895,1,0,0:0:0:0:
64,64,56940,1,0,0:0:0:0:
64,64,56986,1,0,0:0:0:0:
448,64,57031,1,8,0:0:0:0:
64,320,57168,5,4,0:0:0:0:
448,64,57304,1,8,0:0:0:0:
64,64,57440,1,0,0:0:0:0:
64,64,57509,1,0,0:0:0:0:
448,64,57577,1,8,0:0:0:0:
64,64,57713,1,0,0:0:0:0:
448,64,57850,1,8,0:0:0:0:
448,64,57918,1,8,0:0:0:0:
64,64,57986,1,0,0:0:0:0:
64,64,58054,1,0,0:0:0:0:
448,64,58122,1,8,0:0:0:0:
64,64,58259,5,0,0:0:0:0:
448,64,58395,1,8,0:0:0:0:
64,64,58531,1,0,0:0:0:0:
64,64,58600,1,0,0:0:0:0:
448,64,58668,1,8,0:0:0:0:
448,64,58736,1,8,0:0:0:0:
64,64,58804,1,0,0:0:0:0:
64,64,58872,1,0,0:0:0:0:
448,64,58940,1,8,0:0:0:0:
64,64,59077,1,0,0:0:0:0:
64,64,59145,1,0,0:0:0:0:
448,64,59213,1,8,0:0:0:0:
448,64,59350,5,8,0:0:0:0:
448,64,59418,1,8,0:0:0:0:
448,64,59486,1,8,0:0:0:0:
448,64,59554,1,8,0:0:0:0:
64,64,59622,1,0,0:0:0:0:
64,64,59690,1,0,0:0:0:0:
448,64,59759,1,8,0:0:0:0:
64,64,59827,1,0,0:0:0:0:
448,64,59895,1,8,0:0:0:0:
64,64,59963,1,0,0:0:0:0:
64,64,60031,1,0,0:0:0:0:
64,64,60100,1,0,0:0:0:0:
448,64,60168,1,8,0:0:0:0:
448,64,60236,1,8,0:0:0:0:
64,64,60304,1,0,0:0:0:0:
64,64,60372,1,0,0:0:0:0:
448,64,60440,1,8,0:0:0:0:
448,64,60509,1,8,0:0:0:0:
64,64,60577,1,0,0:0:0:0:
64,64,60645,1,0,0:0:0:0:
448,64,60713,1,8,0:0:0:0:
64,64,60781,1,0,0:0:0:0:
64,64,60850,1,0,0:0:0:0:
64,64,60918,1,0,0:0:0:0:
448,64,60986,1,8,0:0:0:0:
448,64,61054,1,8,0:0:0:0:
448,64,61122,1,8,0:0:0:0:
448,64,61190,1,8,0:0:0:0:
64,64,61259,1,0,0:0:0:0:
64,64,61327,1,0,0:0:0:0:
64,64,61395,1,0,0:0:0:0:
448,320,61531,5,12,0:0:0:0:
64,64,62077,1,0,0:0:0:0:
64,64,62350,1,0,0:0:0:0:
448,320,62622,5,12,0:0:0:0:
448,64,62759,1,8,0:0:0:0:
64,64,62895,1,0,0:0:0:0:
64,64,62963,1,0,0:0:0:0:
448,64,63031,1,8,0:0:0:0:
64,64,63168,1,0,0:0:0:0:
448,64,63304,1,8,0:0:0:0:
64,64,63372,1,0,0:0:0:0:
448,64,63440,1,8,0:0:0:0:
448,64,63509,1,8,0:0:0:0:
64,64,63577,1,0,0:0:0:0:
448,64,63713,5,8,0:0:0:0:
448,64,63850,1,8,0:0:0:0:
64,64,63986,1,0,0:0:0:0:
64,64,64054,1,0,0:0:0:0:
448,64,64122,1,8,0:0:0:0:
64,64,64259,1,0,0:0:0:0:
448,64,64395,1,8,0:0:0:0:
448,64,64463,1,8,0:0:0:0:
64,64,64531,1,0,0:0:0:0:
64,64,64600,1,0,0:0:0:0:
448,64,64668,1,8,0:0:0:0:
64,64,64804,5,0,0:0:0:0:
448,64,64940,1,8,0:0:0:0:
64,64,65009,1,0,0:0:0:0:
448,64,65077,1,8,0:0:0:0:
448,64,65145,1,8,0:0:0:0:
64,64,65213,1,0,0:0:0:0:
64,64,65350,1,0,0:0:0:0:
448,64,65486,1,8,0:0:0:0:
448,64,65554,1,8,0:0:0:0:
64,64,65622,1,0,0:0:0:0:
64,64,65690,1,0,0:0:0:0:
448,64,65759,1,8,0:0:0:0:
64,64,65895,5,0,0:0:0:0:
448,64,66031,1,8,0:0:0:0:
64,64,66100,1,0,0:0:0:0:
64,64,66168,1,0,0:0:0:0:
64,64,66236,1,0,0:0:0:0:
448,64,66304,1,8,0:0:0:0:
64,64,66440,1,0,0:0:0:0:
64,64,66509,1,0,0:0:0:0:
448,64,66577,1,8,0:0:0:0:
64,64,66713,1,0,0:0:0:0:
64,64,66759,1,0,0:0:0:0:
64,64,66804,1,0,0:0:0:0:
448,64,66850,1,8,0:0:0:0:
64,320,66986,5,4,0:0:0:0:
448,64,67122,1,8,0:0:0:0:
64,64,67259,1,0,0:0:0:0:
64,64,67327,1,0,0:0:0:0:
448,64,67395,1,8,0:0:0:0:
64,64,67531,1,0,0:0:0:0:
448,64,67668,1,8,0:0:0:0:
64,64,67736,1,0,0:0:0:0:
448,64,67804,1,8,0:0:0:0:
448,64,67872,1,8,0:0:0:0:
64,64,67940,1,0,0:0:0:0:
448,64,68077,5,8,0:0:0:0:
448,64,68213,1,8,0:0:0:0:
64,64,68350,1,0,0:0:0:0:
64,64,68418,1,0,0:0:0:0:
448,64,68486,1,8,0:0:0:0:
64,64,68622,1,0,0:0:0:0:
448,64,68759,1,8,0:0:0:0:
448,64,68827,1,8,0:0:0:0:
64,64,68895,1,0,0:0:0:0:
64,64,68963,1,0,0:0:0:0:
448,64,69031,1,8,0:0:0:0:
64,320,69168,5,4,0:0:0:0:
448,64,69304,1,8,0:0:0:0:
64,64,69372,1,0,0:0:0:0:
64,64,69440,1,0,0:0:0:0:
64,64,69509,1,0,0:0:0:0:
448,64,69577,1,8,0:0:0:0:
64,64,69713,1,0,0:0:0:0:
64,64,69781,1,0,0:0:0:0:
448,64,69850,1,8,0:0:0:0:
64,64,69918,1,0,0:0:0:0:
448,64,69986,1,8,0:0:0:0:
448,64,70054,1,8,0:0:0:0:
64,64,70122,1,0,0:0:0:0:
448,64,70259,5,8,0:0:0:0:
64,64,70327,1,0,0:0:0:0:
448,64,70395,1,8,0:0:0:0:
448,64,70463,1,8,0:0:0:0:
64,64,70531,1,0,0:0:0:0:
64,64,70600,1,0,0:0:0:0:
64,64,70668,1,0,0:0:0:0:
64,64,70736,1,0,0:0:0:0:
448,64,70804,1,8,0:0:0:0:
448,64,70872,1,8,0:0:0:0:
448,64,70940,1,8,0:0:0:0:
448,64,71009,1,8,0:0:0:0:
64,64,71077,1,0,0:0:0:0:
64,64,71145,1,0,0:0:0:0:
448,64,71213,1,8,0:0:0:0:
64,320,71350,5,4,0:0:0:0:
448,64,71486,1,8,0:0:0:0:
64,64,71622,1,0,0:0:0:0:
64,64,71690,1,0,0:0:0:0:
448,64,71759,1,8,0:0:0:0:
64,64,71895,1,0,0:0:0:0:
448,64,72031,1,8,0:0:0:0:
64,64,72100,1,0,0:0:0:0:
448,64,72168,1,8,0:0:0:0:
448,64,72236,1,8,0:0:0:0:
64,64,72304,1,0,0:0:0:0:
448,64,72440,5,8,0:0:0:0:
448,64,72577,1,8,0:0:0:0:
64,64,72713,1,0,0:0:0:0:
64,64,72781,1,0,0:0:0:0:
448,64,72850,1,8,0:0:0:0:
64,64,72986,1,0,0:0:0:0:
64,64,73054,1,0,0:0:0:0:
448,64,73122,1,8,0:0:0:0:
448,64,73190,1,8,0:0:0:0:
64,64,73259,1,0,0:0:0:0:
64,64,73327,1,0,0:0:0:0:
448,64,73395,1,8,0:0:0:0:
64,64,73531,5,0,0:0:0:0:
448,64,73668,1,8,0:0:0:0:
64,64,73736,1,0,0:0:0:0:
448,64,73804,1,8,0:0:0:0:
448,64,73872,1,8,0:0:0:0:
64,64,73940,1,0,0:0:0:0:
64,64,74077,1,0,0:0:0:0:
448,64,74213,1,8,0:0:0:0:
448,64,74281,1,8,0:0:0:0:
64,64,74350,1,0,0:0:0:0:
64,64,74418,1,0,0:0:0:0:
448,64,74486,1,8,0:0:0:0:
64,64,74622,5,0,0:0:0:0:
448,64,74759,1,8,0:0:0:0:
64,64,74827,1,0,0:0:0:0:
64,64,74895,1,0,0:0:0:0:
64,64,74963,1,0,0:0:0:0:
448,64,75031,1,8,0:0:0:0:
64,64,75168,1,0,0:0:0:0:
64,64,75236,1,0,0:0:0:0:
448,64,75304,1,8,0:0:0:0:
64,64,75440,1,0,0:0:0:0:
448,320,75577,1,12,0:0:0:0:
64,320,75713,5,4,0:0:0:0:
448,64,75850,1,8,0:0:0:0:
64,64,75986,1,0,0:0:0:0:
64,64,76054,1,0,0:0:0:0:
448,64,76122,1,8,0:0:0:0:
64,64,76259,1,0,0:0:0:0:
448,64,76395,1,8,0:0:0:0:
64,64,76463,1,0,0:0:0:0:
448,64,76531,1,8,0:0:0:0:
448,64,76600,1,8,0:0:0:0:
64,64,76668,1,0,0:0:0:0:
448,64,76804,5,8,0:0:0:0:
448,64,76940,1,8,0:0:0:0:
64,64,77077,1,0,0:0:0:0:
64,64,77145,1,0,0:0:0:0:
448,64,77213,1,8,0:0:0:0:
64,64,77350,1,0,0:0:0:0:
64,64,77418,1,0,0:0:0:0:
448,64,77486,1,8,0:0:0:0:
448,64,77554,1,8,0:0:0:0:
64,64,77622,1,0,0:0:0:0:
64,64,77690,1,0,0:0:0:0:
448,64,77759,1,8,0:0:0:0:
64,320,77895,5,4,0:0:0:0:
448,64,78031,1,8,0:0:0:0:
64,64,78100,1,0,0:0:0:0:
64,64,78168,1,0,0:0:0:0:
64,64,78236,1,0,0:0:0:0:
448,64,78304,1,8,0:0:0:0:
64,64,78440,1,0,0:0:0:0:
448,64,78577,1,8,0:0:0:0:
64,64,78645,1,0,0:0:0:0:
448,64,78713,1,8,0:0:0:0:
448,64,78781,1,8,0:0:0:0:
64,64,78850,1,0,0:0:0:0:
448,64,78986,5,8,0:0:0:0:
448,64,79054,1,8,0:0:0:0:
448,64,79122,1,8,0:0:0:0:
448,64,79190,1,8,0:0:0:0:
64,64,79259,1,0,0:0:0:0:
64,64,79327,1,0,0:0:0:0:
448,64,79395,1,8,0:0:0:0:
64,64,79463,1,0,0:0:0:0:
448,64,79531,1,8,0:0:0:0:
448,64,79600,1,8,0:0:0:0:
64,64,79668,1,0,0:0:0:0:
64,64,79736,1,0,0:0:0:0:
448,64,79804,1,8,0:0:0:0:
64,64,79872,1,0,0:0:0:0:
448,64,79940,1,8,0:0:0:0:
448,320,80077,5,12,0:0:0:0:
64,64,80213,1,0,0:0:0:0:
64,64,80281,1,0,0:0:0:0:
448,64,80350,1,8,0:0:0:0:
64,64,80486,1,0,0:0:0:0:
448,64,80622,1,8,0:0:0:0:
64,64,80759,1,0,0:0:0:0:
64,64,80827,1,0,0:0:0:0:
448,64,80895,1,8,0:0:0:0:
64,64,81031,1,0,0:0:0:0:
64,64,81100,1,0,0:0:0:0:
448,64,81168,5,8,0:0:0:0:
64,64,81304,1,0,0:0:0:0:
64,64,81372,1,0,0:0:0:0:
448,64,81440,1,8,0:0:0:0:
64,64,81577,1,0,0:0:0:0:
64,64,81645,1,0,0:0:0:0:
448,64,81713,1,8,0:0:0:0:
64,64,81850,1,0,0:0:0:0:
64,64,81918,1,0,0:0:0:0:
448,64,81986,1,8,0:0:0:0:
64,64,82054,1,0,0:0:0:0:
64,64,82122,1,0,0:0:0:0:
448,64,82259,5,8,0:0:0:0:
64,64,82395,1,0,0:0:0:0:
448,64,82531,1,8,0:0:0:0:
64,64,82668,1,0,0:0:0:0:
64,64,82736,1,0,0:0:0:0:
448,64,82804,1,8,0:0:0:0:
64,64,82940,1,0,0:0:0:0:
64,64,83009,1,0,0:0:0:0:
448,64,83077,1,8,0:0:0:0:
64,64,83213,1,0,0:0:0:0:
448,320,83350,5,12,0:0:0:0:
64,64,83486,1,0,0:0:0:0:
448,320,83622,1,12,0:0:0:0:
64,64,83759,1,0,0:0:0:0:
448,320,83895,1,12,0:0:0:0:
64,64,84031,1,0,0:0:0:0:
448,320,84168,1,12,0:0:0:0:
64,64,84304,1,0,0:0:0:0:
448,320,84440,5,12,0:0:0:0:
64,64,84577,1,0,0:0:0:0:
448,64,84713,1,8,0:0:0:0:
64,64,84850,1,0,0:0:0:0:
448,64,84986,1,8,0:0:0:0:
64,64,85122,1,0,0:0:0:0:
448,64,85190,1,8,0:0:0:0:
448,64,85259,1,8,0:0:0:0:
64,64,85395,1,0,0:0:0:0:
64,64,85463,1,0,0:0:0:0:
448,64,85531,5,8,0:0:0:0:
64,64,85668,1,0,0:0:0:0:
448,64,85804,1,8,0:0:0:0:
64,64,85940,1,0,0:0:0:0:
64,64,86009,1,0,0:0:0:0:
448,64,86077,1,8,0:0:0:0:
64,64,86213,1,0,0:0:0:0:
448,320,86350,1,12,0:0:0:0:
64,64,86486,1,0,0:0:0:0:
448,320,86622,5,12,0:0:0:0:
448,64,86759,1,8,0:0:0:0:
64,64,86827,1,0,0:0:0:0:
64,64,86896,1,0,0:0:0:0:
64,64,86963,1,0,0:0:0:0:
448,64,87032,1,8,0:0:0:0:
64,64,87100,1,0,0:0:0:0:
64,64,87168,1,0,0:0:0:0:
64,64,87236,1,0,0:0:0:0:
448,64,87304,1,8,0:0:0:0:
448,64,87372,1,8,0:0:0:0:
448,64,87440,1,8,0:0:0:0:
64,64,87509,1,0,0:0:0:0:
64,64,87577,1,0,0:0:0:0:
64,64,87645,1,0,0:0:0:0:
448,64,87713,5,8,0:0:0:0:
64,320,87986,1,4,0:0:0:0:
64,320,88259,1,4,0:0:0:0:
64,320,88531,1,4,0:0:0:0:
64,320,88804,5,4,0:0:0:0:
448,64,88940,1,8,0:0:0:0:
64,64,89077,1,0,0:0:0:0:
64,64,89145,1,0,0:0:0:0:
448,64,89213,1,8,0:0:0:0:
64,64,89350,1,0,0:0:0:0:
448,64,89486,1,8,0:0:0:0:
448,64,89554,1,8,0:0:0:0:
448,64,89622,1,8,0:0:0:0:
64,64,89690,1,0,0:0:0:0:
448,64,89759,1,8,0:0:0:0:
448,64,89895,5,8,0:0:0:0:
64,64,90031,1,0,0:0:0:0:
448,64,90168,1,8,0:0:0:0:
64,64,90236,1,0,0:0:0:0:
64,64,90304,1,0,0:0:0:0:
448,64,90440,1,8,0:0:0:0:
64,64,90509,1,0,0:0:0:0:
64,64,90577,1,0,0:0:0:0:
448,64,90713,1,8,0:0:0:0:
64,64,90781,1,0,0:0:0:0:
64,64,90850,1,0,0:0:0:0:
448,64,90986,5,8,0:0:0:0:
448,64,91122,1,8,0:0:0:0:
64,64,91259,1,0,0:0:0:0:
64,64,91327,1,0,0:0:0:0:
448,64,91395,1,8,0:0:0:0:
64,64,91531,1,0,0:0:0:0:
448,64,91668,1,8,0:0:0:0:
64,64,91736,1,0,0:0:0:0:
448,64,91804,1,8,0:0:0:0:
64,64,91872,1,0,0:0:0:0:
64,64,91940,1,0,0:0:0:0:
448,320,92077,5,12,0:0:0:0:
448,320,92350,1,12,0:0:0:0:
448,320,92622,1,12,0:0:0:0:
64,64,92895,1,0,0:0:0:0:
64,64,92963,1,0,0:0:0:0:
64,64,93031,1,0,0:0:0:0:
448,320,93168,5,12,0:0:0:0:
448,64,93304,1,8,0:0:0:0:
64,64,93440,1,0,0:0:0:0:
64,64,93509,1,0,0:0:0:0:
448,64,93577,1,8,0:0:0:0:
64,64,93713,1,0,0:0:0:0:
448,64,93850,1,8,0:0:0:0:
448,64,93918,1,8,0:0:0:0:
64,64,93986,1,0,0:0:0:0:
64,64,94054,1,0,0:0:0:0:
448,64,94122,1,8,0:0:0:0:
448,64,94259,5,8,0:0:0:0:
64,64,94395,1,0,0:0:0:0:
448,64,94531,1,8,0:0:0:0:
64,64,94600,1,0,0:0:0:0:
64,64,94668,1,0,0:0:0:0:
448,64,94804,1,8,0:0:0:0:
448,64,94872,1,8,0:0:0:0:
64,64,94940,1,0,0:0:0:0:
448,64,95077,1,8,0:0:0:0:
64,64,95145,1,0,0:0:0:0:
64,64,95213,1,0,0:0:0:0:
448,320,95350,5,12,0:0:0:0:
64,64,95486,1,0,0:0:0:0:
64,64,95554,1,0,0:0:0:0:
448,64,95622,1,8,0:0:0:0:
64,64,95690,1,0,0:0:0:0:
448,64,95759,1,8,0:0:0:0:
448,64,95827,1,8,0:0:0:0:
64,64,95895,1,0,0:0:0:0:
64,64,95963,1,0,0:0:0:0:
64,64,96031,1,0,0:0:0:0:
64,64,96100,1,0,0:0:0:0:
448,64,96168,1,8,0:0:0:0:
64,64,96236,1,0,0:0:0:0:
64,64,96304,1,0,0:0:0:0:
64,64,96372,1,0,0:0:0:0:
448,64,96440,5,8,0:0:0:0:
448,64,96509,1,8,0:0:0:0:
448,64,96577,1,8,0:0:0:0:
448,64,96645,1,8,0:0:0:0:
64,64,96713,1,0,0:0:0:0:
64,64,96781,1,0,0:0:0:0:
64,64,96850,1,0,0:0:0:0:
64,64,96918,1,0,0:0:0:0:
448,64,96986,1,8,0:0:0:0:
448,64,97054,1,8,0:0:0:0:
64,64,97122,1,0,0:0:0:0:
64,64,97190,1,0,0:0:0:0:
448,64,97259,1,8,0:0:0:0:
448,64,97327,1,8,0:0:0:0:
448,64,97395,1,8,0:0:0:0:
64,320,97531,5,4,0:0:0:0:
448,64,97668,1,8,0:0:0:0:
64,64,97804,1,0,0:0:0:0:
64,64,97872,1,0,0:0:0:0:
448,64,97940,1,8,0:0:0:0:
64,64,98077,1,0,0:0:0:0:
448,64,98213,1,8,0:0:0:0:
448,64,98281,1,8,0:0:0:0:
448,64,98350,1,8,0:0:0:0:
64,64,98418,1,0,0:0:0:0:
448,64,98486,1,8,0:0:0:0:
448,64,98622,5,8,0:0:0:0:
64,64,98759,1,0,0:0:0:0:
448,64,98895,1,8,0:0:0:0:
64,64,98963,1,0,0:0:0:0:
64,64,99031,1,0,0:0:0:0:
448,64,99168,1,8,0:0:0:0:
64,64,99236,1,0,0:0:0:0:
64,64,99304,1,0,0:0:0:0:
448,64,99440,1,8,0:0:0:0:
64,64,99509,1,0,0:0:0:0:
64,64,99577,1,0,0:0:0:0:
448,320,99713,5,12,0:0:0:0:
448,64,99850,1,8,0:0:0:0:
64,64,99986,1,0,0:0:0:0:
64,64,100054,1,0,0:0:0:0:
448,64,100122,1,8,0:0:0:0:
64,64,100259,1,0,0:0:0:0:
448,64,100395,1,8,0:0:0:0:
64,64,100463,1,0,0:0:0:0:
448,64,100531,1,8,0:0:0:0:
64,64,100600,1,0,0:0:0:0:
448,64,100668,1,8,0:0:0:0:
64,320,100804,5,4,0:0:0:0:
448,64,100940,1,8,0:0:0:0:
64,320,101077,1,4,0:0:0:0:
448,64,101213,1,8,0:0:0:0:
64,320,101350,1,4,0:0:0:0:
448,64,101486,1,8,0:0:0:0:
64,64,101622,1,0,0:0:0:0:
64,64,101690,1,0,0:0:0:0:
448,64,101759,1,8,0:0:0:0:
64,320,101895,5,4,0:0:0:0:
448,64,102031,1,8,0:0:0:0:
64,64,102168,1,0,0:0:0:0:
64,64,102236,1,0,0:0:0:0:
448,64,102304,1,8,0:0:0:0:
64,64,102440,1,0,0:0:0:0:
448,64,102577,1,8,0:0:0:0:
448,64,102645,1,8,0:0:0:0:
64,64,102713,1,0,0:0:0:0:
64,64,102781,1,0,0:0:0:0:
448,64,102850,1,8,0:0:0:0:
448,64,102986,5,8,0:0:0:0:
64,64,103122,1,0,0:0:0:0:
448,64,103259,1,8,0:0:0:0:
64,64,103327,1,0,0:0:0:0:
64,64,103395,1,0,0:0:0:0:
448,64,103531,1,8,0:0:0:0:
448,64,103600,1,8,0:0:0:0:
64,64,103668,1,0,0:0:0:0:
448,64,103804,1,8,0:0:0:0:
64,64,103872,1,0,0:0:0:0:
64,64,103940,1,0,0:0:0:0:
448,320,104077,5,12,0:0:0:0:
448,64,104213,1,8,0:0:0:0:
64,64,104350,1,0,0:0:0:0:
64,64,104418,1,0,0:0:0:0:
448,64,104486,1,8,0:0:0:0:
64,64,104622,1,0,0:0:0:0:
448,64,104759,1,8,0:0:0:0:
64,64,104827,1,0,0:0:0:0:
448,64,104895,1,8,0:0:0:0:
64,64,104963,1,0,0:0:0:0:
448,64,105031,1,8,0:0:0:0:
448,64,105168,5,8,0:0:0:0:
448,64,105236,1,8,0:0:0:0:
64,64,105304,1,0,0:0:0:0:
64,64,105372,1,0,0:0:0:0:
64,64,105440,1,0,0:0:0:0:
64,64,105509,1,0,0:0:0:0:
64,64,105577,1,0,0:0:0:0:
64,64,105645,1,0,0:0:0:0:
448,64,105713,1,8,0:0:0:0:
448,64,105781,1,8,0:0:0:0:
64,64,105850,1,0,0:0:0:0:
448,320,105986,1,12,0:0:0:0:
448,64,106122,1,8,0:0:0:0:
64,320,106259,5,4,0:0:0:0:
448,64,106395,1,8,0:0:0:0:
64,64,106531,1,0,0:0:0:0:
64,64,106600,1,0,0:0:0:0:
448,64,106668,1,8,0:0:0:0:
64,64,106804,1,0,0:0:0:0:
448,64,106940,1,8,0:0:0:0:
64,64,107077,1,0,0:0:0:0:
64,64,107145,1,0,0:0:0:0:
448,64,107213,1,8,0:0:0:0:
64,64,107350,5,0,0:0:0:0:
448,64,107486,1,8,0:0:0:0:
64,64,107622,1,0,0:0:0:0:
64,64,107690,1,0,0:0:0:0:
448,64,107759,1,8,0:0:0:0:
448,64,107827,1,8,0:0:0:0:
64,64,107895,1,0,0:0:0:0:
64,64,107963,1,0,0:0:0:0:
448,64,108031,1,8,0:0:0:0:
64,64,108168,1,0,0:0:0:0:
64,64,108236,1,0,0:0:0:0:
448,64,108304,1,8,0:0:0:0:
64,64,108440,5,0,0:0:0:0:
448,64,108577,1,8,0:0:0:0:
64,64,108713,1,0,0:0:0:0:
64,64,108781,1,0,0:0:0:0:
448,64,108850,1,8,0:0:0:0:
64,64,108986,1,0,0:0:0:0:
448,64,109122,1,8,0:0:0:0:
64,64,109259,1,0,0:0:0:0:
64,64,109327,1,0,0:0:0:0:
448,64,109395,1,8,0:0:0:0:
64,64,109531,5,0,0:0:0:0:
448,64,109668,1,8,0:0:0:0:
448,64,109736,1,8,0:0:0:0:
64,64,109804,1,0,0:0:0:0:
64,64,109872,1,0,0:0:0:0:
448,64,109940,1,8,0:0:0:0:
448,64,110009,1,8,0:0:0:0:
64,64,110077,1,0,0:0:0:0:
64,64,110145,1,0,0:0:0:0:
448,64,110213,1,8,0:0:0:0:
64,64,110350,1,0,0:0:0:0:
64,64,110418,1,0,0:0:0:0:
448,64,110486,1,8,0:0:0:0:
64,320,110622,5,4,0:0:0:0:
448,64,110759,1,8,0:0:0:0:
64,64,110895,1,0,0:0:0:0:
64,64,110963,1,0,0:0:0:0:
448,64,111031,1,8,0:0:0:0:
64,64,111168,1,0,0:0:0:0:
448,64,111304,1,8,0:0:0:0:
64,64,111440,1,0,0:0:0:0:
64,64,111509,1,0,0:0:0:0:
448,64,111577,1,8,0:0:0:0:
64,64,111713,5,0,0:0:0:0:
448,64,111850,1,8,0:0:0:0:
64,64,111986,1,0,0:0:0:0:
64,64,112054,1,0,0:0:0:0:
448,64,112122,1,8,0:0:0:0:
448,64,112190,1,8,0:0:0:0:
64,64,112259,1,0,0:0:0:0:
64,64,112327,1,0,0:0:0:0:
448,64,112395,1,8,0:0:0:0:
64,64,112531,1,0,0:0:0:0:
64,64,112600,1,0,0:0:0:0:
448,64,112668,1,8,0:0:0:0:
64,320,112804,5,4,0:0:0:0:
448,64,112940,1,8,0:0:0:0:
64,64,113077,1,0,0:0:0:0:
64,64,113145,1,0,0:0:0:0:
448,64,113213,1,8,0:0:0:0:
64,64,113350,1,0,0:0:0:0:
448,64,113486,1,8,0:0:0:0:
448,64,113554,1,8,0:0:0:0:
64,64,113622,1,0,0:0:0:0:
64,64,113690,1,0,0:0:0:0:
448,64,113759,1,8,0:0:0:0:
64,64,113895,5,0,0:0:0:0:
64,64,113963,1,0,0:0:0:0:
64,64,114031,1,0,0:0:0:0:
64,64,114100,1,0,0:0:0:0:
448,64,114168,1,8,0:0:0:0:
64,64,114236,1,0,0:0:0:0:
448,64,114304,1,8,0:0:0:0:
64,64,114372,1,0,0:0:0:0:
448,64,114440,1,8,0:0:0:0:
448,64,114509,1,8,0:0:0:0:
448,64,114577,1,8,0:0:0:0:
448,64,114645,1,8,0:0:0:0:
64,64,114713,1,0,0:0:0:0:
64,64,114781,1,0,0:0:0:0:
448,64,114850,1,8,0:0:0:0:
64,320,114986,5,4,0:0:0:0:
448,64,115122,1,8,0:0:0:0:
64,64,115190,1,0,0:0:0:0:
64,64,115259,1,0,0:0:0:0:
64,64,115327,1,0,0:0:0:0:
448,64,115395,1,8,0:0:0:0:
64,64,115463,1,0,0:0:0:0:
64,64,115531,1,0,0:0:0:0:
64,64,115600,1,0,0:0:0:0:
448,64,115668,1,8,0:0:0:0:
64,64,115736,1,0,0:0:0:0:
448,64,115804,1,8,0:0:0:0:
448,64,115872,1,8,0:0:0:0:
448,64,115940,1,8,0:0:0:0:
64,64,116077,5,0,0:0:0:0:
64,64,116145,1,0,0:0:0:0:
448,64,116213,1,8,0:0:0:0:
64,64,116281,1,0,0:0:0:0:
64,64,116350,1,0,0:0:0:0:
64,64,116418,1,0,0:0:0:0:
448,64,116486,1,8,0:0:0:0:
64,64,116554,1,0,0:0:0:0:
64,64,116622,1,0,0:0:0:0:
64,64,116690,1,0,0:0:0:0:
448,64,116759,1,8,0:0:0:0:
448,64,116827,1,8,0:0:0:0:
448,64,116895,1,8,0:0:0:0:
64,64,116963,1,0,0:0:0:0:
448,64,117031,1,8,0:0:0:0:
64,64,117168,5,0,0:0:0:0:
64,64,117236,1,0,0:0:0:0:
448,64,117304,1,8,0:0:0:0:
64,64,117372,1,0,0:0:0:0:
64,64,117440,1,0,0:0:0:0:
64,64,117509,1,0,0:0:0:0:
448,64,117577,1,8,0:0:0:0:
64,64,117645,1,0,0:0:0:0:
64,64,117713,1,0,0:0:0:0:
64,64,117781,1,0,0:0:0:0:
448,64,117850,1,8,0:0:0:0:
448,64,117918,1,8,0:0:0:0:
64,64,117986,1,0,0:0:0:0:
448,64,118054,1,8,0:0:0:0:
448,64,118122,1,8,0:0:0:0:
64,64,118259,5,0,0:0:0:0:
64,64,118327,1,0,0:0:0:0:
448,64,118395,1,8,0:0:0:0:
64,64,118463,1,0,0:0:0:0:
64,64,118531,1,0,0:0:0:0:
448,320,118668,1,12,0:0:0:0:
64,64,118804,1,0,0:0:0:0:
64,64,118872,1,0,0:0:0:0:
448,64,118940,1,8,0:0:0:0:
448,64,119009,1,8,0:0:0:0:
448,64,119077,1,8,0:0:0:0:
64,64,119145,1,0,0:0:0:0:
448,64,119213,1,8,0:0:0:0:
64,320,119350,5,4,0:0:0:0:
448,64,119486,1,8,0:0:0:0:
64,64,119554,1,0,0:0:0:0:
448,64,119622,1,8,0:0:0:0:
64,64,119690,1,0,0:0:0:0:
448,64,119759,1,8,0:0:0:0:
64,64,119827,1,0,0:0:0:0:
448,64,119895,1,8,0:0:0:0:
64,64,119963,1,0,0:0:0:0:
448,64,120031,1,8,0:0:0:0:
64,64,120100,1,0,0:0:0:0:
448,64,120168,1,8,0:0:0:0:
448,64,120236,1,8,0:0:0:0:
448,64,120304,1,8,0:0:0:0:
64,64,120372,1,0,0:0:0:0:
448,64,120440,5,8,0:0:0:0:
64,64,120509,1,0,0:0:0:0:
448,64,120577,1,8,0:0:0:0:
64,64,120645,1,0,0:0:0:0:
448,64,120713,1,8,0:0:0:0:
64,64,120781,1,0,0:0:0:0:
448,64,120850,1,8,0:0:0:0:
64,64,120918,1,0,0:0:0:0:
448,64,120986,1,8,0:0:0:0:
64,64,121054,1,0,0:0:0:0:
448,64,121122,1,8,0:0:0:0:
448,64,121190,1,8,0:0:0:0:
448,64,121259,1,8,0:0:0:0:
64,64,121327,1,0,0:0:0:0:
448,64,121395,1,8,0:0:0:0:
64,64,121463,1,0,0:0:0:0:
448,64,121531,5,8,0:0:0:0:
64,64,121600,1,0,0:0:0:0:
64,64,121668,1,0,0:0:0:0:
64,64,121736,1,0,0:0:0:0:
448,64,121804,1,8,0:0:0:0:
64,64,121872,1,0,0:0:0:0:
64,64,121940,1,0,0:0:0:0:
64,64,122009,1,0,0:0:0:0:
448,64,122077,1,8,0:0:0:0:
448,64,122145,1,8,0:0:0:0:
448,64,122213,1,8,0:0:0:0:
64,320,122350,1,4,0:0:0:0:
448,64,122486,1,8,0:0:0:0:
64,320,122622,5,4,0:0:0:0:
64,320,122804,1,4,0:0:0:0:
64,320,122986,1,4,0:0:0:0:
64,320,124258,5,4,0:0:0:0:
64,64,124395,1,0,0:0:0:0:
448,64,124531,1,8,0:0:0:0:
448,64,124668,1,8,0:0:0:0:
64,64,124804,1,0,0:0:0:0:
64,64,124940,1,0,0:0:0:0:
64,64,125009,1,0,0:0:0:0:
448,64,125077,1,8,0:0:0:0:
64,64,125213,1,0,0:0:0:0:
448,64,125349,5,8,0:0:0:0:
64,64,125486,1,0,0:0:0:0:
448,64,125622,1,8,0:0:0:0:
64,64,125759,1,0,0:0:0:0:
64,64,125827,1,0,0:0:0:0:
64,64,125895,1,0,0:0:0:0:
448,64,126031,1,8,0:0:0:0:
64,64,126168,1,0,0:0:0:0:
64,64,126236,1,0,0:0:0:0:
448,64,126304,1,8,0:0:0:0:
64,64,126440,5,0,0:0:0:0:
64,64,126577,1,0,0:0:0:0:
448,64,126713,1,8,0:0:0:0:
64,64,126849,1,0,0:0:0:0:
64,64,126986,1,0,0:0:0:0:
64,64,127122,1,0,0:0:0:0:
448,64,127190,1,8,0:0:0:0:
448,64,127259,1,8,0:0:0:0:
448,64,127395,1,8,0:0:0:0:
64,64,127531,5,0,0:0:0:0:
64,64,127668,1,0,0:0:0:0:
448,64,127804,1,8,0:0:0:0:
448,64,127940,1,8,0:0:0:0:
64,64,128077,1,0,0:0:0:0:
64,64,128213,1,0,0:0:0:0:
448,64,128349,1,8,0:0:0:0:
448,64,128418,1,8,0:0:0:0:
448,64,128486,1,8,0:0:0:0:
64,320,128622,5,4,0:0:0:0:
64,64,128759,1,0,0:0:0:0:
448,64,128895,1,8,0:0:0:0:
64,64,129031,1,0,0:0:0:0:
64,64,129168,1,0,0:0:0:0:
64,64,129304,1,0,0:0:0:0:
64,64,129372,1,0,0:0:0:0:
448,64,129440,1,8,0:0:0:0:
448,64,129577,1,8,0:0:0:0:
64,64,129713,5,0,0:0:0:0:
64,64,129849,1,0,0:0:0:0:
448,64,129986,1,8,0:0:0:0:
448,64,130122,1,8,0:0:0:0:
64,64,130259,1,0,0:0:0:0:
64,64,130395,1,0,0:0:0:0:
64,64,130463,1,0,0:0:0:0:
448,64,130531,1,8,0:0:0:0:
64,64,130668,1,0,0:0:0:0:
448,64,130804,5,8,0:0:0:0:
448,64,130872,1,8,0:0:0:0:
64,64,130940,1,0,0:0:0:0:
64,64,131009,1,0,0:0:0:0:
448,64,131077,1,8,0:0:0:0:
64,64,131145,1,0,0:0:0:0:
448,64,131213,1,8,0:0:0:0:
448,64,131281,1,8,0:0:0:0:
448,64,131349,1,8,0:0:0:0:
64,64,131418,1,0,0:0:0:0:
64,64,131486,1,0,0:0:0:0:
64,64,131554,1,0,0:0:0:0:
448,64,131622,1,8,0:0:0:0:
448,64,131690,1,8,0:0:0:0:
64,64,131759,1,0,0:0:0:0:
448,320,131895,5,12,0:0:0:0:
64,320,132986,5,4,0:0:0:0:
448,64,133122,1,8,0:0:0:0:
64,64,133259,1,0,0:0:0:0:
64,64,133327,1,0,0:0:0:0:
448,64,133395,1,8,0:0:0:0:
64,64,133531,1,0,0:0:0:0:
448,64,133668,1,8,0:0:0:0:
64,64,133736,1,0,0:0:0:0:
448,64,133804,1,8,0:0:0:0:
448,64,133872,1,8,0:0:0:0:
64,64,133940,1,0,0:0:0:0:
448,64,134077,5,8,0:0:0:0:
448,64,134213,1,8,0:0:0:0:
64,64,134349,1,0,0:0:0:0:
64,64,134418,1,0,0:0:0:0:
448,64,134486,1,8,0:0:0:0:
64,64,134622,1,0,0:0:0:0:
64,64,134690,1,0,0:0:0:0:
448,64,134759,1,8,0:0:0:0:
448,64,134827,1,8,0:0:0:0:
64,64,134895,1,0,0:0:0:0:
64,64,134963,1,0,0:0:0:0:
448,64,135031,1,8,0:0:0:0:
64,64,135168,5,0,0:0:0:0:
448,64,135304,1,8,0:0:0:0:
64,64,135372,1,0,0:0:0:0:
448,64,135440,1,8,0:0:0:0:
448,64,135509,1,8,0:0:0:0:
64,64,135577,1,0,0:0:0:0:
64,64,135713,1,0,0:0:0:0:
448,64,135849,1,8,0:0:0:0:
448,64,135918,1,8,0:0:0:0:
64,64,135986,1,0,0:0:0:0:
64,64,136054,1,0,0:0:0:0:
448,64,136122,1,8,0:0:0:0:
64,64,136259,5,0,0:0:0:0:
448,64,136395,1,8,0:0:0:0:
64,64,136463,1,0,0:0:0:0:
64,64,136531,1,0,0:0:0:0:
64,64,136599,1,0,0:0:0:0:
448,64,136668,1,8,0:0:0:0:
64,64,136804,1,0,0:0:0:0:
64,64,136872,1,0,0:0:0:0:
448,64,136940,1,8,0:0:0:0:
64,64,137077,1,0,0:0:0:0:
64,64,137145,1,0,0:0:0:0:
448,64,137213,1,8,0:0:0:0:
64,320,137349,5,4,0:0:0:0:
448,64,137486,1,8,0:0:0:0:
64,64,137622,1,0,0:0:0:0:
64,64,137690,1,0,0:0:0:0:
448,64,137759,1,8,0:0:0:0:
64,64,137895,1,0,0:0:0:0:
448,64,138031,1,8,0:0:0:0:
64,64,138099,1,0,0:0:0:0:
448,64,138168,1,8,0:0:0:0:
448,64,138236,1,8,0:0:0:0:
64,64,138304,1,0,0:0:0:0:
448,64,138440,5,8,0:0:0:0:
448,64,138577,1,8,0:0:0:0:
64,64,138713,1,0,0:0:0:0:
64,64,138781,1,0,0:0:0:0:
448,64,138849,1,8,0:0:0:0:
64,64,138986,1,0,0:0:0:0:
64,64,139054,1,0,0:0:0:0:
448,64,139122,1,8,0:0:0:0:
448,64,139190,1,8,0:0:0:0:
64,64,139259,1,0,0:0:0:0:
64,64,139327,1,0,0:0:0:0:
448,64,139395,1,8,0:0:0:0:
64,320,139531,5,4,0:0:0:0:
448,64,139668,1,8,0:0:0:0:
448,64,139736,1,8,0:0:0:0:
64,64,139804,1,0,0:0:0:0:
64,64,139872,1,0,0:0:0:0:
64,64,139940,1,0,0:0:0:0:
64,64,140009,1,0,0:0:0:0:
448,64,140077,1,8,0:0:0:0:
64,64,140145,1,0,0:0:0:0:
64,64,140213,1,0,0:0:0:0:
64,64,140281,1,0,0:0:0:0:
64,64,140349,1,0,0:0:0:0:
64,64,140418,1,0,0:0:0:0:
64,64,140486,1,0,0:0:0:0:
448,64,140622,5,8,0:0:0:0:
64,320,140759,1,4,0:0:0:0:
64,320,141031,1,4,0:0:0:0:
64,320,141304,1,4,0:0:0:0:
448,64,141440,1,8,0:0:0:0:
64,64,141509,1,0,0:0:0:0:
448,64,141577,1,8,0:0:0:0:
64,64,141645,1,0,0:0:0:0:
64,64,141713,5,0,0:0:0:0:
64,64,141781,1,0,0:0:0:0:
448,64,141849,1,8,0:0:0:0:
448,64,142122,1,8,0:0:0:0:
64,64,142259,1,0,0:0:0:0:
448,64,142395,1,8,0:0:0:0:
448,64,142668,1,8,0:0:0:0:
64,64,142804,5,0,0:0:0:0:
64,64,142872,1,0,0:0:0:0:
448,64,142940,1,8,0:0:0:0:
448,64,143213,1,8,0:0:0:0:
64,64,143349,1,0,0:0:0:0:
448,64,143486,1,8,0:0:0:0:
64,64,143622,1,0,0:0:0:0:
448,64,143759,1,8,0:0:0:0:
64,64,143895,5,0,0:0:0:0:
64,64,143963,1,0,0:0:0:0:
448,64,144031,1,8,0:0:0:0:
448,64,144304,1,8,0:0:0:0:
64,64,144440,1,0,0:0:0:0:
448,64,144577,1,8,0:0:0:0:
448,64,144849,1,8,0:0:0:0:
64,64,144986,5,0,0:0:0:0:
64,64,145054,1,0,0:0:0:0:
448,64,145122,1,8,0:0:0:0:
448,64,145259,1,8,0:0:0:0:
448,64,145395,1,8,0:0:0:0:
64,64,145531,1,0,0:0:0:0:
64,64,145599,1,0,0:0:0:0:
448,64,145668,1,8,0:0:0:0:
64,64,145804,1,0,0:0:0:0:
448,320,145940,1,12,0:0:0:0:
64,320,146077,5,4,0:0:0:0:
448,64,146213,1,8,0:0:0:0:
448,64,146486,1,8,0:0:0:0:
64,64,146622,1,0,0:0:0:0:
448,64,146759,1,8,0:0:0:0:
448,64,147031,1,8,0:0:0:0:
64,64,147168,5,0,0:0:0:0:
64,64,147236,1,0,0:0:0:0:
448,64,147304,1,8,0:0:0:0:
64,64,147440,1,0,0:0:0:0:
64,64,147509,1,0,0:0:0:0:
448,64,147577,1,8,0:0:0:0:
64,64,147713,1,0,0:0:0:0:
64,64,147781,1,0,0:0:0:0:
448,64,147849,1,8,0:0:0:0:
64,64,147918,1,0,0:0:0:0:
64,64,147986,1,0,0:0:0:0:
448,320,148122,1,12,0:0:0:0:
64,320,148259,5,4,0:0:0:0:
448,64,148395,1,8,0:0:0:0:
448,64,148463,1,8,0:0:0:0:
64,64,148531,1,0,0:0:0:0:
64,64,148599,1,0,0:0:0:0:
448,64,148668,1,8,0:0:0:0:
64,64,148736,1,0,0:0:0:0:
448,64,148804,1,8,0:0:0:0:
448,64,148872,1,8,0:0:0:0:
64,64,148940,1,0,0:0:0:0:
64,64,149009,1,0,0:0:0:0:
448,64,149077,1,8,0:0:0:0:
64,64,149145,1,0,0:0:0:0:
448,64,149213,1,8,0:0:0:0:
64,320,149349,5,4,0:0:0:0:
64,64,149895,1,0,0:0:0:0:
64,64,150168,1,0,0:0:0:0:
64,320,150440,5,4,0:0:0:0:
448,64,150577,1,8,0:0:0:0:
64,64,150713,1,0,0:0:0:0:
64,64,150781,1,0,0:0:0:0:
448,64,150849,1,8,0:0:0:0:
64,64,150986,1,0,0:0:0:0:
448,64,151122,1,8,0:0:0:0:
448,64,151190,1,8,0:0:0:0:
448,64,151259,1,8,0:0:0:0:
64,64,151327,1,0,0:0:0:0:
448,64,151395,1,8,0:0:0:0:
448,64,151531,5,8,0:0:0:0:
64,64,151668,1,0,0:0:0:0:
448,64,151804,1,8,0:0:0:0:
64,64,151872,1,0,0:0:0:0:
64,64,151940,1,0,0:0:0:0:
448,64,152077,1,8,0:0:0:0:
64,64,152145,1,0,0:0:0:0:
64,64,152213,1,0,0:0:0:0:
448,64,152349,1,8,0:0:0:0:
64,64,152418,1,0,0:0:0:0:
64,64,152486,1,0,0:0:0:0:
448,320,152622,5,12,0:0:0:0:
448,64,152759,1,8,0:0:0:0:
64,64,152895,1,0,0:0:0:0:
64,64,152963,1,0,0:0:0:0:
448,64,153031,1,8,0:0:0:0:
64,64,153168,1,0,0:0:0:0:
448,64,153304,1,8,0:0:0:0:
64,64,153372,1,0,0:0:0:0:
448,64,153440,1,8,0:0:0:0:
64,64,153509,1,0,0:0:0:0:
448,64,153577,1,8,0:0:0:0:
448,64,153713,5,8,0:0:0:0:
448,64,153781,1,8,0:0:0:0:
64,64,153849,1,0,0:0:0:0:
64,64,153918,1,0,0:0:0:0:
448,64,153986,1,8,0:0:0:0:
448,64,154054,1,8,0:0:0:0:
64,64,154122,1,0,0:0:0:0:
64,64,154190,1,0,0:0:0:0:
448,64,154259,1,8,0:0:0:0:
448,64,154327,1,8,0:0:0:0:
448,64,154395,1,8,0:0:0:0:
64,64,154463,1,0,0:0:0:0:
448,64,154531,1,8,0:0:0:0:
448,64,154599,1,8,0:0:0:0:
64,64,154668,1,0,0:0:0:0:
448,320,154804,5,12,0:0:0:0:
448,64,154940,1,8,0:0:0:0:
64,64,155077,1,0,0:0:0:0:
64,64,155145,1,0,0:0:0:0:
448,64,155213,1,8,0:0:0:0:
64,64,155349,1,0,0:0:0:0:
448,64,155486,1,8,0:0:0:0:
448,64,155554,1,8,0:0:0:0:
64,64,155622,1,0,0:0:0:0:
64,64,155690,1,0,0:0:0:0:
448,64,155759,1,8,0:0:0:0:
448,64,155895,5,8,0:0:0:0:
64,64,156031,1,0,0:0:0:0:
448,64,156168,1,8,0:0:0:0:
64,64,156236,1,0,0:0:0:0:
64,64,156304,1,0,0:0:0:0:
448,64,156440,1,8,0:0:0:0:
448,64,156509,1,8,0:0:0:0:
64,64,156577,1,0,0:0:0:0:
448,64,156713,1,8,0:0:0:0:
64,64,156781,1,0,0:0:0:0:
64,64,156849,1,0,0:0:0:0:
448,320,156986,5,12,0:0:0:0:
64,64,157122,1,0,0:0:0:0:
64,64,157190,1,0,0:0:0:0:
448,64,157259,1,8,0:0:0:0:
64,64,157327,1,0,0:0:0:0:
448,64,157395,1,8,0:0:0:0:
64,64,157463,1,0,0:0:0:0:
448,64,157531,1,8,0:0:0:0:
64,64,157599,1,0,0:0:0:0:
64,64,157668,1,0,0:0:0:0:
64,64,157736,1,0,0:0:0:0:
448,64,157804,1,8,0:0:0:0:
64,64,157872,1,0,0:0:0:0:
64,64,157940,1,0,0:0:0:0:
64,64,158009,1,0,0:0:0:0:
448,64,158077,5,8,0:0:0:0:
448,64,158145,1,8,0:0:0:0:
448,64,158213,1,8,0:0:0:0:
448,64,158281,1,8,0:0:0:0:
64,64,158349,1,0,0:0:0:0:
64,64,158418,1,0,0:0:0:0:
64,64,158486,1,0,0:0:0:0:
64,64,158554,1,0,0:0:0:0:
448,64,158622,1,8,0:0:0:0:
448,64,158690,1,8,0:0:0:0:
64,64,158759,1,0,0:0:0:0:
64,64,158827,1,0,0:0:0:0:
448,64,158895,1,8,0:0:0:0:
64,64,158963,1,0,0:0:0:0:
448,64,159031,1,8,0:0:0:0:
64,320,159168,5,4,0:0:0:0:
448,64,159304,1,8,0:0:0:0:
64,64,159440,1,0,0:0:0:0:
64,64,159509,1,0,0:0:0:0:
448,64,159577,1,8,0:0:0:0:
64,64,159713,1,0,0:0:0:0:
448,64,159849,1,8,0:0:0:0:
448,64,159918,1,8,0:0:0:0:
448,64,159986,1,8,0:0:0:0:
64,64,160054,1,0,0:0:0:0:
448,64,160122,1,8,0:0:0:0:
448,64,160259,5,8,0:0:0:0:
64,64,160395,1,0,0:0:0:0:
448,64,160531,1,8,0:0:0:0:
64,64,160599,1,0,0:0:0:0:
64,64,160668,1,0,0:0:0:0:
448,64,160804,1,8,0:0:0:0:
64,64,160872,1,0,0:0:0:0:
64,64,160940,1,0,0:0:0:0:
448,64,161077,1,8,0:0:0:0:
64,64,161145,1,0,0:0:0:0:
64,64,161213,1,0,0:0:0:0:
448,320,161349,5,12,0:0:0:0:
448,64,161486,1,8,0:0:0:0:
64,64,161622,1,0,0:0:0:0:
64,64,161690,1,0,0:0:0:0:
448,64,161759,1,8,0:0:0:0:
64,64,161895,1,0,0:0:0:0:
448,64,162031,1,8,0:0:0:0:
64,64,162099,1,0,0:0:0:0:
448,64,162168,1,8,0:0:0:0:
64,64,162236,1,0,0:0:0:0:
448,64,162304,1,8,0:0:0:0:
64,320,162440,5,4,0:0:0:0:
448,64,162577,1,8,0:0:0:0:
64,64,162645,1,0,0:0:0:0:
64,64,162713,1,0,0:0:0:0:
64,64,162781,1,0,0:0:0:0:
448,64,162849,1,8,0:0:0:0:
64,64,162918,1,0,0:0:0:0:
64,64,162986,1,0,0:0:0:0:
448,320,163122,1,12,0:0:0:0:
64,64,163259,1,0,0:0:0:0:
64,64,163327,1,0,0:0:0:0:
448,64,163395,1,8,0:0:0:0:
448,320,163531,5,12,0:0:0:0:
448,64,163668,1,8,0:0:0:0:
64,64,163804,1,0,0:0:0:0:
64,64,163872,1,0,0:0:0:0:
448,64,163940,1,8,0:0:0:0:
64,64,164077,1,0,0:0:0:0:
448,64,164213,1,8,0:0:0:0:
448,64,164281,1,8,0:0:0:0:
64,64,164349,1,0,0:0:0:0:
64,64,164418,1,0,0:0:0:0:
448,64,164486,1,8,0:0:0:0:
448,64,164622,5,8,0:0:0:0:
64,64,164759,1,0,0:0:0:0:
448,64,164895,1,8,0:0:0:0:
64,64,164963,1,0,0:0:0:0:
64,64,165031,1,0,0:0:0:0:
448,64,165168,1,8,0:0:0:0:
448,64,165236,1,8,0:0:0:0:
64,64,165304,1,0,0:0:0:0:
448,64,165440,1,8,0:0:0:0:
64,64,165509,1,0,0:0:0:0:
64,64,165577,1,0,0:0:0:0:
448,320,165713,5,12,0:0:0:0:
64,64,165849,1,0,0:0:0:0:
64,64,165918,1,0,0:0:0:0:
448,64,165986,1,8,0:0:0:0:
64,64,166054,1,0,0:0:0:0:
448,64,166122,1,8,0:0:0:0:
64,64,166190,1,0,0:0:0:0:
448,64,166259,1,8,0:0:0:0:
64,64,166327,1,0,0:0:0:0:
64,64,166395,1,0,0:0:0:0:
64,64,166463,1,0,0:0:0:0:
448,64,166531,1,8,0:0:0:0:
64,64,166599,1,0,0:0:0:0:
64,64,166668,1,0,0:0:0:0:
448,320,166804,5,12,0:0:0:0:
64,64,166940,1,0,0:0:0:0:
64,64,167009,1,0,0:0:0:0:
448,64,167077,1,8,0:0:0:0:
64,64,167145,1,0,0:0:0:0:
64,64,167213,1,0,0:0:0:0:
64,64,167281,1,0,0:0:0:0:
448,64,167349,1,8,0:0:0:0:
448,64,167418,1,8,0:0:0:0:
64,64,167486,1,0,0:0:0:0:
448,320,167622,1,12,0:0:0:0:
64,320,167895,5,4,0:0:0:0:
64,320,168986,5,4,0:0:0:0:
64,64,169122,1,0,0:0:0:0:
64,64,169259,1,0,0:0:0:0:
448,64,169395,1,8,0:0:0:0:
448,64,169668,1,8,0:0:0:0:
64,64,169804,1,0,0:0:0:0:
448,64,169940,1,8,0:0:0:0:
64,320,170077,5,4,0:0:0:0:
64,64,170259,1,0,0:0:0:0:
64,64,170349,1,0,0:0:0:0:
64,64,170440,1,0,0:0:0:0:
64,64,170531,1,0,0:0:0:0:
448,64,170622,1,8,0:0:0:0:
64,64,170713,1,0,0:0:0:0:
448,64,170804,1,8,0:0:0:0:
64,64,170895,1,0,0:0:0:0:
448,64,170986,1,8,0:0:0:0:
64,64,171077,1,0,0:0:0:0:
448,64,171168,5,8,0:0:0:0:
448,64,171236,1,8,0:0:0:0:
64,64,171304,1,0,0:0:0:0:
64,64,171372,1,0,0:0:0:0:
64,64,171440,1,0,0:0:0:0:
64,64,171509,1,0,0:0:0:0:
448,64,171577,1,8,0:0:0:0:
448,64,171645,1,8,0:0:0:0:
448,64,171713,1,8,0:0:0:0:
64,64,171781,1,0,0:0:0:0:
64,64,171849,1,0,0:0:0:0:
64,64,171918,1,0,0:0:0:0:
448,64,171986,1,8,0:0:0:0:
448,64,172054,1,8,0:0:0:0:
448,64,172122,1,8,0:0:0:0:
64,320,172259,5,4,0:0:0:0:
448,64,172395,1,8,0:0:0:0:
64,64,172531,1,0,0:0:0:0:
64,64,172599,1,0,0:0:0:0:
448,64,172668,1,8,0:0:0:0:
64,64,172804,1,0,0:0:0:0:
448,64,172940,1,8,0:0:0:0:
64,64,173009,1,0,0:0:0:0:
64,64,173077,1,0,0:0:0:0:
64,64,173145,1,0,0:0:0:0:
448,64,173213,1,8,0:0:0:0:
64,64,173349,5,0,0:0:0:0:
448,64,173486,1,8,0:0:0:0:
64,64,173622,1,0,0:0:0:0:
64,64,173690,1,0,0:0:0:0:
448,64,173759,1,8,0:0:0:0:
64,64,173895,1,0,0:0:0:0:
64,64,173963,1,0,0:0:0:0:
448,64,174031,1,8,0:0:0:0:
64,64,174168,1,0,0:0:0:0:
64,64,174236,1,0,0:0:0:0:
448,64,174304,1,8,0:0:0:0:
64,320,174440,5,4,0:0:0:0:
448,64,174577,1,8,0:0:0:0:
64,64,174645,1,0,0:0:0:0:
64,64,174713,1,0,0:0:0:0:
64,64,174781,1,0,0:0:0:0:
448,64,174849,1,8,0:0:0:0:
64,64,174918,1,0,0:0:0:0:
64,64,174986,1,0,0:0:0:0:
64,64,175054,1,0,0:0:0:0:
448,64,175122,1,8,0:0:0:0:
64,64,175190,1,0,0:0:0:0:
64,64,175259,1,0,0:0:0:0:
64,64,175327,1,0,0:0:0:0:
448,64,175395,1,8,0:0:0:0:
64,320,175531,5,4,0:0:0:0:
64,320,175804,1,4,0:0:0:0:
64,320,176077,1,4,0:0:0:0:
448,64,176349,1,8,0:0:0:0:
448,64,176418,1,8,0:0:0:0:
64,64,176486,1,0,0:0:0:0:
64,64,176554,1,0,0:0:0:0:
448,64,176622,5,8,0:0:0:0:
448,64,176690,1,8,0:0:0:0:
64,64,176759,1,0,0:0:0:0:
64,64,176827,1,0,0:0:0:0:
64,64,176895,1,0,0:0:0:0:
64,64,176963,1,0,0:0:0:0:
448,64,177031,1,8,0:0:0:0:
448,64,177099,1,8,0:0:0:0:
64,64,177168,1,0,0:0:0:0:
64,64,177236,1,0,0:0:0:0:
448,64,177304,1,8,0:0:0:0:
64,64,177372,1,0,0:0:0:0:
448,64,177440,1,8,0:0:0:0:
448,64,177509,1,8,0:0:0:0:
64,64,177577,1,0,0:0:0:0:
64,64,177645,1,0,0:0:0:0:
64,64,177713,5,0,0:0:0:0:
64,64,177781,1,0,0:0:0:0:
448,64,177849,1,8,0:0:0:0:
448,64,177918,1,8,0:0:0:0:
64,64,177986,1,0,0:0:0:0:
64,64,178054,1,0,0:0:0:0:
448,64,178122,1,8,0:0:0:0:
64,64,178190,1,0,0:0:0:0:
448,64,178259,1,8,0:0:0:0:
448,64,178327,1,8,0:0:0:0:
64,64,178395,1,0,0:0:0:0:
64,64,178463,1,0,0:0:0:0:
64,64,178531,1,0,0:0:0:0:
64,64,178599,1,0,0:0:0:0:
448,64,178668,1,8,0:0:0:0:
64,64,178736,1,0,0:0:0:0:
448,64,178804,5,8,0:0:0:0:
448,64,178872,1,8,0:0:0:0:
448,64,178940,1,8,0:0:0:0:
448,64,179009,1,8,0:0:0:0:
64,64,179077,1,0,0:0:0:0:
64,64,179145,1,0,0:0:0:0:
448,64,179213,1,8,0:0:0:0:
448,64,179349,1,8,0:0:0:0:
448,64,179418,1,8,0:0:0:0:
64,64,179486,1,0,0:0:0:0:
448,64,179554,1,8,0:0:0:0:
64,64,179622,1,0,0:0:0:0:
64,64,179690,1,0,0:0:0:0:
448,64,179759,1,8,0:0:0:0:
448,64,179895,5,8,0:0:0:0:
64,64,179963,1,0,0:0:0:0:
64,64,180031,1,0,0:0:0:0:
448,64,180099,1,8,0:0:0:0:
64,64,180168,1,0,0:0:0:0:
64,64,180236,1,0,0:0:0:0:
448,64,180304,1,8,0:0:0:0:
64,64,180440,1,0,0:0:0:0:
64,64,180509,1,0,0:0:0:0:
448,64,180577,1,8,0:0:0:0:
64,64,180713,1,0,0:0:0:0:
64,64,180759,1,0,0:0:0:0:
64,64,180804,1,0,0:0:0:0:
448,64,180849,1,8,0:0:0:0:
64,320,180986,5,4,0:0:0:0:
64,64,181122,1,0,0:0:0:0:
64,64,181190,1,0,0:0:0:0:
448,64,181259,1,8,0:0:0:0:
64,64,181327,1,0,0:0:0:0:
448,64,181395,1,8,0:0:0:0:
448,64,181463,1,8,0:0:0:0:
64,64,181531,1,0,0:0:0:0:
64,64,181599,1,0,0:0:0:0:
448,64,181668,1,8,0:0:0:0:
64,64,181736,1,0,0:0:0:0:
448,64,181804,1,8,0:0:0:0:
448,64,181872,1,8,0:0:0:0:
64,64,181940,1,0,0:0:0:0:
64,64,182009,1,0,0:0:0:0:
448,64,182077,5,8,0:0:0:0:
64,64,182145,1,0,0:0:0:0:
448,64,182213,1,8,0:0:0:0:
448,64,182281,1,8,0:0:0:0:
64,64,182349,1,0,0:0:0:0:
64,64,182418,1,0,0:0:0:0:
448,64,182486,1,8,0:0:0:0:
64,64,182554,1,0,0:0:0:0:
448,64,182622,1,8,0:0:0:0:
448,64,182690,1,8,0:0:0:0:
448,64,182759,1,8,0:0:0:0:
448,64,182827,1,8,0:2:0:0:
64,64,182895,1,0,0:0:0:0:
64,64,182963,1,0,0:0:0:0:
448,64,183031,1,8,0:0:0:0:
64,64,183099,1,0,0:0:0:0:
64,64,183168,5,0,0:0:0:0:
64,64,183236,1,0,0:0:0:0:
448,64,183304,1,8,0:0:0:0:
64,64,183372,1,0,0:0:0:0:
64,64,183440,1,0,0:0:0:0:
64,64,183509,1,0,0:0:0:0:
448,64,183577,1,8,0:0:0:0:
448,64,183645,1,8,0:0:0:0:
448,64,183713,1,8,0:0:0:0:
448,64,183781,1,8,0:0:0:0:
64,64,183849,1,0,0:0:0:0:
64,64,183918,1,0,0:0:0:0:
64,64,183986,1,0,0:0:0:0:
64,64,184054,1,0,0:0:0:0:
448,64,184122,1,8,0:0:0:0:
64,320,184259,5,4,0:0:0:0:
448,64,184395,1,8,0:0:0:0:
64,64,184463,1,0,0:0:0:0:
64,64,184531,1,0,0:0:0:0:
64,64,184599,1,0,0:0:0:0:
448,64,184668,1,8,0:0:0:0:
64,64,184736,1,0,0:0:0:0:
448,64,184804,1,8,0:0:0:0:
448,64,184872,1,8,0:0:0:0:
448,64,184940,1,8,0:0:0:0:
64,64,185009,1,0,0:0:0:0:
448,64,185077,1,8,0:0:0:0:
448,64,185145,1,8,0:0:0:0:
64,64,185213,1,0,0:0:0:0:
448,320,185349,5,12,0:0:0:0:
64,64,185486,1,0,0:0:0:0:
64,64,185554,1,0,0:0:0:0:
448,64,185622,1,8,0:0:0:0:
64,64,185690,1,0,0:0:0:0:
448,64,185759,1,8,0:0:0:0:
448,64,185827,1,8,0:0:0:0:
64,64,185895,1,0,0:0:0:0:
64,64,185963,1,0,0:0:0:0:
448,64,186031,1,8,0:0:0:0:
64,64,186099,1,0,0:0:0:0:
448,64,186168,1,8,0:0:0:0:
448,64,186236,1,8,0:0:0:0:
64,64,186304,1,0,0:0:0:0:
64,64,186372,1,0,0:0:0:0:
448,64,186440,5,8,0:0:0:0:
64,64,186509,1,0,0:0:0:0:
448,64,186577,1,8,0:0:0:0:
448,64,186645,1,8,0:0:0:0:
64,64,186713,1,0,0:0:0:0:
64,64,186781,1,0,0:0:0:0:
448,64,186849,1,8,0:0:0:0:
64,64,186918,1,0,0:0:0:0:
448,64,186986,1,8,0:0:0:0:
448,64,187054,1,8,0:0:0:0:
64,64,187122,1,0,0:0:0:0:
64,64,187190,1,0,0:0:0:0:
448,64,187259,1,8,0:0:0:0:
64,64,187327,1,0,0:0:0:0:
448,64,187395,1,8,0:0:0:0:
448,64,187463,1,8,0:0:0:0:
448,64,187531,5,8,0:0:0:0:
448,64,187599,1,8,0:0:0:0:
448,64,187668,1,8,0:0:0:0:
448,64,187736,1,8,0:0:0:0:
64,64,187804,1,0,0:0:0:0:
448,64,187940,1,8,0:0:0:0:
64,64,188077,1,0,0:0:0:0:
448,64,188145,1,8,0:0:0:0:
448,64,188213,1,8,0:0:0:0:
64,64,188281,1,0,0:0:0:0:
448,64,188349,1,8,0:0:0:0:
64,64,188418,1,0,0:0:0:0:
448,64,188486,1,8,0:0:0:0:
448,64,188554,1,8,0:0:0:0:
64,64,188622,5,0,0:0:0:0:
448,64,188759,1,8,0:0:0:0:
64,64,188827,1,0,0:0:0:0:
64,64,188895,1,0,0:0:0:0:
64,64,188963,1,0,0:0:0:0:
448,64,189031,1,8,0:0:0:0:
448,64,189099,1,8,0:0:0:0:
64,64,189168,1,0,0:0:0:0:
64,64,189236,1,0,0:0:0:0:
448,64,189304,1,8,0:0:0:0:
64,64,189440,1,0,0:0:0:0:
64,64,189486,1,0,0:0:0:0:
64,64,189531,1,0,0:0:0:0:
448,64,189577,1,8,0:0:0:0:
64,320,189713,5,4,0:0:0:0:
64,64,189849,1,0,0:0:0:0:
64,64,189918,1,0,0:0:0:0:
448,64,189986,1,8,0:0:0:0:
64,64,190122,1,0,0:0:0:0:
448,64,190190,1,8,0:0:0:0:
64,64,190259,1,0,0:0:0:0:
64,64,190327,1,0,0:0:0:0:
448,64,190395,1,8,0:0:0:0:
64,64,190531,1,0,0:0:0:0:
448,64,190599,1,8,0:0:0:0:
64,64,190668,1,0,0:0:0:0:
64,64,190736,1,0,0:0:0:0:
448,64,190804,5,8,0:0:0:0:
448,64,190940,1,8,0:0:0:0:
448,64,191009,1,8,0:0:0:0:
64,64,191077,1,0,0:0:0:0:
64,64,191145,1,0,0:0:0:0:
448,64,191213,1,8,0:0:0:0:
448,64,191281,1,8,0:0:0:0:
448,64,191349,1,8,0:0:0:0:
448,64,191418,1,8,0:0:0:0:
64,64,191486,1,0,0:0:0:0:
64,64,191554,1,0,0:0:0:0:
448,64,191622,1,8,0:0:0:0:
448,64,191690,1,8,0:0:0:0:
64,64,191759,1,0,0:0:0:0:
448,320,191895,5,12,0:0:0:0:
448,64,192031,1,8,0:0:0:0:
448,64,192099,1,8,0:0:0:0:
64,64,192168,1,0,0:0:0:0:
64,64,192236,1,0,0:0:0:0:
64,64,192304,1,0,0:0:0:0:
64,64,192372,1,0,0:0:0:0:
448,64,192440,1,8,0:0:0:0:
64,64,192509,1,0,0:0:0:0:
64,64,192577,1,0,0:0:0:0:
64,64,192645,1,0,0:0:0:0:
448,64,192713,1,8,0:0:0:0:
64,64,192781,1,0,0:0:0:0:
64,64,192849,1,0,0:0:0:0:
64,64,192918,1,0,0:0:0:0:
448,64,192986,5,8,0:0:0:0:
64,64,193054,1,0,0:0:0:0:
64,64,193122,1,0,0:0:0:0:
448,64,193190,1,8,0:0:0:0:
64,64,193259,1,0,0:0:0:0:
64,64,193327,1,0,0:0:0:0:
448,64,193395,1,8,0:0:0:0:
64,64,193463,1,0,0:0:0:0:
448,64,193531,1,8,0:0:0:0:
448,64,193599,1,8,0:0:0:0:
64,64,193668,1,0,0:0:0:0:
448,64,193736,1,8,0:0:0:0:
448,64,193804,1,8,0:0:0:0:
64,64,193872,1,0,0:0:0:0:
448,64,193940,1,8,0:0:0:0:
448,320,194077,5,12,0:0:0:0:
64,64,194213,1,0,0:0:0:0:
448,64,194349,1,8,0:0:0:0:
64,64,194418,1,0,0:0:0:0:
448,64,194486,1,8,0:0:0:0:
448,64,194622,1,8,0:0:0:0:
64,64,194690,1,0,0:0:0:0:
64,64,194759,1,0,0:0:0:0:
448,64,194895,1,8,0:0:0:0:
64,64,194963,1,0,0:0:0:0:
64,64,195031,1,0,0:0:0:0:
448,64,195168,5,8,0:0:0:0:
448,64,195440,1,8,0:0:0:0:
64,64,195509,1,0,0:0:0:0:
448,64,195577,1,8,0:0:0:0:
448,64,195713,1,8,0:0:0:0:
64,64,195781,1,0,0:0:0:0:
64,64,195849,1,0,0:0:0:0:
448,64,195918,1,8,0:0:0:0:
448,64,195986,1,8,0:0:0:0:
64,64,196054,1,0,0:0:0:0:
64,64,196122,1,0,0:0:0:0:
448,320,196259,5,12,0:0:0:0:
64,64,196395,1,0,0:0:0:0:
448,64,196531,1,8,0:0:0:0:
64,64,196599,1,0,0:0:0:0:
64,64,196668,1,0,0:0:0:0:
448,64,196804,1,8,0:0:0:0:
64,64,196872,1,0,0:0:0:0:
64,64,196940,1,0,0:0:0:0:
448,64,197077,1,8,0:0:0:0:
64,64,197145,1,0,0:0:0:0:
64,64,197213,1,0,0:0:0:0:
448,320,197349,5,12,0:0:0:0:
448,320,197622,1,12,0:0:0:0:
64,64,197759,1,0,0:0:0:0:
448,64,197895,1,8,0:0:0:0:
64,64,197963,1,0,0:0:0:0:
64,64,198031,1,0,0:0:0:0:
64,64,198099,1,0,0:0:0:0:
448,64,198168,1,8,0:0:0:0:
64,64,198236,1,0,0:0:0:0:
64,64,198304,1,0,0:0:0:0:
448,320,198440,5,12,0:0:0:0:
64,64,198577,1,0,0:0:0:0:
448,64,198713,1,8,0:0:0:0:
64,64,198781,1,0,0:0:0:0:
448,64,198849,1,8,0:0:0:0:
448,64,198986,1,8,0:0:0:0:
64,64,199054,1,0,0:0:0:0:
64,64,199122,1,0,0:0:0:0:
448,64,199259,1,8,0:0:0:0:
64,64,199327,1,0,0:0:0:0:
64,64,199395,1,0,0:0:0:0:
448,64,199531,5,8,0:0:0:0:
448,64,199804,1,8,0:0:0:0:
64,64,199872,1,0,0:0:0:0:
448,64,199940,1,8,0:0:0:0:
448,64,200077,1,8,0:0:0:0:
64,64,200145,1,0,0:0:0:0:
64,64,200213,1,0,0:0:0:0:
448,64,200281,1,8,0:0:0:0:
448,64,200349,1,8,0:0:0:0:
64,64,200418,1,0,0:0:0:0:
64,64,200486,1,0,0:0:0:0:
448,320,200622,5,12,0:0:0:0:
64,64,200759,1,0,0:0:0:0:
64,64,200827,1,0,0:0:0:0:
448,64,200895,1,8,0:0:0:0:
64,64,200963,1,0,0:0:0:0:
64,64,201031,1,0,0:0:0:0:
64,64,201099,1,0,0:0:0:0:
448,64,201168,1,8,0:0:0:0:
64,64,201236,1,0,0:0:0:0:
64,64,201304,1,0,0:0:0:0:
64,64,201372,1,0,0:0:0:0:
448,64,201440,1,8,0:0:0:0:
64,64,201509,1,0,0:0:0:0:
448,64,201577,1,8,0:0:0:0:
64,320,201713,5,4,0:0:0:0:
448,64,201849,1,8,0:0:0:0:
64,64,201986,1,0,0:0:0:0:
64,64,202054,1,0,0:0:0:0:
448,64,202122,1,8,0:0:0:0:
64,64,202259,1,0,0:0:0:0:
64,64,202327,1,0,0:0:0:0:
448,64,202395,1,8,0:0:0:0:
448,64,202531,1,8,0:0:0:0:
64,64,202668,1,0,0:0:0:0:
448,320,202804,5,12,0:0:0:0:
64,64,202940,1,0,0:0:0:0:
64,64,203009,1,0,0:0:0:0:
448,64,203077,1,8,0:0:0:0:
64,64,203145,1,0,0:0:0:0:
448,64,203213,1,8,0:0:0:0:
64,64,203281,1,0,0:0:0:0:
448,64,203349,1,8,0:0:0:0:
448,64,203418,1,8,0:0:0:0:
64,64,203486,1,0,0:0:0:0:
64,64,203554,1,0,0:0:0:0:
448,64,203622,1,8,0:0:0:0:
64,64,203690,1,0,0:0:0:0:
64,64,203759,1,0,0:0:0:0:
64,64,203827,1,0,0:0:0:0:
448,64,203895,5,8,0:0:0:0:
448,64,203963,1,8,0:0:0:0:
64,64,204031,1,0,0:0:0:0:
64,64,204099,1,0,0:0:0:0:
448,64,204168,1,8,0:0:0:0:
64,64,204236,1,0,0:0:0:0:
448,64,204304,1,8,0:0:0:0:
64,64,204372,1,0,0:0:0:0:
64,64,204440,1,0,0:0:0:0:
64,64,204509,1,0,0:0:0:0:
448,64,204577,1,8,0:0:0:0:
64,64,204645,1,0,0:0:0:0:
448,64,204713,1,8,0:0:0:0:
64,64,204781,1,0,0:0:0:0:
64,64,204849,1,0,0:0:0:0:
64,64,204918,1,0,0:0:0:0:
448,64,204986,5,8,0:0:0:0:
64,64,205054,1,0,0:0:0:0:
64,64,205122,1,0,0:0:0:0:
64,64,205190,1,0,0:0:0:0:
448,64,205259,1,8,0:0:0:0:
64,64,205327,1,0,0:0:0:0:
448,64,205395,1,8,0:0:0:0:
64,64,205463,1,0,0:0:0:0:
448,64,205531,1,8,0:0:0:0:
448,64,205599,1,8,0:0:0:0:
64,64,205668,1,0,0:0:0:0:
64,64,205736,1,0,0:0:0:0:
448,64,205804,1,8,0:0:0:0:
64,64,205872,1,0,0:0:0:0:
64,64,205940,1,0,0:0:0:0:
64,64,206009,1,0,0:0:0:0:
448,64,206077,5,8,0:0:0:0:
448,64,206145,1,8,0:0:0:0:
64,64,206213,1,0,0:0:0:0:
64,64,206281,1,0,0:0:0:0:
448,64,206349,1,8,0:0:0:0:
448,64,206418,1,8,0:0:0:0:
64,64,206486,1,0,0:0:0:0:
64,64,206554,1,0,0:0:0:0:
448,64,206622,1,8,0:0:0:0:
64,64,206690,1,0,0:0:0:0:
64,64,206759,1,0,0:0:0:0:
64,64,206827,1,0,0:0:0:0:
448,64,206895,1,8,0:0:0:0:
64,64,206963,1,0,0:0:0:0:
64,64,207031,1,0,0:0:0:0:
448,320,207168,5,12,0:0:0:0:
64,64,207304,1,0,0:0:0:0:
64,64,207372,1,0,0:0:0:0:
448,64,207440,1,8,0:0:0:0:
64,64,207509,1,0,0:0:0:0:
448,64,207577,1,8,0:0:0:0:
64,64,207645,1,0,0:0:0:0:
448,64,207713,1,8,0:0:0:0:
448,64,207781,1,8,0:0:0:0:
64,64,207849,1,0,0:0:0:0:
64,64,207918,1,0,0:0:0:0:
448,64,207986,1,8,0:0:0:0:
64,64,208054,1,0,0:0:0:0:
64,64,208122,1,0,0:0:0:0:
64,64,208190,1,0,0:0:0:0:
448,64,208259,5,8,0:0:0:0:
64,64,208327,1,0,0:0:0:0:
64,64,208395,1,0,0:0:0:0:
64,64,208463,1,0,0:0:0:0:
448,64,208531,1,8,0:0:0:0:
64,64,208599,1,0,0:0:0:0:
448,64,208668,1,8,0:0:0:0:
448,64,208736,1,8,0:0:0:0:
64,64,208804,1,0,0:0:0:0:
64,64,208872,1,0,0:0:0:0:
448,64,208940,1,8,0:0:0:0:
64,64,209009,1,0,0:0:0:0:
448,64,209077,1,8,0:0:0:0:
448,64,209145,1,8,0:0:0:0:
64,64,209213,1,0,0:0:0:0:
448,320,209349,5,12,0:0:0:0:
448,64,209486,1,8,0:0:0:0:
448,64,209554,1,8,0:0:0:0:
64,64,209622,1,0,0:0:0:0:
64,64,209690,1,0,0:0:0:0:
448,64,209759,1,8,0:0:0:0:
448,64,209827,1,8,0:0:0:0:
64,64,209895,1,0,0:0:0:0:
448,64,209963,1,8,0:0:0:0:
64,64,210031,1,0,0:0:0:0:
64,64,210099,1,0,0:0:0:0:
448,64,210168,1,8,0:0:0:0:
448,64,210236,1,8,0:0:0:0:
64,64,210304,1,0,0:0:0:0:
64,64,210372,1,0,0:0:0:0:
448,64,210440,5,8,0:0:0:0:
448,64,210531,1,8,0:0:0:0:
448,64,210622,1,8,0:0:0:0:
64,64,210713,1,0,0:0:0:0:
64,64,210804,1,0,0:0:0:0:
448,64,210895,1,8,0:0:0:0:
64,64,210986,1,0,0:0:0:0:
64,64,211077,1,0,0:0:0:0:
64,64,211168,1,0,0:0:0:0:
448,64,211259,1,8,0:0:0:0:
448,64,211349,1,8,0:0:0:0:
448,64,211440,1,8,0:0:0:0:
64,320,211531,5,4,0:0:0:0:
64,320,213713,5,4,0:0:0:0:
64,64,214531,1,0,0:0:0:0:
64,64,214599,1,0,0:0:0:0:
64,64,214668,1,0,0:0:0:0:
64,64,214736,1,0,0:0:0:0:
448,64,214804,5,8,0:0:0:0:
448,64,214940,1,8,0:0:0:0:
448,64,215213,1,8,0:0:0:0:
64,64,215486,1,0,0:0:0:0:
64,64,215622,1,0,0:0:0:0:
64,64,215759,1,0,0:0:0:0:
64,320,215895,5,4,0:0:0:0:
64,64,216304,1,0,0:0:0:0:
64,64,216372,1,0,0:0:0:0:
448,64,216440,1,8,0:0:0:0:
64,64,216713,1,0,0:0:0:0:
64,64,216849,1,0,0:0:0:0:
64,64,216918,1,0,0:0:0:0:
64,64,216986,5,0,0:0:0:0:
448,64,217122,1,8,0:0:0:0:
64,64,217395,1,0,0:0:0:0:
448,64,217531,1,8,0:0:0:0:
448,64,217668,1,8,0:0:0:0:
64,64,217804,1,0,0:0:0:0:
448,64,217940,1,8,0:0:0:0:
64,320,218077,5,4,0:0:0:0:
64,64,218349,1,0,0:0:0:0:
448,64,218486,1,8,0:0:0:0:
64,64,218622,1,0,0:0:0:0:
448,64,218759,1,8,0:0:0:0:
64,64,218895,1,0,0:0:0:0:
448,64,219031,1,8,0:0:0:0:
448,64,219168,5,8,0:0:0:0:
448,64,219236,1,8,0:0:0:0:
448,64,219304,1,8,0:0:0:0:
448,64,219372,1,8,0:0:0:0:
64,64,219440,1,0,0:0:0:0:
64,64,219509,1,0,0:0:0:0:
448,64,219577,1,8,0:0:0:0:
448,64,219645,1,8,0:0:0:0:
448,64,219713,1,8,0:0:0:0:
64,64,219781,1,0,0:0:0:0:
64,64,219849,1,0,0:0:0:0:
64,64,219918,1,0,0:0:0:0:
448,64,219986,1,8,0:0:0:0:
64,64,220054,1,0,0:0:0:0:
448,64,220122,1,8,0:0:0:0:
64,320,220259,5,4,0:0:0:0:
448,64,220395,1,8,0:0:0:0:
64,64,220531,1,0,0:0:0:0:
64,64,220599,1,0,0:0:0:0:
448,64,220668,1,8,0:0:0:0:
64,64,220804,1,0,0:0:0:0:
448,64,220940,1,8,0:0:0:0:
64,64,221009,1,0,0:0:0:0:
448,64,221077,1,8,0:0:0:0:
448,64,221145,1,8,0:0:0:0:
64,64,221213,1,0,0:0:0:0:
448,64,221349,5,8,0:0:0:0:
448,64,221486,1,8,0:0:0:0:
64,64,221622,1,0,0:0:0:0:
64,64,221690,1,0,0:0:0:0:
448,64,221759,1,8,0:0:0:0:
64,64,221895,1,0,0:0:0:0:
448,64,222031,1,8,0:0:0:0:
448,64,222099,1,8,0:0:0:0:
64,64,222168,1,0,0:0:0:0:
64,64,222236,1,0,0:0:0:0:
448,64,222304,1,8,0:0:0:0:
64,64,222440,5,0,0:0:0:0:
448,64,222577,1,8,0:0:0:0:
64,64,222645,1,0,0:0:0:0:
448,64,222713,1,8,0:0:0:0:
448,64,222781,1,8,0:0:0:0:
64,64,222849,1,0,0:0:0:0:
64,64,222986,1,0,0:0:0:0:
448,64,223122,1,8,0:0:0:0:
448,64,223190,1,8,0:0:0:0:
64,64,223259,1,0,0:0:0:0:
64,64,223327,1,0,0:0:0:0:
448,64,223395,1,8,0:0:0:0:
64,64,223531,5,0,0:0:0:0:
448,64,223668,1,8,0:0:0:0:
64,64,223736,1,0,0:0:0:0:
64,64,223804,1,0,0:0:0:0:
64,64,223872,1,0,0:0:0:0:
448,64,223940,1,8,0:0:0:0:
64,64,224077,1,0,0:0:0:0:
448,64,224213,1,8,0:0:0:0:
64,64,224349,1,0,0:0:0:0:
64,64,224418,1,0,0:0:0:0:
448,64,224486,1,8,0:0:0:0:
64,320,224622,5,4,0:0:0:0:
448,64,224759,1,8,0:0:0:0:
64,64,224827,1,0,0:0:0:0:
64,64,224895,1,0,0:0:0:0:
64,64,224963,1,0,0:0:0:0:
448,64,225031,1,8,0:0:0:0:
448,64,225099,1,8,0:0:0:0:
64,64,225168,1,0,0:0:0:0:
64,64,225236,1,0,0:0:0:0:
448,64,225304,1,8,0:0:0:0:
448,64,225372,1,8,0:0:0:0:
64,64,225440,1,0,0:0:0:0:
64,64,225509,1,0,0:0:0:0:
448,64,225577,1,8,0:0:0:0:
64,64,225645,1,0,0:0:0:0:
448,64,225713,5,8,0:0:0:0:
64,64,225781,1,0,0:0:0:0:
448,64,225849,1,8,0:0:0:0:
448,64,225918,1,8,0:0:0:0:
64,64,225986,1,0,0:0:0:0:
64,64,226054,1,0,0:0:0:0:
448,64,226122,1,8,0:0:0:0:
64,64,226190,1,0,0:0:0:0:
64,64,226259,1,0,0:0:0:0:
64,64,226327,1,0,0:0:0:0:
448,64,226395,1,8,0:0:0:0:
64,64,226463,1,0,0:0:0:0:
448,64,226531,1,8,0:0:0:0:
64,64,226599,1,0,0:0:0:0:
64,64,226668,1,0,0:0:0:0:
448,320,226804,5,12,0:0:0:0:
448,64,226940,1,8,0:0:0:0:
64,64,227009,1,0,0:0:0:0:
64,64,227077,1,0,0:0:0:0:
64,64,227145,1,0,0:0:0:0:
448,64,227213,1,8,0:0:0:0:
448,64,227281,1,8,0:0:0:0:
64,64,227349,1,0,0:0:0:0:
64,64,227418,1,0,0:0:0:0:
448,64,227486,1,8,0:0:0:0:
64,64,227554,1,0,0:0:0:0:
448,64,227622,1,8,0:0:0:0:
64,64,227713,1,0,0:0:0:0:
64,64,227804,1,0,0:0:0:0:
448,64,227895,5,8,0:0:0:0:
448,64,227986,1,8,0:0:0:0:
448,64,228077,1,8,0:0:0:0:
64,64,228168,1,0,0:0:0:0:
64,64,228259,1,0,0:0:0:0:
64,64,228349,1,0,0:0:0:0:
448,64,228440,1,8,0:0:0:0:
64,64,228509,1,0,0:0:0:0:
64,64,228577,1,0,0:0:0:0:
64,64,228713,1,0,0:0:0:0:
64,64,228781,1,0,0:0:0:0:
64,64,228849,1,0,0:0:0:0:
448,320,228986,5,12,0:0:0:0:
64,64,229122,1,0,0:0:0:0:
448,64,229259,1,8,0:0:0:0:
64,64,229395,1,0,0:0:0:0:
64,64,229463,1,0,0:0:0:0:
448,64,229531,1,8,0:0:0:0:
64,64,229599,1,0,0:0:0:0:
64,64,229668,1,0,0:0:0:0:
64,64,229736,1,0,0:0:0:0:
448,64,229804,1,8,0:0:0:0:
64,64,229940,1,0,0:0:0:0:
64,64,230009,1,0,0:0:0:0:
448,64,230077,5,8,0:0:0:0:
64,64,230213,1,0,0:0:0:0:
64,64,230281,1,0,0:0:0:0:
448,64,230349,1,8,0:0:0:0:
64,64,230486,1,0,0:0:0:0:
64,64,230554,1,0,0:0:0:0:
448,64,230622,1,8,0:0:0:0:
64,64,230759,1,0,0:0:0:0:
64,64,230827,1,0,0:0:0:0:
448,64,230895,1,8,0:0:0:0:
64,64,230963,1,0,0:0:0:0:
64,64,231031,1,0,0:0:0:0:
64,64,231099,1,0,0:0:0:0:
448,64,231168,5,8,0:0:0:0:
64,64,231304,1,0,0:0:0:0:
448,64,231440,1,8,0:0:0:0:
64,64,231577,1,0,0:0:0:0:
64,64,231645,1,0,0:0:0:0:
448,64,231713,1,8,0:0:0:0:
64,64,231849,1,0,0:0:0:0:
64,64,231918,1,0,0:0:0:0:
448,64,231986,1,8,0:0:0:0:
64,64,232122,1,0,0:0:0:0:
448,320,232259,5,12,0:0:0:0:
64,64,232395,1,0,0:0:0:0:
448,320,232531,1,12,0:0:0:0:
64,64,232668,1,0,0:0:0:0:
448,320,232804,1,12,0:0:0:0:
64,64,232940,1,0,0:0:0:0:
64,64,233009,1,0,0:0:0:0:
448,64,233077,1,8,0:0:0:0:
64,64,233145,1,0,0:0:0:0:
64,64,233213,1,0,0:0:0:0:
448,320,233349,5,12,0:0:0:0:
64,64,233486,1,0,0:0:0:0:
64,64,233554,1,0,0:0:0:0:
448,64,233622,1,8,0:0:0:0:
64,64,233759,1,0,0:0:0:0:
64,64,233827,1,0,0:0:0:0:
448,64,233895,1,8,0:0:0:0:
64,64,234031,1,0,0:0:0:0:
448,64,234099,1,8,0:0:0:0:
448,64,234168,1,8,0:0:0:0:
64,64,234304,1,0,0:0:0:0:
64,64,234372,1,0,0:0:0:0:
448,64,234440,5,8,0:0:0:0:
64,64,234509,1,0,0:0:0:0:
64,64,234577,1,0,0:0:0:0:
64,64,234645,1,0,0:0:0:0:
448,64,234713,1,8,0:0:0:0:
64,64,234781,1,0,0:0:0:0:
64,64,234849,1,0,0:0:0:0:
64,64,234918,1,0,0:0:0:0:
448,64,234986,1,8,0:0:0:0:
64,64,235054,1,0,0:0:0:0:
64,64,235122,1,0,0:0:0:0:
64,64,235190,1,0,0:0:0:0:
448,64,235259,1,8,0:0:0:0:
448,64,235327,1,8,0:0:0:0:
64,64,235395,1,0,0:0:0:0:
448,320,235531,5,12,0:0:0:0:
64,64,235668,1,0,0:0:0:0:
64,64,235736,1,0,0:0:0:0:
448,64,235804,1,8,0:0:0:0:
448,64,235872,1,8,0:0:0:0:
64,64,235940,1,0,0:0:0:0:
64,64,236009,1,0,0:0:0:0:
448,64,236077,1,8,0:0:0:0:
64,64,236145,1,0,0:0:0:0:
64,64,236213,1,0,0:0:0:0:
64,64,236281,1,0,0:0:0:0:
448,64,236349,1,8,0:0:0:0:
64,64,236418,1,0,0:0:0:0:
64,64,236486,1,0,0:0:0:0:
448,320,236622,5,12,0:0:0:0:
448,320,236759,1,12,0:0:0:0:
64,64,237168,1,0,0:0:0:0:
64,64,237440,1,0,0:0:0:0:
448,64,237713,5,8,0:0:0:0:
448,64,237781,1,8,0:0:0:0:
448,64,237849,1,8,0:0:0:0:
448,64,237918,1,8,0:0:0:0:
64,64,237986,1,0,0:0:0:0:
64,64,238054,1,0,0:0:0:0:
448,64,238122,1,8,0:0:0:0:
64,64,238190,1,0,0:0:0:0:
448,64,238259,1,8,0:0:0:0:
448,64,238327,1,8,0:0:0:0:
448,64,238395,1,0,0:0:0:0:
448,64,238463,1,0,0:0:0:0:
448,64,238531,1,8,0:0:0:0:
448,64,238599,1,8,0:0:0:0:
64,64,238668,1,0,0:0:0:0:
64,320,238804,5,4,0:0:0:0:
448,64,238940,1,8,0:0:0:0:
64,64,239077,1,0,0:0:0:0:
64,64,239145,1,0,0:0:0:0:
448,64,239213,1,8,0:0:0:0:
64,64,239349,1,0,0:0:0:0:
448,64,239486,1,8,0:0:0:0:
448,64,239554,1,8,0:0:0:0:
448,64,239622,1,8,0:0:0:0:
64,64,239690,1,0,0:0:0:0:
448,64,239759,1,8,0:0:0:0:
448,64,239895,5,8,0:0:0:0:
64,64,240031,1,0,0:0:0:0:
448,64,240168,1,8,0:0:0:0:
64,64,240236,1,0,0:0:0:0:
64,64,240304,1,0,0:0:0:0:
448,64,240440,1,8,0:0:0:0:
64,64,240509,1,0,0:0:0:0:
64,64,240577,1,0,0:0:0:0:
448,64,240713,1,8,0:0:0:0:
64,64,240781,1,0,0:0:0:0:
64,64,240849,1,0,0:0:0:0:
448,320,240986,5,12,0:0:0:0:
448,64,241122,1,8,0:0:0:0:
64,64,241259,1,0,0:0:0:0:
64,64,241327,1,0,0:0:0:0:
448,64,241395,1,8,0:0:0:0:
64,64,241531,1,0,0:0:0:0:
448,64,241668,1,8,0:0:0:0:
64,64,241736,1,0,0:0:0:0:
448,64,241804,1,8,0:0:0:0:
64,64,241872,1,0,0:0:0:0:
64,64,241940,1,0,0:0:0:0:
448,320,242077,5,12,0:0:0:0:
448,64,242349,1,8,0:0:0:0:
448,64,242418,1,8,0:0:0:0:
64,64,242486,1,0,0:0:0:0:
64,64,242554,1,0,0:0:0:0:
448,64,242622,1,8,0:0:0:0:
448,64,242690,1,8,0:0:0:0:
64,64,242759,1,0,0:0:0:0:
64,64,242827,1,0,0:0:0:0:
448,64,242895,1,8,0:0:0:0:
64,64,242963,1,0,0:0:0:0:
64,64,243031,1,0,0:0:0:0:
448,320,243168,5,12,0:0:0:0:
448,64,243304,1,8,0:0:0:0:
64,64,243440,1,0,0:0:0:0:
64,64,243509,1,0,0:0:0:0:
448,64,243577,1,8,0:0:0:0:
64,64,243713,1,0,0:0:0:0:
448,64,243849,1,8,0:0:0:0:
448,64,243918,1,8,0:0:0:0:
64,64,243986,1,0,0:0:0:0:
64,64,244054,1,0,0:0:0:0:
448,64,244122,1,8,0:0:0:0:
448,64,244259,5,8,0:0:0:0:
64,64,244395,1,0,0:0:0:0:
448,64,244531,1,8,0:0:0:0:
64,64,244599,1,0,0:0:0:0:
64,64,244668,1,0,0:0:0:0:
448,64,244804,1,8,0:0:0:0:
448,64,244872,1,8,0:0:0:0:
64,64,244940,1,0,0:0:0:0:
448,64,245077,1,8,0:0:0:0:
64,64,245145,1,0,0:0:0:0:
64,64,245213,1,0,0:0:0:0:
448,320,245349,5,12,0:0:0:0:
64,64,245486,1,0,0:0:0:0:
64,64,245554,1,0,0:0:0:0:
448,64,245622,1,8,0:0:0:0:
64,64,245690,1,0,0:0:0:0:
448,64,245759,1,8,0:0:0:0:
64,64,245827,1,0,0:0:0:0:
448,64,245895,1,8,0:0:0:0:
64,64,245963,1,0,0:0:0:0:
64,64,246031,1,0,0:0:0:0:
64,64,246099,1,0,0:0:0:0:
448,64,246168,1,8,0:0:0:0:
64,64,246236,1,0,0:0:0:0:
64,64,246304,1,0,0:0:0:0:
64,64,246372,1,0,0:0:0:0:
448,64,246440,5,8,0:0:0:0:
448,64,246509,1,8,0:0:0:0:
448,64,246577,1,8,0:0:0:0:
448,64,246645,1,8,0:0:0:0:
64,64,246713,1,0,0:0:0:0:
64,64,246781,1,0,0:0:0:0:
64,64,246849,1,0,0:0:0:0:
64,64,246918,1,0,0:0:0:0:
448,64,246986,1,8,0:0:0:0:
64,64,247054,1,0,0:0:0:0:
64,64,247122,1,0,0:0:0:0:
64,64,247190,1,0,0:0:0:0:
448,64,247259,1,8,0:0:0:0:
64,64,247327,1,0,0:0:0:0:
448,64,247395,1,8,0:0:0:0:
64,320,247531,5,4,0:0:0:0:
448,64,247668,1,8,0:0:0:0:
64,64,247804,1,0,0:0:0:0:
64,64,247872,1,0,0:0:0:0:
448,64,247940,1,8,0:0:0:0:
64,64,248077,1,0,0:0:0:0:
448,64,248213,1,8,0:0:0:0:
448,64,248281,1,8,0:0:0:0:
448,64,248349,1,8,0:0:0:0:
64,64,248418,1,0,0:0:0:0:
448,64,248486,1,8,0:0:0:0:
448,64,248622,5,8,0:0:0:0:
64,64,248759,1,0,0:0:0:0:
448,64,248895,1,8,0:0:0:0:
64,64,248963,1,0,0:0:0:0:
64,64,249031,1,0,0:0:0:0:
448,64,249168,1,8,0:0:0:0:
64,64,249236,1,0,0:0:0:0:
64,64,249304,1,0,0:0:0:0:
448,64,249440,1,8,0:0:0:0:
64,64,249509,1,0,0:0:0:0:
64,64,249577,1,0,0:0:0:0:
448,320,249713,5,12,0:0:0:0:
448,64,249849,1,8,0:0:0:0:
64,64,249986,1,0,0:0:0:0:
64,64,250054,1,0,0:0:0:0:
448,64,250122,1,8,0:0:0:0:
64,64,250259,1,0,0:0:0:0:
448,64,250395,1,8,0:0:0:0:
448,64,250463,1,8,0:0:0:0:
64,64,250531,1,0,0:0:0:0:
64,64,250599,1,0,0:0:0:0:
448,64,250668,1,8,0:0:0:0:
448,320,250804,5,12,0:0:0:0:
64,64,250941,1,0,0:0:0:0:
64,64,251009,1,0,0:0:0:0:
448,64,251077,1,8,0:0:0:0:
64,64,251145,1,0,0:0:0:0:
64,64,251213,1,0,0:0:0:0:
64,64,251281,1,0,0:0:0:0:
448,64,251350,1,8,0:0:0:0:
64,320,251486,1,4,0:0:0:0:
448,64,251759,1,8,0:0:0:0:
64,320,251895,5,4,0:0:0:0:
448,64,252031,1,8,0:0:0:0:
64,64,252168,1,0,0:0:0:0:
64,64,252236,1,0,0:0:0:0:
448,64,252304,1,8,0:0:0:0:
64,64,252440,1,0,0:0:0:0:
448,64,252577,1,8,0:0:0:0:
448,64,252645,1,8,0:0:0:0:
64,64,252713,1,0,0:0:0:0:
64,64,252781,1,0,0:0:0:0:
448,64,252849,1,8,0:0:0:0:
448,64,252986,5,8,0:0:0:0:
64,64,253122,1,0,0:0:0:0:
448,64,253259,1,8,0:0:0:0:
64,64,253327,1,0,0:0:0:0:
64,64,253395,1,0,0:0:0:0:
448,64,253531,1,8,0:0:0:0:
448,64,253599,1,8,0:0:0:0:
64,64,253668,1,0,0:0:0:0:
448,64,253804,1,8,0:0:0:0:
64,64,253872,1,0,0:0:0:0:
64,64,253940,1,0,0:0:0:0:
448,320,254077,5,12,0:0:0:0:
448,64,254213,1,8,0:0:0:0:
64,64,254281,1,0,0:0:0:0:
64,64,254349,1,0,0:0:0:0:
64,64,254418,1,0,0:0:0:0:
448,64,254486,1,8,0:0:0:0:
64,64,254554,1,0,0:0:0:0:
64,64,254622,1,0,0:0:0:0:
64,64,254690,1,0,0:0:0:0:
448,64,254759,1,8,0:0:0:0:
64,64,254827,1,0,0:0:0:0:
448,64,254895,1,8,0:0:0:0:
64,64,254963,1,0,0:0:0:0:
448,64,255031,1,8,0:0:0:0:
64,64,255099,1,0,0:0:0:0:
448,64,255168,5,8,0:0:0:0:
448,64,255236,1,8,0:0:0:0:
64,64,255304,1,0,0:0:0:0:
64,64,255372,1,0,0:0:0:0:
64,64,255440,1,0,0:0:0:0:
64,64,255509,1,0,0:0:0:0:
64,64,255577,1,0,0:0:0:0:
64,64,255645,1,0,0:0:0:0:
448,64,255713,1,8,0:0:0:0:
64,64,255781,1,0,0:0:0:0:
64,64,255849,1,0,0:0:0:0:
64,64,255918,1,0,0:0:0:0:
448,64,255986,1,8,0:0:0:0:
448,64,256054,1,8,0:0:0:0:
448,64,256122,1,8,0:0:0:0:
64,320,256259,5,4,0:0:0:0:
448,64,256395,1,8,0:0:0:0:
64,64,256463,1,0,0:0:0:0:
64,64,256531,1,0,0:0:0:0:
64,64,256599,1,0,0:0:0:0:
448,64,256668,1,8,0:0:0:0:
64,64,256804,1,0,0:0:0:0:
448,64,256940,1,8,0:0:0:0:
448,64,257009,1,8,0:0:0:0:
448,64,257077,1,8,0:0:0:0:
64,64,257145,1,0,0:0:0:0:
448,64,257213,1,8,0:0:0:0:
448,64,257349,5,8,0:0:0:0:
64,64,257418,1,0,0:0:0:0:
64,64,257486,1,0,0:0:0:0:
448,64,257622,1,8,0:0:0:0:
64,64,257690,1,0,0:0:0:0:
64,64,257759,1,0,0:0:0:0:
448,64,257895,1,8,0:0:0:0:
64,64,257963,1,0,0:0:0:0:
64,64,258031,1,0,0:0:0:0:
448,64,258168,1,8,0:0:0:0:
64,64,258236,1,0,0:0:0:0:
64,64,258304,1,0,0:0:0:0:
448,320,258440,5,12,0:0:0:0:
448,64,258577,1,8,0:0:0:0:
64,64,258645,1,0,0:0:0:0:
64,64,258713,1,0,0:0:0:0:
64,64,258781,1,0,0:0:0:0:
448,64,258849,1,8,0:0:0:0:
64,64,258986,1,0,0:0:0:0:
448,64,259122,1,8,0:0:0:0:
64,64,259190,1,0,0:0:0:0:
448,64,259259,1,8,0:0:0:0:
64,64,259327,1,0,0:0:0:0:
448,64,259395,1,8,0:0:0:0:
448,320,259531,5,12,0:0:0:0:
64,64,259668,1,0,0:0:0:0:
448,320,259804,1,12,0:0:0:0:
64,64,259940,1,0,0:0:0:0:
448,320,260077,1,12,0:0:0:0:
64,64,260213,1,0,0:0:0:0:
64,64,260349,1,0,0:0:0:0:
64,64,260418,1,0,0:0:0:0:
64,64,260486,1,0,0:0:0:0:
448,320,260622,5,12,0:0:0:0:
448,64,260759,1,8,0:0:0:0:
64,64,260827,1,0,0:0:0:0:
64,64,260895,1,0,0:0:0:0:
64,64,260963,1,0,0:0:0:0:
448,64,261031,1,8,0:0:0:0:
64,64,261168,1,0,0:0:0:0:
448,64,261304,1,8,0:0:0:0:
448,64,261372,1,8,0:0:0:0:
64,64,261440,1,0,0:0:0:0:
64,64,261509,1,0,0:0:0:0:
448,64,261577,1,8,0:0:0:0:
448,64,261713,5,8,0:0:0:0:
64,64,261781,1,0,0:0:0:0:
64,64,261849,1,0,0:0:0:0:
448,64,261986,1,8,0:0:0:0:
64,64,262054,1,0,0:0:0:0:
64,64,262122,1,0,0:0:0:0:
448,64,262259,1,8,0:0:0:0:
448,64,262327,1,8,0:0:0:0:
64,64,262395,1,0,0:0:0:0:
448,64,262531,1,8,0:0:0:0:
64,64,262599,1,0,0:0:0:0:
64,64,262668,1,0,0:0:0:0:
448,320,262804,5,12,0:0:0:0:
64,64,262940,1,0,0:0:0:0:
64,64,263009,1,0,0:0:0:0:
448,64,263077,1,8,0:0:0:0:
64,64,263145,1,0,0:0:0:0:
448,64,263213,1,8,0:0:0:0:
64,64,263281,1,0,0:0:0:0:
448,64,263349,1,8,0:0:0:0:
64,64,263418,1,0,0:0:0:0:
64,64,263486,1,0,0:0:0:0:
64,64,263554,1,0,0:0:0:0:
448,64,263622,1,8,0:0:0:0:
64,64,263690,1,0,0:0:0:0:
64,64,263759,1,0,0:0:0:0:
64,64,263827,1,0,0:0:0:0:
448,64,263895,5,8,0:0:0:0:
448,64,263963,1,8,0:0:0:0:
448,64,264031,1,8,0:0:0:0:
448,64,264099,1,8,0:0:0:0:
64,64,264168,1,0,0:0:0:0:
64,64,264236,1,0,0:0:0:0:
64,64,264304,1,0,0:0:0:0:
64,64,264372,1,0,0:0:0:0:
448,64,264440,1,8,0:0:0:0:
64,64,264509,1,0,0:0:0:0:
64,64,264577,1,0,0:0:0:0:
64,64,264645,1,0,0:0:0:0:
448,64,264713,1,8,0:0:0:0:
64,64,264781,1,0,0:0:0:0:
448,64,264849,1,8,0:0:0:0:
64,320,264986,5,4,0:0:0:0:
448,64,265122,1,8,0:0:0:0:
64,64,265190,1,0,0:0:0:0:
64,64,265259,1,0,0:0:0:0:
64,64,265327,1,0,0:0:0:0:
448,64,265395,1,8,0:0:0:0:
64,64,265531,1,0,0:0:0:0:
448,64,265668,1,8,0:0:0:0:
448,64,265736,1,8,0:0:0:0:
448,64,265804,1,8,0:0:0:0:
64,64,265872,1,0,0:0:0:0:
448,64,265940,1,8,0:0:0:0:
448,64,266077,5,8,0:0:0:0:
64,64,266145,1,0,0:0:0:0:
64,64,266213,1,0,0:0:0:0:
448,64,266349,1,8,0:0:0:0:
64,64,266418,1,0,0:0:0:0:
64,64,266486,1,0,0:0:0:0:
448,64,266622,1,8,0:0:0:0:
64,64,266690,1,0,0:0:0:0:
64,64,266759,1,0,0:0:0:0:
448,64,266895,1,8,0:0:0:0:
64,64,266963,1,0,0:0:0:0:
64,64,267031,1,0,0:0:0:0:
448,320,267168,5,12,0:0:0:0:
448,64,267304,1,8,0:0:0:0:
64,64,267372,1,0,0:0:0:0:
64,64,267440,1,0,0:0:0:0:
64,64,267509,1,0,0:0:0:0:
448,64,267577,1,8,0:0:0:0:
64,64,267713,1,0,0:0:0:0:
448,64,267849,1,8,0:0:0:0:
64,64,267918,1,0,0:0:0:0:
448,64,267986,1,8,0:0:0:0:
448,64,268054,1,8,0:0:0:0:
448,64,268122,1,8,0:0:0:0:
448,64,268190,1,8,0:0:0:0:
64,64,268259,5,0,0:0:0:0:
64,64,268327,1,0,0:0:0:0:
448,64,268395,1,8,0:0:0:0:
448,64,268463,1,8,0:0:0:0:
448,64,268531,1,8,0:0:0:0:
448,64,268599,1,8,0:0:0:0:
64,64,268668,1,0,0:0:0:0:
64,64,268736,1,0,0:0:0:0:
448,64,268804,1,8,0:0:0:0:
448,64,268872,1,8,0:0:0:0:
64,64,268940,1,0,0:0:0:0:
64,64,269009,1,0,0:0:0:0:
448,64,269077,1,8,0:0:0:0:
448,64,269145,1,8,0:0:0:0:
448,64,269213,1,8,0:0:0:0:
448,320,269349,5,12,0:0:0:0:
448,64,269486,1,8,0:0:0:0:
64,64,269554,1,0,0:0:0:0:
64,64,269622,1,0,0:0:0:0:
64,64,269690,1,0,0:0:0:0:
448,64,269759,1,8,0:0:0:0:
64,64,269827,1,0,0:0:0:0:
64,64,269895,1,0,0:0:0:0:
64,64,269963,1,0,0:0:0:0:
448,64,270031,1,8,0:0:0:0:
448,64,270099,1,8,0:0:0:0:
64,64,270168,1,0,0:0:0:0:
64,64,270236,1,0,0:0:0:0:
448,64,270304,1,8,0:0:0:0:
64,64,270372,1,0,0:0:0:0:
448,64,270440,5,8,0:0:0:0:
64,64,270509,1,0,0:0:0:0:
64,64,270577,1,0,0:0:0:0:
64,64,270645,1,0,0:0:0:0:
448,64,270713,1,8,0:0:0:0:
64,64,270781,1,0,0:0:0:0:
64,64,270849,1,0,0:0:0:0:
64,64,270918,1,0,0:0:0:0:
448,64,270986,1,8,0:0:0:0:
448,64,271054,1,8,0:0:0:0:
64,64,271122,1,0,0:0:0:0:
64,64,271190,1,0,0:0:0:0:
448,64,271259,1,8,0:0:0:0:
64,64,271327,1,0,0:0:0:0:
448,64,271395,1,8,0:0:0:0:
64,320,271531,5,4,0:0:0:0:
448,64,271668,1,8,0:0:0:0:
64,64,271736,1,0,0:0:0:0:
64,64,271804,1,0,0:0:0:0:
64,64,271872,1,0,0:0:0:0:
448,64,271940,1,8,0:0:0:0:
64,64,272009,1,0,0:0:0:0:
64,64,272077,1,0,0:0:0:0:
64,64,272145,1,0,0:0:0:0:
448,64,272213,1,8,0:0:0:0:
64,64,272281,1,0,0:0:0:0:
448,64,272349,1,8,0:0:0:0:
64,64,272418,1,0,0:0:0:0:
448,64,272486,1,8,0:0:0:0:
64,64,272554,1,0,0:0:0:0:
448,64,272622,5,8,0:0:0:0:
448,64,272690,1,8,0:0:0:0:
64,64,272759,1,0,0:0:0:0:
64,64,272827,1,0,0:0:0:0:
64,64,272895,1,0,0:0:0:0:
64,64,272963,1,0,0:0:0:0:
64,64,273031,1,0,0:0:0:0:
64,64,273099,1,0,0:0:0:0:
448,64,273168,1,8,0:0:0:0:
64,64,273236,1,0,0:0:0:0:
64,64,273304,1,0,0:0:0:0:
64,64,273372,1,0,0:0:0:0:
448,64,273440,1,8,0:0:0:0:
448,64,273509,1,8,0:0:0:0:
448,64,273577,1,8,0:0:0:0:
64,320,273713,5,4,0:0:0:0:
448,64,273849,1,8,0:0:0:0:
64,64,273986,1,0,0:0:0:0:
64,64,274054,1,0,0:0:0:0:
448,64,274122,1,8,0:0:0:0:
64,64,274259,1,0,0:0:0:0:
448,64,274395,1,8,0:0:0:0:
64,64,274531,1,0,0:0:0:0:
64,64,274599,1,0,0:0:0:0:
448,64,274668,1,8,0:0:0:0:
64,64,274804,5,0,0:0:0:0:
448,64,274940,1,8,0:0:0:0:
64,64,275077,1,0,0:0:0:0:
64,64,275145,1,0,0:0:0:0:
448,64,275213,1,8,0:0:0:0:
448,64,275281,1,8,0:0:0:0:
64,64,275349,1,0,0:0:0:0:
64,64,275418,1,0,0:0:0:0:
448,64,275486,1,8,0:0:0:0:
64,64,275622,1,0,0:0:0:0:
64,64,275690,1,0,0:0:0:0:
448,64,275759,1,8,0:0:0:0:
64,64,275895,5,0,0:0:0:0:
448,64,276031,1,8,0:0:0:0:
64,64,276168,1,0,0:0:0:0:
64,64,276236,1,0,0:0:0:0:
448,64,276304,1,8,0:0:0:0:
64,64,276440,1,0,0:0:0:0:
448,64,276577,1,8,0:0:0:0:
64,64,276713,1,0,0:0:0:0:
64,64,276781,1,0,0:0:0:0:
448,64,276849,1,8,0:0:0:0:
64,64,276986,5,0,0:0:0:0:
448,64,277122,1,8,0:0:0:0:
448,64,277190,1,8,0:0:0:0:
64,64,277259,1,0,0:0:0:0:
64,64,277327,1,0,0:0:0:0:
448,64,277395,1,8,0:0:0:0:
448,64,277463,1,8,0:0:0:0:
64,64,277531,1,0,0:0:0:0:
64,64,277599,1,0,0:0:0:0:
448,64,277668,1,8,0:0:0:0:
64,64,277804,1,0,0:0:0:0:
64,64,277849,1,0,0:0:0:0:
64,64,277895,1,0,0:0:0:0:
448,64,277940,1,8,0:0:0:0:
64,320,278077,5,4,0:0:0:0:
448,64,278213,1,8,0:0:0:0:
64,64,278349,1,0,0:0:0:0:
64,64,278418,1,0,0:0:0:0:
448,64,278486,1,8,0:0:0:0:
64,64,278622,1,0,0:0:0:0:
448,64,278759,1,8,0:0:0:0:
64,64,278895,1,0,0:0:0:0:
64,64,278963,1,0,0:0:0:0:
448,64,279031,1,8,0:0:0:0:
64,64,279168,5,0,0:0:0:0:
448,64,279304,1,8,0:0:0:0:
64,64,279440,1,0,0:0:0:0:
64,64,279509,1,0,0:0:0:0:
448,64,279577,1,8,0:0:0:0:
448,64,279645,1,8,0:0:0:0:
64,64,279713,1,0,0:0:0:0:
64,64,279781,1,0,0:0:0:0:
448,64,279849,1,8,0:0:0:0:
64,64,279986,1,0,0:0:0:0:
64,64,280054,1,0,0:0:0:0:
448,64,280122,1,8,0:0:0:0:
64,320,280259,5,4,0:0:0:0:
448,64,280395,1,8,0:0:0:0:
64,64,280531,1,0,0:0:0:0:
64,64,280599,1,0,0:0:0:0:
448,64,280668,1,8,0:0:0:0:
64,64,280804,1,0,0:0:0:0:
448,64,280940,1,8,0:0:0:0:
448,64,281009,1,8,0:0:0:0:
64,64,281077,1,0,0:0:0:0:
64,64,281145,1,0,0:0:0:0:
448,64,281213,1,8,0:0:0:0:
64,64,281349,5,0,0:0:0:0:
64,64,281418,1,0,0:0:0:0:
64,64,281486,1,0,0:0:0:0:
64,64,281554,1,0,0:0:0:0:
448,64,281622,1,8,0:0:0:0:
64,64,281690,1,0,0:0:0:0:
448,64,281759,1,8,0:0:0:0:
64,64,281827,1,0,0:0:0:0:
448,64,281895,1,8,0:0:0:0:
448,64,281963,1,8,0:0:0:0:
448,64,282031,1,8,0:0:0:0:
448,64,282099,1,8,0:0:0:0:
64,64,282168,1,0,0:0:0:0:
64,64,282236,1,0,0:0:0:0:
448,64,282304,1,8,0:0:0:0:
64,320,282440,5,4,0:0:0:0:
448,64,282577,1,8,0:0:0:0:
64,64,282645,1,0,0:0:0:0:
64,64,282713,1,0,0:0:0:0:
64,64,282781,1,0,0:0:0:0:
448,64,282849,1,8,0:0:0:0:
64,64,282918,1,0,0:0:0:0:
64,64,282986,1,0,0:0:0:0:
64,64,283054,1,0,0:0:0:0:
448,64,283122,1,8,0:0:0:0:
64,64,283190,1,0,0:0:0:0:
448,64,283259,1,8,0:0:0:0:
448,64,283327,1,8,0:0:0:0:
448,64,283395,1,8,0:0:0:0:
64,64,283531,5,0,0:0:0:0:
64,64,283599,1,0,0:0:0:0:
448,64,283668,1,8,0:0:0:0:
64,64,283736,1,0,0:0:0:0:
64,64,283804,1,0,0:0:0:0:
64,64,283872,1,0,0:0:0:0:
448,64,283940,1,8,0:0:0:0:
64,64,284009,1,0,0:0:0:0:
64,64,284077,1,0,0:0:0:0:
64,64,284145,1,0,0:0:0:0:
448,64,284213,1,8,0:0:0:0:
448,64,284281,1,8,0:0:0:0:
448,64,284349,1,8,0:0:0:0:
64,64,284418,1,0,0:0:0:0:
448,64,284486,1,8,0:0:0:0:
64,64,284622,5,0,0:0:0:0:
64,64,284690,1,0,0:0:0:0:
448,64,284759,1,8,0:0:0:0:
64,64,284827,1,0,0:0:0:0:
64,64,284895,1,0,0:0:0:0:
64,64,284963,1,0,0:0:0:0:
448,64,285031,1,8,0:0:0:0:
64,64,285099,1,0,0:0:0:0:
64,64,285168,1,0,0:0:0:0:
64,64,285236,1,0,0:0:0:0:
448,64,285304,1,8,0:0:0:0:
448,64,285372,1,8,0:0:0:0:
64,64,285440,1,0,0:0:0:0:
448,64,285509,1,8,0:0:0:0:
448,64,285577,1,8,0:0:0:0:
64,64,285713,5,0,0:0:0:0:
64,64,285781,1,0,0:0:0:0:
448,64,285849,1,8,0:0:0:0:
64,64,285918,1,0,0:0:0:0:
64,64,285986,1,0,0:0:0:0:
448,320,286122,1,12,0:0:0:0:
64,64,286259,1,0,0:0:0:0:
64,64,286327,1,0,0:0:0:0:
448,64,286395,1,8,0:0:0:0:
448,64,286463,1,8,0:0:0:0:
64,64,286531,1,0,0:0:0:0:
64,64,286599,1,0,0:0:0:0:
64,64,286668,1,0,0:0:0:0:
448,320,286804,5,12,0:0:0:0:
448,64,286940,1,8,0:0:0:0:
64,64,287009,1,0,0:0:0:0:
64,64,287077,1,0,0:0:0:0:
64,64,287145,1,0,0:0:0:0:
448,64,287213,1,8,0:0:0:0:
64,64,287281,1,0,0:0:0:0:
64,64,287349,1,0,0:0:0:0:
64,64,287418,1,0,0:0:0:0:
448,64,287486,1,8,0:0:0:0:
64,64,287554,1,0,0:0:0:0:
448,64,287622,1,8,0:0:0:0:
448,64,287690,1,8,0:0:0:0:
448,64,287759,1,8,0:0:0:0:
448,64,287827,1,8,0:0:0:0:
64,64,287895,5,0,0:0:0:0:
64,64,287963,1,0,0:0:0:0:
448,64,288031,1,8,0:0:0:0:
64,64,288099,1,0,0:0:0:0:
64,64,288168,1,0,0:0:0:0:
64,64,288236,1,0,0:0:0:0:
448,64,288304,1,8,0:0:0:0:
64,64,288372,1,0,0:0:0:0:
64,64,288440,1,0,0:0:0:0:
64,64,288509,1,0,0:0:0:0:
448,64,288577,1,8,0:0:0:0:
64,64,288645,1,0,0:0:0:0:
64,64,288713,1,0,0:0:0:0:
64,64,288781,1,0,0:0:0:0:
448,64,288849,1,8,0:0:0:0:
64,64,288918,1,0,0:0:0:0:
448,64,288986,5,8,0:0:0:0:
448,64,289054,1,8,0:0:0:0:
64,64,289122,1,0,0:0:0:0:
64,64,289190,1,0,0:0:0:0:
448,64,289259,1,8,0:0:0:0:
448,64,289327,1,8,0:0:0:0:
64,64,289395,1,0,0:0:0:0:
64,64,289463,1,0,0:0:0:0:
448,64,289531,1,8,0:0:0:0:
448,64,289599,1,8,0:0:0:0:
448,64,289668,1,8,0:0:0:0:
64,320,289804,1,4,0:0:0:0:
448,64,289940,1,8,0:0:0:0:
64,320,290077,5,4,0:0:0:0:
64,64,290213,1,0,0:0:0:0:
64,64,290281,1,0,0:0:0:0:
448,64,290349,1,8,0:0:0:0:
448,64,290418,1,8,0:0:0:0:
64,64,290486,1,0,0:0:0:0:
64,64,290554,1,0,0:0:0:0:
448,64,290622,1,8,0:0:0:0:
448,64,290690,1,8,0:0:0:0:
448,64,290759,1,8,0:0:0:0:
448,64,290827,1,8,0:0:0:0:
64,64,290895,1,0,0:0:0:0:
64,64,290963,1,0,0:0:0:0:
64,64,291031,1,0,0:0:0:0:
448,320,291168,5,12,0:0:0:0:
64,64,291304,1,0,0:0:0:0:
64,64,291372,1,0,0:0:0:0:
448,64,291440,1,8,0:0:0:0:
64,64,291577,1,0,0:0:0:0:
64,64,291645,1,0,0:0:0:0:
448,64,291713,1,8,0:0:0:0:
64,64,291849,1,0,0:0:0:0:
448,64,291986,1,8,0:0:0:0:
64,64,292122,1,0,0:0:0:0:
448,64,292259,1,8,0:0:0:0:
448,64,292531,1,8,0:0:0:0:
64,64,292668,1,0,0:0:0:0:
448,64,292804,1,8,0:0:0:0:
448,64,293077,1,8,0:0:0:0:
64,64,293145,1,0,0:0:0:0:
448,64,293213,1,8,0:0:0:0:
448,64,293349,5,8,0:0:0:0:
64,64,293418,1,0,0:0:0:0:
64,64,293486,1,0,0:0:0:0:
64,64,293554,1,0,0:0:0:0:
448,64,293622,1,8,0:0:0:0:
64,64,293759,1,0,0:0:0:0:
64,64,293827,1,0,0:0:0:0:
448,64,293895,1,8,0:0:0:0:
64,64,294031,1,0,0:0:0:0:
448,64,294168,1,8,0:0:0:0:
64,64,294304,1,0,0:0:0:0:
448,64,294440,1,8,0:0:0:0:
448,64,294713,1,8,0:0:0:0:
64,64,294849,1,0,0:0:0:0:
448,64,294986,1,8,0:0:0:0:
448,64,295259,1,8,0:0:0:0:
64,64,295327,1,0,0:0:0:0:
448,64,295395,1,8,0:0:0:0:
448,64,295531,5,8,0:0:0:0:
64,64,295599,1,0,0:0:0:0:
64,64,295668,1,0,0:0:0:0:
64,64,295736,1,0,0:0:0:0:
448,64,295804,1,8,0:0:0:0:
64,64,295872,1,0,0:0:0:0:
448,64,295940,1,8,0:0:0:0:
448,64,296349,1,8,0:0:0:0:
64,64,296486,1,0,0:0:0:0:
64,64,296554,1,0,0:0:0:0:
448,64,296622,5,8,0:0:0:0:
448,64,296690,1,8,0:0:0:0:
448,64,296759,1,8,0:0:0:0:
448,64,296827,1,8,0:0:0:0:
64,64,296895,1,0,0:0:0:0:
64,64,296963,1,0,0:0:0:0:
64,64,297031,1,0,0:0:0:0:
64,64,297099,1,0,0:0:0:0:
448,64,297168,1,8,0:0:0:0:
64,64,297236,1,0,0:0:0:0:
64,64,297304,1,0,0:0:0:0:
64,64,297372,1,0,0:0:0:0:
448,64,297440,1,8,0:0:0:0:
64,64,297509,1,0,0:0:0:0:
64,64,297577,1,0,0:0:0:0:
448,320,297713,5,12,0:0:0:0:
64,64,297849,1,0,0:0:0:0:
64,64,297918,1,0,0:0:0:0:
64,64,297986,1,0,0:0:0:0:
64,64,298054,1,0,0:0:0:0:
448,64,298122,1,8,0:0:0:0:
64,64,298190,1,0,0:0:0:0:
64,64,298259,1,0,0:0:0:0:
64,64,298327,1,0,0:0:0:0:
64,64,298395,1,0,0:0:0:0:
64,64,298463,1,0,0:0:0:0:
448,64,298531,1,8,0:0:0:0:
64,64,298599,1,0,0:0:0:0:
64,64,298668,1,0,0:0:0:0:
64,64,298736,1,0,0:0:0:0:
64,64,298804,5,0,0:0:0:0:
64,64,298872,1,0,0:0:0:0:
448,64,298940,1,8,0:0:0:0:
64,64,299009,1,0,0:0:0:0:
64,64,299077,1,0,0:0:0:0:
64,64,299145,1,0,0:0:0:0:
64,64,299213,1,0,0:0:0:0:
64,64,299281,1,0,0:0:0:0:
448,64,299349,1,8,0:0:0:0:
64,64,299418,1,0,0:0:0:0:
64,64,299486,1,0,0:0:0:0:
64,64,299554,1,0,0:0:0:0:
448,64,299622,1,8,0:0:0:0:
64,64,299690,1,0,0:0:0:0:
448,64,299759,1,8,0:0:0:0:
64,320,299895,5,4,0:0:0:0:
64,320,300304,1,4,0:0:0:0:
64,320,300713,1,4,0:0:0:0:
