osu file format v14

[General]
AudioFilename: audio.ogg
AudioLeadIn: 0
PreviewTime: 308112
Countdown: 0
SampleSet: Soft
StackLeniency: 0.4
Mode: 0
LetterboxInBreaks: 0
WidescreenStoryboard: 0

[Editor]
DistanceSpacing: 1.2
BeatDivisor: 4
GridSize: 8
TimelineZoom: 2.5

[Metadata]
Title:Sennen Gensokyo ~ Point Of Know Return
TitleUnicode:千年幻想郷 ~ Point Of Know Return
Artist:Demetori
ArtistUnicode:Demetori
Creator:Camo
Version:Extra Stage
Source:東方永夜抄 ~ Imperishable Night.
Tags:touhou th8 千年幻想郷 ~ History of the Moon Eirin Yagokoro Jakko Jakushu ~ The Truth of the Cessation of Dukkha 八意 永琳 ZUN 東方project project Sennen Gensokyo Millennium ONI Shanghai Alice Genrakudan metal Japanese video game
BeatmapID:3950005
BeatmapSetID:1914658

[Difficulty]
HPDrainRate:5
CircleSize:4
OverallDifficulty:9.4
ApproachRate:9.1
SliderMultiplier:1.7
SliderTickRate:1

[Events]
//Background and Video events
0,0,"bg.jpg",0,0
//Break Periods
2,186830,209584
2,308312,319364
//Storyboard Layer 0 (Background)
//Storyboard Layer 1 (Fail)
//Storyboard Layer 2 (Pass)
//Storyboard Layer 3 (Foreground)
//Storyboard Layer 4 (Overlay)
//Storyboard Sound Samples

[TimingPoints]
1077,740.740740740741,4,2,1,50,1,0
1077,-142.857142857143,4,2,1,50,0,0
21817,370.37037037037,4,2,1,60,1,0
21817,-100,4,2,2,60,0,0
27742,-83.3333333333333,4,2,2,60,0,0
29224,-100,4,2,2,60,0,0
30705,-100,4,2,1,70,0,0
32187,-83.3333333333333,4,2,1,70,0,0
33668,-71.4285714285714,4,2,2,70,0,0
39594,-66.6666666666667,4,2,2,70,0,0
45520,-62.5,4,2,2,70,0,0
48854,-90.9090909090909,4,2,2,70,0,0
49224,-71.4285714285714,4,2,2,70,0,0
49965,-100,4,2,2,70,0,0
51076,-71.4285714285714,4,2,2,70,0,0
55891,-62.5,4,2,2,70,0,0
56261,-55.5555555555556,4,2,2,70,0,0
56631,-71.4285714285714,4,2,2,70,0,0
57094,-58.8235294117647,4,2,2,70,0,0
57372,-71.4285714285714,4,2,2,70,0,0
64779,382.165605095541,4,2,2,70,1,0
64779,-66.6666666666667,4,2,2,70,0,0
65543,461.538461538461,4,2,1,70,1,0
65543,-62.5,4,2,1,70,0,0
66004,594.059405940593,4,2,1,70,1,0
66301,-142.857142857143,4,2,1,70,0,0
66631,370.37037037037,4,2,1,80,1,1
66631,-58.8235294117647,4,2,1,80,0,1
69223,-100,4,2,1,80,0,1
69593,-58.8235294117647,4,2,1,80,0,1
72186,-100,4,2,1,80,0,1
72556,-55.5555555555556,4,2,1,80,0,1
73297,-62.5,4,2,1,80,0,1
78482,-58.8235294117647,4,2,2,80,0,1
79223,-66.6666666666667,4,2,2,80,0,1
82001,-58.8235294117647,4,2,2,80,0,1
85519,-66.6666666666667,4,2,2,80,0,1
86260,-62.5,4,2,2,80,0,1
87001,-66.6666666666667,4,2,2,80,0,1
88853,-66.6666666666667,4,2,1,80,0,1
89593,-71.4285714285714,4,2,1,80,0,1
90334,-71.4285714285714,4,2,1,80,0,1
93297,-62.5,4,2,1,80,0,1
96260,-71.4285714285714,4,2,1,80,0,1
100705,-76.9230769230769,4,2,1,70,0,0
105705,-125,4,2,1,70,0,0
106075,-76.9230769230769,4,2,1,70,0,0
106445,-71.4285714285714,4,2,1,70,0,0
107927,-62.5,4,2,1,70,0,0
108853,-333.333333333333,4,2,1,70,0,0
109593,-125,4,2,1,70,0,0
112556,-58.8235294117647,4,2,1,80,0,1
115149,-100,4,2,1,80,0,1
115519,-58.8235294117647,4,2,1,80,0,1
117371,-55.5555555555556,4,2,1,80,0,1
117556,-58.8235294117647,4,2,1,80,0,1
118112,-100,4,2,1,80,0,1
118482,-58.8235294117647,4,2,1,80,0,1
123668,-52.6315789473684,4,2,1,80,0,1
124038,-100,4,2,1,80,0,1
124408,-58.8235294117647,4,2,2,80,0,1
128853,-58.8235294117647,4,2,1,80,0,1
130334,-58.8235294117647,4,2,2,80,0,1
132556,-166.666666666667,4,2,2,80,0,1
133297,-125,4,2,2,80,0,1
136260,-125,4,2,1,80,0,1
137742,-62.5,4,2,2,70,0,0
139964,-58.8235294117647,4,2,2,70,0,0
149223,-58.8235294117647,4,2,1,70,0,0
149593,-58.8235294117647,4,2,2,70,0,0
159964,-58.8235294117647,4,2,1,70,0,0
164408,-76.9230769230769,4,2,1,70,0,0
164779,-58.8235294117647,4,2,1,70,0,0
168482,-83.3333333333333,4,2,1,70,0,0
169964,-66.6666666666667,4,2,1,70,0,0
170334,-58.8235294117647,4,2,1,70,0,0
174408,-71.4285714285714,4,2,1,70,0,0
176260,-58.8235294117647,4,2,1,70,0,0
180334,-71.4285714285714,4,2,1,70,0,0
180705,-58.8235294117647,4,2,1,70,0,0
181816,-55.5555555555556,4,2,1,70,0,0
183297,-41.6666666666667,4,2,1,70,0,0
183482,-100,4,2,1,70,0,0
186630,-100,4,2,1,20,0,0
210334,-55.5555555555556,4,2,2,80,0,0
212927,-66.6666666666667,4,2,2,80,0,0
213297,-58.8235294117647,4,2,2,80,0,0
214408,-66.6666666666667,4,2,2,80,0,0
214779,-58.8235294117647,4,2,2,80,0,0
224408,-71.4285714285714,4,2,2,80,0,0
225334,-100,4,2,2,80,0,0
226816,-58.8235294117647,4,2,2,80,0,0
227742,-100,4,2,2,80,0,0
228112,-250,4,2,2,80,0,0
228482,-58.8235294117647,4,2,2,80,0,0
229223,-100,4,2,2,80,0,0
229269,-100,4,2,1,80,0,0
229593,-58.8235294117647,4,2,2,80,0,0
232927,-71.4285714285714,4,2,2,80,0,0
233112,-58.8235294117647,4,2,2,80,0,0
233668,-142.857142857143,4,2,2,80,0,0
234038,-66.6666666666667,4,2,1,70,0,1
239779,-83.3333333333333,4,2,1,70,0,1
245890,-62.5,4,2,2,70,0,0
248482,-76.9230769230769,4,2,2,70,0,0
248853,-62.5,4,2,2,70,0,0
254408,-76.9230769230769,4,2,2,70,0,0
254779,-62.5,4,2,2,70,0,0
256445,-62.5,4,2,1,70,0,0
257742,-62.5,4,2,2,70,0,0
266630,-62.5,4,2,1,70,0,0
267556,-76.9230769230769,4,2,1,70,0,0
267742,-52.6315789473684,4,2,1,70,0,0
268231,-142.857142857143,4,2,1,70,0,0
268482,-66.6666666666667,4,2,1,70,0,0
275149,-100,4,2,1,70,0,0
275705,-500,4,2,2,40,0,0
276075,-333.333333333333,4,2,2,50,0,0
276445,-200,4,2,2,60,0,0
276816,-111.111111111111,4,2,2,70,0,0
277186,-83.3333333333333,4,2,2,70,0,0
277556,-62.5,4,2,2,70,0,0
278112,-62.5,4,2,1,70,0,0
281445,-58.8235294117647,4,2,2,80,0,1
285890,-125,4,2,1,80,0,1
286168,-66.6666666666667,4,2,1,80,0,1
286445,-58.8235294117647,4,2,1,80,0,1
286630,-142.857142857143,4,2,1,80,0,1
287371,-58.8235294117647,4,2,2,80,0,1
289593,-83.3333333333333,4,2,2,80,0,1
290149,-66.6666666666667,4,2,2,80,0,1
290334,-58.8235294117647,4,2,2,80,0,1
291445,-100,4,2,2,80,0,1
291816,-125,4,2,2,80,0,1
292371,-90.9090909090909,4,2,2,80,0,1
292927,-66.6666666666667,4,2,2,80,0,1
293297,-66.6666666666667,4,2,1,80,0,1
295149,-58.8235294117647,4,2,1,80,0,1
295519,-52.6315789473684,4,2,1,80,0,1
295890,-100,4,2,1,80,0,1
297742,-58.8235294117647,4,2,1,80,0,1
298112,-71.4285714285714,4,2,1,80,0,1
299223,-71.4285714285714,4,2,2,80,0,1
301445,-333.333333333333,4,2,2,80,0,1
302186,-200,4,2,2,80,0,1
303482,-142.857142857143,4,2,2,80,0,1
303668,-83.3333333333333,4,2,2,80,0,1
305149,-66.6666666666667,4,2,2,80,0,1
305519,-58.8235294117647,4,2,2,80,0,1
305890,-100,4,2,2,80,0,1
306075,-66.6666666666667,4,2,2,80,0,1
307742,-250,4,2,1,80,0,1
308112,-58.8235294117647,4,2,2,50,0,0
319964,-58.8235294117647,4,2,2,60,0,0
320334,-166.666666666667,4,2,2,60,0,0
322927,-142.857142857143,4,2,2,60,0,0
324408,-111.111111111111,4,2,2,60,0,0
328853,-111.111111111111,4,2,1,70,0,0
331816,-58.8235294117647,4,2,2,70,0,0
332927,-76.9230769230769,4,2,2,70,0,0
333297,-58.8235294117647,4,2,2,70,0,0
336075,-76.9230769230769,4,2,2,70,0,0
336630,-58.8235294117647,4,2,2,70,0,0
337001,-76.9230769230769,4,2,2,70,0,0
337371,-66.6666666666667,4,2,2,70,0,0
338482,-58.8235294117647,4,2,2,70,0,0
338853,-76.9230769230769,4,2,2,70,0,0
339223,-58.8235294117647,4,2,2,70,0,0
342186,-58.8235294117647,4,2,1,70,0,0
342927,-58.8235294117647,4,2,1,90,0,0
343668,-58.8235294117647,4,2,2,80,0,1
347927,-76.9230769230769,4,2,2,80,0,1
348668,-58.8235294117647,4,2,2,80,0,1
349223,-76.9230769230769,4,2,2,80,0,1
349593,-58.8235294117647,4,2,2,80,0,1
355519,-58.8235294117647,4,2,2,70,0,0
361445,-76.9230769230769,4,2,2,70,0,0
362186,-71.4285714285714,4,2,2,70,0,0
362927,-62.5,4,2,2,70,0,0
365705,-55.5555555555556,4,2,2,70,0,0
365890,-50,4,2,1,70,0,0
367371,-55.5555555555556,4,2,2,90,0,1
370890,-62.5,4,2,2,90,0,1
371260,-71.4285714285714,4,2,2,90,0,1
373297,-55.5555555555556,4,2,2,90,0,1
377001,-50,4,2,2,90,0,1
377556,-83.3333333333333,4,2,2,90,0,1
378112,-66.6666666666667,4,2,1,90,0,1
378390,-66.6666666666667,4,2,1,5,0,1
378482,-66.6666666666667,4,2,1,90,0,1
378853,-83.3333333333333,4,2,1,90,0,1
379223,-55.5555555555556,4,2,2,70,0,0
389038,-83.3333333333333,4,2,2,70,0,0
389223,-55.5555555555556,4,2,2,70,0,0
389593,-55.5555555555556,4,2,1,80,0,0
390705,-50,4,2,1,80,0,0
391075,-52.6315789473684,4,2,2,90,0,1
394593,-58.8235294117647,4,2,2,90,0,1
394964,-66.6666666666667,4,2,2,90,0,1
395334,-76.9230769230769,4,2,2,90,0,1
396075,-62.5,4,2,2,90,0,1
396260,-55.5555555555556,4,2,2,90,0,1
396630,-100,4,2,2,90,0,1
397001,-55.5555555555556,4,2,1,90,0,1
402186,-333.333333333333,4,2,1,90,0,1
402834,-333.333333333333,4,2,1,5,0,1
402927,-58.8235294117647,4,2,2,60,0,0
408112,-125,4,2,2,60,0,0
408760,-125,4,2,2,5,0,0
408853,-125,4,2,2,60,0,0
413297,-125,4,2,2,70,0,0
414223,-66.6666666666667,4,2,2,70,0,0
417742,-100,4,2,2,70,0,0
418112,-76.9230769230769,4,2,2,70,0,0
418482,-66.6666666666667,4,2,2,70,0,0
420705,-58.8235294117647,4,2,2,70,0,0
425705,-58.8235294117647,4,2,1,70,0,0
426538,-58.8235294117647,4,2,1,5,0,0
426630,-90.9090909090909,4,2,2,60,0,0
428482,-71.4285714285714,4,2,2,60,0,0
429038,-100,4,2,2,60,0,0
429501,-100,4,2,2,5,0,0
429593,-100,4,2,2,60,0,0
434408,-250,4,2,2,60,0,0
435890,-166.666666666667,4,2,2,50,0,0
438482,-166.666666666667,4,2,2,60,0,0
438853,-166.666666666667,4,2,2,70,0,0
439964,-166.666666666667,4,2,2,80,0,0
441260,-166.666666666667,4,2,1,70,0,0
441445,-166.666666666667,4,2,1,50,0,0

[Colours]
Combo1 : 208,214,234
Combo2 : 128,64,64
Combo3 : 228,203,203
Combo4 : 102,122,168

[HitObjects]
439,79,336,5,2,0:0:0:0:
439,79,706,1,0,0:0:0:0:
370,32,1077,6,0,P|339:29|308:18,2,59.4999981842042,2|0|0,0:0|0:0|0:0,0:0:0:0:
370,32,2188,1,2,0:0:0:0:
265,86,2558,6,0,P|225:91|151:123,1,118.999996368408,2|2,0:0|0:0,0:0:0:0:
153,121,3669,1,2,0:0:0:0:
19,50,4039,5,2,0:0:0:0:
109,11,4410,1,0,0:0:0:0:
63,142,4780,1,2,0:0:0:0:
169,205,5151,1,0,0:0:0:0:
2,329,5521,5,2,0:0:0:0:
2,329,6262,5,2,0:0:0:0:
88,295,6632,1,2,0:0:0:0:
173,372,7002,6,0,P|181:342|175:306,2,59.4999981842042,2|0|0,0:0|0:0|0:0,0:0:0:0:
177,314,8114,1,2,0:0:0:0:
366,315,8484,6,0,P|331:338|247:343,1,118.999996368408,2|2,0:0|0:0,0:0:0:0:
255,345,9595,1,2,0:0:0:0:
102,374,9965,5,2,0:0:0:0:
69,284,10336,1,0,0:0:0:0:
182,254,10706,5,2,0:0:0:0:
237,124,11077,1,0,0:0:0:0:
47,20,11447,5,2,0:0:0:0:
47,20,12188,5,2,0:0:0:0:
117,109,12558,1,2,0:0:0:0:
257,12,12928,6,0,P|289:28|322:26,2,59.4999981842042,2|0|0,0:0|0:0|0:0,0:0:0:0:
257,12,14039,1,2,0:0:0:0:
376,81,14410,6,0,P|413:54|497:44,1,118.999996368408,2|2,0:0|0:0,0:0:0:0:
483,41,15521,1,2,0:0:0:0:
398,154,15891,5,2,0:0:0:0:
281,82,16632,1,2,0:0:0:0:
398,154,17373,1,2,0:0:0:0:
256,191,18114,5,2,0:0:0:0:
256,191,18484,1,2,0:0:0:0:
213,263,18854,6,0,P|175:278|142:277,2,59.4999981842042,2|0|0,0:0|0:0|0:0,0:0:0:0:
213,263,19965,1,2,0:0:0:0:
254,376,20336,5,2,0:0:0:0:
256,192,20521,12,0,21725,0:0:0:0:
498,175,21817,6,0,B|397:194|438:227|350:250,1,170,6|0,3:2|3:0,0:0:0:0:
284,203,22372,1,0,0:0:0:0:
352,257,22557,2,0,P|356:278|344:315,1,42.5,2|0,3:2|0:0,0:0:0:0:
312,375,22742,1,2,0:0:0:0:
312,375,22835,1,2,0:0:0:0:
312,375,22928,1,2,3:2:0:0:
441,340,23113,1,0,0:0:0:0:
267,293,23298,6,0,P|207:296|137:390,1,170,2|2,3:2|3:2,0:0:0:0:
138,374,23761,1,2,0:0:0:0:
138,374,23854,1,2,0:0:0:0:
274,299,24039,2,0,L|291:195,1,85,2|0,3:2|0:0,0:0:0:0:
232,96,24409,1,0,3:2:0:0:
232,96,24594,1,0,0:0:0:0:
459,80,24779,6,0,P|411:125|309:132,1,170,2|2,3:2|3:2,0:0:0:0:
310,132,25242,1,2,0:0:0:0:
310,132,25335,1,2,0:0:0:0:
153,54,25520,2,0,P|106:59|71:93,1,85,2|0,3:2|0:0,0:0:0:0:
48,198,25891,1,0,3:2:0:0:
48,198,26076,1,0,0:0:0:0:
0,116,26261,6,0,P|72:107|140:190,1,170,2|2,3:2|3:2,0:0:0:0:
136,171,26724,1,2,0:0:0:0:
136,171,26816,1,2,0:0:0:0:
227,217,27002,2,0,P|200:254|156:261,1,85,2|0,3:2|0:0,0:0:0:0:
48,198,27372,1,0,3:2:0:0:
9,317,27557,5,0,3:2:0:0:
0,310,27650,1,0,3:2:0:0:
6,302,27742,2,0,B|121:279|74:374|213:348,1,203.999993774414,6|0,3:2|3:2,0:0:0:0:
267,293,28298,1,0,0:0:0:0:
321,361,28483,1,2,3:2:0:0:
333,363,28576,1,0,0:0:0:0:
346,365,28668,1,2,0:0:0:0:
358,367,28761,1,0,0:0:0:0:
371,369,28854,1,2,3:2:0:0:
436,320,29039,1,0,0:0:0:0:
501,384,29224,6,0,P|468:294|481:222,1,170,2|2,3:2|3:2,0:0:0:0:
480,223,29687,1,2,0:0:0:0:
480,223,29779,1,2,0:0:0:0:
392,173,29965,1,2,3:2:0:0:
468,114,30150,1,0,0:0:0:0:
468,114,30242,1,0,0:0:0:0:
468,114,30335,1,6,3:1:0:0:
387,31,30520,6,0,L|381:62,2,28.3333333333333,0|0|0,3:2|3:2|3:2,0:0:0:0:
466,1,30705,5,14,3:2:0:0:
466,1,30891,1,8,3:2:0:0:
310,122,31076,1,8,3:2:0:0:
284,49,31261,1,8,3:2:0:0:
207,23,31446,5,8,3:2:0:0:
314,126,31631,1,8,3:2:0:0:
196,254,31816,1,8,3:2:0:0:
274,379,32002,1,8,3:2:0:0:
506,337,32187,6,0,L|444:327,1,50.9999984436036,6|0,3:2|0:0,0:0:0:0:
368,283,32373,5,8,0:0:0:0:
373,268,32465,1,8,0:0:0:0:
383,258,32558,1,0,3:2:0:0:
397,252,32650,1,8,0:0:0:0:
413,253,32743,1,8,0:0:0:0:
274,379,32928,5,10,0:0:0:0:
262,329,33020,1,8,0:0:0:0:
289,282,33113,1,8,0:3:0:0:
301,232,33206,1,8,0:3:0:0:
271,188,33298,1,0,3:2:0:0:
259,138,33390,1,0,3:2:0:0:
286,91,33483,1,4,0:3:0:0:
298,41,33575,1,4,0:3:0:0:
291,31,33668,6,0,L|227:17,1,59.4999981842042,6|0,3:2|0:0,0:0:0:0:
154,44,33854,1,0,3:2:0:0:
154,44,33946,1,0,3:2:0:0:
154,44,34039,1,10,0:0:0:0:
350,153,34224,2,0,B|410:168|410:168|455:127,1,118.999996368408,0|2,3:2|3:2,0:0:0:0:
452,129,34502,1,0,3:2:0:0:
452,129,34594,1,0,3:2:0:0:
230,225,34779,1,10,0:0:0:0:
236,195,34871,1,0,3:2:0:0:
242,166,34964,1,0,3:2:0:0:
248,137,35056,1,0,3:2:0:0:
254,108,35150,6,0,L|186:118,3,59.4999981842042,2|0|0|0,3:2|3:0|3:0|3:0,0:0:0:0:
328,65,35520,2,0,L|353:6,1,59.4999981842042,10|0,0:0|3:0,0:0:0:0:
435,181,35706,1,0,3:0:0:0:
405,186,35797,1,0,3:0:0:0:
377,190,35890,1,2,3:2:0:0:
356,169,35982,1,0,3:0:0:0:
335,148,36076,2,0,L|358:215,1,59.4999981842042,0|0,3:2|3:2,0:0:0:0:
253,327,36261,5,10,0:0:0:0:
209,320,36354,1,0,3:2:0:0:
161,336,36446,1,0,3:2:0:0:
117,328,36539,1,0,3:2:0:0:
106,334,36631,6,0,B|82:276|82:276|116:224,1,118.999996368408,2|0,3:2|3:0,0:0:0:0:
112,228,36909,1,0,3:0:0:0:
112,228,37002,1,10,0:0:0:0:
21,129,37187,2,0,L|38:196,3,59.4999981842042,0|0|2|0,3:2|3:0|3:2|3:0,0:0:0:0:
67,61,37557,2,0,L|81:0,1,59.4999981842042,0|0,3:2|3:0,0:0:0:0:
262,93,37742,1,10,0:0:0:0:
229,123,37834,1,0,3:2:0:0:
196,154,37927,1,0,3:2:0:0:
154,142,38019,1,0,3:2:0:0:
111,130,38113,6,0,L|186:115,1,59.4999981842042,2|0,3:2|3:0,0:0:0:0:
275,15,38298,1,0,3:0:0:0:
283,19,38391,1,0,3:0:0:0:
279,27,38483,2,0,L|268:95,1,59.4999981842042,10|0,0:0|3:0,0:0:0:0:
332,173,38669,2,0,L|390:161,3,59.4999981842042,0|0|2|0,3:0|3:0|3:2|3:0,0:0:0:0:
484,106,39039,2,0,L|493:47,1,59.4999981842042,0|0,3:2|3:0,0:0:0:0:
394,166,39224,5,10,0:0:0:0:
403,209,39316,1,0,3:2:0:0:
413,253,39409,1,0,3:2:0:0:
423,296,39501,1,0,3:2:0:0:
418,293,39594,6,0,B|357:276|357:276|311:329,1,127.500004863739,6|0,3:2|3:0,0:0:0:0:
314,324,39872,1,0,3:0:0:0:
314,324,39965,1,10,0:0:0:0:
154,375,40150,1,0,3:2:0:0:
122,368,40242,1,0,3:2:0:0:
91,361,40335,1,2,3:2:0:0:
60,355,40427,1,0,3:0:0:0:
29,348,40520,1,0,3:0:0:0:
224,307,40706,2,0,L|243:379,3,63.7500024318696,10|0|0|0,0:0|3:0|3:0|3:0,0:0:0:0:
249,233,41076,6,0,L|181:214,1,63.7500024318696,2|0,3:2|3:0,3:0:0:0:
76,268,41261,1,0,3:0:0:0:
76,268,41354,1,0,3:0:0:0:
76,268,41446,2,0,B|38:213|38:213|73:136,1,127.500004863739,10|0,0:0|3:0,0:0:0:0:
70,153,41724,1,0,3:2:0:0:
78,148,41816,2,0,B|149:134,1,63.7500024318696,2|0,3:2|3:0,0:0:0:0:
237,63,42002,1,0,3:2:0:0:
425,186,42187,1,10,0:0:0:0:
394,178,42279,1,0,3:2:0:0:
363,170,42372,1,0,3:2:0:0:
332,162,42464,1,0,3:2:0:0:
301,155,42557,6,0,B|286:176|286:176|320:279,1,127.500004863739,2|0,3:2|3:0,0:0:0:0:
317,272,42835,1,0,3:0:0:0:
317,272,42928,1,10,0:0:0:0:
473,281,43113,2,0,L|391:263,1,63.7500024318696,0|0,3:2|3:2,0:0:0:0:
236,312,43298,1,2,3:2:0:0:
236,312,43391,1,0,3:2:0:0:
236,312,43483,1,0,3:2:0:0:
0,288,43668,5,10,0:0:0:0:
29,326,43760,1,0,3:2:0:0:
58,363,43853,1,0,3:2:0:0:
103,350,43945,1,0,3:2:0:0:
149,336,44039,6,0,L|136:269,3,63.7500024318696,2|0|0|0,3:2|3:0|3:0|3:0,0:0:0:0:
173,205,44409,2,0,L|188:132,1,63.7500024318696,10|0,0:0|3:0,0:0:0:0:
117,11,44594,1,0,3:2:0:0:
117,11,44687,1,0,3:0:0:0:
117,11,44779,1,2,3:2:0:0:
238,86,44965,1,0,3:2:0:0:
357,28,45150,5,10,0:0:0:0:
416,9,45242,1,8,0:0:0:0:
476,29,45335,1,8,0:0:0:0:
512,80,45427,1,8,0:0:0:0:
512,143,45520,6,0,L|491:217,1,68,6|0,3:2|3:0,0:0:0:0:
421,338,45706,5,8,0:0:0:0:
412,328,45798,1,0,3:0:0:0:
417,316,45891,1,2,3:2:0:0:
431,311,45983,1,0,3:0:0:0:
451,316,46076,1,8,0:0:0:0:
464,330,46168,1,0,3:0:0:0:
466,353,46261,1,2,3:2:0:0:
444,372,46354,1,0,3:0:0:0:
407,376,46446,1,8,0:0:0:0:
366,354,46539,1,0,3:0:0:0:
346,306,46631,1,2,3:2:0:0:
363,249,46724,1,0,3:2:0:0:
347,197,46816,1,8,0:0:0:0:
301,173,46909,1,0,3:0:0:0:
260,183,47002,5,2,3:2:0:0:
245,210,47094,1,0,3:2:0:0:
258,238,47187,1,8,0:2:0:0:
286,247,47279,1,0,3:2:0:0:
322,231,47372,1,2,3:2:0:0:
346,187,47465,1,0,3:2:0:0:
333,130,47557,1,8,0:2:0:0:
349,71,47650,1,0,3:2:0:0:
412,36,47742,1,2,3:2:0:0:
484,56,47835,1,0,3:2:0:0:
512,118,47928,1,8,0:2:0:0:
488,174,48020,1,0,3:2:0:0:
433,176,48113,1,2,3:2:0:0:
410,146,48206,1,0,3:2:0:0:
417,118,48298,1,8,0:2:0:0:
432,114,48391,1,0,3:2:0:0:
438,121,48483,5,2,3:2:0:0:
265,80,48668,1,8,0:0:0:0:
268,63,48760,1,0,3:0:0:0:
271,46,48854,2,0,L|210:64,3,46.7500014266968,2|0|8|0,3:2|3:0|0:0|3:0,0:0:0:0:
152,100,49224,2,0,L|91:82,3,59.4999981842042,2|0|8|0,3:2|3:0|0:0|3:0,0:0:0:0:
36,146,49594,5,2,3:2:0:0:
39,160,49686,1,0,3:0:0:0:
43,174,49779,1,8,0:0:0:0:
47,189,49871,1,0,3:0:0:0:
51,203,49965,2,0,L|38:256,3,42.5,2|0|8|0,3:2|3:0|0:0|3:0,0:0:0:0:
6,315,50335,5,2,3:2:0:0:
40,331,50428,1,0,3:0:0:0:
81,317,50520,1,8,0:0:0:0:
113,280,50613,1,0,3:2:0:0:
166,249,50706,1,2,3:2:0:0:
230,260,50798,1,0,3:0:0:0:
261,308,50891,1,8,0:0:0:0:
266,349,50983,1,0,3:0:0:0:
290,368,51076,2,0,L|336:360,2,39.6666654561361,2|8|8,3:2|0:3|0:3,0:0:0:0:
394,310,51261,5,0,3:2:0:0:
394,310,51354,1,0,3:2:0:0:
394,310,51446,2,0,P|455:324|483:372,1,118.999996368408,6|0,3:2|3:0,0:0:0:0:
482,369,51725,1,0,3:0:0:0:
482,369,51816,1,10,0:0:0:0:
324,258,52002,2,0,L|336:181,1,59.4999981842042,0|0,3:0|3:0,0:0:0:0:
260,301,52187,1,10,0:0:0:0:
293,121,52372,5,0,3:0:0:0:
293,71,52464,1,0,3:0:0:0:
318,29,52557,1,10,0:0:0:0:
359,3,52649,1,0,3:2:0:0:
408,0,52742,1,0,3:2:0:0:
453,21,52834,1,0,3:2:0:0:
482,60,52928,6,0,P|459:129|459:185,1,118.999996368408,10|0,0:0|3:0,0:0:0:0:
462,183,53206,1,0,3:0:0:0:
466,192,53298,2,0,P|483:227|512:251,1,59.4999981842042,10|0,0:0|3:2,0:0:0:0:
435,298,53483,2,0,P|467:319|504:326,1,59.4999981842042,0|0,3:2|3:2,0:0:0:0:
366,376,53668,5,10,0:0:0:0:
313,329,53761,1,0,3:0:0:0:
323,271,53854,1,0,3:0:0:0:
369,234,53946,1,0,3:0:0:0:
384,190,54039,1,10,0:0:0:0:
361,147,54131,1,0,3:2:0:0:
332,145,54224,1,0,3:2:0:0:
315,161,54316,1,0,3:2:0:0:
319,173,54409,5,10,0:0:0:0:
232,31,54594,1,0,3:0:0:0:
240,22,54687,1,0,3:0:0:0:
247,30,54779,2,0,L|263:110,3,59.4999981842042,10|0|0|0,0:0|3:0|3:0|3:0,0:0:0:0:
357,0,55150,2,0,L|344:80,3,59.4999981842042,10|0|0|0,0:0|3:0|3:0|3:0,0:0:0:0:
424,111,55520,5,10,0:0:0:0:
415,131,55612,1,0,3:0:0:0:
408,152,55706,1,0,3:0:0:0:
401,173,55797,1,0,3:0:0:0:
393,194,55891,6,0,L|423:291,1,68,10|0,0:0|0:0,0:0:0:0:
330,267,56076,2,0,L|307:366,1,68,10|0,0:0|0:0,0:0:0:0:
479,365,56261,6,0,P|431:350|398:345,1,76.4999976654053,10|0,0:0|0:0,0:0:0:0:
314,189,56446,2,0,P|276:181|240:169,1,76.4999976654053,10|0,0:0|0:0,0:0:0:0:
76,351,56631,6,0,P|98:343|116:340,2,39.6666654561361,10|0|0,0:2|3:0|3:0,0:0:0:0:
101,262,56816,2,0,P|79:270|61:273,2,39.6666654561361,0|0|0,3:0|3:0|3:0,0:0:0:0:
199,350,57002,5,0,3:2:0:0:
206,340,57094,2,0,P|203:266|154:203,1,144.500002756119,12|0,0:1|3:2,0:0:0:0:
105,150,57372,5,6,3:2:0:0:
109,135,57464,1,0,3:2:0:0:
119,125,57557,1,0,3:2:0:0:
132,119,57649,1,0,3:2:0:0:
147,119,57742,1,10,0:0:0:0:
186,15,57928,5,0,3:2:0:0:
202,39,58020,1,0,3:2:0:0:
225,57,58113,1,2,3:2:0:0:
253,66,58205,1,0,3:2:0:0:
283,65,58298,1,8,0:0:0:0:
512,165,58483,5,2,3:2:0:0:
485,129,58575,1,0,3:2:0:0:
447,106,58668,1,0,3:2:0:0:
403,101,58760,1,0,3:2:0:0:
360,113,58854,2,0,L|377:191,1,59.4999981842042,14|0,0:0|0:0,0:0:0:0:
396,355,59039,5,0,3:2:0:0:
446,372,59131,1,0,3:2:0:0:
489,340,59224,1,2,3:2:0:0:
490,286,59316,1,0,3:2:0:0:
448,251,59409,1,8,0:0:0:0:
394,252,59502,1,0,0:0:0:0:
350,282,59594,1,10,0:0:0:0:
286,288,59687,1,8,0:0:0:0:
232,244,59779,1,8,0:0:0:0:
229,184,59872,1,8,0:0:0:0:
268,149,59965,5,2,3:2:0:0:
291,148,60057,1,0,3:2:0:0:
311,159,60150,1,0,3:2:0:0:
320,180,60242,1,0,3:2:0:0:
312,202,60335,5,10,0:0:0:0:
401,40,60520,5,0,3:2:0:0:
432,39,60612,1,0,3:2:0:0:
462,49,60705,1,2,3:2:0:0:
486,70,60797,1,0,3:2:0:0:
500,98,60891,1,8,0:0:0:0:
307,211,61076,5,2,3:2:0:0:
290,159,61168,1,0,3:2:0:0:
302,107,61261,1,0,3:2:0:0:
319,55,61353,1,0,3:2:0:0:
299,4,61446,2,0,P|267:11|217:16,1,59.4999981842042,10|0,0:0|0:0,0:0:0:0:
61,16,61631,1,8,0:0:0:0:
52,16,61724,1,8,0:0:0:0:
48,23,61816,5,6,3:1:0:0:
58,42,61910,1,0,3:2:0:0:
76,59,62002,1,0,3:2:0:0:
97,66,62095,1,0,3:2:0:0:
121,65,62187,1,10,0:2:0:0:
67,240,62372,5,0,3:2:0:0:
85,199,62464,1,0,3:2:0:0:
119,171,62557,1,2,3:2:0:0:
162,161,62649,1,0,3:2:0:0:
205,171,62742,1,8,0:0:0:0:
443,177,62928,5,2,3:2:0:0:
457,178,63020,1,0,3:2:0:0:
470,171,63113,1,0,3:2:0:0:
476,158,63205,1,0,3:2:0:0:
474,144,63298,1,14,0:1:0:0:
458,128,63391,1,0,3:2:0:0:
421,124,63483,1,0,3:2:0:0:
391,153,63576,1,0,3:2:0:0:
395,201,63668,1,2,3:2:0:0:
437,250,63761,1,0,3:2:0:0:
438,305,63854,1,8,0:0:0:0:
402,328,63946,1,0,3:2:0:0:
369,318,64039,1,2,3:2:0:0:
358,279,64131,1,0,3:2:0:0:
322,245,64224,1,0,3:2:0:0:
269,240,64316,1,0,3:2:0:0:
229,284,64409,5,10,0:0:0:0:
231,350,64502,1,8,0:0:0:0:
179,384,64594,1,8,0:0:0:0:
120,363,64687,1,8,0:0:0:0:
112,306,64779,1,2,3:2:0:0:
127,268,64874,1,0,3:2:0:0:
164,245,64970,1,0,0:0:0:0:
177,199,65065,1,8,0:0:0:0:
161,148,65161,1,10,0:0:0:0:
114,115,65256,1,8,0:0:0:0:
55,128,65352,1,0,3:2:0:0:
21,178,65447,1,0,3:2:0:0:
36,241,65543,6,0,L|93:229,2,45.3333333333333,14|8|8,0:0|0:0|0:0,0:0:0:0:
162,216,65850,6,0,L|178:117,1,90.6666666666667,8|2,0:0|3:2,0:0:0:0:
210,51,66152,5,0,3:3:0:0:
219,44,66301,6,0,L|224:9,1,29.7499990921021,4|4,0:3|0:3,0:0:0:0:
302,89,66631,6,0,P|241:135|166:120,1,144.500002756119,6|8,3:1|0:0,0:0:0:0:
96,30,67001,1,0,3:2:0:0:
100,17,67093,1,0,3:2:0:0:
104,4,67186,1,10,0:0:0:0:
71,123,67371,2,0,L|107:275,1,144.500002756119,2|10,3:2|0:2,0:0:0:0:
33,314,67649,1,2,0:0:0:0:
33,314,67742,2,0,L|11:401,1,72.2500013780594,2|0,3:2|3:0,0:0:0:0:
0,234,67927,1,10,0:0:0:0:
222,297,68112,6,0,B|275:249|275:249|351:279,1,144.500002756119,2|8,3:2|0:0,0:0:0:0:
154,351,68482,1,0,3:2:0:0:
141,347,68574,1,0,3:2:0:0:
128,343,68668,1,8,0:0:0:0:
259,379,68853,1,0,3:0:0:0:
180,224,69038,1,8,0:0:0:0:
233,53,69223,6,0,L|224:8,2,28.3333333333333,2|0|0,3:2|3:0|3:0,0:0:0:0:
204,136,69408,1,10,0:0:0:0:
15,13,69593,6,0,B|73:27|73:27|85:51|85:51|147:66,1,144.500002756119,2|8,3:2|0:0,0:0:0:0:
301,111,69964,1,0,3:2:0:0:
335,102,70056,1,0,3:2:0:0:
369,93,70149,1,10,0:0:0:0:
316,340,70334,2,0,L|280:186,1,144.500002756119,2|10,3:2|0:0,0:0:0:0:
287,192,70612,1,2,0:0:0:0:
290,201,70705,2,0,L|273:281,1,72.2500013780594,2|0,3:2|3:0,0:0:0:0:
397,382,70890,1,10,0:0:0:0:
123,330,71075,6,0,B|56:351|56:351|-23:284,1,144.500002756119,2|8,3:2|0:0,0:0:0:0:
194,279,71445,1,0,3:2:0:0:
203,313,71538,1,0,3:2:0:0:
212,347,71631,1,8,0:2:0:0:
370,195,71816,1,0,3:2:0:0:
379,161,71909,1,0,3:2:0:0:
388,127,72002,1,8,0:2:0:0:
496,358,72186,6,0,L|509:397,2,28.3333333333333,2|0|0,3:2|3:2|3:2,0:0:0:0:
471,281,72371,1,10,0:0:0:0:
303,319,72556,6,0,L|142:286,1,152.999995330811,6|8,3:2|0:0,0:0:0:0:
405,376,72927,1,0,3:2:0:0:
393,329,73019,1,0,3:2:0:0:
381,282,73112,1,10,0:2:0:0:
487,86,73297,2,0,B|478:168|436:111|420:221,1,136,2|10,3:2|0:0,0:0:0:0:
427,208,73575,1,2,0:0:0:0:
420,211,73668,2,0,L|352:198,1,68,2|0,3:2|3:0,0:0:0:0:
155,168,73853,1,10,0:0:0:0:
241,382,74038,6,0,P|264:313|243:244,1,136,6|10,3:1|0:0,0:0:0:0:
242,249,74316,1,2,0:0:0:0:
236,243,74408,2,0,P|231:216|246:176,1,68,2|0,3:2|3:0,0:0:0:0:
193,10,74593,1,10,0:0:0:0:
324,73,74778,1,2,3:2:0:0:
303,79,74871,1,0,3:2:0:0:
282,85,74963,1,8,0:0:0:0:
92,42,75149,5,2,3:2:0:0:
62,20,75241,1,0,3:2:0:0:
36,0,75334,1,10,0:0:0:0:
138,201,75519,6,0,L|107:350,1,136,6|8,3:2|0:0,0:0:0:0:
261,384,75890,1,0,3:0:0:0:
257,370,75982,1,0,3:0:0:0:
253,356,76075,1,10,0:0:0:0:
493,308,76260,2,0,B|434:274|434:274|367:301,1,136,2|10,3:2|0:0,0:0:0:0:
367,306,76538,1,2,0:0:0:0:
362,302,76630,2,0,L|379:225,1,68,2|0,3:2|3:0,0:0:0:0:
432,370,76816,1,10,0:0:0:0:
267,265,77001,5,6,3:2:0:0:
464,186,77186,1,8,0:0:0:0:
478,173,77279,1,8,0:0:0:0:
479,147,77371,1,8,0:0:0:0:
459,116,77464,1,8,0:0:0:0:
416,103,77556,1,8,0:0:0:0:
367,124,77649,1,8,0:0:0:0:
337,174,77742,1,8,0:3:0:0:
274,181,77834,1,8,0:3:0:0:
227,145,77927,1,4,0:3:0:0:
225,92,78019,1,4,0:3:0:0:
255,61,78112,1,2,3:2:0:0:
293,61,78205,1,0,3:2:0:0:
308,81,78297,1,6,0:3:0:0:
302,94,78390,1,4,0:3:0:0:
293,98,78482,5,4,3:1:0:0:
301,56,78575,1,0,3:0:0:0:
342,41,78668,1,10,0:0:0:0:
383,51,78760,1,0,3:2:0:0:
410,84,78853,1,0,3:2:0:0:
410,127,78945,1,0,3:2:0:0:
378,156,79038,1,10,0:0:0:0:
370,198,79130,1,0,3:2:0:0:
394,233,79223,2,0,P|433:232|459:203,1,63.7500024318696,0|0,3:2|3:0,0:0:0:0:
271,179,79408,5,10,0:0:0:0:
241,194,79501,1,0,3:2:0:0:
235,226,79593,2,0,L|253:298,1,63.7500024318696,0|0,3:2|3:2,0:0:0:0:
150,364,79779,2,0,L|168:292,1,63.7500024318696,10|0,0:0|3:2,0:0:0:0:
331,306,79964,5,0,3:2:0:0:
361,314,80056,1,0,3:2:0:0:
391,322,80149,1,10,0:0:0:0:
421,331,80242,1,0,3:0:0:0:
451,339,80335,1,0,3:0:0:0:
481,347,80427,1,0,3:0:0:0:
511,356,80519,2,0,L|439:369,3,63.7500024318696,10|0|0|0,0:0|3:0|3:0|3:0,0:0:0:0:
349,236,80890,5,10,0:0:0:0:
341,232,80982,1,0,3:2:0:0:
332,229,81075,2,0,L|420:211,1,63.7500024318696,0|0,3:2|3:2,0:0:0:0:
512,196,81260,2,0,L|483:281,1,63.7500024318696,10|0,0:2|3:2,0:0:0:0:
337,352,81445,5,0,3:2:0:0:
286,358,81537,1,0,3:2:0:0:
242,327,81630,1,10,0:2:0:0:
194,309,81723,1,0,3:2:0:0:
147,334,81815,1,0,3:2:0:0:
94,342,81907,1,0,3:2:0:0:
50,311,82001,2,0,L|36:239,1,72.2500013780594,10|0,0:0|3:0,0:0:0:0:
4,165,82186,2,0,L|28:66,1,72.2500013780594,0|0,3:2|3:0,0:0:0:0:
302,5,82371,5,10,0:0:0:0:
317,48,82464,1,0,3:0:0:0:
279,71,82556,2,0,L|198:49,1,72.2500013780594,0|0,3:0|3:0,0:0:0:0:
126,57,82742,2,0,P|107:87|112:122,1,72.2500013780594,10|0,0:0|3:0,0:0:0:0:
312,312,82927,5,0,3:0:0:0:
365,327,83019,1,0,3:0:0:0:
411,292,83112,1,10,0:0:0:0:
413,234,83205,1,0,3:0:0:0:
378,189,83297,1,0,3:0:0:0:
321,187,83390,1,0,3:0:0:0:
282,230,83482,1,10,0:0:0:0:
226,242,83575,1,0,3:0:0:0:
181,207,83668,1,0,3:0:0:0:
176,158,83760,1,0,3:0:0:0:
202,131,83853,1,14,0:1:0:0:
226,134,83945,1,0,3:0:0:0:
235,144,84038,6,0,L|256:230,1,72.2500013780594,0|0,3:0|3:0,0:0:0:0:
276,305,84223,2,0,L|255:391,1,72.2500013780594,14|0,0:1|3:0,0:0:0:0:
286,75,84408,5,4,3:1:0:0:
331,28,84501,1,0,3:2:0:0:
395,26,84593,1,10,0:0:0:0:
452,56,84686,1,0,3:0:0:0:
482,113,84779,1,0,3:0:0:0:
470,176,84871,1,0,3:0:0:0:
416,214,84964,6,0,L|333:197,1,72.2500013780594,10|0,0:0|3:0,0:0:0:0:
180,283,85149,2,0,L|103:302,1,72.2500013780594,0|0,3:0|3:0,0:0:0:0:
258,375,85334,5,10,0:0:0:0:
284,365,85427,1,0,3:0:0:0:
293,342,85519,2,0,L|277:276,1,63.7500024318696,0|0,3:0|3:0,0:0:0:0:
249,206,85705,2,0,L|265:140,1,63.7500024318696,10|0,0:0|3:0,0:0:0:0:
177,11,85890,5,0,3:0:0:0:
134,0,85982,1,0,3:0:0:0:
89,8,86075,1,10,0:0:0:0:
51,32,86168,1,0,3:0:0:0:
29,70,86260,2,0,P|39:100|47:152,1,68,0|0,3:0|3:0,0:0:0:0:
193,108,86445,2,0,P|161:101|112:82,1,68,10|0,0:0|3:0,0:0:0:0:
72,232,86630,2,0,P|93:207|134:175,3,68,0|0|10|0,3:2|3:0|0:0|3:0,0:0:0:0:
19,346,87001,5,0,3:0:0:0:
13,350,87093,1,0,3:0:0:0:
6,348,87186,1,10,0:0:0:0:
2,343,87279,1,0,3:0:0:0:
1,336,87371,5,4,3:2:0:0:
39,312,87464,1,0,3:0:0:0:
83,309,87556,1,10,0:0:0:0:
122,329,87649,1,0,3:0:0:0:
145,367,87742,1,0,3:0:0:0:
188,376,87834,1,0,3:0:0:0:
223,348,87927,1,10,0:0:0:0:
245,310,88019,1,0,3:0:0:0:
288,298,88112,2,0,P|319:301|348:324,1,63.7500024318696,4|0,3:1|3:0,0:0:0:0:
491,361,88297,5,10,0:0:0:0:
498,342,88390,1,0,3:0:0:0:
483,327,88482,2,0,P|440:329|416:347,1,63.7500024318696,0|0,3:0|3:0,0:0:0:0:
363,207,88668,2,0,P|386:226|397:262,1,63.7500024318696,10|0,0:0|3:0,0:0:0:0:
220,355,88853,5,14,0:2:0:0:
172,316,88945,1,8,0:0:0:0:
173,265,89038,1,8,0:0:0:0:
208,229,89130,1,8,0:0:0:0:
244,203,89223,1,8,0:0:0:0:
247,162,89316,1,8,0:0:0:0:
222,135,89408,1,8,0:0:0:0:
199,137,89501,1,8,0:0:0:0:
189,150,89593,5,10,0:0:0:0:
245,169,89686,1,8,0:0:0:0:
294,134,89779,1,8,0:0:0:0:
302,75,89871,1,8,0:0:0:0:
260,31,89964,1,0,3:0:0:0:
200,29,90056,1,0,3:0:0:0:
155,68,90149,1,8,0:3:0:0:
97,85,90242,1,8,0:3:0:0:
52,46,90334,5,6,3:1:0:0:
117,200,90519,1,10,0:0:0:0:
90,193,90611,1,2,3:0:0:0:
63,186,90704,1,2,3:0:0:0:
36,179,90796,1,0,3:0:0:0:
10,172,90889,1,10,0:0:0:0:
56,43,91075,5,2,3:2:0:0:
154,216,91260,1,10,0:0:0:0:
119,206,91352,1,2,3:0:0:0:
83,197,91445,1,2,3:0:0:0:
48,188,91537,1,0,3:0:0:0:
13,179,91630,1,10,0:0:0:0:
109,333,91816,5,2,3:2:0:0:
203,137,92001,1,10,0:0:0:0:
394,275,92186,1,2,0:0:0:0:
394,275,92279,1,0,3:0:0:0:
394,275,92371,1,10,0:0:0:0:
293,368,92556,5,2,3:2:0:0:
289,353,92648,1,0,3:2:0:0:
285,339,92741,1,10,0:0:0:0:
454,205,92927,2,0,L|516:218,2,59.4999981842042,2|0|10,3:2|3:0|0:0,0:0:0:0:
320,24,93297,6,0,L|294:180,1,136,6|10,3:1|0:0,0:0:0:0:
304,166,93575,1,2,0:0:0:0:
309,157,93668,2,0,L|293:75,1,68,2|0,3:2|3:0,0:0:0:0:
141,0,93853,1,10,0:0:0:0:
203,82,94038,5,2,3:2:0:0:
427,14,94223,1,10,0:0:0:0:
512,131,94408,1,2,3:2:0:0:
512,131,94501,1,0,3:2:0:0:
512,131,94593,1,10,0:0:0:0:
398,156,94779,6,0,L|427:14,1,136,6|10,3:1|0:0,0:0:0:0:
210,91,95149,1,2,3:2:0:0:
210,91,95242,1,0,3:2:0:0:
210,91,95334,1,10,0:0:0:0:
264,7,95519,5,2,3:2:0:0:
293,44,95612,1,8,0:0:0:0:
305,90,95705,1,10,0:0:0:0:
291,135,95797,1,8,0:0:0:0:
264,174,95889,1,10,0:0:0:0:
227,219,95982,1,8,0:0:0:0:
212,276,96075,1,10,0:0:0:0:
229,333,96167,1,8,0:0:0:0:
264,380,96260,5,6,3:1:0:0:
443,311,96445,1,10,0:0:0:0:
415,276,96537,1,2,0:0:0:0:
376,256,96630,1,2,3:0:0:0:
331,257,96723,1,0,3:0:0:0:
292,276,96815,1,10,0:0:0:0:
172,384,97001,5,6,3:1:0:0:
0,150,97186,1,10,0:0:0:0:
43,146,97278,1,2,3:0:0:0:
86,161,97371,1,2,3:0:0:0:
115,196,97464,1,0,0:0:0:0:
125,236,97556,1,10,0:0:0:0:
253,194,97742,5,6,3:1:0:0:
42,293,97927,1,10,0:0:0:0:
342,369,98112,1,10,0:0:0:0:
206,99,98297,5,2,3:2:0:0:
206,99,98390,1,0,3:2:0:0:
206,99,98482,2,0,L|218:43,2,39.6666654561361,10|0|0,0:0|3:0|3:0,0:0:0:0:
149,10,98668,5,0,3:2:0:0:
118,5,98760,1,0,3:2:0:0:
87,0,98853,1,8,0:2:0:0:
303,110,99038,5,6,3:2:0:0:
303,110,99408,5,2,3:2:0:0:
299,94,99501,1,2,3:2:0:0:
295,78,99593,1,14,0:1:0:0:
420,0,99779,5,2,3:0:0:0:
411,31,99872,1,0,3:0:0:0:
402,66,99964,1,10,0:0:0:0:
81,127,100149,1,10,0:0:0:0:
255,367,100705,5,6,3:2:0:0:
358,312,100890,1,0,3:2:0:0:
151,352,101075,2,0,L|24:335,1,110.499994941712,8|2,0:0|3:2,0:0:0:0:
41,337,101353,1,2,3:2:0:0:
41,337,101445,1,0,3:2:0:0:
128,255,101630,1,0,3:0:0:0:
19,192,101816,1,10,0:0:0:0:
134,257,102001,1,2,3:2:0:0:
258,197,102186,6,0,P|271:146|258:88,1,110.499994941712,2|0,3:2|3:0,0:0:0:0:
184,18,102556,1,8,0:0:0:0:
95,68,102742,2,0,L|55:58,2,36.8333316472372,0|0|0,3:2|3:0|3:0,0:0:0:0:
119,147,102927,1,0,3:2:0:0:
187,13,103112,1,0,3:2:0:0:
354,92,103297,1,14,0:1:0:0:
467,19,103482,5,2,3:2:0:0:
461,13,103575,1,0,3:2:0:0:
454,18,103668,2,0,L|430:136,2,110.499994941712,6|0|8,3:2|3:0|0:0,0:0:0:0:
290,142,104223,1,2,3:2:0:0:
290,142,104316,1,2,3:2:0:0:
290,142,104408,1,2,3:2:0:0:
354,231,104593,1,0,3:0:0:0:
476,204,104779,1,10,0:0:0:0:
314,330,104964,1,2,3:2:0:0:
136,275,105149,6,0,L|248:254,1,110.499994941712,2|0,3:2|3:2,0:0:0:0:
432,317,105519,1,12,0:1:0:0:
313,336,105705,6,0,L|278:330,3,22.6666666666667,0|0|0|0,3:0|3:0|3:0|3:0,0:0:0:0:
197,377,106075,6,0,L|158:383,3,36.8333316472372,2|0|0|2,3:0|3:0|3:0|3:0,0:0:0:0:
0,235,106445,6,0,B|59:304|59:304|25:385,1,178.499994552612,6|0,3:1|0:0,0:0:0:0:
25,384,106816,1,2,3:2:0:0:
105,193,107001,1,10,0:0:0:0:
312,251,107186,6,0,B|285:226|285:226|117:272,1,178.499994552612,6|0,3:1|0:0,0:0:0:0:
148,263,107556,1,2,3:2:0:0:
371,193,107742,1,10,0:0:0:0:
394,378,107927,6,0,B|371:346|371:346|434:114,1,272,6|0,3:2|3:2,0:0:0:0:
431,121,108390,1,2,3:2:0:0:
431,121,108482,1,10,0:0:0:0:
358,36,108668,5,2,3:2:0:0:
358,36,108760,1,0,3:2:0:0:
358,36,108853,2,0,L|367:81,2,38.2499988327027,8|8|2,0:0|0:0|3:2,0:0:0:0:
90,8,109593,6,0,B|103:35|103:35|280:69,1,204,6|0,3:2|3:0,0:0:0:0:
273,67,110242,1,0,3:0:0:0:
273,67,110334,1,10,0:0:0:0:
192,98,110519,1,0,3:2:0:0:
343,182,110705,1,8,0:0:0:0:
184,95,110890,1,0,3:2:0:0:
59,228,111075,5,10,0:0:0:0:
51,239,111168,1,10,0:0:0:0:
51,259,111260,1,10,0:0:0:0:
70,279,111353,1,10,0:0:0:0:
103,290,111445,1,10,0:3:0:0:
143,270,111538,1,10,0:3:0:0:
153,224,111630,1,2,3:2:0:0:
195,195,111723,1,2,3:2:0:0:
247,212,111816,1,10,0:3:0:0:
262,266,111908,1,10,0:3:0:0:
234,312,112001,1,2,3:2:0:0:
246,353,112093,1,2,3:2:0:0:
280,369,112186,1,6,0:3:0:0:
312,367,112279,1,4,0:3:0:0:
329,353,112371,1,2,3:2:0:0:
334,335,112464,1,0,3:2:0:0:
325,327,112556,6,0,L|179:355,1,144.500002756119,6|8,3:2|0:0,0:0:0:0:
412,312,112927,1,0,3:2:0:0:
415,299,113019,1,0,3:2:0:0:
418,286,113112,1,10,0:0:0:0:
312,101,113297,2,0,L|345:257,1,144.500002756119,2|10,3:2|0:0,0:0:0:0:
349,246,113575,1,2,0:0:0:0:
350,239,113668,2,0,L|270:219,1,72.2500013780594,2|0,3:2|3:0,0:0:0:0:
466,212,113853,1,10,0:0:0:0:
237,150,114038,6,0,L|89:179,1,144.500002756119,2|8,3:2|0:0,0:0:0:0:
18,98,114408,1,0,3:2:0:0:
31,101,114500,1,0,3:2:0:0:
44,104,114593,1,8,0:0:0:0:
127,257,114779,1,0,3:2:0:0:
0,310,114964,1,8,0:0:0:0:
290,375,115149,6,0,L|278:326,2,28.3333333333333,2|0|0,3:2|3:0|3:0,0:0:0:0:
303,265,115334,1,10,0:0:0:0:
81,331,115519,6,0,B|145:358|145:358|212:301,1,144.500002756119,2|8,3:2|0:0,0:0:0:0:
149,159,115890,1,0,3:2:0:0:
158,125,115982,1,0,3:2:0:0:
167,91,116075,1,10,0:0:0:0:
404,183,116260,2,0,L|250:152,1,144.500002756119,2|10,3:2|0:0,0:0:0:0:
254,158,116538,1,2,0:2:0:0:
264,162,116630,2,0,L|339:147,1,72.2500013780594,0|0,0:0|3:0,0:0:0:0:
474,221,116816,1,10,0:0:0:0:
223,384,117001,6,0,B|183:284|183:284|198:231,1,144.500002756119,6|8,3:1|0:2,0:0:0:0:
201,241,117279,1,0,3:2:0:0:
194,232,117371,2,0,B|174:182|174:182|130:158,1,76.4999976654053,0|0,3:2|3:2,0:0:0:0:
211,33,117556,1,4,0:1:0:0:
16,75,117742,5,0,3:2:0:0:
51,83,117834,1,0,3:2:0:0:
86,91,117927,1,12,0:1:0:0:
294,64,118112,6,0,L|331:54,2,28.3333333333333,2|0|0,3:2|3:0|3:0,0:0:0:0:
211,33,118297,1,14,0:1:0:0:
364,126,118482,6,0,L|514:156,1,144.500002756119,6|8,3:2|0:0,0:0:0:0:
247,202,118853,1,0,3:2:0:0:
235,155,118945,1,0,3:2:0:0:
223,108,119038,1,10,0:2:0:0:
333,205,119223,2,0,B|342:223|342:223|301:358,1,144.500002756119,2|10,3:2|0:2,0:0:0:0:
301,348,119501,1,0,3:2:0:0:
306,354,119593,2,0,L|380:341,1,72.2500013780594,2|0,3:2|3:0,0:0:0:0:
451,384,119779,1,10,0:0:0:0:
235,284,119964,6,0,B|167:262|167:262|100:311,1,144.500002756119,6|10,3:1|0:0,0:0:0:0:
19,308,120242,1,2,0:0:0:0:
26,315,120334,2,0,L|49:397,1,72.2500013780594,2|0,3:2|3:2,0:0:0:0:
75,203,120519,1,10,0:0:0:0:
167,373,120705,5,2,3:2:0:0:
183,368,120797,1,0,3:2:0:0:
201,365,120890,1,8,0:0:0:0:
317,245,121075,5,2,3:2:0:0:
352,253,121167,1,0,3:2:0:0:
384,263,121260,1,10,0:0:0:0:
240,173,121445,6,0,L|212:25,1,144.500002756119,2|8,3:2|0:0,0:0:0:0:
392,132,121816,1,0,3:2:0:0:
375,136,121908,1,0,3:2:0:0:
358,140,122001,1,10,3:2:0:0:
110,134,122186,5,2,3:2:0:0:
94,109,122279,1,0,3:2:0:0:
116,90,122371,2,0,L|192:107,1,72.2500013780594,14|2,0:2|0:0,0:0:0:0:
396,52,122556,2,0,L|472:35,1,72.2500013780594,14|0,0:1|3:2,0:0:0:0:
294,0,122742,1,2,3:2:0:0:
260,173,122927,6,0,L|278:82,1,72.2500013780594,14|0,0:0|0:0,0:0:0:0:
209,240,123112,1,0,3:2:0:0:
213,263,123204,1,0,3:2:0:0:
218,287,123297,2,0,L|121:315,1,72.2500013780594,12|0,0:0|0:0,0:0:0:0:
285,375,123482,1,0,3:0:0:0:
289,352,123574,1,0,3:0:0:0:
293,329,123668,6,0,B|303:321|303:321|372:337,1,80.7499978437424,12|0,0:1|0:0,0:0:0:0:
126,222,123853,2,0,B|116:230|116:230|47:214,1,80.7499978437424,8|0,0:0|0:0,0:0:0:0:
329,235,124038,6,0,L|364:227,2,28.3333333333333,10|0|0,0:0|3:2|3:2,0:0:0:0:
230,227,124223,5,2,3:2:0:0:
224,257,124316,1,2,3:2:0:0:
218,287,124408,1,14,0:1:0:0:
241,73,124593,5,0,3:2:0:0:
235,43,124686,1,0,3:2:0:0:
229,13,124778,1,10,0:2:0:0:
44,81,124964,1,0,3:2:0:0:
351,153,125149,5,10,0:0:0:0:
81,267,125334,1,0,3:2:0:0:
89,231,125427,1,0,3:2:0:0:
96,195,125519,1,10,0:2:0:0:
258,376,125705,5,0,3:2:0:0:
258,376,125797,1,0,3:2:0:0:
258,376,125890,1,14,0:1:0:0:
210,193,126075,1,0,3:2:0:0:
150,324,126260,5,14,0:0:0:0:
397,220,126445,1,0,3:0:0:0:
258,376,126630,5,14,0:0:0:0:
178,73,126816,1,0,3:0:0:0:
484,193,127001,5,14,0:1:0:0:
145,246,127186,1,0,3:2:0:0:
145,246,127279,1,0,3:2:0:0:
145,246,127371,6,0,L|-5:221,1,144.500002756119,14|0,0:0|3:0,0:0:0:0:
2,222,127649,1,0,3:0:0:0:
2,222,127742,5,10,0:0:0:0:
233,283,127927,1,0,3:0:0:0:
54,377,128112,5,10,0:0:0:0:
333,320,128297,1,0,3:2:0:0:
333,320,128390,1,0,3:2:0:0:
333,320,128482,1,10,0:2:0:0:
197,108,128668,5,0,3:2:0:0:
204,76,128760,1,0,3:2:0:0:
211,44,128853,1,14,0:1:0:0:
369,129,129038,5,10,0:0:0:0:
369,129,129130,1,8,0:0:0:0:
111,196,129316,5,8,0:0:0:0:
111,196,129408,1,10,0:0:0:0:
229,374,129593,5,10,0:0:0:0:
254,338,129686,1,8,0:0:0:0:
294,323,129779,1,10,0:3:0:0:
335,333,129871,1,8,0:3:0:0:
363,365,129964,1,6,0:3:0:0:
405,374,130056,1,4,0:3:0:0:
446,360,130149,1,2,3:2:0:0:
472,325,130242,1,0,3:2:0:0:
463,282,130334,5,6,3:1:0:0:
304,144,130519,1,8,0:0:0:0:
326,101,130611,1,0,3:2:0:0:
368,76,130704,1,2,3:2:0:0:
416,77,130796,1,0,3:2:0:0:
456,103,130889,1,8,0:0:0:0:
272,238,131075,5,6,3:1:0:0:
35,168,131260,1,8,0:0:0:0:
68,127,131352,1,0,3:2:0:0:
118,111,131445,1,2,3:2:0:0:
168,124,131537,1,0,3:2:0:0:
205,161,131630,1,8,0:0:0:0:
142,295,131816,5,2,3:2:0:0:
353,205,132001,1,12,0:0:0:0:
0,99,132186,1,14,0:0:0:0:
265,1,132371,5,0,3:2:0:0:
265,1,132464,1,0,3:2:0:0:
265,1,132556,2,0,B|271:44|293:26|302:78,2,76.4999976654053,14|0|0,0:1|3:0|3:0,0:0:0:0:
424,63,133297,6,0,P|331:71|231:158,1,204,6|0,3:1|3:2,0:0:0:0:
156,49,134038,5,10,0:0:0:0:
263,300,134223,1,0,3:2:0:0:
40,86,134408,5,10,0:0:0:0:
350,195,134593,1,0,3:2:0:0:
380,186,134686,1,0,3:2:0:0:
410,177,134779,1,12,0:0:0:0:
410,177,135149,5,8,0:0:0:0:
244,135,135334,1,8,0:0:0:0:
495,69,135519,1,8,0:0:0:0:
293,290,135705,1,8,0:0:0:0:
354,23,135890,1,8,0:0:0:0:
511,248,136075,1,8,0:0:0:0:
207,376,136260,5,10,0:0:0:0:
179,351,136353,1,10,0:0:0:0:
178,313,136445,1,10,0:0:0:0:
204,283,136538,1,10,0:0:0:0:
243,269,136630,1,10,0:0:0:0:
288,286,136723,1,10,0:0:0:0:
315,326,136816,1,10,0:0:0:0:
361,352,136908,1,8,0:0:0:0:
410,334,137001,1,0,3:2:0:0:
431,282,137093,1,0,3:2:0:0:
405,234,137186,1,8,0:3:0:0:
353,207,137279,1,8,0:3:0:0:
329,151,137371,1,6,0:3:0:0:
346,86,137464,1,6,0:3:0:0:
408,52,137556,1,2,3:2:0:0:
477,72,137649,1,2,3:2:0:0:
503,140,137742,6,0,L|482:232,3,68,4|0|10|0,3:2|3:2|0:0|3:2,0:0:0:0:
436,276,138112,2,0,L|457:368,3,68,0|0|10|0,3:2|3:2|0:0|3:2,0:0:0:0:
376,382,138482,5,0,3:0:0:0:
320,354,138575,1,0,3:0:0:0:
302,309,138668,1,10,0:0:0:0:
314,265,138760,1,0,3:0:0:0:
346,237,138853,1,0,3:0:0:0:
354,199,138945,1,0,3:0:0:0:
335,171,139038,1,10,0:0:0:0:
313,170,139130,1,0,3:0:0:0:
306,182,139223,5,0,3:2:0:0:
355,204,139316,1,0,3:2:0:0:
403,184,139408,1,10,0:0:0:0:
421,134,139501,1,0,3:0:0:0:
402,85,139593,1,0,3:0:0:0:
352,66,139686,1,0,3:0:0:0:
301,87,139779,1,10,0:0:0:0:
250,74,139871,1,0,3:0:0:0:
220,27,139964,5,0,3:0:0:0:
174,62,140056,1,0,3:0:0:0:
116,56,140149,1,10,0:0:0:0:
64,29,140242,1,0,3:0:0:0:
11,52,140334,1,0,3:0:0:0:
1,109,140427,1,0,3:0:0:0:
44,146,140519,1,10,0:0:0:0:
60,201,140612,1,0,3:0:0:0:
27,249,140705,6,0,P|7:283|15:331,3,72.2500013780594,0|0|10|0,3:0|3:0|0:0|3:0,0:0:0:0:
73,365,141075,2,0,P|106:385|154:377,1,72.2500013780594,0|0,3:0|3:0,0:0:0:0:
283,270,141260,5,10,0:0:0:0:
325,230,141353,1,0,3:0:0:0:
382,228,141445,1,0,3:0:0:0:
428,262,141538,1,0,3:0:0:0:
441,317,141630,2,0,P|403:327|366:348,1,72.2500013780594,10|0,0:0|3:0,0:0:0:0:
293,378,141816,2,0,P|259:358|218:346,1,72.2500013780594,0|0,3:0|3:0,0:0:0:0:
32,246,142001,6,0,P|29:213|6:163,3,72.2500013780594,10|0|0|0,0:0|3:0|3:0|3:0,0:0:0:0:
82,87,142371,5,10,0:0:0:0:
109,80,142464,1,0,3:0:0:0:
123,99,142556,2,0,P|109:132|106:168,1,72.2500013780594,0|0,3:2|3:0,0:0:0:0:
117,251,142742,2,0,P|130:284|153:311,1,72.2500013780594,10|0,0:2|3:0,0:0:0:0:
7,372,142927,6,0,P|34:338|71:323,1,72.2500013780594,0|0,3:2|3:0,0:0:0:0:
214,252,143112,2,0,P|257:250|292:268,1,72.2500013780594,14|0,0:2|3:0,0:0:0:0:
279,384,143297,6,0,P|252:372|240:326,1,72.2500013780594,0|0,3:2|3:0,0:0:0:0:
332,196,143482,5,14,0:1:0:0:
363,209,143575,1,0,3:2:0:0:
371,245,143668,2,0,P|361:283|352:330,3,72.2500013780594,4|0|10|0,3:2|3:0|0:0|3:0,0:0:0:0:
454,294,144038,2,0,P|444:332|435:379,3,72.2500013780594,0|0|10|0,3:2|3:0|0:0|3:0,0:0:0:0:
456,199,144408,5,0,3:0:0:0:
420,153,144501,1,0,3:0:0:0:
429,109,144593,1,10,0:0:0:0:
466,90,144686,1,0,3:0:0:0:
479,58,144779,1,0,3:0:0:0:
464,19,144871,1,0,3:0:0:0:
434,4,144964,1,10,0:0:0:0:
409,12,145056,1,0,3:0:0:0:
399,29,145149,5,0,3:0:0:0:
357,54,145242,1,0,3:0:0:0:
310,48,145334,1,10,0:0:0:0:
273,16,145427,1,0,3:0:0:0:
225,14,145519,1,0,3:0:0:0:
196,53,145612,1,0,3:0:0:0:
210,99,145705,1,10,0:0:0:0:
252,118,145797,1,0,3:0:0:0:
284,156,145890,5,0,3:0:0:0:
284,210,145982,1,0,3:0:0:0:
239,246,146075,1,10,0:0:0:0:
186,248,146168,1,0,3:0:0:0:
143,208,146260,2,0,P|140:177|131:129,1,72.2500013780594,0|0,3:0|3:0,0:0:0:0:
57,231,146445,2,0,P|50:266|46:302,1,72.2500013780594,10|0,0:0|3:0,0:0:0:0:
48,115,146630,5,4,3:2:0:0:
22,66,146723,1,0,3:0:0:0:
47,13,146816,1,10,0:0:0:0:
103,0,146908,1,0,3:0:0:0:
152,28,147001,1,0,3:0:0:0:
158,85,147093,1,0,3:0:0:0:
133,137,147186,1,10,0:0:0:0:
160,188,147279,1,0,3:0:0:0:
216,198,147371,1,0,3:0:0:0:
269,175,147464,1,0,3:0:0:0:
285,119,147556,1,10,0:0:0:0:
264,65,147649,1,0,3:0:0:0:
284,23,147742,1,0,3:0:0:0:
329,10,147834,1,0,3:0:0:0:
358,29,147927,1,10,0:0:0:0:
362,61,148019,1,0,3:0:0:0:
343,71,148112,5,0,3:0:0:0:
385,31,148205,1,0,3:0:0:0:
440,42,148297,1,10,0:0:0:0:
467,93,148390,1,0,3:0:0:0:
446,146,148482,1,0,3:0:0:0:
390,160,148575,1,0,3:0:0:0:
357,200,148668,1,10,0:0:0:0:
373,235,148760,1,0,3:2:0:0:
393,239,148853,5,8,0:0:0:0:
401,227,148945,1,8,0:0:0:0:
388,208,149038,1,8,0:0:0:0:
354,204,149131,1,8,0:0:0:0:
307,231,149223,1,10,0:0:0:0:
303,293,149316,1,10,0:0:0:0:
341,341,149408,1,10,0:0:0:0:
402,350,149501,1,10,0:0:0:0:
452,315,149593,6,0,P|464:270|478:244,3,72.2500013780594,4|0|10|0,3:2|3:0|0:0|3:0,0:0:0:0:
511,181,149964,2,0,P|491:137|473:114,3,72.2500013780594,0|0|10|0,3:2|3:0|0:0|3:0,0:0:0:0:
468,44,150334,5,0,3:0:0:0:
427,0,150427,1,0,3:0:0:0:
375,4,150519,1,10,0:0:0:0:
338,36,150612,1,0,3:0:0:0:
331,78,150705,1,0,3:0:0:0:
346,110,150797,1,0,3:0:0:0:
371,112,150890,1,10,0:0:0:0:
383,103,150982,1,0,3:0:0:0:
382,95,151075,5,0,3:0:0:0:
335,81,151168,1,0,3:0:0:0:
291,106,151260,1,10,0:0:0:0:
277,154,151353,1,0,3:0:0:0:
302,197,151445,1,0,3:0:0:0:
347,218,151538,1,0,3:0:0:0:
376,258,151630,1,10,0:0:0:0:
369,308,151723,1,0,3:0:0:0:
325,334,151816,5,0,3:0:0:0:
268,324,151908,1,0,3:0:0:0:
246,270,152001,1,10,0:0:0:0:
203,230,152093,1,0,3:0:0:0:
144,228,152186,1,0,3:0:0:0:
98,264,152279,1,0,3:0:0:0:
90,320,152371,1,10,0:0:0:0:
121,368,152464,1,0,3:0:0:0:
176,382,152556,6,0,L|189:308,3,72.2500013780594,0|0|10|0,3:0|3:0|0:0|3:0,0:0:0:0:
148,223,152927,2,0,L|130:132,1,72.2500013780594,0|0,3:2|3:0,0:0:0:0:
177,71,153112,2,0,L|190:-3,3,72.2500013780594,10|0|0|0,0:0|3:0|3:2|3:0,0:0:0:0:
321,22,153482,5,10,0:0:0:0:
370,21,153574,1,0,3:0:0:0:
418,33,153667,1,0,3:0:0:0:
461,59,153759,1,0,3:0:0:0:
495,95,153853,2,0,P|482:125|473:170,3,72.2500013780594,10|0|0|0,0:0|3:0|3:0|3:0,0:0:0:0:
306,164,154223,5,10,0:0:0:0:
293,151,154316,1,0,3:0:0:0:
305,139,154408,2,0,P|337:135|380:120,1,72.2500013780594,0|0,3:0|3:0,0:0:0:0:
445,270,154593,2,0,P|425:244|391:214,1,72.2500013780594,10|0,0:0|3:0,0:0:0:0:
377,116,154779,6,0,P|389:75|392:42,1,72.2500013780594,0|0,3:2|3:0,0:0:0:0:
197,174,154964,1,14,0:0:0:0:
205,175,155056,1,0,3:0:0:0:
209,182,155149,2,0,P|221:223|224:256,1,72.2500013780594,0|0,3:2|3:0,0:0:0:0:
75,361,155334,5,14,0:2:0:0:
55,339,155427,1,0,3:2:0:0:
71,317,155519,2,0,P|116:310|150:298,3,72.2500013780594,0|0|10|0,3:2|3:0|0:0|3:0,0:0:0:0:
224,342,155890,2,0,P|269:349|303:361,3,72.2500013780594,0|0|10|0,3:2|3:0|0:0|3:0,0:0:0:0:
382,384,156260,5,0,3:0:0:0:
441,359,156353,1,0,3:0:0:0:
451,304,156445,1,10,0:0:0:0:
421,260,156538,1,0,3:0:0:0:
375,255,156630,1,0,3:0:0:0:
346,275,156723,1,0,3:0:0:0:
342,297,156816,1,10,0:0:0:0:
354,314,156908,1,0,3:0:0:0:
372,315,157001,5,0,3:0:0:0:
349,269,157093,1,0,3:0:0:0:
299,258,157186,1,10,0:0:0:0:
249,270,157279,1,0,3:0:0:0:
204,247,157371,1,0,3:0:0:0:
183,200,157464,1,0,3:0:0:0:
197,151,157556,1,10,0:0:0:0:
243,130,157649,1,0,3:0:0:0:
298,142,157742,5,0,3:0:0:0:
354,133,157834,1,0,3:0:0:0:
391,88,157927,1,10,0:0:0:0:
380,31,158019,1,0,3:0:0:0:
327,6,158112,6,0,P|290:3|244:-2,1,72.2500013780594,0|0,3:0|3:0,0:0:0:0:
409,200,158297,2,0,P|444:195|480:193,1,72.2500013780594,10|0,0:0|3:0,0:0:0:0:
305,355,158482,5,4,3:2:0:0:
255,384,158575,1,0,3:0:0:0:
200,363,158668,1,10,0:0:0:0:
182,308,158760,1,0,3:0:0:0:
207,255,158853,1,0,3:0:0:0:
262,239,158945,1,0,3:0:0:0:
319,249,159038,1,10,0:0:0:0:
362,285,159130,1,0,3:0:0:0:
380,340,159223,1,0,3:0:0:0:
429,370,159316,1,0,3:0:0:0:
485,359,159408,1,10,0:0:0:0:
508,322,159501,1,0,3:0:0:0:
499,283,159593,1,0,3:0:0:0:
467,262,159686,1,0,3:0:0:0:
441,269,159779,1,10,0:0:0:0:
437,282,159871,1,0,3:2:0:0:
445,291,159964,5,6,3:1:0:0:
454,292,160056,1,0,3:2:0:0:
470,287,160149,1,8,0:0:0:0:
479,265,160242,1,8,0:0:0:0:
477,233,160334,1,8,0:0:0:0:
450,203,160427,1,8,0:0:0:0:
403,203,160519,1,8,0:0:0:0:
364,238,160612,1,8,0:0:0:0:
313,253,160705,1,10,0:0:0:0:
263,224,160797,1,10,0:0:0:0:
239,169,160890,1,10,0:0:0:0:
262,109,160982,1,10,0:0:0:0:
322,98,161075,1,10,0:3:0:0:
381,122,161168,1,10,0:3:0:0:
445,119,161260,1,6,0:3:0:0:
500,75,161353,1,6,0:3:0:0:
500,0,161445,6,0,P|460:9|422:11,3,72.2500013780594,6|0|8|0,3:1|3:0|0:0|3:2,0:0:0:0:
339,22,161816,2,0,P|299:13|261:11,3,72.2500013780594,2|0|8|0,3:1|3:0|0:0|3:2,0:0:0:0:
191,69,162186,6,0,P|214:107|214:143,1,72.2500013780594,2|0,3:2|3:0,0:0:0:0:
365,110,162371,2,0,P|334:141|325:176,1,72.2500013780594,10|0,0:2|3:0,0:0:0:0:
213,142,162556,6,0,P|189:172|143:176,1,72.2500013780594,2|0,3:2|3:0,0:0:0:0:
322,176,162742,2,8,P|324:214|359:244,1,72.2500013780594,10|0,0:0|3:2,0:0:0:0:
171,363,162927,5,2,3:2:0:0:
154,331,163019,1,0,3:0:0:0:
178,303,163112,1,8,0:0:0:0:
214,303,163205,1,0,3:0:0:0:
238,328,163297,1,0,3:0:0:0:
244,363,163390,1,0,3:0:0:0:
276,379,163482,1,10,0:0:0:0:
310,367,163575,1,0,3:2:0:0:
324,333,163668,5,2,3:2:0:0:
352,365,163760,1,0,3:0:0:0:
394,374,163853,1,8,0:0:0:0:
433,355,163945,1,0,3:0:0:0:
454,317,164038,1,0,3:0:0:0:
448,274,164130,1,0,3:0:0:0:
411,249,164223,1,8,0:0:0:0:
402,206,164316,1,0,3:0:0:0:
432,175,164408,6,0,L|491:190,3,55.2499974708558,2|0|8|0,3:2|3:2|0:0|3:0,0:0:0:0:
369,117,164779,2,0,L|346:13,1,72.2500013780594,2|0,3:2|3:0,0:0:0:0:
198,6,164964,5,10,0:0:0:0:
153,0,165056,1,0,3:2:0:0:
108,8,165149,1,0,3:2:0:0:
69,30,165241,1,0,3:2:0:0:
38,64,165334,2,0,P|51:98|57:145,1,72.2500013780594,10|0,0:0|3:0,0:0:0:0:
143,116,165519,2,0,P|137:151|118:195,1,72.2500013780594,2|0,3:2|3:0,0:0:0:0:
28,313,165705,6,0,B|26:357|1:336|-1:383,3,72.2500013780594,10|0|0|0,0:0|3:0|3:0|3:0,0:0:0:0:
15,235,166075,2,0,P|60:236|90:260,1,72.2500013780594,10|0,0:0|3:2,0:0:0:0:
109,327,166260,2,0,P|151:319|185:281,1,72.2500013780594,2|0,3:2|3:0,0:0:0:0:
235,246,166445,2,0,L|215:153,1,72.2500013780594,10|0,0:0|3:0,0:0:0:0:
275,7,166630,6,0,L|353:25,1,72.2500013780594,2|0,3:2|3:2,0:0:0:0:
143,175,166816,2,0,L|34:152,1,72.2500013780594,14|0,0:1|0:0,0:0:0:0:
352,30,167001,6,0,P|364:63|348:104,1,72.2500013780594,2|0,3:2|3:2,0:0:0:0:
66,153,167186,2,0,P|54:120|70:79,1,72.2500013780594,14|0,0:1|3:2,0:0:0:0:
311,174,167371,6,0,L|334:270,3,72.2500013780594,6|0|8|0,3:2|3:0|0:0|3:0,0:0:0:0:
405,208,167742,2,0,L|504:226,3,72.2500013780594,2|0|8|0,3:2|3:0|0:0|3:0,0:0:0:0:
399,291,168112,6,0,L|381:369,1,72.2500013780594,2|0,3:2|3:0,0:0:0:0:
114,302,168297,2,0,L|96:224,1,72.2500013780594,10|0,0:2|3:0,0:0:0:0:
307,335,168482,6,0,L|291:394,1,50.9999984436036,2|0,3:2|3:0,0:0:0:0:
181,233,168668,2,0,L|165:174,1,50.9999984436036,10|0,0:0|3:0,0:0:0:0:
261,7,168853,5,2,3:2:0:0:
295,0,168945,1,0,3:0:0:0:
322,22,169038,1,8,0:0:0:0:
316,56,169130,1,0,3:2:0:0:
288,79,169223,1,0,3:2:0:0:
289,114,169316,1,0,3:2:0:0:
317,134,169408,1,10,0:0:0:0:
352,130,169501,1,0,3:2:0:0:
372,101,169593,5,2,3:2:0:0:
421,64,169686,1,0,3:0:0:0:
481,77,169779,1,2,0:0:0:0:
507,131,169871,1,0,3:0:0:0:
496,189,169964,2,0,L|477:275,1,63.7500024318696,2|0,3:2|3:0,0:0:0:0:
449,318,170149,2,0,L|468:404,1,63.7500024318696,10|0,0:0|3:2,0:0:0:0:
340,273,170334,5,6,3:2:0:0:
306,236,170427,1,0,3:2:0:0:
256,236,170519,1,8,0:0:0:0:
217,269,170612,1,0,3:0:0:0:
222,319,170705,1,0,3:0:0:0:
199,364,170797,1,0,3:0:0:0:
148,363,170890,1,8,0:0:0:0:
110,330,170982,1,0,3:0:0:0:
111,278,171075,1,0,3:0:0:0:
147,241,171168,1,0,3:0:0:0:
168,195,171260,1,8,0:0:0:0:
157,144,171353,1,0,3:0:0:0:
111,128,171445,1,0,3:0:0:0:
84,148,171538,1,0,3:0:0:0:
84,166,171630,1,8,0:0:0:0:
91,176,171723,1,0,3:2:0:0:
97,177,171816,6,0,L|61:2,1,144.500002756119,14|0,0:1|0:0,0:0:0:0:
4,0,172093,1,8,3:2:0:0:
4,0,172186,1,8,3:2:0:0:
253,93,172371,1,8,0:0:0:0:
5,199,172556,5,8,0:0:0:0:
25,248,172650,1,8,0:0:0:0:
71,275,172743,1,8,0:0:0:0:
124,271,172834,1,8,0:0:0:0:
166,229,172926,1,10,0:3:0:0:
163,222,173020,1,10,0:3:0:0:
155,222,173113,1,6,0:3:0:0:
151,227,173205,1,6,0:3:0:0:
151,234,173297,6,0,L|172:318,3,72.2500013780594,6|0|8|0,3:1|3:0|0:0|3:0,0:0:0:0:
260,294,173668,2,0,L|242:364,3,72.2500013780594,2|0|8|0,3:1|3:0|0:0|3:0,0:0:0:0:
342,305,174038,6,0,P|379:299|417:283,1,72.2500013780594,2|0,3:2|3:0,0:0:0:0:
91,324,174223,2,0,P|54:330|16:346,1,72.2500013780594,10|0,0:0|3:0,0:0:0:0:
230,156,174408,6,0,P|234:185|243:213,1,59.4999981842042,2|0,3:2|3:0,0:0:0:0:
95,320,174593,2,0,P|89:290|79:262,1,59.4999981842042,10|0,0:0|3:0,0:0:0:0:
11,94,174779,5,2,3:2:0:0:
0,54,174871,1,0,3:2:0:0:
24,20,174964,1,8,0:0:0:0:
64,12,175056,1,0,3:0:0:0:
97,36,175149,1,0,3:0:0:0:
104,77,175242,1,0,3:0:0:0:
123,113,175334,1,10,0:0:0:0:
164,113,175427,1,0,3:0:0:0:
190,80,175519,5,2,3:2:0:0:
180,126,175612,1,0,3:0:0:0:
209,163,175705,1,8,0:0:0:0:
255,172,175797,1,0,3:0:0:0:
299,155,175890,1,0,3:0:0:0:
310,109,175982,1,0,3:0:0:0:
291,64,176075,1,8,0:0:0:0:
312,21,176168,1,0,3:0:0:0:
358,12,176260,6,0,P|391:18|423:61,3,72.2500013780594,2|0|8|0,3:2|3:0|0:0|3:0,0:0:0:0:
485,0,176630,2,0,P|504:27|496:80,1,72.2500013780594,2|0,3:2|3:0,0:0:0:0:
301,246,176816,5,10,0:0:0:0:
319,296,176908,1,0,3:0:0:0:
359,331,177001,1,0,3:0:0:0:
412,343,177093,1,0,3:0:0:0:
463,329,177186,2,0,L|446:240,1,72.2500013780594,10|0,0:0|3:2,0:0:0:0:
399,195,177371,2,0,L|416:106,1,72.2500013780594,2|0,3:2|3:2,0:0:0:0:
216,299,177556,6,0,L|145:281,3,72.2500013780594,10|0|0|0,0:0|3:0|3:0|3:0,0:0:0:0:
90,231,177927,2,0,P|83:191|103:162,1,72.2500013780594,10|0,0:0|3:0,0:0:0:0:
310,33,178112,6,0,P|317:73|297:102,1,72.2500013780594,2|0,3:2|3:0,0:0:0:0:
224,110,178297,2,0,L|153:92,1,72.2500013780594,10|0,0:0|3:0,0:0:0:0:
21,1,178482,6,0,B|28:45|45:15|61:72,1,72.2500013780594,2|0,3:2|3:2,3:2:0:0:
193,203,178668,2,0,L|278:186,1,72.2500013780594,14|0,0:1|3:0,0:0:0:0:
125,21,178853,6,0,B|81:28|111:45|54:61,1,72.2500013780594,2|0,3:2|3:0,0:0:0:0:
0,184,179038,2,0,L|17:269,1,72.2500013780594,12|0,0:1|3:0,0:0:0:0:
224,110,179223,6,0,L|153:92,3,72.2500013780594,6|0|8|0,3:2|3:0|0:0|3:0,0:0:0:0:
254,31,179593,2,0,L|325:13,3,72.2500013780594,2|0|8|0,3:2|3:0|0:0|3:0,0:0:0:0:
406,39,179964,6,0,P|420:70|407:122,1,72.2500013780594,2|0,3:2|3:0,0:0:0:0:
232,184,180149,2,0,P|218:153|231:101,1,72.2500013780594,10|0,0:0|3:0,0:0:0:0:
420,111,180334,6,0,L|488:126,1,59.4999981842042,2|0,3:2|3:0,0:0:0:0:
316,157,180519,2,0,L|331:89,1,59.4999981842042,10|0,0:0|3:0,0:0:0:0:
512,237,180705,5,2,3:2:0:0:
499,278,180797,1,0,3:0:0:0:
461,300,180890,1,8,0:0:0:0:
418,291,180982,1,0,3:0:0:0:
383,264,181075,1,0,3:0:0:0:
339,268,181168,1,0,3:0:0:0:
305,294,181260,1,10,0:0:0:0:
299,337,181353,1,0,3:0:0:0:
268,367,181445,5,2,3:2:0:0:
210,364,181538,1,0,3:2:0:0:
169,323,181630,1,12,0:1:0:0:
175,265,181723,1,0,3:0:0:0:
227,233,181816,6,0,L|318:248,1,76.4999976654053,14|0,0:1|0:0,0:0:0:0:
75,340,182001,2,0,L|-16:355,1,76.4999976654053,2|0,3:2|3:0,0:0:0:0:
113,57,182186,5,14,0:0:0:0:
130,49,182279,1,0,3:2:0:0:
147,58,182371,2,0,P|171:91|163:140,1,76.4999976654053,0|0,3:2|3:0,0:0:0:0:
39,242,182556,5,8,0:0:0:0:
15,226,182649,1,0,3:0:0:0:
13,197,182742,2,0,P|29:159|76:142,1,76.4999976654053,0|0,3:0|3:0,0:0:0:0:
228,14,182927,5,10,0:0:0:0:
285,11,183019,1,0,3:0:0:0:
340,26,183112,1,0,3:0:0:0:
388,56,183204,1,0,3:0:0:0:
426,99,183297,2,0,P|411:130|400:190,1,67.9999979248048,8|8,3:2|3:2,0:0:0:0:
492,330,183482,6,0,P|490:347|484:367,2,28.3333333333333,0|0|0,3:0|3:0|3:0,0:0:0:0:
439,267,183668,5,0,3:2:0:0:
441,256,183760,1,0,3:2:0:0:
445,246,183853,1,0,3:2:0:0:
448,236,183945,1,0,3:2:0:0:
482,201,184038,5,14,0:1:0:0:
256,192,184130,12,2,186630,0:0:0:0:
512,44,210334,5,6,3:2:0:0:
484,71,210427,1,0,3:0:0:0:
446,75,210519,1,0,3:0:0:0:
415,52,210612,1,0,3:0:0:0:
406,14,210705,1,10,0:0:0:0:
370,0,210797,1,0,3:2:0:0:
333,11,210890,1,0,3:2:0:0:
319,46,210982,1,0,3:2:0:0:
325,83,211075,1,2,3:2:0:0:
353,108,211168,1,0,3:2:0:0:
374,139,211260,1,0,3:2:0:0:
367,176,211353,1,0,3:2:0:0:
341,204,211445,1,10,0:0:0:0:
302,202,211538,1,0,3:2:0:0:
275,174,211630,1,0,3:2:0:0:
239,159,211723,1,0,3:2:0:0:
202,170,211816,5,2,3:2:0:0:
177,208,211908,1,0,3:0:0:0:
191,251,212001,1,0,3:0:0:0:
231,271,212093,1,0,3:0:0:0:
248,313,212186,1,10,0:0:0:0:
236,357,212279,1,0,3:2:0:0:
193,372,212371,1,0,3:2:0:0:
148,359,212464,1,0,3:2:0:0:
126,318,212556,1,2,3:2:0:0:
90,288,212649,1,0,3:0:0:0:
43,289,212742,1,0,3:0:0:0:
10,321,212834,1,0,3:0:0:0:
14,366,212927,2,0,L|84:377,3,63.7500024318696,10|0|0|0,0:0|3:0|3:0|3:0,0:0:0:0:
130,314,213297,5,6,3:2:0:0:
158,263,213390,1,0,3:0:0:0:
127,214,213482,1,0,3:0:0:0:
69,207,213575,1,0,3:0:0:0:
27,165,213668,1,10,0:0:0:0:
37,108,213760,1,0,3:0:0:0:
89,83,213853,1,0,3:0:0:0:
145,95,213945,1,0,3:0:0:0:
179,141,214038,1,2,3:2:0:0:
234,153,214130,1,0,3:0:0:0:
282,121,214223,1,0,3:0:0:0:
289,63,214316,1,0,3:0:0:0:
246,24,214408,2,0,P|214:13|171:26,3,63.7500024318696,10|0|0|0,0:0|3:0|3:0|3:0,0:0:0:0:
142,88,214779,6,0,L|157:187,1,72.2500013780594,2|0,3:2|3:0,0:0:0:0:
187,322,214964,5,0,3:0:0:0:
241,339,215056,1,0,3:0:0:0:
295,318,215149,1,10,0:0:0:0:
308,261,215242,1,0,3:0:0:0:
269,218,215334,1,0,3:0:0:0:
210,216,215427,1,0,3:0:0:0:
163,249,215519,1,2,3:2:0:0:
113,256,215612,1,0,3:0:0:0:
75,238,215705,1,0,3:0:0:0:
67,212,215797,1,0,3:0:0:0:
80,193,215890,2,0,L|172:173,3,72.2500013780594,10|0|0|0,0:0|3:0|3:0|3:0,0:0:0:0:
206,125,216260,5,2,3:2:0:0:
184,109,216353,1,0,3:0:0:0:
178,73,216445,1,0,3:0:0:0:
199,36,216538,1,0,3:0:0:0:
256,29,216630,1,10,0:0:0:0:
297,68,216723,1,0,3:0:0:0:
301,125,216816,1,0,3:0:0:0:
275,176,216908,1,0,3:0:0:0:
295,230,217001,1,2,3:2:0:0:
345,255,217093,1,0,3:0:0:0:
398,232,217186,1,0,3:0:0:0:
430,183,217279,1,0,3:0:0:0:
414,127,217371,1,10,0:0:0:0:
376,82,217464,1,0,3:2:0:0:
382,24,217556,1,0,3:2:0:0:
436,3,217649,1,0,3:2:0:0:
486,31,217742,2,0,L|508:117,3,72.2500013780594,2|0|0|0,3:2|3:2|3:2|3:2,0:2:0:0:
512,176,218112,6,0,L|501:216,3,36.1250006890297,10|0|0|0,0:2|0:0|3:0|0:0,0:0:0:0:
493,290,218297,5,0,3:0:0:0:
504,284,218390,1,0,3:0:0:0:
512,293,218482,1,2,3:2:0:0:
505,350,218575,1,0,3:2:0:0:
455,379,218668,1,0,3:2:0:0:
398,369,218760,1,0,3:2:0:0:
367,319,218853,1,10,0:2:0:0:
378,262,218945,1,0,3:2:0:0:
414,227,219038,1,0,3:2:0:0:
415,180,219130,1,0,3:2:0:0:
377,148,219223,1,2,3:2:0:0:
326,152,219316,1,0,3:2:0:0:
299,195,219408,1,0,3:2:0:0:
250,211,219501,1,0,3:2:0:0:
204,189,219593,1,10,0:2:0:0:
187,141,219686,1,0,3:2:0:0:
217,100,219779,1,0,3:2:0:0:
209,50,219871,1,0,3:2:0:0:
167,20,219964,1,2,3:2:0:0:
125,32,220056,1,0,3:2:0:0:
101,68,220149,1,0,3:2:0:0:
108,110,220242,1,0,3:2:0:0:
92,150,220334,1,10,0:2:0:0:
51,170,220427,1,0,3:2:0:0:
15,159,220519,1,0,3:2:0:0:
9,126,220612,1,0,3:2:0:0:
28,112,220705,5,2,3:2:0:0:
50,116,220797,1,0,3:0:0:0:
65,144,220890,1,0,3:0:0:0:
49,186,220982,1,0,3:0:0:0:
10,232,221075,1,10,0:0:0:0:
6,291,221168,1,0,3:2:0:0:
38,334,221260,1,0,3:2:0:0:
73,341,221353,1,0,3:2:0:0:
104,324,221445,2,0,P|122:290|116:242,3,72.2500013780594,2|0|0|0,3:2|3:0|3:0|3:0,0:0:0:0:
131,174,221816,5,10,0:0:0:0:
194,142,221908,1,8,0:0:0:0:
265,152,222001,1,8,0:0:0:0:
317,201,222093,1,8,0:0:0:0:
332,270,222186,5,4,3:2:0:0:
302,329,222279,1,0,3:0:0:0:
326,384,222371,1,10,0:0:0:0:
385,384,222464,1,0,3:0:0:0:
435,356,222556,1,0,3:2:0:0:
436,316,222649,1,0,3:0:0:0:
414,272,222742,1,10,0:0:0:0:
422,251,222834,1,0,3:0:0:0:
437,249,222927,5,0,3:2:0:0:
390,213,223019,1,0,3:2:0:0:
392,166,223112,1,10,0:2:0:0:
424,135,223205,1,0,3:2:0:0:
467,136,223297,1,0,3:2:0:0:
504,119,223390,1,0,3:0:0:0:
506,88,223482,1,10,0:0:0:0:
488,69,223575,1,0,0:0:0:0:
465,67,223668,2,0,L|480:156,3,72.2500013780594,0|0|10|0,3:2|3:0|0:0|3:0,0:0:0:0:
402,17,224038,5,0,3:2:0:0:
397,8,224130,1,0,3:0:0:0:
390,3,224223,1,10,0:0:0:0:
381,0,224315,1,0,3:0:0:0:
372,2,224408,2,0,L|286:15,1,59.4999981842042,0|0,3:0|3:0,0:0:0:0:
171,70,224593,5,10,0:0:0:0:
157,96,224685,1,0,3:0:0:0:
157,125,224778,1,0,3:0:0:0:
170,152,224870,1,0,3:0:0:0:
193,169,224964,6,0,L|265:153,3,59.4999981842042,10|0|0|0,0:0|3:0|3:0|3:0,0:0:0:0:
250,71,225334,2,0,L|239:18,1,42.5,10|0,0:0|3:0,0:0:0:0:
339,107,225519,5,0,3:0:0:0:
353,57,225612,1,0,3:0:0:0:
402,44,225705,1,10,0:0:0:0:
451,54,225797,1,0,3:0:0:0:
480,95,225890,1,0,3:0:0:0:
487,145,225982,1,0,3:0:0:0:
456,186,226075,1,10,0:0:0:0:
405,196,226168,1,0,3:0:0:0:
374,236,226260,1,0,3:0:0:0:
377,287,226353,1,0,3:0:0:0:
401,314,226445,1,10,0:0:0:0:
434,317,226538,1,0,3:0:0:0:
450,300,226630,6,0,L|442:248,1,42.5,0|0,3:0|3:0,0:0:0:0:
343,370,226816,2,0,L|265:386,1,72.2500013780594,10|0,0:0|3:0,0:0:0:0:
83,323,227001,5,0,3:0:0:0:
45,279,227093,1,0,3:0:0:0:
55,221,227186,1,10,0:0:0:0:
101,186,227279,1,0,3:0:0:0:
158,188,227371,1,0,3:0:0:0:
203,224,227464,1,0,3:0:0:0:
259,235,227556,2,0,P|290:217|304:167,1,72.2500013780594,10|0,0:0|3:0,0:0:0:0:
230,2,227742,6,0,L|237:37,2,28.3333333333333,10|0|0,0:0|3:0|3:0,0:0:0:0:
245,108,227927,2,0,L|233:162,1,42.5,0|0,3:0|3:0,0:0:0:0:
179,316,228112,6,0,L|184:343,3,17,10|0|0|0,0:0|3:0|3:0|3:0,0:0:0:0:
83,323,228482,5,10,0:0:0:0:
51,266,228575,1,0,3:0:0:0:
82,209,228668,1,0,3:0:0:0:
144,190,228760,1,0,3:0:0:0:
201,220,228853,1,10,0:0:0:0:
265,223,228945,1,0,3:0:0:0:
323,192,229038,1,0,3:0:0:0:
346,131,229130,1,0,3:0:0:0:
323,69,229223,6,0,L|312:43,6,21.25,10|2|2|2|2|2|2,0:0|0:0|0:0|0:0|0:0|0:0|0:0,0:0:0:0:
244,6,229593,5,10,0:0:0:0:
214,47,229686,1,0,3:0:0:0:
165,60,229779,1,0,3:0:0:0:
117,44,229871,1,0,3:0:0:0:
85,3,229964,1,10,0:0:0:0:
34,0,230056,1,0,3:0:0:0:
2,39,230149,1,0,3:0:0:0:
5,89,230242,1,0,3:0:0:0:
42,122,230334,1,10,0:0:0:0:
92,122,230427,1,0,3:0:0:0:
138,140,230519,1,0,3:0:0:0:
160,185,230612,1,0,3:0:0:0:
142,232,230705,1,14,0:1:0:0:
150,281,230797,1,0,3:0:0:0:
194,305,230890,1,0,3:0:0:0:
243,296,230982,1,0,3:0:0:0:
277,258,231075,5,14,0:0:0:0:
259,218,231168,1,0,3:0:0:0:
271,176,231260,1,0,3:0:0:0:
307,152,231353,1,0,3:0:0:0:
350,152,231445,1,10,0:0:0:0:
386,175,231538,1,0,3:0:0:0:
407,212,231630,1,0,3:0:0:0:
395,254,231723,1,0,3:0:0:0:
357,281,231816,1,10,0:0:0:0:
343,321,231908,1,0,3:0:0:0:
359,361,232001,1,0,3:0:0:0:
395,384,232093,1,0,3:0:0:0:
437,373,232186,1,10,0:0:0:0:
453,345,232279,1,0,3:0:0:0:
438,323,232371,1,0,3:0:0:0:
418,322,232464,1,0,3:0:0:0:
410,333,232556,6,0,L|420:384,2,48.1666675853729,8|8|8,3:3|3:3|3:3,0:0:0:0:
481,260,232742,5,0,3:2:0:0:
484,253,232834,1,8,3:3:0:0:
487,246,232927,2,0,L|472:188,2,39.6666654561361,4|4|4,3:3|3:3|3:3,0:0:0:0:
416,157,233112,6,0,L|430:78,1,72.2500013780594,0|0,3:0|3:0,0:0:0:0:
206,73,233297,5,8,0:0:0:0:
159,89,233389,1,8,0:0:0:0:
114,107,233482,1,8,0:0:0:0:
84,67,233576,1,8,0:0:0:0:
52,29,233668,6,0,L|62:-13,3,29.7499990921021,8|8|4|4,0:3|0:3|0:3|0:3,0:0:0:0:
13,104,234038,5,6,3:2:0:0:
22,110,234130,1,0,3:2:0:0:
27,123,234223,1,0,3:2:0:0:
22,135,234316,1,0,3:2:0:0:
7,151,234408,1,10,0:0:0:0:
2,175,234501,1,0,0:0:0:0:
15,196,234593,1,0,3:2:0:0:
41,207,234686,1,0,3:2:0:0:
73,203,234779,1,2,3:2:0:0:
102,178,234871,1,0,3:2:0:0:
113,132,234964,1,10,0:0:0:0:
89,80,235056,1,0,0:0:0:0:
101,28,235149,1,2,3:2:0:0:
161,1,235242,1,2,3:2:0:0:
213,21,235334,1,2,3:2:0:0:
223,79,235427,1,2,3:2:0:0:
195,123,235519,1,10,0:0:0:0:
204,168,235612,5,2,0:0:0:0:
254,216,235705,1,2,3:2:0:0:
319,208,235797,1,2,3:2:0:0:
341,155,235890,1,2,3:2:0:0:
319,107,235982,1,2,3:2:0:0:
325,56,236075,1,10,0:0:0:0:
366,34,236168,1,2,0:0:0:0:
408,49,236260,2,0,P|429:62|442:112,3,63.7500024318696,2|0|0|0,3:2|3:2|3:2|3:2,0:0:0:0:
503,157,236630,5,10,0:0:0:0:
512,217,236723,1,10,0:0:0:0:
476,268,236816,1,10,0:0:0:0:
416,281,236908,1,10,0:0:0:0:
361,251,237001,5,6,3:2:0:0:
360,244,237093,1,0,3:2:0:0:
368,246,237186,1,0,3:2:0:0:
372,258,237279,1,0,3:2:0:0:
365,267,237371,1,10,0:0:0:0:
349,272,237464,1,0,0:0:0:0:
326,268,237556,1,0,3:2:0:0:
299,241,237649,1,0,3:2:0:0:
297,204,237742,1,2,3:2:0:0:
327,175,237834,1,0,3:2:0:0:
362,140,237927,1,10,0:0:0:0:
358,88,238019,1,0,0:0:0:0:
324,45,238112,1,2,3:2:0:0:
268,37,238205,1,2,3:2:0:0:
219,80,238297,1,2,3:2:0:0:
220,150,238390,1,2,3:2:0:0:
180,199,238482,1,10,0:0:0:0:
122,200,238575,1,2,0:0:0:0:
74,166,238668,1,2,3:2:0:0:
59,115,238760,1,2,3:2:0:0:
80,73,238853,1,2,3:2:0:0:
108,60,238945,1,2,3:2:0:0:
135,68,239038,1,10,0:0:0:0:
144,96,239130,1,2,0:0:0:0:
134,111,239223,2,0,L|57:128,3,63.7500024318696,2|0|0|0,3:2|3:2|3:2|3:2,0:0:0:0:
0,196,239593,5,10,0:0:0:0:
8,199,239686,1,10,0:3:0:0:
1,206,239779,2,0,L|14:266,1,50.9999984436036,4|4,0:3|0:3,0:0:0:0:
39,343,239964,5,6,3:2:0:0:
32,339,240056,1,0,3:2:0:0:
24,347,240149,1,0,3:2:0:0:
27,357,240242,1,0,3:2:0:0:
35,365,240334,1,10,0:0:0:0:
49,368,240427,1,0,0:0:0:0:
67,362,240519,1,0,3:2:0:0:
80,349,240612,1,0,3:2:0:0:
83,330,240705,1,2,3:2:0:0:
67,304,240797,1,0,3:2:0:0:
82,261,240890,1,10,0:0:0:0:
126,238,240982,1,2,0:0:0:0:
185,259,241075,1,2,3:2:0:0:
204,311,241168,1,2,3:2:0:0:
252,320,241260,1,2,3:2:0:0:
278,296,241353,1,2,3:2:0:0:
272,279,241446,5,14,0:0:0:0:
277,270,241538,1,0,0:0:0:0:
294,268,241630,1,0,3:2:0:0:
309,280,241723,1,0,3:2:0:0:
307,300,241816,1,2,3:2:0:0:
289,320,241908,1,0,3:2:0:0:
292,355,242001,1,8,0:0:0:0:
326,377,242093,1,0,0:0:0:0:
372,369,242186,1,2,3:2:0:0:
400,329,242279,1,0,3:2:0:0:
389,273,242371,1,2,3:2:0:0:
350,220,242464,1,2,3:2:0:0:
374,157,242556,1,10,0:2:0:0:
438,141,242649,1,10,0:3:0:0:
488,167,242742,1,2,3:2:0:0:
498,217,242834,1,2,3:2:0:0:
470,247,242927,5,14,0:1:0:0:
470,247,243297,1,0,3:2:0:0:
282,188,243482,1,10,3:2:0:0:
494,90,243668,1,10,0:0:0:0:
276,189,243853,1,10,0:0:0:0:
190,0,244038,1,10,0:0:0:0:
499,93,244223,1,10,0:0:0:0:
269,329,244408,5,10,0:0:0:0:
211,281,244501,1,10,0:0:0:0:
218,214,244593,1,10,0:0:0:0:
276,189,244686,1,10,0:0:0:0:
327,206,244779,1,2,3:2:0:0:
379,187,244871,1,0,3:2:0:0:
397,154,244964,5,8,0:0:0:0:
385,111,245056,1,10,0:0:0:0:
340,88,245149,1,10,0:0:0:0:
294,103,245242,1,10,0:0:0:0:
246,98,245334,1,2,3:2:0:0:
223,62,245427,1,2,3:2:0:0:
219,24,245519,1,10,0:0:0:0:
179,0,245612,1,10,0:0:0:0:
121,12,245705,1,10,0:0:0:0:
86,56,245797,1,10,0:0:0:0:
104,118,245890,6,0,P|134:185|108:260,1,136,4|10,3:2|0:0,0:0:0:0:
9,105,246260,1,0,3:2:0:0:
9,105,246353,1,0,3:2:0:0:
9,105,246445,1,10,0:2:0:0:
177,176,246630,1,0,3:2:0:0:
8,247,246816,1,10,0:0:0:0:
219,305,247001,1,0,3:2:0:0:
223,297,247093,1,0,3:2:0:0:
211,293,247186,6,0,B|97:310|173:361|30:386,1,204,10|0,0:0|0:0,0:0:0:0:
36,384,247556,1,10,0:0:0:0:
116,240,247742,2,0,L|93:160,2,68,0|0|10,3:0|3:0|0:0,0:0:0:0:
263,379,248112,1,0,3:2:0:0:
357,301,248297,1,10,0:0:0:0:
410,364,248482,2,0,L|454:374,2,36.8333316472372,0|0|0,3:2|3:0|3:0,0:0:0:0:
512,335,248668,1,10,0:0:0:0:
376,172,248853,6,0,B|384:249|434:212|444:302,1,136,0|10,3:2|0:0,0:0:0:0:
466,161,249223,1,0,3:0:0:0:
466,161,249316,1,0,3:0:0:0:
466,161,249408,1,10,0:0:0:0:
357,301,249593,1,0,3:2:0:0:
238,252,249779,1,10,0:0:0:0:
191,376,249964,5,0,3:0:0:0:
191,376,250056,1,0,3:0:0:0:
191,376,250149,2,0,B|212:343|212:343|162:136,1,204,10|0,0:0|0:0,0:0:0:0:
208,107,250519,2,0,P|285:111|303:175,1,136,10|0,0:2|3:0,0:0:0:0:
353,225,250797,1,0,3:0:0:0:
353,225,250890,2,0,P|406:276|477:249,1,136,10|0,0:0|3:2,0:0:0:0:
467,260,251168,1,0,3:0:0:0:
467,253,251260,2,0,L|448:176,1,68,14|0,0:1|0:0,0:0:0:0:
501,35,251445,1,0,3:0:0:0:
501,35,251538,1,0,3:0:0:0:
501,35,251630,1,14,0:1:0:0:
296,71,251816,6,0,L|450:104,1,136,4|10,3:2|0:0,0:0:0:0:
217,123,252186,1,0,3:0:0:0:
217,123,252279,1,0,3:0:0:0:
217,123,252371,1,10,0:0:0:0:
372,46,252556,1,0,3:2:0:0:
193,0,252742,1,10,0:0:0:0:
50,94,252927,5,0,3:2:0:0:
50,94,253019,1,0,3:0:0:0:
50,94,253112,2,0,B|71:123|71:123|21:295,1,204,10|0,0:0|0:0,0:0:0:0:
24,284,253482,1,10,0:0:0:0:
214,203,253668,2,0,L|75:230,1,136,0|10,3:2|0:0,0:0:0:0:
247,284,254038,1,0,3:2:0:0:
315,112,254223,1,10,0:0:0:0:
456,186,254408,2,0,L|502:199,2,36.8333316472372,0|0|0,3:0|3:0|3:0,0:0:0:0:
372,205,254593,1,10,0:0:0:0:
398,345,254779,6,0,L|368:179,1,136,0|10,3:2|0:0,0:0:0:0:
446,46,255149,1,0,3:0:0:0:
446,46,255242,1,0,3:0:0:0:
446,46,255334,1,10,0:0:0:0:
315,112,255519,2,0,L|174:83,1,136,0|10,3:0|0:0,0:0:0:0:
19,35,255890,5,0,3:0:0:0:
15,28,255982,1,0,3:0:0:0:
24,23,256075,2,0,P|94:30|119:160,1,204,10|0,0:0|0:0,0:0:0:0:
55,169,256445,5,10,0:0:0:0:
22,194,256538,1,8,0:0:0:0:
22,234,256630,1,10,0:0:0:0:
48,265,256723,1,8,0:0:0:0:
88,272,256816,1,10,0:0:0:0:
123,253,256908,1,8,0:0:0:0:
143,217,257001,5,10,0:0:0:0:
132,263,257093,1,8,0:0:0:0:
150,322,257186,1,10,0:0:0:0:
193,342,257279,1,8,0:0:0:0:
239,332,257371,1,10,0:0:0:0:
281,299,257464,1,8,0:0:0:0:
336,294,257556,1,10,0:0:0:0:
382,317,257649,1,8,0:0:0:0:
408,375,257742,6,0,L|309:387,1,68,4|0,3:2|3:0,0:0:0:0:
454,255,257927,2,0,P|470:285|467:317,1,68,10|0,0:0|3:0,0:0:0:0:
240,200,258112,5,0,3:0:0:0:
245,166,258204,1,0,3:0:0:0:
251,132,258297,1,10,0:0:0:0:
257,99,258389,1,0,3:0:0:0:
262,65,258482,2,0,L|183:81,1,68,0|0,3:0|3:0,0:0:0:0:
75,107,258668,2,0,L|-4:91,1,68,10|0,0:0|3:0,0:0:0:0:
90,18,258853,2,0,L|157:5,1,68,0|0,3:0|3:0,0:0:0:0:
23,210,259038,5,10,0:0:0:0:
23,210,259130,2,0,L|182:181,1,136,0|0,3:2|3:0,0:0:0:0:
155,193,259408,2,0,L|129:272,1,68,10|0,0:0|3:0,0:0:0:0:
1,311,259593,2,0,L|82:294,1,68,0|0,3:0|3:0,0:0:0:0:
182,384,259779,2,0,L|126:321,1,68,10|0,0:0|3:0,3:0:0:0:
75,107,259964,5,0,3:0:0:0:
64,58,260056,1,0,3:0:0:0:
101,28,260149,1,10,0:0:0:0:
152,29,260242,1,0,3:0:0:0:
182,62,260334,1,0,3:0:0:0:
225,66,260427,1,0,3:0:0:0:
246,47,260519,1,10,0:0:0:0:
246,23,260612,1,0,3:0:0:0:
229,13,260705,6,0,L|243:95,1,68,0|0,3:2|3:0,0:0:0:0:
272,159,260890,2,0,L|258:241,1,68,10|0,0:2|3:0,0:0:0:0:
122,168,261075,6,0,L|201:149,1,68,0|0,3:0|3:0,0:0:0:0:
320,89,261260,2,0,L|399:108,1,68,10|0,0:0|3:0,0:0:0:0:
490,205,261445,5,0,3:0:0:0:
497,258,261538,1,0,3:0:0:0:
453,280,261630,1,10,0:0:0:0:
404,261,261723,1,0,3:0:0:0:
356,272,261816,1,0,3:0:0:0:
341,316,261908,1,0,3:0:0:0:
358,350,262001,1,10,0:0:0:0:
383,356,262093,6,0,L|406:190,1,136,0|0,3:2|3:0,0:0:0:0:
407,218,262371,2,0,L|419:290,1,68,10|0,0:0|3:0,0:0:0:0:
276,376,262556,6,0,P|247:367|196:366,1,68,0|0,3:0|3:0,0:0:0:0:
337,225,262742,2,0,P|370:223|403:213,1,68,10|0,0:0|3:0,0:0:0:0:
264,282,262927,5,0,3:0:0:0:
230,235,263019,1,0,3:0:0:0:
245,190,263112,1,14,0:1:0:0:
277,170,263205,1,0,3:0:0:0:
295,138,263297,1,0,3:0:0:0:
283,109,263390,1,0,3:0:0:0:
264,101,263482,1,14,0:1:0:0:
249,111,263575,1,0,3:0:0:0:
252,122,263668,6,0,P|296:118|328:109,1,68,0|0,3:1|3:0,0:0:0:0:
54,255,263853,2,0,P|98:259|130:268,1,68,10|0,0:2|3:0,0:0:0:0:
172,92,264038,6,0,L|161:169,1,68,0|0,3:0|3:0,0:0:0:0:
206,307,264223,2,0,L|195:230,1,68,10|0,0:0|3:0,0:0:0:0:
317,36,264408,5,0,3:0:0:0:
354,0,264501,1,0,3:0:0:0:
400,14,264593,1,10,0:0:0:0:
421,48,264686,1,0,3:0:0:0:
410,80,264779,1,0,3:0:0:0:
416,109,264871,1,0,3:0:0:0:
440,119,264964,1,10,0:0:0:0:
453,110,265056,6,0,L|292:137,1,136,0|0,3:0|3:0,0:0:0:0:
312,131,265334,2,0,B|330:65,1,68,10|0,0:0|3:0,0:0:0:0:
215,0,265519,6,0,L|234:73,1,68,0|0,3:0|3:0,0:0:0:0:
168,141,265705,2,0,L|121:91,1,68,10|0,0:0|3:0,0:0:0:0:
39,197,265890,5,0,3:0:0:0:
0,239,265982,1,0,3:0:0:0:
18,282,266075,1,14,0:1:0:0:
58,289,266168,1,0,3:0:0:0:
84,266,266260,1,12,0:1:0:0:
123,268,266353,1,0,3:2:0:0:
144,293,266445,1,2,3:2:0:0:
141,315,266538,1,0,3:2:0:0:
128,318,266630,5,14,0:1:0:0:
156,267,266723,1,0,3:0:0:0:
210,266,266816,1,2,3:0:0:0:
238,312,266908,1,0,3:0:0:0:
223,350,267001,1,14,0:1:0:0:
250,384,267093,1,0,3:2:0:0:
290,376,267186,1,2,3:2:0:0:
305,360,267279,1,0,3:2:0:0:
300,345,267371,6,0,L|187:369,1,68,14|0,0:1|3:0,0:0:0:0:
383,370,267556,2,0,L|463:387,1,55.2499974708558,2|0,3:0|3:0,0:0:0:0:
174,306,267742,6,0,L|66:281,1,80.7499978437424,14|0,0:1|0:0,0:0:0:0:
365,285,267927,1,0,3:0:0:0:
394,292,268019,1,0,3:0:0:0:
423,299,268112,5,10,0:0:0:0:
493,248,268235,6,0,L|497:222,2,19.8333327280681,8|8|8,0:0|0:0|0:0,0:0:0:0:
439,163,268482,6,0,L|421:55,1,85.0000032424928,8|8,0:0|0:3,0:0:0:0:
369,200,268729,5,8,0:3:0:0:
303,149,268853,5,4,0:3:0:0:
227,157,268976,5,4,0:3:0:0:
171,113,269100,5,8,0:3:0:0:
134,128,269223,5,8,0:3:0:0:
118,115,269347,5,4,0:3:0:0:
103,120,269470,5,4,0:3:0:0:
98,115,269593,5,6,3:1:0:0:
512,252,270334,5,6,3:2:0:0:
98,115,271075,5,6,3:1:0:0:
98,115,271630,1,8,0:3:0:0:
98,115,272001,6,0,L|88:65,1,31.8750012159348,8|8,3:3|3:3,0:0:0:0:
169,73,272186,2,0,L|185:24,1,31.8750012159348,6|4,3:3|3:3,0:0:0:0:
249,83,272371,1,6,3:3:0:0:
435,10,272556,5,6,3:1:0:0:
298,364,273297,1,6,3:2:0:0:
2,147,274038,1,6,3:1:0:0:
58,114,274130,1,8,0:0:0:0:
112,136,274223,1,8,0:0:0:0:
135,185,274316,1,8,0:0:0:0:
123,230,274408,1,8,0:0:0:0:
90,253,274501,1,8,0:0:0:0:
51,253,274593,1,8,0:3:0:0:
20,273,274686,1,8,0:3:0:0:
12,305,274779,1,4,3:3:0:0:
23,335,274871,1,4,3:3:0:0:
46,342,274964,1,4,3:3:0:0:
63,336,275056,1,4,3:3:0:0:
63,326,275149,6,0,L|51:380,1,42.5,6|4,0:3|0:3,0:0:0:0:
143,343,275334,2,0,L|131:397,1,42.5,6|4,3:3|0:3,0:0:0:0:
360,383,275519,5,6,3:1:0:0:
360,383,275705,2,0,L|375:386,2,8.5,2|2|2,0:0|0:0|3:2,0:0:0:0:
403,317,276075,2,0,L|420:310,2,12.7499996109009,2|2|2,0:0|0:0|3:2,0:0:0:0:
400,222,276445,2,0,L|414:205,2,21.25,2|2|2,0:0|0:0|3:2,0:0:0:0:
356,117,276816,2,0,L|364:77,2,38.2499988327027,2|2|2,0:0|0:0|3:2,0:0:0:0:
238,47,277186,2,0,L|210:-27,2,50.9999984436036,2|2|2,0:0|0:0|3:2,0:0:0:0:
75,41,277556,2,0,L|2:0,2,68,2|2|2,0:0|0:0|3:2,0:0:0:0:
75,41,278112,5,2,3:2:0:0:
144,0,278297,1,2,0:0:0:0:
18,242,278482,5,14,0:1:0:0:
18,242,278853,1,0,3:2:0:0:
103,205,279038,1,10,0:0:0:0:
274,275,279223,1,10,0:0:0:0:
97,201,279408,1,10,0:0:0:0:
356,83,279593,1,10,0:0:0:0:
168,0,279779,1,10,0:0:0:0:
437,58,279964,5,10,0:0:0:0:
443,71,280056,1,10,0:3:0:0:
440,85,280149,1,2,3:2:0:0:
427,100,280242,1,2,3:2:0:0:
391,112,280334,1,10,0:3:0:0:
349,84,280427,1,10,0:3:0:0:
290,84,280519,1,2,3:2:0:0:
246,134,280612,1,2,3:2:0:0:
269,201,280705,1,10,0:3:0:0:
336,229,280797,1,10,0:3:0:0:
381,281,280890,1,2,3:2:0:0:
374,341,280982,1,2,3:2:0:0:
330,367,281075,1,10,0:0:0:0:
284,348,281168,1,10,0:0:0:0:
279,315,281260,1,10,0:0:0:0:
296,296,281353,1,10,0:0:0:0:
310,297,281445,5,4,3:1:0:0:
287,342,281538,1,0,3:2:0:0:
236,344,281630,1,10,0:0:0:0:
201,307,281723,1,0,3:0:0:0:
208,256,281816,1,0,3:0:0:0:
241,218,281908,1,0,3:0:0:0:
246,167,282001,1,10,0:0:0:0:
214,128,282093,1,0,3:0:0:0:
163,133,282186,2,0,L|74:152,1,72.2500013780594,0|0,3:0|3:0,0:0:0:0:
228,0,282371,5,10,0:0:0:0:
266,10,282464,1,0,3:0:0:0:
284,42,282556,2,0,L|304:123,1,72.2500013780594,0|0,3:0|3:0,0:0:0:0:
442,22,282742,2,0,L|371:39,1,72.2500013780594,10|0,0:0|3:0,0:0:0:0:
165,53,282927,5,0,3:0:0:0:
131,41,283019,1,0,3:0:0:0:
112,9,283112,1,10,0:0:0:0:
75,5,283205,1,0,3:0:0:0:
48,29,283297,1,0,3:0:0:0:
41,64,283390,1,0,3:0:0:0:
58,95,283482,1,10,0:0:0:0:
89,113,283575,1,0,3:0:0:0:
109,143,283668,1,0,3:0:0:0:
111,178,283760,1,0,3:0:0:0:
90,207,283853,1,10,0:0:0:0:
56,219,283945,1,0,3:0:0:0:
21,208,284038,6,0,P|-2:172|17:130,1,72.2500013780594,0|0,3:0|3:0,0:0:0:0:
78,302,284223,2,0,P|58:339|12:344,1,72.2500013780594,10|0,0:0|3:0,0:0:0:0:
116,172,284408,5,0,3:0:0:0:
173,165,284501,1,0,3:0:0:0:
213,205,284593,1,10,0:0:0:0:
209,262,284686,1,0,3:0:0:0:
165,300,284779,1,0,3:0:0:0:
169,356,284871,1,0,3:0:0:0:
218,379,284964,2,0,L|309:361,1,72.2500013780594,10|0,0:0|3:0,0:0:0:0:
480,234,285149,5,0,3:0:0:0:
506,293,285242,1,0,3:0:0:0:
490,355,285334,1,10,0:0:0:0:
430,381,285427,1,0,3:0:0:0:
368,361,285519,2,0,L|344:269,1,72.2500013780594,0|0,3:0|3:0,0:0:0:0:
294,234,285705,2,0,L|318:142,1,72.2500013780594,10|0,0:0|3:0,0:0:0:0:
473,16,285890,6,0,L|513:1,2,34,14|0|0,0:1|3:0|3:0,0:0:0:0:
401,46,286168,6,0,L|332:24,2,63.7500024318696,10|0|0,0:0|3:0|3:0,0:0:0:0:
265,0,286445,2,0,L|197:25,1,72.2500013780594,14|0,0:1|3:0,0:0:0:0:
28,100,286630,6,0,L|-5:90,3,29.7499990921021,10|0|0|0,0:0|3:0|3:0|3:0,0:0:0:0:
92,37,287001,5,10,0:0:0:0:
127,84,287093,1,8,0:0:0:0:
164,126,287186,1,10,0:0:0:0:
221,109,287278,1,8,0:0:0:0:
279,93,287371,6,0,L|250:240,1,144.500002756119,6|10,3:2|0:0,0:0:0:0:
256,239,287649,1,0,3:2:0:0:
260,245,287742,2,0,L|276:335,1,72.2500013780594,0|0,3:2|3:0,0:0:0:0:
417,229,287927,6,0,L|332:268,1,72.2500013780594,10|0,0:0|3:0,0:0:0:0:
181,296,288112,2,0,L|108:283,1,72.2500013780594,0|0,3:0|3:0,0:0:0:0:
167,114,288297,5,10,0:0:0:0:
189,81,288390,1,0,3:0:0:0:
227,91,288482,2,0,L|243:172,1,72.2500013780594,0|0,3:0|3:0,0:0:0:0:
311,74,288668,2,0,L|327:-7,1,72.2500013780594,10|0,0:0|3:0,0:0:0:0:
115,44,288853,5,4,3:2:0:0:
64,48,288945,1,0,3:0:0:0:
23,78,289038,1,10,0:0:0:0:
5,125,289130,1,0,3:0:0:0:
21,173,289223,2,0,L|103:194,1,72.2500013780594,0|0,3:0|3:0,0:0:0:0:
146,257,289408,2,0,L|215:239,1,72.2500013780594,10|0,0:0|3:0,0:0:0:0:
446,188,289593,6,0,L|500:199,3,50.9999984436036,0|0|14|0,3:2|3:0|0:1|3:0,0:0:0:0:
365,169,289964,6,0,L|344:92,1,50.9999984436036,0|0,3:0|3:0,0:0:0:0:
310,230,290149,2,0,L|289:307,1,63.7500024318696,14|0,0:1|3:0,0:0:0:0:
301,54,290334,5,4,3:2:0:0:
260,23,290427,1,0,3:0:0:0:
209,21,290519,1,10,0:0:0:0:
166,48,290612,1,0,3:0:0:0:
147,95,290705,1,0,3:0:0:0:
163,142,290797,1,0,3:0:0:0:
204,171,290890,2,0,L|280:153,1,72.2500013780594,10|0,0:0|3:0,0:0:0:0:
383,50,291075,2,0,L|463:69,1,72.2500013780594,0|0,3:2|3:0,0:0:0:0:
507,301,291260,6,0,L|423:282,1,72.2500013780594,14|0,0:1|3:0,0:0:0:0:
155,365,291445,2,0,L|107:378,3,42.5,12|8|0|0,0:0|0:3|3:2|3:2,0:0:0:0:
239,348,291816,6,0,L|232:377,8,22.6666666666667,10|0|0|0|0|0|0|0|0,0:0|3:0|3:0|3:0|3:0|3:0|3:0|3:0|3:0,0:0:0:0:
263,276,292371,2,0,L|253:235,8,31.1666676177979,10|0|0|0|0|0|0|0|0,0:0|3:0|3:0|3:0|3:0|3:0|3:0|3:0|3:0,0:0:0:0:
321,337,292927,6,0,L|475:374,1,127.500004863739,10|0,0:0|3:0,0:0:0:0:
508,319,293205,1,0,3:0:0:0:
508,319,293297,5,14,0:0:0:0:
500,287,293390,1,0,3:2:0:0:
481,261,293482,1,2,3:2:0:0:
449,253,293575,1,2,3:2:0:0:
417,260,293668,1,2,3:2:0:0:
387,247,293760,1,0,3:2:0:0:
371,219,293853,1,2,3:2:0:0:
377,188,293945,1,0,3:2:0:0:
404,170,294038,5,14,0:1:0:0:
429,133,294130,1,0,3:2:0:0:
422,88,294223,1,2,3:2:0:0:
390,55,294316,1,2,3:2:0:0:
347,40,294408,1,2,3:2:0:0:
302,44,294501,1,0,3:2:0:0:
270,75,294593,1,2,3:2:0:0:
263,119,294686,1,0,3:2:0:0:
285,157,294779,6,0,P|293:187|268:237,1,63.7500024318696,14|0,3:2|0:0,0:0:0:0:
109,318,294964,2,0,L|39:302,1,63.7500024318696,2|0,3:2|3:0,0:0:0:0:
362,246,295149,6,0,P|344:275|286:295,1,72.2500013780594,10|0,3:2|0:0,0:0:0:0:
39,295,295334,2,0,L|0:234,1,72.2500013780594,2|0,3:2|3:0,0:0:0:0:
349,365,295519,6,0,P|311:374|250:343,1,80.7499978437424,14|0,3:1|0:0,0:0:0:0:
0,225,295705,2,0,L|18:145,1,80.7499978437424,2|0,3:2|3:0,0:0:0:0:
193,326,295890,6,0,L|181:385,3,42.5,10|0|2|0,0:0|3:0|0:0|3:0,0:0:0:0:
221,254,296260,5,14,0:2:0:0:
220,224,296353,1,0,3:2:0:0:
194,208,296445,1,2,3:2:0:0:
164,208,296538,1,2,3:2:0:0:
141,227,296630,1,2,3:2:0:0:
111,225,296723,1,0,3:2:0:0:
89,204,296816,1,2,3:2:0:0:
85,174,296908,1,0,3:2:0:0:
101,148,297001,5,14,0:1:0:0:
80,154,297093,1,0,3:2:0:0:
65,138,297186,1,2,3:2:0:0:
64,116,297279,1,2,3:2:0:0:
78,100,297371,1,2,3:2:0:0:
99,97,297464,1,0,3:2:0:0:
117,106,297556,1,2,3:2:0:0:
137,101,297649,1,0,3:2:0:0:
147,82,297742,6,0,P|156:49|199:26,1,72.2500013780594,14|0,0:2|3:0,0:0:0:0:
362,229,297927,2,0,P|328:237|287:211,1,72.2500013780594,2|0,3:2|3:0,0:0:0:0:
241,94,298112,6,0,P|271:106|282:146,1,59.4999981842042,14|0,0:0|3:0,0:0:0:0:
202,225,298297,2,0,P|197:192|226:162,1,59.4999981842042,2|0,3:2|3:0,0:0:0:0:
370,131,298482,5,10,0:0:0:0:
415,101,298575,1,8,0:0:0:0:
466,115,298668,1,10,0:0:0:0:
500,155,298760,1,8,0:0:0:0:
500,208,298853,1,10,0:0:0:0:
461,245,298945,1,8,0:0:0:0:
436,293,299038,1,10,0:0:0:0:
448,344,299130,1,8,0:0:0:0:
493,373,299223,5,6,3:2:0:0:
507,354,299316,1,0,3:2:0:0:
494,333,299408,1,0,3:2:0:0:
470,328,299501,1,0,3:2:0:0:
448,337,299593,1,10,0:0:0:0:
439,359,299686,1,0,3:2:0:0:
417,368,299779,1,0,3:2:0:0:
393,363,299871,1,0,3:2:0:0:
375,345,299964,5,10,0:0:0:0:
364,377,300056,1,0,3:2:0:0:
328,378,300149,1,0,3:2:0:0:
297,358,300242,1,0,3:2:0:0:
284,324,300334,1,10,0:2:0:0:
293,289,300427,1,0,3:2:0:0:
322,269,300519,1,0,3:2:0:0:
330,234,300612,1,0,3:2:0:0:
318,199,300705,5,10,0:0:0:0:
275,179,300797,1,0,3:2:0:0:
261,133,300890,1,0,3:2:0:0:
291,96,300982,1,0,3:2:0:0:
338,101,301075,1,10,0:0:0:0:
380,136,301168,1,0,3:2:0:0:
437,141,301260,1,0,3:2:0:0:
488,106,301353,1,0,3:2:0:0:
498,46,301445,6,0,L|503:6,2,38.2499988327027,14|0|0,0:0|3:0|3:0,0:0:0:0:
290,155,302186,6,0,L|265:19,1,127.5,6|0,3:2|3:0,0:0:0:0:
272,25,302835,1,0,3:0:0:0:
277,34,302927,1,14,0:1:0:0:
221,197,303112,1,8,0:0:0:0:
293,368,303297,1,14,0:2:0:0:
313,289,303482,6,0,L|318:260,2,19.8333327280681,0|0|0,3:0|3:0|3:0,0:0:0:0:
224,292,303668,5,14,0:0:0:0:
186,299,303760,1,0,3:2:0:0:
149,307,303853,1,0,3:2:0:0:
122,279,303945,1,0,3:2:0:0:
96,252,304038,2,0,L|112:173,1,50.9999984436036,0|0,3:0|3:0,0:0:0:0:
12,93,304223,5,14,0:1:0:0:
18,47,304316,1,0,3:2:0:0:
50,15,304408,1,0,3:2:0:0:
94,0,304501,1,0,3:2:0:0:
138,9,304593,2,0,P|168:20|180:36,1,50.9999984436036,0|0,3:0|3:0,0:0:0:0:
267,196,304779,5,14,0:1:0:0:
314,220,304872,1,0,3:2:0:0:
366,213,304964,1,0,3:2:0:0:
410,180,305057,1,0,3:2:0:0:
433,132,305149,6,0,L|412:55,3,63.7500024318696,4|4|0|0,0:0|3:3|3:2|3:2,0:0:0:0:
342,18,305519,2,0,L|327:108,1,72.2500013780594,8|0,0:0|3:2,0:0:0:0:
249,273,305705,5,8,0:0:0:0:
253,280,305797,1,0,3:2:0:0:
257,287,305890,2,0,L|249:330,2,28.3333333333333,0|0|0,3:2|3:2|3:2,3:2:0:0:
178,347,306075,6,0,L|100:360,1,63.7500024318696,8|0,0:0|3:2,0:0:0:0:
335,260,306260,5,8,0:0:0:0:
377,268,306352,1,0,3:2:0:0:
419,276,306445,1,0,3:2:0:0:
461,285,306537,1,0,3:2:0:0:
504,293,306630,6,0,L|410:318,2,85.0000032424928,14|8|8,0:1|0:0|0:0,0:0:0:0:
349,384,307001,5,8,0:0:0:0:
322,303,307125,5,8,0:3:0:0:
356,235,307248,5,8,0:3:0:0:
335,167,307372,5,12,0:3:0:0:
359,119,307495,5,12,0:3:0:0:
334,78,307618,5,12,0:3:0:0:
355,45,307742,6,0,L|347:16,3,17,2|2|2|2,3:2|0:2|3:2|0:0,0:0:0:0:
281,0,308112,5,6,3:2:0:0:
266,144,319964,5,6,3:2:0:0:
266,144,320334,1,2,3:2:0:0:
266,144,320705,2,0,L|278:207,1,50.9999984436036,2|0,3:2|0:0,0:0:0:0:
315,271,321075,1,2,3:2:0:0:
315,271,321260,1,0,0:0:0:0:
187,384,321445,6,0,L|118:373,1,50.9999984436036,2|0,3:2|0:0,0:0:0:0:
263,358,321816,2,0,L|332:347,1,50.9999984436036,2|0,3:2|0:0,0:0:0:0:
57,384,322186,1,2,3:2:0:0:
57,384,322556,1,2,3:2:0:0:
196,302,322742,5,2,0:0:0:0:
196,302,322834,1,2,0:0:0:0:
196,302,322927,1,2,3:2:0:0:
196,302,323297,2,0,L|185:235,1,59.4999981842042,2|0,3:2|0:0,0:0:0:0:
217,176,323668,2,0,L|228:109,1,59.4999981842042,2|0,3:2|0:0,0:0:0:0:
182,38,324038,1,2,3:2:0:0:
182,38,324223,1,0,0:0:0:0:
64,99,324408,6,0,L|154:115,1,76.4999976654053,2|0,3:2|0:0,0:0:0:0:
269,40,324686,1,0,0:0:0:0:
269,40,324779,2,0,L|359:24,1,76.4999976654053,2|0,3:2|0:0,0:0:0:0:
226,117,325149,1,2,3:2:0:0:
274,199,325334,1,2,0:0:0:0:
274,199,325427,1,2,0:0:0:0:
274,199,325519,2,0,L|253:320,1,114.749996498108,2|0,3:2|0:0,0:0:0:0:
206,378,325890,5,6,3:2:0:0:
206,378,326260,1,2,3:2:0:0:
206,378,326630,2,0,L|117:361,1,76.4999976654053,2|0,3:2|0:0,0:0:0:0:
254,312,327001,2,0,L|343:295,1,76.4999976654053,2|0,3:2|0:0,0:0:0:0:
117,199,327371,5,2,3:2:0:0:
117,199,327742,2,0,L|37:181,1,76.4999976654053,2|0,3:2|0:0,0:0:0:0:
232,136,328112,1,2,3:2:0:0:
232,136,328482,2,0,L|251:51,1,76.4999976654053,2|0,3:2|0:0,0:0:0:0:
267,362,328853,5,14,0:0:0:0:
267,362,329223,5,8,0:3:0:0:
302,282,329408,1,4,0:3:0:0:
265,368,329593,5,6,0:3:0:0:
184,235,329779,1,0,3:2:0:0:
403,174,329964,6,0,L|411:138,2,25.4999992218018,0|0|0,3:0|3:0|3:0,0:0:0:0:
443,247,330149,2,0,L|459:311,1,38.2499988327027,0|0,3:0|3:0,0:0:0:0:
509,57,330334,5,14,0:0:0:0:
509,57,331075,5,2,0:0:0:0:
501,46,331168,1,2,0:0:0:0:
483,42,331260,1,2,0:0:0:0:
460,51,331353,1,2,0:0:0:0:
445,72,331445,1,2,0:0:0:0:
458,104,331538,1,2,0:0:0:0:
489,125,331630,1,2,0:0:0:0:
507,159,331723,1,2,0:0:0:0:
496,202,331816,5,4,3:2:0:0:
455,231,331908,1,0,3:0:0:0:
404,223,332001,1,10,0:0:0:0:
377,180,332093,1,0,3:0:0:0:
384,129,332186,1,0,3:0:0:0:
367,73,332279,1,0,3:0:0:0:
313,51,332371,1,10,0:0:0:0:
256,62,332464,1,0,3:2:0:0:
226,110,332556,6,0,P|239:144|246:187,1,72.2500013780594,0|0,3:0|3:0,0:0:0:0:
167,196,332742,2,0,P|160:160|147:127,1,72.2500013780594,10|0,0:0|3:0,0:0:0:0:
17,0,332927,6,0,P|4:34|-3:77,1,55.2499974708558,0|0,3:0|3:0,0:0:0:0:
76,85,333113,2,0,P|83:49|96:16,1,55.2499974708558,10|0,0:0|3:0,0:0:0:0:
256,62,333297,5,0,3:0:0:0:
302,46,333390,1,0,3:0:0:0:
347,66,333482,1,10,0:0:0:0:
368,110,333575,1,0,3:0:0:0:
346,155,333668,1,0,3:0:0:0:
350,204,333760,1,0,3:0:0:0:
392,229,333853,1,10,0:0:0:0:
441,225,333945,1,0,3:0:0:0:
465,181,334038,5,0,3:0:0:0:
446,232,334130,1,0,3:0:0:0:
475,279,334223,1,10,0:0:0:0:
471,334,334316,1,0,3:0:0:0:
430,371,334408,1,0,3:0:0:0:
375,361,334501,1,0,3:0:0:0:
337,320,334593,1,10,0:0:0:0:
284,302,334686,1,0,3:0:0:0:
237,331,334779,6,0,P|207:361|151:348,3,72.2500013780594,0|0|10|0,3:0|3:0|0:0|3:0,0:0:0:0:
105,384,335149,2,0,P|64:373|47:318,1,72.2500013780594,0|0,3:0|3:0,0:0:0:0:
0,221,335334,6,0,L|14:150,3,72.2500013780594,10|0|0|0,0:0|3:0|3:0|3:0,0:0:0:0:
84,80,335705,6,0,L|99:165,1,72.2500013780594,10|0,0:2|3:0,0:0:0:0:
169,202,335890,2,0,L|184:117,1,72.2500013780594,0|0,3:2|3:0,0:0:0:0:
256,83,336075,6,8,L|267:152,3,55.2499974708558,10|0|0|0,0:0|3:0|3:0|3:0,0:0:0:0:
279,220,336445,5,10,0:0:0:0:
301,241,336538,1,0,3:0:0:0:
334,232,336630,2,0,L|349:139,1,72.2500013780594,0|0,3:0|3:0,0:0:0:0:
414,93,336816,2,0,L|429:186,1,72.2500013780594,10|0,0:0|3:0,0:0:0:0:
511,164,337001,6,0,L|501:223,1,55.2499974708558,0|0,3:0|3:0,0:0:0:0:
426,257,337186,2,0,L|435:313,1,55.2499974708558,14|0,0:2|3:0,0:0:0:0:
334,78,337371,6,0,L|347:3,3,63.7500024318696,0|0|14|0,3:0|3:0|0:1|3:0,0:0:0:0:
253,0,337742,5,6,3:2:0:0:
208,24,337834,1,0,3:0:0:0:
195,73,337927,1,10,0:0:0:0:
209,121,338019,1,0,3:0:0:0:
247,155,338112,1,0,3:0:0:0:
285,197,338205,1,0,3:0:0:0:
301,251,338297,1,10,0:0:0:0:
285,306,338390,1,0,3:0:0:0:
252,352,338482,6,0,L|234:261,1,72.2500013780594,0|0,3:0|3:0,0:0:0:0:
390,203,338668,2,0,L|408:112,1,72.2500013780594,10|0,0:0|3:0,0:0:0:0:
376,372,338853,6,0,L|356:282,1,55.2499974708558,0|0,3:0|3:0,0:0:0:0:
236,275,339038,2,0,L|218:184,1,55.2499974708558,10|0,0:0|3:0,0:0:0:0:
175,26,339223,5,0,3:0:0:0:
128,5,339316,1,0,3:0:0:0:
78,15,339408,1,10,0:0:0:0:
51,58,339501,1,0,3:0:0:0:
67,105,339593,1,0,3:0:0:0:
110,130,339686,1,0,3:0:0:0:
132,175,339779,1,10,0:0:0:0:
119,223,339871,1,0,3:0:0:0:
70,239,339964,5,0,3:0:0:0:
39,287,340056,1,0,3:0:0:0:
56,342,340149,1,10,0:0:0:0:
103,375,340242,1,0,3:0:0:0:
159,366,340334,6,0,L|173:283,1,72.2500013780594,0|0,3:2|3:0,0:0:0:0:
222,218,340519,2,0,L|208:135,1,72.2500013780594,10|0,0:2|3:0,0:0:0:0:
266,54,340705,5,4,3:2:0:0:
306,13,340797,1,0,3:0:0:0:
362,0,340890,1,10,0:0:0:0:
418,7,340982,1,0,3:0:0:0:
466,39,341075,1,0,3:0:0:0:
501,85,341168,1,0,3:0:0:0:
512,141,341260,1,10,0:0:0:0:
506,198,341353,1,0,3:0:0:0:
475,246,341445,1,0,3:0:0:0:
425,275,341538,1,0,3:0:0:0:
366,281,341630,1,10,0:0:0:0:
312,261,341723,1,0,3:0:0:0:
280,211,341816,1,0,3:0:0:0:
281,164,341908,1,0,3:0:0:0:
301,133,342001,1,10,0:0:0:0:
325,127,342093,1,0,3:0:0:0:
338,136,342186,5,6,3:1:0:0:
338,148,342279,1,0,3:2:0:0:
324,153,342371,1,8,0:0:0:0:
299,151,342464,1,8,0:0:0:0:
279,124,342556,1,8,0:0:0:0:
287,82,342649,1,8,0:0:0:0:
269,31,342742,1,8,0:0:0:0:
214,7,342834,1,8,0:0:0:0:
156,23,342927,1,10,3:0:0:0:
129,77,343019,1,10,3:0:0:0:
146,135,343112,1,10,3:0:0:0:
189,178,343205,1,10,3:0:0:0:
209,242,343297,1,10,3:0:0:0:
184,305,343390,1,10,3:0:0:0:
124,338,343482,1,10,3:0:0:0:
56,327,343575,1,10,3:0:0:0:
13,265,343668,6,0,L|26:184,3,72.2500013780594,4|0|10|0,3:2|3:0|0:0|3:0,0:0:0:0:
60,126,344038,2,0,L|47:45,3,72.2500013780594,0|0|10|0,3:2|3:0|0:0|3:0,0:0:0:0:
135,0,344408,5,0,3:0:0:0:
193,0,344501,1,0,3:0:0:0:
235,38,344593,1,10,0:0:0:0:
246,94,344686,1,0,3:0:0:0:
219,145,344779,1,0,3:0:0:0:
182,162,344871,1,0,3:0:0:0:
147,146,344964,1,10,0:0:0:0:
138,124,345056,1,0,3:0:0:0:
145,108,345149,5,0,3:0:0:0:
149,158,345242,1,0,3:0:0:0:
119,198,345334,1,10,0:0:0:0:
69,211,345427,1,0,3:0:0:0:
35,248,345519,1,0,3:0:0:0:
34,298,345612,1,0,3:0:0:0:
65,338,345705,1,10,0:0:0:0:
113,352,345797,1,0,3:0:0:0:
157,328,345890,5,0,3:0:0:0:
186,278,345982,1,0,3:0:0:0:
243,267,346075,1,10,0:0:0:0:
293,296,346168,1,0,3:0:0:0:
318,347,346260,1,0,3:0:0:0:
371,370,346353,1,0,3:0:0:0:
427,362,346445,1,10,0:0:0:0:
468,320,346538,1,0,3:0:0:0:
463,262,346630,6,0,L|440:171,3,72.2500013780594,0|0|10|0,3:0|3:0|0:0|3:0,0:0:0:0:
473,118,347001,6,0,P|456:89|413:76,1,72.2500013780594,0|0,3:0|3:0,0:0:0:0:
243,71,347186,2,0,L|254:0,3,72.2500013780594,10|0|0|0,0:0|3:0|3:0|3:0,0:0:0:0:
280,141,347556,6,0,P|263:170|220:183,1,72.2500013780594,10|0,0:0|3:0,0:0:0:0:
184,244,347742,2,0,P|150:243|117:213,1,72.2500013780594,0|0,3:2|3:0,0:0:0:0:
34,54,347927,6,0,L|25:0,3,55.2499974708558,10|0|0|0,0:0|3:0|3:0|3:0,0:0:0:0:
62,134,348297,5,10,0:0:0:0:
102,144,348390,1,0,3:0:0:0:
127,120,348482,2,0,L|109:44,1,55.2499974708558,0|0,3:0|3:0,0:0:0:0:
212,0,348668,2,0,L|197:79,1,72.2500013780594,10|0,0:0|3:0,0:0:0:0:
121,220,348853,6,0,L|40:242,1,72.2500013780594,0|0,3:2|3:0,0:0:0:0:
198,180,349038,2,0,L|279:202,1,72.2500013780594,14|0,0:2|3:0,0:0:0:0:
53,227,349223,6,0,L|-26:205,1,55.2499974708558,0|0,3:0|3:0,0:0:0:0:
275,190,349408,1,14,0:1:0:0:
314,212,349501,1,0,3:0:0:0:
319,256,349593,6,0,L|294:344,3,72.2500013780594,4|0|10|0,3:2|3:0|0:0|3:0,0:0:0:0:
402,219,349964,2,0,L|377:131,3,72.2500013780594,0|0|10|0,3:2|3:0|0:0|3:0,0:0:0:0:
478,115,350334,5,0,3:0:0:0:
506,68,350427,1,0,3:0:0:0:
474,18,350519,1,10,0:0:0:0:
422,4,350612,1,0,3:0:0:0:
379,31,350705,1,0,3:0:0:0:
338,43,350797,1,0,3:0:0:0:
302,35,350890,1,10,0:0:0:0:
286,17,350982,1,0,3:0:0:0:
291,2,351075,5,0,3:0:0:0:
328,46,351168,1,0,3:0:0:0:
312,101,351260,1,10,0:0:0:0:
258,123,351353,1,0,3:0:0:0:
209,92,351445,1,0,3:0:0:0:
151,88,351538,1,0,3:0:0:0:
105,123,351630,1,10,0:0:0:0:
98,180,351723,1,0,3:0:0:0:
129,229,351816,5,0,3:0:0:0:
91,180,351908,1,0,3:0:0:0:
31,195,352001,1,10,0:0:0:0:
9,251,352093,1,0,3:0:0:0:
42,297,352186,6,0,L|122:318,1,72.2500013780594,0|0,3:0|3:0,0:0:0:0:
247,377,352371,2,0,L|327:356,1,72.2500013780594,10|0,0:0|3:0,0:0:0:0:
479,299,352556,5,4,3:2:0:0:
501,245,352649,1,0,3:0:0:0:
490,187,352742,1,10,0:0:0:0:
458,139,352834,1,0,3:0:0:0:
404,115,352927,1,0,3:0:0:0:
346,120,353019,1,0,3:0:0:0:
306,162,353112,1,10,0:0:0:0:
250,177,353205,1,0,3:0:0:0:
201,146,353297,1,0,3:0:0:0:
182,91,353390,1,0,3:0:0:0:
148,44,353482,1,10,0:0:0:0:
91,32,353575,1,0,3:0:0:0:
37,55,353668,1,0,3:0:0:0:
23,104,353760,1,0,3:0:0:0:
45,142,353853,1,10,0:0:0:0:
87,148,353945,1,0,3:2:0:0:
104,130,354038,5,12,0:2:0:0:
99,118,354130,1,8,0:0:0:0:
82,120,354223,1,8,0:0:0:0:
69,140,354316,1,8,0:0:0:0:
70,170,354408,1,8,0:0:0:0:
93,206,354501,1,8,0:0:0:0:
131,228,354593,1,8,0:0:0:0:
185,220,354686,1,8,0:0:0:0:
219,176,354779,1,8,0:3:0:0:
205,111,354871,1,8,0:3:0:0:
224,46,354964,1,8,0:3:0:0:
284,14,355056,1,8,0:3:0:0:
353,26,355149,1,4,0:3:0:0:
402,79,355242,1,4,0:3:0:0:
413,149,355334,1,4,0:3:0:0:
374,210,355427,1,4,0:3:0:0:
295,219,355519,6,0,L|309:124,3,72.2500013780594,4|0|10|0,3:2|3:0|0:0|3:0,0:0:0:0:
285,319,355890,1,0,3:2:0:0:
265,302,355982,1,0,3:2:0:0:
244,286,356075,2,0,L|154:321,3,72.2500013780594,10|0|0|0,0:2|3:0|3:2|3:0,0:0:0:0:
114,369,356445,1,10,0:0:0:0:
108,362,356538,1,0,3:0:0:0:
101,354,356630,2,0,L|24:335,3,72.2500013780594,0|0|10|0,3:0|3:0|0:0|3:0,0:0:0:0:
0,268,357001,6,0,P|11:231|52:209,1,72.2500013780594,0|0,3:0|3:0,0:0:0:0:
72,60,357186,5,10,0:0:0:0:
86,63,357279,2,0,P|116:78|137:133,2,72.2500013780594,0|0|0,3:0|3:0|3:0,0:0:0:0:
211,162,357556,1,10,0:0:0:0:
201,172,357649,2,0,P|173:190|114:181,2,72.2500013780594,0|0|0,3:0|3:0|3:0,0:0:0:0:
265,16,357927,5,10,0:0:0:0:
318,6,358019,1,0,3:0:0:0:
371,15,358112,1,0,3:0:0:0:
419,40,358204,1,0,3:0:0:0:
457,78,358297,2,0,P|444:113|441:157,3,72.2500013780594,10|0|0|0,0:0|3:0|3:0|3:0,0:0:0:0:
495,212,358668,5,10,0:0:0:0:
435,230,358760,1,0,3:0:0:0:
411,280,358853,1,0,3:0:0:0:
423,328,358945,1,0,3:0:0:0:
451,352,359038,5,10,0:0:0:0:
424,297,359130,1,0,3:0:0:0:
375,287,359223,1,0,3:0:0:0:
333,306,359316,1,0,3:0:0:0:
317,337,359408,1,10,0:0:0:0:
296,352,359501,1,0,3:0:0:0:
258,345,359593,1,0,3:0:0:0:
231,309,359686,1,0,3:0:0:0:
233,256,359779,1,10,0:0:0:0:
266,215,359871,1,0,3:0:0:0:
264,162,359964,1,0,3:0:0:0:
220,126,360056,1,0,3:0:0:0:
164,129,360149,2,0,L|70:157,1,72.2500013780594,10|0,0:0|3:0,0:0:0:0:
341,166,360334,5,0,3:0:0:0:
392,186,360427,1,0,3:0:0:0:
439,166,360519,1,10,0:0:0:0:
456,123,360612,1,0,3:0:0:0:
445,82,360705,1,0,3:0:0:0:
410,50,360797,1,0,3:0:0:0:
407,12,360890,1,14,0:1:0:0:
431,0,360982,1,0,3:0:0:0:
455,16,361075,1,0,3:0:0:0:
452,34,361168,1,0,3:0:0:0:
439,41,361260,1,14,0:1:0:0:
427,38,361353,1,0,3:0:0:0:
424,30,361445,6,0,L|492:46,5,55.2499974708558,4|0|10|0|0|0,3:2|3:0|0:0|3:0|3:0|3:0,0:0:0:0:
343,77,362001,2,0,L|274:92,1,55.2499974708558,10|0,0:0|3:0,0:0:0:0:
44,8,362186,6,0,L|56:81,2,59.4999981842042,0|0|10,3:0|3:0|0:0,0:0:0:0:
129,105,362464,2,0,L|141:32,2,59.4999981842042,0|0|0,3:0|3:0|3:2,0:0:0:0:
61,159,362742,2,0,L|76:242,1,59.4999981842042,10|0,0:0|3:0,0:0:0:0:
273,318,362927,6,0,L|257:408,2,68,0|0|10,3:0|3:0|0:0,0:0:0:0:
162,296,363205,2,0,L|146:206,2,68,0|0|0,3:0|3:0|3:0,0:0:0:0:
243,192,363482,2,0,L|254:125,1,68,10|0,0:0|3:0,0:0:0:0:
390,4,363668,5,0,3:0:0:0:
433,46,363760,1,0,3:0:0:0:
459,101,363853,1,10,0:0:0:0:
462,161,363945,1,0,3:0:0:0:
429,213,364038,1,0,3:0:0:0:
412,254,364130,1,0,3:0:0:0:
430,293,364223,1,10,0:0:0:0:
460,310,364316,1,0,3:0:0:0:
481,306,364408,5,4,3:2:0:0:
425,279,364501,1,0,3:0:0:0:
373,311,364593,1,10,0:0:0:0:
344,365,364686,1,0,3:0:0:0:
283,384,364779,1,0,3:0:0:0:
228,357,364871,1,0,3:0:0:0:
199,302,364964,1,10,0:0:0:0:
207,241,365056,1,0,3:0:0:0:
253,200,365149,2,0,L|333:185,5,68,0|0|10|0|0|0,3:0|3:0|0:0|3:0|3:0|3:0,0:0:0:0:
374,133,365705,6,0,P|387:97|367:51,1,76.4999976654053,10|0,0:0|3:0,0:0:0:0:
124,17,365890,6,0,B|101:9|101:9|27:34,2,85,14|0|2,0:1|3:0|3:2,0:0:0:0:
207,52,366168,5,8,0:0:0:0:
213,62,366260,2,0,B|236:70|236:70|310:45,2,85,10|0|2,0:1|3:0|3:0,0:0:0:0:
121,132,366538,5,10,0:0:0:0:
116,123,366630,1,10,0:0:0:0:
59,134,366723,1,10,0:0:0:0:
40,185,366816,1,10,0:0:0:0:
66,229,366908,1,10,0:0:0:0:
103,252,367001,1,10,0:3:0:0:
125,284,367093,1,10,0:3:0:0:
116,325,367186,1,6,0:3:0:0:
81,341,367279,1,6,0:3:0:0:
61,331,367371,6,0,L|156:317,3,76.4999976654053,4|0|10|0,3:2|3:0|0:0|3:0,0:0:0:0:
199,367,367742,2,0,L|294:381,3,76.4999976654053,0|0|10|0,3:2|3:0|0:0|3:0,0:0:0:0:
333,328,368112,5,0,3:0:0:0:
366,279,368205,1,0,3:0:0:0:
346,222,368297,1,10,0:0:0:0:
293,197,368390,1,0,3:0:0:0:
246,210,368482,1,0,3:0:0:0:
232,250,368575,1,0,3:0:0:0:
254,278,368668,1,10,0:0:0:0:
272,280,368760,1,0,3:0:0:0:
282,268,368853,5,0,3:0:0:0:
235,242,368945,1,0,3:0:0:0:
186,264,369038,1,10,0:0:0:0:
169,314,369130,1,0,3:0:0:0:
126,346,369223,1,0,3:0:0:0:
72,341,369316,1,0,3:0:0:0:
37,300,369408,1,10,0:0:0:0:
36,246,369501,1,0,3:0:0:0:
69,204,369593,5,0,3:0:0:0:
129,190,369686,1,0,3:0:0:0:
169,143,369779,1,10,0:0:0:0:
173,82,369871,1,0,3:0:0:0:
147,25,369964,1,0,3:0:0:0:
87,11,370056,1,0,3:0:0:0:
28,29,370149,1,10,0:0:0:0:
4,85,370242,1,0,3:0:0:0:
27,141,370334,6,0,L|107:122,3,76.4999976654053,0|0|10|0,3:0|3:0|0:0|3:0,0:0:0:0:
173,82,370705,2,0,L|264:106,1,76.4999976654053,0|0,3:2|3:0,0:0:0:0:
448,79,370890,6,0,L|466:4,3,68,10|0|0|0,0:0|3:0|3:0|3:0,0:0:0:0:
371,42,371260,6,0,L|306:56,1,59.4999981842042,10|0,0:0|3:0,0:0:0:0:
367,135,371445,2,0,L|444:162,1,59.4999981842042,0|0,3:0|3:0,0:0:0:0:
512,336,371630,5,10,0:0:0:0:
486,368,371723,1,0,3:0:0:0:
444,365,371816,1,0,3:0:0:0:
410,342,371908,1,0,3:0:0:0:
400,300,372001,1,10,0:0:0:0:
416,262,372093,1,0,3:0:0:0:
455,248,372186,5,0,3:0:0:0:
436,298,372279,1,0,3:0:0:0:
378,307,372371,1,10,0:0:0:0:
326,276,372464,1,0,3:0:0:0:
315,214,372556,1,0,3:0:0:0:
345,157,372649,1,0,3:0:0:0:
341,87,372742,1,14,0:1:0:0:
284,37,372834,1,0,3:0:0:0:
209,34,372927,1,0,3:0:0:0:
146,82,373019,1,0,3:0:0:0:
129,154,373112,1,14,0:1:0:0:
165,222,373205,1,0,3:0:0:0:
236,266,373297,6,0,L|256:372,3,76.4999976654053,4|0|10|0,3:2|3:0|0:0|3:0,0:0:0:0:
160,308,373668,2,0,L|146:384,3,76.4999976654053,0|0|10|0,3:2|3:0|0:0|3:0,0:0:0:0:
78,278,374038,5,0,3:0:0:0:
33,233,374130,1,0,3:0:0:0:
40,176,374223,1,10,0:0:0:0:
85,142,374316,1,0,3:0:0:0:
109,99,374408,1,0,3:0:0:0:
90,58,374501,1,0,3:0:0:0:
49,47,374593,1,10,0:0:0:0:
26,65,374686,1,0,3:0:0:0:
29,80,374779,5,0,3:0:0:0:
61,122,374871,1,0,3:0:0:0:
113,131,374964,1,10,0:0:0:0:
158,103,375056,1,0,3:0:0:0:
189,59,375149,1,0,3:0:0:0:
238,38,375242,1,0,3:0:0:0:
289,52,375334,1,10,0:0:0:0:
324,92,375427,1,0,3:0:0:0:
319,145,375519,5,0,3:0:0:0:
337,211,375612,1,0,3:0:0:0:
398,242,375705,1,10,0:0:0:0:
464,225,375797,1,0,3:0:0:0:
499,165,375890,6,0,L|477:82,1,76.4999976654053,12|0,0:1|3:0,0:0:0:0:
333,295,376075,2,0,L|355:378,1,76.4999976654053,0|0,3:0|3:0,0:0:0:0:
94,168,376260,5,12,0:0:0:0:
75,113,376353,1,0,3:0:0:0:
117,74,376445,2,0,L|96:-20,1,76.4999976654053,0|0,3:0|3:0,0:0:0:0:
188,235,376630,5,12,0:0:0:0:
180,293,376723,1,0,3:0:0:0:
126,310,376815,2,0,L|103:403,1,76.4999976654053,0|0,3:0|3:0,0:0:0:0:
258,130,377001,6,0,L|360:158,3,85,8|0|0|0,0:0|3:0|3:0|3:0,0:0:0:0:
175,154,377371,1,8,0:0:0:0:
286,7,377556,6,0,L|326:-1,2,33.9999989624024,8|8|4,3:3|3:3|3:3,0:0:0:0:
331,74,377742,5,0,3:0:0:0:
355,80,377834,1,0,3:0:0:0:
380,86,377927,1,0,3:0:0:0:
405,93,378019,1,0,3:0:0:0:
432,55,378112,6,0,B|409:72|409:72|455:268,1,191.250007295609,14|0,0:0|0:0,0:0:0:0:
501,289,378482,5,8,0:0:0:0:
463,349,378575,1,8,0:0:0:0:
394,364,378668,1,8,0:0:0:0:
334,326,378760,1,8,0:0:0:0:
318,256,378853,6,0,L|325:215,2,33.9999989624024,8|4|4,3:3|3:3|3:0,0:0:0:0:
268,164,379038,5,0,3:0:0:0:
274,156,379130,1,0,3:0:0:0:
280,148,379223,2,0,B|205:121|205:121|137:180,1,152.999995330811,14|0,0:0|3:0,0:0:0:0:
74,159,379501,1,0,3:0:0:0:
66,154,379593,2,0,L|43:69,1,76.4999976654053,2|0,3:2|3:0,0:0:0:0:
172,245,379779,5,8,0:0:0:0:
134,254,379871,1,0,3:2:0:0:
97,263,379964,1,2,3:2:0:0:
60,272,380056,1,0,3:2:0:0:
23,281,380149,2,0,L|127:313,1,76.4999976654053,0|0,3:0|3:0,0:0:0:0:
263,318,380334,5,10,0:0:0:0:
286,272,380426,1,0,3:2:0:0:
309,227,380519,1,0,3:2:0:0:
271,193,380613,1,0,3:2:0:0:
233,159,380705,6,0,L|328:135,3,76.4999976654053,14|0|0|0,0:0|3:0|3:0|3:0,0:0:0:0:
380,184,381075,2,0,P|391:163|382:106,1,76.4999976654053,2|0,3:2|3:0,0:0:0:0:
166,103,381260,6,0,L|68:75,3,76.4999976654053,8|0|2|0,0:0|3:0|3:2|3:0,0:0:0:0:
15,119,381630,2,0,P|5:79|37:26,1,76.4999976654053,0|0,3:2|3:0,0:0:0:0:
238,11,381816,5,14,0:1:0:0:
258,71,381908,1,0,3:0:0:0:
240,129,382001,1,0,3:0:0:0:
260,189,382093,1,0,3:0:0:0:
238,246,382186,6,0,L|43:280,1,152.999995330811,14|0,0:2|3:2,0:0:0:0:
76,266,382464,1,0,3:0:0:0:
83,263,382556,2,0,L|177:282,1,76.4999976654053,2|0,3:2|3:0,0:0:0:0:
319,357,382742,5,8,0:0:0:0:
368,370,382834,1,0,3:2:0:0:
417,384,382927,1,2,3:2:0:0:
443,341,383019,1,0,3:2:0:0:
469,297,383112,2,0,B|455:258|455:258|470:205,1,76.4999976654053,0|0,3:2|3:0,0:0:0:0:
508,77,383297,2,0,B|522:116|522:116|507:169,3,76.4999976654053,10|0|0|0,0:2|3:0|3:2|3:2,0:0:0:0:
426,133,383668,6,0,L|257:100,1,152.999995330811,14|0,0:0|3:2,0:0:0:0:
275,103,383946,1,0,3:2:0:0:
275,103,384038,1,2,3:2:0:0:
157,12,384223,5,8,0:0:0:0:
111,20,384316,1,0,3:2:0:0:
80,54,384408,1,2,3:2:0:0:
84,99,384501,1,0,3:2:0:0:
114,132,384593,1,0,3:2:0:0:
128,175,384686,1,0,3:2:0:0:
106,216,384779,6,0,L|34:231,3,50.9999984436036,10|8|8|0,0:0|3:3|3:3|3:2,0:0:0:0:
136,289,385056,5,0,3:2:0:0:
146,285,385149,2,0,L|318:321,1,152.999995330811,14|0,0:0|3:0,0:0:0:0:
292,326,385427,1,0,3:0:0:0:
289,334,385519,2,0,L|266:243,1,76.4999976654053,2|0,3:2|3:0,0:0:0:0:
362,28,385705,5,8,0:0:0:0:
414,0,385797,1,0,3:0:0:0:
468,24,385890,1,2,3:2:0:0:
494,79,385982,1,0,3:2:0:0:
485,128,386075,1,0,3:2:0:0:
454,150,386168,1,0,3:2:0:0:
420,144,386260,5,10,0:0:0:0:
361,163,386353,1,0,3:0:0:0:
348,222,386445,1,0,3:0:0:0:
376,276,386538,1,0,3:0:0:0:
433,296,386630,6,0,L|515:273,3,76.4999976654053,14|0|0|0,0:0|3:0|3:0|3:0,0:0:0:0:
389,367,387001,2,0,L|275:336,1,76.4999976654053,2|0,3:2|3:0,0:0:0:0:
91,307,387186,6,0,L|71:383,3,76.4999976654053,8|0|2|0,0:0|3:0|3:2|3:0,0:0:0:0:
168,329,387556,2,0,L|248:307,1,76.4999976654053,0|0,3:2|3:0,0:0:0:0:
22,256,387742,5,14,0:1:0:0:
2,196,387834,1,0,3:0:0:0:
20,138,387927,1,0,3:0:0:0:
0,78,388019,1,0,3:0:0:0:
22,21,388112,6,0,L|180:48,1,152.999995330811,14|0,0:0|3:2,0:0:0:0:
179,43,388390,1,0,3:0:0:0:
169,41,388482,2,0,L|191:121,1,76.4999976654053,2|0,3:2|3:0,0:0:0:0:
340,2,388668,6,0,L|252:23,3,76.4999976654053,8|0|2|0,0:0|3:0|3:2|3:0,0:0:0:0:
410,47,389038,2,0,L|490:63,1,50.9999984436036,0|0,3:2|3:0,0:0:0:0:
335,94,389223,6,0,B|324:112|324:112|368:259,1,152.999995330811,10|0,0:0|3:0,0:0:0:0:
361,238,389501,1,0,3:0:0:0:
361,238,389593,5,14,0:1:0:0:
178,258,389779,5,8,0:0:0:0:
161,232,389871,1,8,0:0:0:0:
177,195,389964,1,8,0:0:0:0:
220,184,390056,1,8,0:0:0:0:
265,208,390149,1,8,0:0:0:0:
282,259,390242,1,8,0:0:0:0:
265,306,390334,6,0,P|238:331|191:330,1,76.4999976654053,10|8,0:0|0:0,0:0:0:0:
130,384,390519,2,0,P|94:373|72:331,1,76.4999976654053,10|8,0:0|0:0,0:0:0:0:
133,40,390705,6,0,P|171:52|196:97,1,85,10|8,0:0|0:0,0:0:0:0:
282,126,390890,2,0,P|291:165|264:210,1,85,10|8,0:0|0:0,0:0:0:0:
0,286,391075,6,0,P|-8:246|17:202,3,80.7499978437424,4|0|10|0,3:2|3:0|0:0|3:0,0:0:0:0:
0,133,391445,2,0,P|29:105|81:106,3,80.7499978437424,0|0|10|0,3:2|3:0|0:0|3:0,3:0:0:0:
150,86,391816,5,0,3:0:0:0:
213,120,391908,1,0,3:0:0:0:
268,91,392001,1,10,0:0:0:0:
285,34,392093,1,0,3:0:0:0:
321,0,392186,1,0,3:0:0:0:
366,5,392279,1,0,3:0:0:0:
396,33,392371,1,10,0:0:0:0:
396,69,392464,1,0,3:0:0:0:
376,85,392556,5,0,3:0:0:0:
347,134,392649,1,0,3:0:0:0:
365,181,392742,1,10,0:0:0:0:
410,213,392834,1,0,3:0:0:0:
440,260,392927,1,0,3:0:0:0:
441,316,393019,1,0,3:0:0:0:
409,363,393112,1,10,0:0:0:0:
354,378,393205,1,0,3:0:0:0:
302,355,393297,5,0,3:0:0:0:
272,297,393390,1,0,3:0:0:0:
288,235,393482,1,10,0:0:0:0:
266,173,393575,1,0,3:0:0:0:
210,138,393668,1,0,3:0:0:0:
146,148,393760,1,0,3:0:0:0:
107,200,393853,1,10,0:0:0:0:
112,263,393945,1,0,3:0:0:0:
157,309,394038,6,0,L|261:334,3,80.7499978437424,0|0|10|0,3:0|3:0|0:0|3:0,0:0:0:0:
81,353,394408,2,0,L|-23:378,1,80.7499978437424,0|0,3:0|3:0,0:0:0:0:
310,372,394593,6,0,L|332:264,3,72.2500013780594,10|0|0|0,0:0|3:0|3:0|3:0,0:0:0:0:
394,359,394964,6,0,L|486:335,1,63.7500024318696,10|0,0:0|3:0,0:0:0:0:
505,285,395149,2,0,L|480:206,1,63.7500024318696,0|0,3:2|3:0,0:0:0:0:
442,121,395334,6,0,L|453:64,3,55.2499974708558,10|0|0|0,0:0|3:0|3:0|3:0,0:0:0:0:
372,197,395705,5,10,0:0:0:0:
334,180,395797,1,0,3:0:0:0:
330,144,395890,2,0,L|346:81,1,55.2499974708558,0|0,3:0|3:0,0:0:0:0:
430,0,396075,2,0,L|453:82,1,68,10|0,0:0|3:0,0:0:0:0:
269,43,396260,6,0,L|183:61,1,76.4999976654053,0|0,3:2|3:0,0:0:0:0:
384,206,396445,2,0,L|470:188,1,76.4999976654053,14|0,0:1|3:0,0:0:0:0:
302,384,396630,6,0,L|292:336,3,42.5,14|0|0|0,0:1|3:0|3:0|3:0,0:0:0:0:
210,345,397001,5,14,0:1:0:0:
185,371,397093,1,0,3:2:0:0:
150,375,397186,1,0,3:2:0:0:
115,360,397279,1,0,3:2:0:0:
101,326,397371,5,14,0:1:0:0:
48,334,397464,1,0,3:0:0:0:
9,297,397556,1,0,3:0:0:0:
10,242,397649,1,0,3:0:0:0:
54,212,397742,5,14,0:1:0:0:
6,153,397834,1,0,3:0:0:0:
20,80,397927,1,2,3:0:0:0:
81,47,398019,1,0,3:0:0:0:
142,67,398112,1,14,0:1:0:0:
172,118,398205,1,0,3:0:0:0:
214,128,398297,1,2,3:0:0:0:
243,114,398390,1,0,3:0:0:0:
245,90,398482,5,14,0:1:0:0:
236,74,398575,1,0,3:0:0:0:
242,49,398668,1,0,3:0:0:0:
270,22,398760,1,0,3:0:0:0:
325,11,398853,1,14,0:1:0:0:
381,30,398945,1,0,3:2:0:0:
419,88,399038,1,2,3:2:0:0:
404,157,399130,1,0,3:2:0:0:
337,199,399223,1,10,0:0:0:0:
306,273,399316,1,8,0:0:0:0:
323,347,399408,1,8,0:3:0:0:
385,383,399501,1,8,0:3:0:0:
450,377,399593,1,2,3:2:0:0:
486,335,399686,1,0,3:2:0:0:
480,298,399779,1,6,0:3:0:0:
457,274,399871,1,4,0:3:0:0:
434,273,399964,5,6,3:2:0:0:
1,150,400705,5,6,3:2:0:0:
434,273,401445,5,6,3:2:0:0:
215,221,401816,1,2,3:2:0:0:
3,160,402186,2,0,L|18:247,1,89.2499972763062,6|0,3:2|0:0,0:0:0:0:
0,323,402927,5,6,3:2:0:0:
0,323,405890,5,6,3:2:0:0:
0,323,407371,5,6,3:2:0:0:
0,323,408112,6,0,L|28:329,5,22.6666666666667,8|8|4|0|0|0,0:3|0:3|0:3|3:0|3:0|3:0,0:0:0:0:
79,381,408482,6,0,L|201:350,1,102,8|0,0:0|0:0,0:0:0:0:
253,383,408853,5,6,3:2:0:0:
253,383,409223,2,0,L|264:310,1,68,2|0,3:2|0:0,0:0:0:0:
336,367,409593,2,0,L|347:294,1,68,2|0,3:2|0:0,0:0:0:0:
416,383,409964,2,0,L|427:310,1,68,2|0,3:2|0:0,0:0:0:0:
196,260,410334,5,6,3:2:0:0:
196,260,410705,2,0,L|185:187,1,68,2|0,3:2|0:0,0:0:0:0:
113,244,411075,2,0,L|102:171,1,68,2|0,3:2|0:0,0:0:0:0:
33,260,411445,2,0,L|22:187,1,68,2|0,3:2|3:0,0:0:0:0:
0,120,411723,1,0,3:0:0:0:
0,120,411816,5,10,0:0:0:0:
23,38,412001,1,0,3:2:0:0:
116,73,412186,5,8,0:0:0:0:
17,36,412371,1,8,0:0:0:0:
194,0,412556,1,8,0:0:0:0:
133,165,412742,1,8,0:0:0:0:
292,225,412927,1,8,0:0:0:0:
148,342,413112,1,8,0:0:0:0:
352,384,413297,5,8,0:0:0:0:
359,350,413390,1,8,0:0:0:0:
367,317,413482,1,8,0:0:0:0:
451,237,413668,1,8,0:0:0:0:
215,274,413853,5,8,0:0:0:0:
208,240,413946,1,8,0:0:0:0:
200,207,414038,2,0,L|208:176,2,22.6666666666667,8|8|8,0:3|0:3|0:3,0:0:0:0:
252,121,414223,6,0,L|233:42,1,63.7500024318696,0|0,3:0|3:0,0:0:0:0:
86,26,414408,5,0,3:2:0:0:
66,20,414500,1,0,3:2:0:0:
46,15,414593,1,0,3:2:0:0:
26,10,414685,1,0,3:2:0:0:
6,5,414779,6,0,L|27:83,1,63.7500024318696,6|0,3:2|3:0,0:0:0:0:
105,200,414964,1,10,0:0:0:0:
129,251,415056,1,0,3:0:0:0:
121,295,415149,1,0,3:0:0:0:
86,323,415242,1,0,3:0:0:0:
48,324,415334,1,10,0:0:0:0:
21,308,415427,1,0,3:0:0:0:
15,281,415519,5,0,3:0:0:0:
23,267,415612,1,0,3:0:0:0:
46,262,415705,1,10,0:0:0:0:
72,268,415797,1,0,3:0:0:0:
96,293,415890,1,0,3:0:0:0:
112,334,415982,1,0,3:0:0:0:
133,366,416075,1,10,0:0:0:0:
171,374,416168,1,0,3:0:0:0:
192,359,416260,5,0,3:0:0:0:
204,330,416353,1,0,3:0:0:0:
234,304,416445,1,10,0:0:0:0:
286,296,416538,1,0,3:0:0:0:
329,324,416630,1,0,3:0:0:0:
351,367,416723,1,0,3:0:0:0:
404,382,416816,1,10,0:0:0:0:
450,350,416908,1,0,3:0:0:0:
457,297,417001,1,0,3:0:0:0:
419,252,417093,1,0,3:0:0:0:
408,199,417186,1,10,0:0:0:0:
423,159,417279,1,0,3:0:0:0:
463,144,417371,1,0,3:0:0:0:
493,156,417464,1,0,3:0:0:0:
505,182,417556,1,10,0:0:0:0:
497,200,417649,1,0,3:0:0:0:
482,203,417742,6,0,L|466:143,3,42.5,0|0|10|0,3:2|3:2|0:0|3:0,0:0:0:0:
388,135,418112,2,0,L|344:91,3,55.2499974708558,0|0|10|0,3:2|3:2|0:0|3:0,0:0:0:0:
274,138,418482,2,0,L|202:118,3,63.7500024318696,0|0|10|0,3:2|3:2|0:0|3:0,0:0:0:0:
162,61,418853,5,0,3:0:0:0:
133,23,418945,1,0,3:0:0:0:
89,5,419038,1,10,0:0:0:0:
42,10,419130,1,0,3:0:0:0:
5,39,419223,2,0,L|25:116,3,63.7500024318696,0|0|10|0,3:0|3:0|0:0|3:0,0:0:0:0:
0,183,419593,5,0,3:0:0:0:
8,234,419686,1,0,3:0:0:0:
55,261,419779,2,0,L|137:241,1,63.7500024318696,10|0,0:0|3:0,0:0:0:0:
257,369,419964,6,0,L|244:322,2,42.5000016212464,8|8|0,0:0|0:3|0:3,0:0:0:0:
276,259,420149,5,0,3:2:0:0:
276,259,420242,1,0,3:2:0:0:
276,259,420334,2,0,L|289:212,2,42.5000016212464,8|8|8,0:0|0:3|0:3,0:0:0:0:
248,147,420519,5,0,3:0:0:0:
248,147,420612,1,0,3:0:0:0:
248,147,420705,2,0,L|224:52,3,72.2500013780594,14|0|0|0,0:2|3:0|3:0|3:0,0:0:0:0:
337,19,421075,2,0,L|313:114,3,72.2500013780594,10|0|0|0,0:2|3:0|3:0|3:0,0:0:0:0:
407,110,421445,5,10,0:0:0:0:
423,126,421538,1,0,3:0:0:0:
426,152,421630,1,0,3:0:0:0:
411,182,421723,1,0,3:0:0:0:
370,202,421816,1,10,0:0:0:0:
347,245,421908,1,0,3:0:0:0:
357,301,422001,1,0,3:0:0:0:
388,333,422093,1,0,3:0:0:0:
421,336,422186,5,14,0:0:0:0:
443,323,422279,1,0,3:0:0:0:
441,300,422371,1,0,3:0:0:0:
418,284,422464,1,0,3:0:0:0:
380,283,422556,1,10,0:0:0:0:
347,306,422649,1,0,3:0:0:0:
328,349,422742,1,0,3:0:0:0:
286,379,422834,1,0,3:0:0:0:
230,370,422927,1,10,0:0:0:0:
189,328,423019,1,0,3:0:0:0:
190,276,423112,1,0,3:0:0:0:
224,242,423205,1,0,3:0:0:0:
260,238,423297,1,10,0:0:0:0:
281,252,423390,1,0,3:0:0:0:
282,274,423482,1,0,3:0:0:0:
273,286,423575,1,0,3:0:0:0:
260,287,423668,6,0,L|240:203,3,72.2500013780594,14|0|0|0,0:0|3:0|3:0|3:0,0:0:0:0:
176,164,424038,2,0,L|106:143,3,72.2500013780594,10|0|0|0,0:0|3:0|3:0|3:0,0:0:0:0:
286,147,424408,2,0,L|338:97,3,72.2500013780594,10|0|0|0,0:0|3:0|3:0|3:0,0:0:0:0:
352,21,424779,5,14,0:1:0:0:
393,0,424871,1,0,3:0:0:0:
433,16,424964,1,0,3:0:0:0:
448,48,425056,1,0,3:0:0:0:
441,77,425149,5,8,0:0:0:0:
406,114,425242,1,8,0:0:0:0:
401,164,425334,1,8,0:0:0:0:
422,209,425427,1,8,0:0:0:0:
466,232,425519,1,8,0:3:0:0:
484,279,425612,1,8,0:3:0:0:
480,325,425705,1,6,0:3:0:0:
452,353,425797,1,6,0:3:0:0:
415,350,425890,1,6,0:3:0:0:
393,331,425982,1,6,0:3:0:0:
395,307,426075,1,2,3:2:0:0:
412,298,426168,1,2,3:2:0:0:
422,304,426260,6,0,B|291:313|347:354|208:366,1,216.750004134178,10|0,0:0|0:0,0:0:0:0:
146,333,426630,6,0,L|105:131,1,187.000005706787,6|2,3:2|0:0,0:0:0:0:
6,50,427186,1,0,3:2:0:0:
6,50,427279,1,0,3:2:0:0:
6,50,427371,2,0,L|193:84,1,187.000005706787,10|2,0:0|0:0,0:0:0:0:
345,185,427927,1,0,3:2:0:0:
345,185,428019,1,0,3:2:0:0:
345,185,428112,1,14,0:2:0:0:
345,185,428482,6,0,P|402:136|508:160,1,178.499994552612,6|0,3:1|0:0,0:0:0:0:
498,151,428853,1,8,0:0:0:0:
349,27,429038,6,0,B|367:109|367:109|438:141|423:224,1,212.5,6|0,3:2|0:0,0:0:0:0:
345,185,429593,6,0,L|168:150,1,170,6|2,3:2|0:0,0:0:0:0:
178,152,430149,1,0,3:0:0:0:
12,34,430334,2,0,B|74:95|74:95|31:186,1,170,10|2,0:0|0:0,0:0:0:0:
85,373,430890,5,0,3:0:0:0:
85,373,430982,1,0,3:0:0:0:
85,373,431075,1,10,0:0:0:0:
234,327,431260,1,8,0:0:0:0:
138,291,431445,5,6,3:2:0:0:
181,220,431630,1,0,3:3:0:0:
263,229,431816,1,0,3:3:0:0:
396,374,432001,5,6,3:2:0:0:
422,382,432186,1,4,3:3:0:0:
439,364,432371,1,4,3:3:0:0:
380,246,432556,6,0,B|399:147|452:206|466:92,1,170,6|2,3:2|0:0,0:0:0:0:
464,105,433112,1,0,3:0:0:0:
309,12,433297,1,10,0:0:0:0:
309,12,433668,6,0,L|319:52,5,28.3333333333333,4|4|4|0|0|0,0:3|0:3|0:3|3:0|3:0|3:0,0:0:0:0:
268,104,434038,5,8,0:0:0:0:
268,104,434408,6,0,B|164:78,2,102,6|6|6,3:2|3:2|3:2,0:0:0:0:
268,104,435890,6,0,L|280:163,1,50.9999984436036,2|2,0:0|0:0,0:0:0:0:
245,223,436168,1,2,0:0:0:0:
245,223,436260,1,2,3:2:0:0:
368,152,436630,6,0,L|380:211,1,50.9999984436036,2|2,0:0|0:0,0:0:0:0:
345,271,436908,1,2,0:0:0:0:
345,271,437000,1,2,3:2:0:0:
466,198,437371,6,0,L|478:257,1,50.9999984436036,2|2,0:0|0:0,0:0:0:0:
443,317,437649,1,2,0:0:0:0:
443,317,437742,2,0,L|436:355,1,25.4999992218018,2|0,3:2|0:0,0:0:0:0:
512,359,437927,2,0,L|505:397,1,25.4999992218018,2|2,0:2|0:0,0:0:0:0:
360,354,438112,5,2,0:0:0:0:
360,354,438482,5,4,3:2:0:0:
280,319,438668,1,0,3:2:0:0:
364,361,438853,1,8,0:0:0:0:
320,232,439038,1,8,0:0:0:0:
427,166,439223,1,8,0:0:0:0:
314,238,439408,1,8,0:0:0:0:
258,68,439593,1,8,0:0:0:0:
107,212,439779,1,8,0:0:0:0:
263,63,439964,5,8,0:0:0:0:
208,279,440149,1,8,0:0:0:0:
7,140,440334,1,8,0:0:0:0:
88,373,440519,1,8,0:0:0:0:
336,308,440705,5,8,0:2:0:0:
351,260,440797,1,8,0:2:0:0:
337,213,440890,1,8,0:2:0:0:
353,165,440983,1,8,0:2:0:0:
339,119,441076,1,8,0:2:0:0:
355,71,441168,1,8,0:2:0:0:
336,25,441260,6,0,L|340:-7,2,25.4999992218018,10|10|2,0:0|0:0|0:0,0:0:0:0:
