osu file format v14

[General]
AudioFilename: audio.mp3
AudioLeadIn: 0
PreviewTime: 80079
Countdown: 0
SampleSet: Normal
StackLeniency: 0.5
Mode: 0
LetterboxInBreaks: 0
WidescreenStoryboard: 0

[Editor]
Bookmarks: 223403,233455
DistanceSpacing: 1
BeatDivisor: 4
GridSize: 4
TimelineZoom: 1.4

[Metadata]
Title:Seijouki no Pierrot ~ The MadPiero Laughs
TitleUnicode:星条旗のピエロ ~ The MadPiero Laughs
Artist:Demetori
ArtistUnicode:Demetori
Creator:jonathanlfj
Version:Extra Stage
Source:東方紺珠伝 ~ Legacy of Lunatic Kingdom.
Tags:sahuang Touhou Kanjuden 東方Project Determinism&DestruKction クラウンピース Clownpiece The Pierrot of the Star-Spangled Banner Stage 5 ZUN c92 comiket 92
BeatmapID:1391631
BeatmapSetID:656918

[Difficulty]
HPDrainRate:7
CircleSize:4
OverallDifficulty:9
ApproachRate:9.4
SliderMultiplier:1.8
SliderTickRate:1

[Events]
//Background and Video events
0,0,"clownpiece.jpg",0,0
//Break Periods
//Storyboard Layer 0 (Background)
//Storyboard Layer 1 (Fail)
//Storyboard Layer 2 (Pass)
//Storyboard Layer 3 (Foreground)
//Storyboard Sound Samples

[TimingPoints]
684,314.13612565445,3,1,1,30,1,0
684,-142.857142857143,3,1,1,30,0,0
1547,-142.857142857143,3,1,1,5,0,0
1626,-142.857142857143,3,2,1,50,0,0
4453,314.13612565445,4,1,1,70,1,0
4453,-83.3333333333333,4,1,1,70,0,0
4767,-100,4,1,1,60,0,0
5081,-125,4,1,1,50,0,0
5395,-166.666666666667,4,1,1,40,0,0
5709,-100,4,1,1,50,0,1
6337,-100,4,1,1,55,0,1
6966,-100,4,1,1,60,0,1
7594,-100,4,1,1,65,0,1
8222,-100,4,1,1,70,0,1
9479,-90.9090909090909,4,1,1,70,0,1
10735,314.13612565445,3,1,1,70,1,0
10735,-90.9090909090909,3,1,1,70,0,0
13563,314.13612565445,4,1,1,50,1,0
14819,-100,4,1,1,50,0,1
15761,-83.3333333333333,4,1,1,55,0,1
16076,-90.9090909090909,4,1,1,60,0,1
17018,-76.9230769230769,4,1,1,65,0,1
17332,-83.3333333333333,4,1,1,70,0,1
19845,-100,4,1,1,60,0,0
28013,-86.9565217391304,4,1,1,60,0,0
28641,-100,4,1,1,60,0,0
38693,-100,4,1,1,70,0,0
39322,-100,4,1,1,65,0,0
39950,-125,4,1,1,60,0,0
43720,-83.3333333333333,4,1,1,75,0,0
43955,-83.3333333333333,4,1,1,5,0,0
44034,-100,4,1,1,65,0,0
44269,-100,4,1,1,5,0,0
44348,-125,4,1,1,55,0,0
44583,-125,4,1,1,5,0,0
44662,-166.666666666667,4,1,1,45,0,0
44898,-166.666666666667,4,1,1,5,0,0
44976,-100,4,1,1,50,0,1
45604,-100,4,1,1,55,0,1
46233,-100,4,1,1,60,0,1
46861,-100,4,1,1,65,0,1
47489,-100,4,1,1,70,0,1
48746,-83.3333333333333,4,1,1,70,0,1
50002,-90.9090909090909,4,1,1,70,0,0
53772,-83.3333333333333,4,1,1,70,0,0
54008,-83.3333333333333,4,1,1,5,0,0
54086,-100,4,1,1,60,0,0
54322,-100,4,1,1,5,0,0
54400,-90.9090909090909,4,1,1,60,0,0
55028,-100,4,1,1,50,0,1
55971,-83.3333333333333,4,1,1,55,0,1
56285,-86.9565217391304,4,1,1,60,0,1
57227,-76.9230769230769,4,1,1,65,0,1
57542,-76.9230769230769,4,1,1,70,0,1
58484,-66.6666666666667,4,1,1,70,0,1
58798,-76.9230769230769,4,1,1,80,0,0
59583,-76.9230769230769,4,1,1,70,0,0
59976,-76.9230769230769,4,1,1,10,0,0
60055,-100,4,1,1,60,0,0
68222,-86.9565217391304,4,1,1,60,0,0
68850,-100,4,1,1,60,0,0
78903,-100,4,1,1,70,0,0
79531,-100,4,1,1,60,0,0
80159,-90.9090909090909,4,1,1,70,0,1
80238,-90.9090909090909,4,1,1,70,0,0
99636,-83.3333333333333,4,1,1,70,0,0
100264,-83.3333333333333,4,1,1,80,0,1
104662,-76.9230769230769,4,1,1,80,0,1
104976,-71.4285714285714,4,1,1,80,0,1
105290,-83.3333333333333,4,1,1,80,0,1
109688,-76.9230769230769,4,1,1,80,0,1
110002,-71.4285714285714,4,1,1,80,0,1
110316,-83.3333333333333,4,1,1,80,0,1
114714,-76.9230769230769,4,1,1,80,0,1
115028,-71.4285714285714,4,1,1,80,0,1
115264,-71.4285714285714,4,1,1,5,0,1
115343,-100,4,1,1,80,0,1
115971,-100,4,1,1,75,0,1
116599,-100,4,1,1,70,0,1
117227,-100,4,1,1,65,0,1
117856,-100,4,1,1,60,0,1
118484,-100,4,1,1,65,0,1
119112,-100,4,1,1,70,0,1
119741,-100,4,1,1,75,0,1
120369,314.13612565445,3,2,1,30,1,0
120369,-200,3,2,1,30,0,0
127908,-166.666666666667,3,2,1,40,0,0
154295,320.855614973262,3,1,1,50,1,0
154295,-175.438596491228,3,1,1,50,0,0
155257,324.324324324324,3,1,1,40,1,0
156229,327.868852459016,3,1,1,30,1,0
157212,321.71581769437,3,1,1,20,1,0
158065,314.13612565445,4,1,1,45,1,0
158065,-125,4,1,1,45,0,0
158693,-125,4,1,1,50,0,0
159321,-125,4,1,1,55,0,0
159949,-125,4,1,1,60,0,0
160578,-111.111111111111,4,1,1,62,0,0
160892,-95.2380952380952,4,1,1,64,0,0
161206,-83.3333333333333,4,1,1,66,0,0
161520,-74.0740740740741,4,1,1,68,0,0
161834,-100,4,1,1,70,0,0
162462,-90.9090909090909,4,1,1,75,0,0
163091,314.13612565445,3,1,1,80,1,1
163091,-58.8235294117647,3,1,1,80,0,1
169373,-83.3333333333333,3,1,1,80,0,1
170630,314.13612565445,4,1,1,65,1,0
170630,-90.9090909090909,4,1,1,65,0,0
178169,-86.9565217391304,4,1,1,70,0,0
185708,-83.3333333333333,4,1,1,70,0,0
186965,-83.3333333333333,4,1,1,80,0,0
187593,-83.3333333333333,4,1,1,70,0,0
195761,-83.3333333333333,4,1,1,50,0,0
196075,-83.3333333333333,4,1,1,55,0,0
196389,-83.3333333333333,4,1,1,60,0,0
196703,-83.3333333333333,4,1,1,65,0,0
197017,-83.3333333333333,4,1,1,70,0,0
198274,-90.9090909090909,4,1,1,70,0,0
199216,-117.647058823529,4,1,1,70,0,0
199845,-90.9090909090909,4,1,1,70,0,0
201729,-117.647058823529,4,1,1,70,0,0
202358,-90.9090909090909,4,1,1,70,0,0
207698,-83.3333333333333,4,1,1,70,0,0
208326,-100,4,1,1,60,0,1
210839,-90.9090909090909,4,1,1,65,0,1
213352,-83.3333333333333,4,1,1,70,0,1
215866,-76.9230769230769,4,1,1,75,0,1
217750,-71.4285714285714,4,1,1,80,0,1
218378,-90.9090909090909,4,1,1,70,0,0
223405,-200,4,1,1,50,0,0
225133,-200,4,1,1,20,0,0
225918,-200,4,1,1,50,0,0
232515,-200,4,1,1,20,0,0
233457,-142.857142857143,4,1,1,50,0,0
234714,-142.857142857143,4,1,1,55,0,0
235970,-142.857142857143,4,1,1,60,0,0
237227,-142.857142857143,4,1,1,65,0,0
238405,-142.857142857143,4,1,1,5,0,0
238483,-100,4,1,1,70,0,0
239112,-100,4,1,1,65,0,0
239740,-100,4,1,1,60,0,0
240368,-100,4,1,1,55,0,0
240996,-100,4,1,1,60,0,0
241625,-100,4,1,1,65,0,0
242253,-100,4,1,1,70,0,0
242881,-90.9090909090909,4,1,1,75,0,0
243509,-83.3333333333333,4,1,1,75,0,1
243588,-83.3333333333333,4,1,1,75,0,0
263614,-76.9230769230769,4,1,1,85,0,1
268012,-71.4285714285714,4,1,1,85,0,1
268326,-66.6666666666667,4,1,1,85,0,1
268640,-76.9230769230769,4,1,1,85,0,1
273038,-71.4285714285714,4,1,1,85,0,1
273352,-66.6666666666667,4,1,1,85,0,1
273666,-76.9230769230769,4,1,1,85,0,1
278064,-71.4285714285714,4,1,1,85,0,1
278379,-66.6666666666667,4,1,1,85,0,1
278614,-66.6666666666667,4,1,1,5,0,1
278693,-90.9090909090909,4,1,1,80,0,1
279321,-90.9090909090909,4,1,1,75,0,1
279949,-90.9090909090909,4,1,1,70,0,1
280578,-90.9090909090909,4,1,1,65,0,1
281206,-90.9090909090909,4,1,1,60,0,1
281834,-90.9090909090909,4,1,1,65,0,1
282462,-90.9090909090909,4,1,1,70,0,1
283091,-90.9090909090909,4,1,1,75,0,1
283719,314.13612565445,3,1,1,70,1,0
283719,-100,3,1,1,70,0,0
285917,-100,3,1,1,50,0,0
286546,314.13612565445,4,1,1,70,1,0
286546,-83.3333333333333,4,1,1,70,0,0
286781,-83.3333333333333,4,1,1,5,0,0
286860,-100,4,1,1,60,0,0
287095,-100,4,1,1,5,0,0
287174,-125,4,1,1,50,0,0
287409,-125,4,1,1,5,0,0
287488,-166.666666666667,4,1,1,40,0,0
287724,-166.666666666667,4,1,1,5,0,0
287802,-83.3333333333333,4,1,1,60,0,1
288744,-66.6666666666667,4,1,1,65,0,1
289059,-76.9230769230769,4,1,1,70,0,1
290001,-66.6666666666667,4,1,1,75,0,1
290315,-71.4285714285714,4,1,1,80,0,1
291258,-66.6666666666667,4,1,1,80,0,1
291572,-62.5,4,1,1,85,0,1
292828,-125,4,1,1,85,0,0
293142,-66.6666666666667,4,1,1,85,0,0
294085,-83.3333333333333,4,1,1,70,0,0
294163,-100,4,1,1,50,0,0
304137,-100,4,1,1,20,0,0

[Colours]
Combo1 : 255,208,100
Combo2 : 1,98,243
Combo3 : 254,63,197
Combo4 : 255,51,56

[HitObjects]
160,212,684,6,2,B|128:252|72:252|44:216|48:172|80:144|123:147|156:175|156:175|210:217|255:191,1,346.49998942566,2|0,2:0|2:0,0:0:0:0:
318,112,1626,6,0,B|354:104|354:104|454:120,2,125.999996154785,4|2|2,1:0|0:0|0:0,0:0:0:0:
392,272,2568,2,0,L|440:280,2,31.4999990386963,4|0|2,1:0|0:0|0:0,0:0:0:0:
296,284,2882,2,0,L|160:300,1,125.999996154785,2|0,0:0|0:0,0:0:0:0:
88,148,3511,6,0,L|240:160,2,125.999996154785,4|2|2,1:0|0:0|0:0,0:0:0:0:
287,2,4296,1,0,0:0:0:0:
287,2,4375,1,0,0:0:0:0:
287,2,4453,2,0,B|322:57|289:118,1,107.999996704102,8|0,0:0|2:0,0:0:0:0:
134,18,4767,6,0,P|185:35|218:70,1,90,4|0,0:2|2:0,0:0:0:0:
64,124,5081,6,0,P|96:110|132:109,1,72,0|0,0:0|2:0,0:0:0:0:
83,238,5395,6,0,P|111:200|128:189,1,53.9999983520508,4|0,0:2|2:0,0:0:0:0:
172,374,5709,5,8,0:0:0:0:
164,269,5866,1,0,0:0:0:0:
257,202,6023,5,8,0:0:0:0:
244,325,6180,1,0,0:0:0:0:
358,384,6337,5,8,0:0:0:0:
343,250,6494,1,0,0:0:0:0:
463,153,6651,5,10,0:0:0:0:
445,333,6809,1,10,0:0:0:0:
229,211,6966,5,8,0:0:0:0:
382,265,7123,1,0,0:0:0:0:
304,132,7280,5,8,0:0:0:0:
153,290,7437,1,0,0:0:0:0:
135,136,7594,5,8,0:0:0:0:
289,339,7751,1,0,0:0:0:0:
229,211,7908,5,10,0:0:0:0:
0,357,8065,1,10,0:0:0:0:
201,383,8222,5,8,0:0:0:0:
8,212,8379,1,0,0:0:0:0:
244,108,8536,1,8,0:0:0:0:
136,312,8693,2,2,B|120:268|120:268|136:124,1,180
332,48,9165,2,2,B|348:92|348:92|340:156,1,90,8|2,0:0|0:0,0:0:0:0:
244,108,9479,5,12,0:2:0:0:
482,25,9636,1,0,0:0:0:0:
208,16,9793,5,12,0:2:0:0:
511,119,9950,1,0,0:0:0:0:
227,248,10107,2,0,L|235:184,1,49.5000015106202,8|8,0:0|0:3,0:0:0:0:
342,134,10264,2,0,L|350:198,1,49.5000015106202,8|0,0:3|0:0,0:0:0:0:
132,196,10421,1,0,0:0:0:0:
136,168,10500,1,0,0:0:0:0:
140,140,10578,1,0,0:0:0:0:
144,112,10657,1,0,0:0:0:0:
148,84,10734,5,4,0:0:0:0:
192,108,10813,1,0,0:0:0:0:
240,108,10892,1,0,0:0:0:0:
284,84,10970,1,0,0:0:0:0:
308,40,11049,1,8,0:0:0:0:
240,108,11363,5,8,0:0:0:0:
280,196,11677,5,0,0:0:0:0:
376,184,11834,1,0,0:0:0:0:
392,88,11991,1,8,0:0:0:0:
308,40,12305,5,8,0:0:0:0:
240,108,12619,5,4,0:0:0:0:
243,160,12698,1,0,0:0:0:0:
280,196,12776,1,0,0:0:0:0:
331,208,12855,1,0,0:0:0:0:
376,184,12933,1,8,0:0:0:0:
392,88,13248,5,8,0:0:0:0:
376,184,13405,2,0,P|376:209|386:245,1,49.5000015106202
464,318,13563,5,8,0:3:0:0:
421,302,13641,1,8,0:3:0:0:
376,310,13720,1,8,0:3:0:0:
342,339,13798,1,8,0:3:0:0:
340,302,13877,5,0,0:0:0:0:
312,324,13955,1,0,0:0:0:0:
276,332,14034,1,0,0:0:0:0:
240,326,14112,1,0,0:0:0:0:
244,352,14191,5,8,0:3:0:0:
218,342,14269,1,0,0:0:0:0:
190,340,14348,1,0,0:0:0:0:
164,348,14426,1,0,0:0:0:0:
167,329,14505,6,0,P|143:337|111:337,1,45,8|0,0:3|0:0,0:0:0:0:
28,288,14662,1,8,0:3:0:0:
28,288,14741,1,8,0:3:0:0:
28,288,14819,6,0,P|16:268|8:232,1,45,4|0,0:2|0:0,0:0:0:0:
169,192,14976,2,0,P|188:210|203:233,1,45
122,264,15133,6,0,P|103:247|86:221,1,45
219,120,15290,2,0,P|233:134|251:161,1,45
132,115,15447,6,0,P|138:90|149:66,1,45,8|0,0:0|0:0,0:0:0:0:
324,118,15604,2,0,P|331:143|332:174,1,45
228,29,15761,6,0,P|254:28|291:33,1,53.9999983520508,2|0,0:0|0:0,0:0:0:0:
376,36,15919,2,0,P|404:35|436:28,1,53.9999983520508,2|0,0:0|0:0,0:0:0:0:
452,124,16076,6,0,L|439:186,1,49.5000015106202
436,340,16233,2,0,L|417:286,1,49.5000015106202
352,132,16390,6,0,P|342:153|327:179,1,49.5000015106202
322,328,16547,2,0,P|304:303|282:281,1,49.5000015106202
230,136,16704,6,0,P|216:157|188:176,1,49.5000015106202,8|0,0:0|0:0,0:0:0:0:
180,303,16861,2,0,P|151:284|117:279,1,49.5000015106202
36,188,17018,6,0,P|64:195|109:192,1,58.4999973220826,2|0,0:0|0:0,0:0:0:0:
271,206,17175,2,0,P|294:200|328:200,1,58.4999973220826,2|0,0:0|0:0,0:0:0:0:
166,355,17332,6,0,P|174:328|181:289,1,53.9999983520508
375,278,17489,2,0,P|380:304|391:339,1,53.9999983520508
183,205,17646,2,0,P|179:175|170:140,1,53.9999983520508
346,70,17803,2,2,P|378:137|507:112,1,215.999993408203
271,206,18275,2,2,P|280:269|265:318,1,107.999996704102,0|2,0:0|0:0,0:0:0:0:
242,345,18510,1,0,0:0:0:0:
204,366,18589,1,8,0:0:0:0:
386,226,18746,5,0,0:0:0:0:
427,238,18824,1,0,0:0:0:0:
455,271,18903,1,8,0:0:0:0:
243,172,19060,1,0,0:0:0:0:
233,130,19138,1,0,0:0:0:0:
244,88,19217,5,8,0:0:0:0:
197,104,19295,1,8,0:0:0:0:
169,143,19374,1,8,0:0:0:0:
163,191,19453,1,8,0:0:0:0:
178,236,19531,1,8,0:0:0:0:
213,269,19610,1,8,0:0:0:0:
259,280,19688,1,8,0:0:0:0:
306,270,19767,1,8,0:0:0:0:
339,235,19845,6,2,P|327:191|321:122,1,90,6|0,0:0|0:0,0:0:0:0:
472,24,20159,2,2,P|464:84|452:124,1,90,10|0,0:0|2:0,0:0:0:0:
220,208,20473,1,2,0:0:0:0:
236,69,20631,1,0,0:0:0:0:
308,320,20788,2,2,P|220:348|131:324,1,180,10|2,0:0|0:0,0:0:0:0:
84,224,21259,5,0,0:0:0:0:
144,124,21416,2,0,B|192:104|192:104|332:116,1,180,8|0,0:0|0:0,0:0:0:0:
220,208,21887,1,0,0:0:0:0:
24,116,22044,2,2,P|12:60|12:16,1,90,8|2,0:0|2:1,0:0:0:0:
144,124,22358,5,2,0:0:0:0:
116,236,22515,1,0,0:0:0:0:
92,348,22672,1,10,0:2:0:0:
157,140,22830,5,2,2:1:0:0:
116,235,22987,1,0,0:0:0:0:
78,332,23144,1,2,0:2:0:0:
168,156,23301,6,2,L|264:144,1,90,8|2,0:0|2:1,0:0:0:0:
448,200,23615,2,2,P|404:208|336:196,1,90,2|0,0:0|0:0,0:0:0:0:
192,304,23929,2,0,P|308:304|356:344,1,180,8|0,0:0|0:0,0:0:0:0:
354,341,24400,1,0,0:0:0:0:
244,180,24557,2,2,P|236:128|236:80,1,90,8|2,0:0|2:1,0:0:0:0:
424,16,24871,6,2,B|382:32|382:32|328:32,1,90,6|0,0:0|0:0,0:0:0:0:
84,56,25186,2,2,B|124:76|124:76|154:122,1,90,10|0,0:0|0:0,0:0:0:0:
292,312,25500,1,2,0:0:0:0:
266,118,25657,1,0,0:0:0:0:
121,234,25814,2,2,L|313:210,1,180,10|2,0:0|0:0,0:0:0:0:
489,283,26285,5,0,0:0:0:0:
421,362,26442,2,0,P|391:318|434:191,1,180,8|0,0:0|0:0,0:0:0:0:
489,283,26913,1,0,0:0:0:0:
301,350,27070,2,2,P|249:343|188:347,1,90,8|2,0:0|0:0,0:0:0:0:
211,343,27306,1,0,0:0:0:0:
211,343,27384,5,0,0:0:0:0:
330,240,27542,1,0,0:0:0:0:
185,179,27699,2,2,L|209:329,1,135,10|0,0:0|2:0,0:0:0:0:
211,343,28013,5,0,0:0:0:0:
367,224,28170,1,0,0:0:0:0:
181,158,28327,2,2,L|206:312,1,155.250002961159,10|0,0:0|2:0,0:0:0:0:
211,343,28641,6,0,B|232:302|232:302|224:251,1,90,2|0,0:0|0:0,0:0:0:0:
114,286,28955,1,8,0:0:0:0:
348,323,29112,1,0,0:0:0:0:
181,158,29269,5,8,0:0:0:0:
367,224,29426,1,0,0:0:0:0:
367,224,29505,1,0,0:0:0:0:
367,224,29583,2,0,L|376:165,1,45,8|8,0:0|0:3,0:0:0:0:
273,191,29741,2,0,L|282:132,1,45,8|0,0:3|0:0,0:0:0:0:
181,158,29898,6,2,L|193:57,1,90,6|0,0:0|0:0,0:0:0:0:
104,232,30212,2,2,L|116:340,1,90,10|0,0:0|0:0,0:0:0:0:
113,321,30447,1,0,0:0:0:0:
113,321,30526,1,2,0:0:0:0:
181,158,30684,1,0,0:0:0:0:
17,94,30840,2,2,L|5:202,1,90,10|0,0:0|0:0,0:0:0:0:
8,184,31076,1,0,0:0:0:0:
8,184,31154,5,2,0:0:0:0:
200,274,31312,1,0,0:0:0:0:
89,366,31469,2,0,B|105:214,1,135,8|0,0:0|2:0,0:0:0:0:
108,204,31782,1,0,0:0:0:0:
312,136,31940,1,0,0:0:0:0:
200,112,32097,2,2,P|202:156|216:200,1,90,8|2,0:0|0:0,0:0:0:0:
236,220,32332,1,0,0:0:0:0:
260,232,32411,5,2,0:0:0:0:
428,136,32568,1,0,0:0:0:0:
277,15,32725,1,10,0:2:0:0:
288,240,32883,5,2,2:1:0:0:
428,136,33040,1,0,0:0:0:0:
285,35,33197,1,2,0:2:0:0:
140,151,33354,6,2,L|237:142,1,90,8|2,0:0|2:1,0:0:0:0:
428,136,33668,2,2,P|430:178|444:228,1,90,2|0,0:0|0:0,0:0:0:0:
304,336,33981,2,0,B|284:308|284:308|240:284|176:304,1,135,8|0,0:0|2:0,0:0:0:0:
160,312,34295,1,0,0:0:0:0:
236,184,34453,1,0,0:0:0:0:
68,148,34610,2,2,P|68:192|76:237,1,90,8|2,0:0|0:0,0:0:0:0:
76,237,34845,1,0,0:0:0:0:
76,237,34924,6,2,L|179:227,1,90,6|0,0:0|0:0,0:0:0:0:
377,267,35238,2,2,L|285:259,1,90,10|0,0:0|0:0,0:0:0:0:
287,259,35473,1,0,0:0:0:0:
288,260,35552,1,2,0:0:0:0:
196,92,35709,1,0,0:0:0:0:
415,65,35866,2,2,P|419:110|409:154,1,90,10|0,0:0|0:0,0:0:0:0:
409,153,36102,1,0,0:0:0:0:
409,153,36180,1,2,0:0:0:0:
308,100,36337,5,0,0:0:0:0:
512,150,36494,2,0,P|507:187|427:255,1,135,8|0,0:0|2:0,0:0:0:0:
409,256,36809,1,0,0:0:0:0:
294,187,36965,1,0,0:0:0:0:
187,271,37122,2,2,P|178:308|185:366,1,90,8|2,0:0|0:0,0:0:0:0:
182,359,37358,1,0,0:0:0:0:
182,359,37436,5,4,0:0:0:0:
283,322,37594,1,8,0:0:0:0:
88,310,37751,2,2,L|-8:326,1,90,2|0,0:0|0:0,0:0:0:0:
182,359,38065,5,8,0:0:0:0:
351,243,38222,1,0,0:0:0:0:
141,198,38379,2,2,L|-6:212,1,135,10|0,0:0|0:0,0:0:0:0:
6,210,38693,1,10,0:0:0:0:
155,330,38850,1,8,0:0:0:0:
317,227,39008,1,8,0:0:0:0:
287,34,39165,1,8,0:0:0:0:
229,142,39322,5,8,0:3:0:0:
317,227,39479,1,8,0:3:0:0:
428,175,39636,1,0,0:0:0:0:
409,54,39793,1,0,0:0:0:0:
287,34,39950,5,4,0:0:0:0:
336,126,40107,2,8,P|387:150|485:127,1,144,8|8,0:3|0:3,0:3:0:0:
471,136,40578,1,8,0:0:0:0:
416,212,40735,1,8,0:3:0:0:
431,304,40892,1,0,0:0:0:0:
510,354,41049,1,0,0:0:0:0:
410,298,41206,5,8,0:3:0:0:
312,360,41364,1,0,0:0:0:0:
288,356,41442,1,0,0:0:0:0:
264,352,41521,1,8,0:3:0:0:
390,293,41678,1,8,0:3:0:0:
318,215,41835,2,0,P|310:162|311:138,1,72,8|0,0:0|0:0,0:0:0:0:
436,100,42149,2,0,P|427:148|416:177,1,72,8|0,0:3|0:0,0:0:0:0:
212,232,42463,5,8,0:3:0:0:
184,228,42542,1,0,0:0:0:0:
156,224,42620,1,8,0:3:0:0:
288,124,42777,1,8,0:3:0:0:
263,99,42856,1,0,0:0:0:0:
240,76,42934,1,8,0:3:0:0:
17,130,43091,2,0,L|101:122,1,72,8|0,0:0|0:0,0:0:0:0:
102,122,43327,1,0,0:0:0:0:
114,121,43405,1,0,0:0:0:0:
107,141,43484,1,0,0:0:0:0:
106,162,43562,1,0,0:0:0:0:
111,183,43641,1,0,0:0:0:0:
122,201,43720,6,0,P|186:187|284:188,1,161.999995056153,4|0,0:0|2:0,0:0:0:0:
382,235,44034,2,0,P|251:222|235:225,1,135,4|0,0:2|2:0,0:0:0:0:
153,273,44348,2,0,P|233:262|286:264,1,108,0|0,0:0|2:0,0:0:0:0:
337,306,44662,2,0,P|297:299|257:301,1,80.9999975280763,4|0,0:2|2:0,0:0:0:0:
85,368,44976,5,8,0:0:0:0:
242,307,45133,1,0,0:0:0:0:
43,336,45290,5,8,0:0:0:0:
228,315,45447,1,0,0:0:0:0:
21,288,45604,5,8,0:0:0:0:
216,326,45761,1,0,0:0:0:0:
40,169,45918,5,10,0:0:0:0:
207,340,46076,1,10,0:0:0:0:
350,137,46233,5,8,0:0:0:0:
168,233,46390,1,0,0:0:0:0:
317,64,46547,5,8,0:0:0:0:
175,255,46704,1,0,0:0:0:0:
248,21,46861,5,8,0:0:0:0:
186,274,47018,1,0,0:0:0:0:
162,23,47175,5,10,0:0:0:0:
382,227,47332,1,10,0:0:0:0:
97,75,47489,5,8,0:0:0:0:
399,71,47646,1,0,0:0:0:0:
201,290,47803,1,8,0:0:0:0:
316,11,47960,2,2,B|499:35,1,180
246,204,48432,2,2,B|230:160|230:160|238:96,1,90,8|2,0:0|0:0,0:0:0:0:
201,290,48746,6,0,B|187:313|187:313|162:332,1,53.9999983520508,12|0,0:2|0:0,0:0:0:0:
347,147,48903,2,0,B|371:136|371:136|403:135,1,53.9999983520508,8|0,0:3|0:0,0:0:0:0:
142,168,49060,2,0,B|115:161|115:161|90:143,1,53.9999983520508,8|0,0:3|0:0,0:0:0:0:
334,276,49217,2,2,B|364:323|364:323|358:384,1,107.999996704102,10|0,0:0|0:0,0:0:0:0:
358,374,49453,1,0,0:0:0:0:
358,374,49531,1,8,0:0:0:0:
235,82,49688,1,2,0:0:0:0:
266,44,49767,1,0,0:0:0:0:
314,47,49845,1,10,0:0:0:0:
362,51,49924,1,0,0:0:0:0:
410,55,50002,6,2,B|425:102|425:102|410:158,1,99.0000030212403,6|8,0:0|0:0,0:0:0:0:
277,226,50316,1,0,0:0:0:0:
237,220,50395,1,0,0:0:0:0:
197,215,50473,1,10,0:0:0:0:
198,47,50631,1,0,0:0:0:0:
212,84,50710,1,0,0:0:0:0:
228,121,50788,1,8,0:0:0:0:
80,204,50945,1,2,0:0:0:0:
105,172,51024,1,0,0:0:0:0:
129,140,51102,1,8,0:0:0:0:
135,300,51259,6,2,B|88:312|88:312|27:305,1,99.0000030212403,2|8,0:0|0:0,0:0:0:0:
277,226,51573,1,0,0:0:0:0:
318,241,51652,1,0,0:0:0:0:
340,278,51730,1,10,0:0:0:0:
369,106,51887,1,0,0:0:0:0:
335,134,51966,1,0,0:0:0:0:
292,134,52044,1,8,0:0:0:0:
430,244,52201,1,2,0:0:0:0:
422,200,52280,1,0,0:0:0:0:
443,163,52358,1,8,0:0:0:0:
489,352,52515,6,2,B|439:341|439:341|385:353,1,99.0000030212403,2|8,0:0|0:0,0:0:0:0:
177,324,52830,2,0,L|242:313,1,49.5000015106202,2|0,0:0|0:0,0:0:0:0:
317,301,52987,1,8,0:0:0:0:
167,125,53144,2,0,L|144:186,1,49.5000015106202,2|0,0:0|0:0,0:0:0:0:
116,257,53301,1,8,0:0:0:0:
346,213,53458,2,0,L|303:162,1,49.5000015106202,2|0,0:0|0:0,0:0:0:0:
256,103,53615,1,8,0:0:0:0:
177,324,53772,6,2,P|234:281|318:301,1,161.999995056153,6|0,0:0|2:0,0:0:0:0:
291,202,54086,2,0,P|217:201|153:234,1,135,4|0,0:2|0:0,0:0:0:0:
66,207,54400,2,0,P|73:166|73:142,1,49.5000015106202,0|0,0:0|2:0,0:0:0:0:
234,58,54557,2,0,P|247:91|268:114,1,49.5000015106202,2|0,2:0|2:0,2:0:0:0:
163,135,54714,2,0,P|152:103|152:81,1,49.5000015106202,0|0,0:0|2:0,0:0:0:0:
350,87,54871,2,0,P|356:110|359:135,1,49.5000015106202,2|0,2:0|2:0,2:0:0:0:
270,258,55028,6,0,L|212:267,1,45,12|0,0:0|0:0,0:0:0:0:
425,325,55186,2,0,L|382:293,1,45
272,217,55343,6,0,L|228:227,1,45
445,296,55500,2,0,L|407:257,1,45
273,175,55657,6,0,L|232:193,1,45,8|0,0:0|0:0,0:0:0:0:
466,264,55814,2,0,L|436:224,1,45
317,334,55971,6,0,P|295:341|261:345,1,53.9999983520508,2|0,0:0|0:0,0:0:0:0:
134,308,56128,2,0,P|112:303|73:303,1,53.9999983520508,2|0,0:0|0:0,0:0:0:0:
129,180,56285,6,0,L|203:193,1,51.7500009870529,8|0,0:0|0:0,0:0:0:0:
383,180,56442,2,0,L|309:193,1,51.7500009870529
113,98,56599,6,0,P|139:99|164:103,1,51.7500009870529
399,98,56756,2,0,P|373:99|348:103,1,51.7500009870529
99,14,56913,6,0,B|126:14|126:14|162:24,1,51.7500009870529,8|0,0:0|0:0,0:0:0:0:
413,14,57070,2,0,B|386:14|386:14|350:24,1,51.7500009870529
256,104,57227,6,0,P|246:131|245:163,1,58.4999973220826,2|0,0:0|0:0,0:0:0:0:
270,261,57384,2,0,P|266:286|255:318,1,58.4999973220826,2|0,0:0|0:0,0:0:0:0:
96,328,57542,6,2,P|120:280|192:272,1,116.999994644165,10|0,0:0|0:0,0:0:0:0:
395,290,57777,1,0,0:0:0:0:
412,256,57856,2,0,P|388:208|316:200,1,116.999994644165,8|2,0:0|0:0,0:0:0:0:
90,202,58091,1,0,0:0:0:0:
72,166,58170,2,0,P|96:118|168:110,1,116.999994644165,8|2,0:0|0:0,0:0:0:0:
413,130,58405,1,0,0:0:0:0:
432,92,58484,6,2,P|432:56|420:16,1,67.5000025749208,10|0,0:0|0:0,0:0:0:0:
243,49,58641,2,0,P|243:85|255:125,1,67.5000025749208,8|0,0:3|0:0,0:0:0:0:
337,71,58798,2,0,L|332:24,1,38.9999982147218,14|8,0:0|0:0,0:0:0:0:
337,71,59583,6,0,L|267:79,1,58.4999973220826,8|0,0:3|0:0,0:0:0:0:
132,94,59741,2,0,B|167:90|167:90|195:65|195:65|253:71|277:124,1,175.499991966248,12|0,0:0|2:0,0:0:0:0:
284,196,60055,5,6,0:0:0:0:
100,248,60212,1,0,0:0:0:0:
280,208,60369,1,10,0:0:0:0:
104,236,60526,1,0,0:0:0:0:
276,220,60683,2,2,P|272:280|280:328,1,90,2|0,0:0|0:0,0:0:0:0:
140,148,60997,2,2,P|148:92|140:48,1,90,10|0,0:0|0:0,0:0:0:0:
0,276,61311,6,2,P|40:256|180:276,1,180,2|8,0:0|0:0,0:0:0:0:
276,220,61782,1,0,0:0:0:0:
164,180,61939,2,0,P|161:224|169:268,1,90
372,292,62254,1,10,0:0:0:0:
276,220,62411,1,2,0:0:0:0:
407,145,62568,5,2,0:0:0:0:
372,292,62725,1,0,0:0:0:0:
260,192,62882,1,10,0:2:0:0:
407,145,63040,5,2,0:0:0:0:
346,288,63197,1,0,0:0:0:0:
252,164,63354,1,2,0:2:0:0:
407,145,63511,6,2,P|452:148|500:164,1,90,8|2,0:0|0:0,0:0:0:0:
308,68,63824,2,2,P|248:124|144:116,1,180,2|8,0:0|0:0,0:0:0:0:
154,121,64295,1,0,0:0:0:0:
224,216,64453,2,2,B|236:260|236:260|228:316,1,90
48,156,64767,2,2,B|41:112|41:112|53:68,1,90,8|2,0:0|0:0,0:0:0:0:
292,12,65081,5,6,0:0:0:0:
154,121,65238,1,0,0:0:0:0:
296,24,65395,1,10,0:0:0:0:
158,109,65552,1,0,0:0:0:0:
300,36,65709,2,2,L|312:136,1,90,2|0,0:0|0:0,0:0:0:0:
132,236,66023,2,2,P|178:221|236:224,1,90,10|0,0:0|0:0,0:0:0:0:
492,276,66337,6,2,P|411:306|346:250,1,180,2|8,0:0|0:0,0:0:0:0:
392,36,66809,1,0,0:0:0:0:
488,84,66966,2,0,P|508:144|512:192,1,90
346,250,67280,1,10,0:0:0:0:
392,36,67437,1,2,0:0:0:0:
428,224,67594,5,6,0:0:0:0:
224,156,67751,1,8,0:0:0:0:
434,134,67908,2,2,L|428:224,1,90,2|0,0:0|0:0,0:0:0:0:
428,224,68144,1,0,0:0:0:0:
428,224,68222,5,10,0:0:0:0:
252,137,68379,2,0,L|301:106,1,51.7500009870529
416,32,68536,2,2,L|434:134,1,103.500001974106,10|0,0:0|0:0,0:0:0:0:
434,134,68772,1,0,0:0:0:0:
434,134,68850,5,10,0:0:0:0:
411,148,68929,1,0,0:0:0:0:
388,162,69008,1,0,0:0:0:0:
365,176,69086,1,0,0:0:0:0:
341,189,69165,5,8,0:0:0:0:
373,202,69243,1,0,0:0:0:0:
407,213,69322,1,0,0:0:0:0:
440,224,69400,1,0,0:0:0:0:
473,236,69479,5,8,0:0:0:0:
444,270,69557,1,0,0:0:0:0:
402,287,69636,1,0,0:0:0:0:
357,283,69714,1,0,0:0:0:0:
317,260,69793,1,8,0:3:0:0:
294,221,69871,1,0,0:0:0:0:
253,200,69950,1,8,0:3:0:0:
208,200,70028,1,0,0:0:0:0:
168,222,70107,5,6,0:0:0:0:
388,188,70264,1,0,0:0:0:0:
229,291,70421,1,10,0:0:0:0:
327,118,70578,1,0,0:0:0:0:
313,354,70735,2,2,P|332:289|331:247,1,90,2|0,0:0|0:0,0:0:0:0:
243,50,71049,2,2,P|224:115|225:157,1,90,10|0,0:0|0:0,0:0:0:0:
458,201,71364,6,2,B|424:190|424:190|399:209|399:209|352:169|290:191,1,180,2|8,0:0|0:0,0:0:0:0:
448,300,71835,1,0,0:0:0:0:
360,100,71992,2,0,P|352:44|356:0,1,90
293,189,72306,1,10,0:0:0:0:
460,52,72463,1,2,0:0:0:0:
241,74,72620,5,2,0:0:0:0:
394,222,72777,1,0,0:0:0:0:
220,345,72934,1,10,0:2:0:0:
243,58,73091,5,2,0:0:0:0:
379,221,73248,1,0,0:0:0:0:
218,360,73405,1,2,0:2:0:0:
351,110,73562,2,2,B|452:99,1,90,8|2,0:0|0:0,0:0:0:0:
194,196,73877,6,2,P|131:181|96:183,1,90,2|0,0:0|0:0,0:0:0:0:
350,354,74191,2,0,L|364:196,1,135,8|0,0:0|2:0,0:0:0:0:
365,188,74505,1,2,0:0:0:0:
259,296,74662,1,0,0:0:0:0:
471,219,74819,2,2,L|459:118,1,90,8|2,0:0|0:0,0:0:0:0:
460,129,75055,1,0,0:0:0:0:
460,129,75133,5,4,0:0:0:0:
221,88,75290,1,0,0:0:0:0:
439,30,75447,1,10,0:0:0:0:
242,187,75604,1,0,0:0:0:0:
40,35,75761,2,2,P|85:33|141:41,1,90,2|0,0:0|0:0,0:0:0:0:
406,112,76076,2,2,P|335:116|291:129,1,90,10|0,0:0|0:0,0:0:0:0:
104,283,76390,6,2,B|146:301|191:288|191:288|235:275|280:292,1,180,2|8,0:0|0:0,0:0:0:0:
365,359,76861,1,0,0:0:0:0:
285,189,77018,2,0,L|278:87,1,90
485,173,77332,2,2,L|473:275,1,90,10|2,0:0|0:0,0:0:0:0:
474,262,77568,1,0,0:0:0:0:
474,262,77646,5,6,0:0:0:0:
286,217,77803,1,8,0:0:0:0:
374,45,77960,2,2,L|384:153,1,90,2|0,0:0|0:0,0:0:0:0:
293,298,78275,5,8,0:0:0:0:
118,203,78432,1,2,0:0:0:0:
256,60,78589,2,2,B|280:100|280:100|285:188,1,135,10|0,0:0|0:0,0:0:0:0:
286,217,78903,5,8,0:0:0:0:
75,6,79060,1,8,0:0:0:0:
374,45,79217,1,8,0:0:0:0:
118,203,79374,1,8,0:0:0:0:
286,217,79531,5,8,0:3:0:0:
160,104,79688,1,8,0:3:0:0:
195,269,79845,1,8,0:3:0:0:
265,115,80002,1,8,0:3:0:0:
98,310,80159,6,2,P|157:362|275:335,1,198.000006042481,6|8,0:0|0:0,0:0:0:0:
461,229,80631,2,2,B|432:194|432:194|356:178|285:216,1,198.000006042481,2|0,0:0|0:0,0:0:0:0:
59,163,81102,2,2,P|119:173|172:166,1,99.0000030212403,10|0,0:0|0:0,0:0:0:0:
329,21,81416,6,0,P|304:88|297:125,1,99.0000030212403
435,250,81730,2,0,P|431:188|417:135,1,99.0000030212403,8|0,0:0|0:0,0:0:0:0:
182,313,82044,2,0,P|234:297|373:337,1,198.000006042481,2|8,0:2|0:0,0:0:0:0:
368,333,82515,1,0,0:0:0:0:
179,213,82672,6,0,P|163:138|205:25,1,198.000006042481,2|8,0:0|0:0,0:0:0:0:
437,101,83144,2,0,P|377:186|322:120,1,198.000006042481
504,252,83615,2,0,P|462:285|403:298,1,99.0000030212403,8|0,0:0|0:0,0:0:0:0:
211,109,83929,6,0,P|210:159|226:206,1,99.0000030212403,2|0,0:2|0:0,0:0:0:0:
441,30,84243,2,2,P|381:47|343:52,1,99.0000030212403,10|0,0:0|0:0,0:0:0:0:
13,91,84557,2,2,P|68:101|116:120,1,99.0000030212403,2|0,0:0|0:0,0:0:0:0:
424,216,84871,2,2,P|367:223|317:238,1,99.0000030212403,10|0,0:0|0:0,0:0:0:0:
91,356,85186,6,2,P|182:336|215:229,1,198.000006042481,6|8,0:0|0:0,0:0:0:0:
101,74,85657,2,2,P|70:175|123:264,1,198.000006042481,2|0,0:0|0:0,0:0:0:0:
320,327,86128,2,2,P|370:312|424:313,1,99.0000030212403,10|0,0:0|0:0,0:0:0:0:
475,115,86442,6,2,P|409:137|372:138,1,99.0000030212403,2|0,0:0|0:0,0:0:0:0:
246,73,86756,1,8,0:0:0:0:
108,198,86913,2,2,P|174:240|277:174,1,198.000006042481,2|0,0:0|0:0,0:0:0:0:
139,7,87384,2,2,P|124:69|127:114,1,99.0000030212403,10|0,0:0|0:0,0:0:0:0:
327,288,87699,6,2,P|379:208|347:100,1,198.000006042481,2|8,0:0|0:0,0:0:0:0:
209,321,88170,2,0,B|254:303|254:303|410:339,1,198.000006042481
271,188,88641,2,0,B|222:198|222:198|163:194,1,99.0000030212403,8|0,0:0|0:0,0:0:0:0:
386,83,88955,6,0,B|435:89|435:89|487:119,1,99.0000030212403,2|0,0:2|0:0,0:0:0:0:
416,344,89269,2,2,P|397:293|393:219,1,99.0000030212403,10|0,0:0|0:0,0:0:0:0:
256,40,89583,2,2,L|256:140,1,99.0000030212403,2|0,0:0|0:0,0:0:0:0:
96,344,89898,2,2,P|115:293|119:219,1,99.0000030212403,10|0,0:0|0:0,0:0:0:0:
4,40,90212,6,2,P|60:100|196:76,1,198.000006042481,6|8,0:0|0:0,0:0:0:0:
456,208,90683,2,2,P|404:200|344:208,1,99.0000030212403,2|0,0:0|0:0,0:0:0:0:
252,260,90997,1,0,0:0:0:0:
169,96,91154,2,2,P|216:80|284:80,1,99.0000030212403,10|0,0:0|0:0,0:0:0:0:
352,324,91468,6,0,P|272:372|168:348,1,198.000006042481,0|8,0:0|0:0,0:0:0:0:
252,260,91939,1,0,0:0:0:0:
468,356,92097,2,0,P|492:288|468:160,1,198.000006042481,0|8,0:0|0:0,0:0:0:0:
352,324,92568,1,0,0:0:0:0:
232,236,92725,6,2,P|220:192|228:120,1,99.0000030212403,2|0,0:0|0:0,0:0:0:0:
472,40,93039,2,0,B|408:44|408:44|344:20|344:20|276:24,1,198.000006042481,8|0,0:0|0:0,0:0:0:0:
104,148,93510,1,0,0:0:0:0:
222,139,93667,2,0,L|328:132,1,99.0000030212403,8|0,0:0|0:0,0:0:0:0:
488,260,93981,6,0,L|380:252,1,99.0000030212403,2|0,0:2|0:0,0:0:0:0:
104,312,94295,2,2,B|152:304|152:304|208:320,1,99.0000030212403,10|0,0:0|0:0,0:0:0:0:
417,146,94610,2,2,B|369:146|369:146|313:130,1,99.0000030212403,2|0,0:0|0:0,0:0:0:0:
12,212,94925,2,2,B|60:196|60:196|132:196,1,99.0000030212403,10|0,0:0|0:0,0:0:0:0:
328,368,95238,6,2,B|348:335|348:335|361:214,1,148.50000453186,2|2,0:0|2:0,0:0:0:0:
316,164,95552,2,0,P|372:172|436:168,1,99.0000030212403,8|2,0:0|0:0,0:0:0:0:
232,292,95866,2,2,B|192:296|192:296|80:276,1,148.50000453186,2|2,0:0|2:0,0:0:0:0:
40,220,96180,2,0,P|37:269|26:317,1,99.0000030212403,8|2,0:0|0:0,0:0:0:0:
120,136,96494,6,2,L|272:120,1,148.50000453186,2|2,0:0|2:0,0:0:0:0:
300,128,96808,1,8,0:0:0:0:
88,128,96965,1,2,0:0:0:0:
248,224,97122,2,2,L|400:244,1,148.50000453186,2|2,0:0|2:0,0:0:0:0:
428,232,97436,1,8,0:0:0:0:
216,232,97593,1,2,0:0:0:0:
289,29,97751,6,2,L|301:141,1,99.0000030212403,2|0,0:0|0:0,0:0:0:0:
132,312,98065,2,0,P|100:236|160:132,1,198.000006042481,8|0,0:0|0:0,0:0:0:0:
248,340,98536,1,0,0:0:0:0:
352,288,98693,2,0,P|360:232|352:176,1,99.0000030212403,8|0,0:0|0:0,0:0:0:0:
160,32,99008,6,2,P|216:56|264:56,1,99.0000030212403,2|0,0:0|0:0,0:0:0:0:
472,8,99322,2,0,L|484:120,1,99.0000030212403,8|0,0:0|0:0,0:0:0:0:
468,140,99557,1,0,0:0:0:0:
452,172,99636,2,8,L|385:185,1,53.9999983520508
288,60,99793,2,8,L|356:64,1,53.9999983520508
252,185,99950,1,0,0:0:0:0:
208,189,100028,1,0,0:0:0:0:
164,193,100107,1,0,0:0:0:0:
132,165,100186,1,0,0:0:0:0:
104,133,100264,6,2,B|152:109|152:109|212:105,1,107.999996704102,6|0,0:0|0:0,0:0:0:0:
358,172,100578,1,8,0:0:0:0:
236,283,100735,1,2,0:0:0:0:
228,321,100814,1,0,0:0:0:0:
236,359,100892,1,0,0:0:0:0:
344,321,101049,1,0,0:0:0:0:
128,358,101206,1,10,0:0:0:0:
120,320,101284,1,0,0:0:0:0:
128,282,101363,1,0,0:0:0:0:
269,178,101521,5,0,0:0:0:0:
54,192,101678,1,0,0:0:0:0:
54,192,101756,1,0,0:0:0:0:
54,192,101835,2,0,L|190:184,1,107.999996704102,8|0,0:0|0:0,0:0:0:0:
368,211,102149,1,2,0:2:0:0:
345,248,102228,1,0,0:0:0:0:
309,272,102306,1,0,0:0:0:0:
267,279,102385,1,0,0:0:0:0:
226,269,102463,1,8,0:0:0:0:
269,178,102620,1,0,0:0:0:0:
461,262,102777,6,2,B|467:318|467:318|451:372,1,107.999996704102,2|0,0:0|0:0,0:0:0:0:
339,303,103091,1,8,0:0:0:0:
451,164,103248,1,0,0:0:0:0:
451,164,103327,1,0,0:0:0:0:
451,164,103405,1,0,0:0:0:0:
242,90,103562,1,0,0:0:0:0:
352,203,103720,1,8,0:0:0:0:
348,245,103798,1,0,0:0:0:0:
327,283,103877,1,0,0:0:0:0:
291,306,103955,1,0,0:0:0:0:
247,308,104034,2,0,P|201:293|132:286,1,107.999996704102
20,144,104348,5,10,0:0:0:0:
28,136,104427,1,0,0:0:0:0:
36,128,104505,2,0,L|40:60,1,53.9999983520508
141,33,104662,5,2,0:0:0:0:
153,45,104741,1,0,0:0:0:0:
164,57,104819,2,0,L|162:116,1,58.4999973220826
268,136,104976,5,10,0:0:0:0:
284,120,105055,1,0,0:0:0:0:
300,104,105133,2,0,L|304:24,1,62.9999980773926
412,132,105290,5,6,0:0:0:0:
284,232,105447,1,0,0:0:0:0:
284,232,105526,1,0,0:0:0:0:
284,232,105604,1,8,0:0:0:0:
376,368,105761,1,2,0:0:0:0:
408,204,105919,1,0,0:0:0:0:
408,204,105997,1,0,0:0:0:0:
408,204,106076,1,0,0:0:0:0:
268,116,106233,1,10,0:0:0:0:
124,200,106390,1,0,0:0:0:0:
284,232,106547,5,2,0:0:0:0:
168,48,106704,1,0,0:0:0:0:
168,48,106782,1,0,0:0:0:0:
168,48,106861,1,8,0:0:0:0:
16,212,107018,2,2,L|123:199,1,107.999996704102,2|0,0:0|0:0,0:0:0:0:
356,248,107332,1,0,0:0:0:0:
320,240,107411,1,0,0:0:0:0:
284,232,107489,1,10,0:0:0:0:
472,212,107646,1,0,0:0:0:0:
320,344,107803,6,2,L|196:324,1,107.999996704102,2|0,0:0|0:0,0:0:0:0:
28,356,108117,1,8,0:0:0:0:
60,336,108196,1,0,0:0:0:0:
80,304,108275,1,0,0:0:0:0:
92,268,108353,1,0,0:0:0:0:
92,228,108432,1,0,0:0:0:0:
76,192,108510,1,0,0:0:0:0:
52,164,108589,1,0,0:0:0:0:
44,128,108667,1,0,0:0:0:0:
48,92,108746,1,8,0:0:0:0:
68,60,108824,1,0,0:0:0:0:
96,36,108903,1,0,0:0:0:0:
132,28,108981,1,0,0:0:0:0:
168,32,109060,2,0,P|228:56|272:60,1,107.999996704102
448,158,109374,5,10,0:0:0:0:
462,159,109453,1,0,0:0:0:0:
476,162,109531,2,0,P|452:174|406:182,1,53.9999983520508
315,232,109688,5,2,0:0:0:0:
295,231,109767,1,0,0:0:0:0:
275,235,109845,2,0,P|300:248|346:254,1,58.4999973220826
441,292,110002,5,10,0:0:0:0:
466,290,110081,1,0,0:0:0:0:
491,294,110159,2,0,P|472:308|414:316,1,62.9999980773926
282,357,110316,6,2,P|207:333|156:334,1,107.999996704102,6|0,0:0|0:0,0:0:0:0:
178,331,110552,1,0,0:0:0:0:
178,331,110631,1,8,0:0:0:0:
329,254,110788,2,2,P|338:182|334:129,1,107.999996704102,2|0,0:0|0:0,0:0:0:0:
91,247,111102,1,0,0:0:0:0:
196,89,111259,2,2,P|220:150|224:202,1,107.999996704102,10|0,0:0|0:0,0:0:0:0:
224,191,111494,1,0,0:0:0:0:
224,191,111573,5,0,0:0:0:0:
88,69,111730,1,0,0:0:0:0:
314,118,111887,1,8,0:0:0:0:
354,102,111966,1,0,0:0:0:0:
380,68,112044,1,0,0:0:0:0:
415,93,112123,1,0,0:0:0:0:
456,102,112201,1,0,0:0:0:0:
283,18,112358,1,0,0:0:0:0:
400,213,112515,1,8,0:0:0:0:
145,221,112672,1,0,0:0:0:0:
181,197,112751,1,0,0:0:0:0:
224,191,112830,5,2,0:0:0:0:
446,309,112987,1,0,0:0:0:0:
220,292,113144,1,8,0:0:0:0:
231,333,113222,1,0,0:0:0:0:
268,354,113301,1,0,0:0:0:0:
310,347,113379,1,0,0:0:0:0:
334,311,113458,1,0,0:0:0:0:
144,167,113615,1,0,0:0:0:0:
8,364,113772,2,0,L|125:351,1,107.999996704102,8|0,0:0|0:0,0:0:0:0:
115,352,114008,1,0,0:0:0:0:
115,352,114086,2,0,B|124:297|124:297|96:235,1,107.999996704102
215,68,114400,5,10,0:0:0:0:
215,68,114479,1,0,0:0:0:0:
215,68,114557,2,0,P|224:98|228:132,1,53.9999983520508
333,253,114714,5,2,0:0:0:0:
333,253,114793,1,0,0:0:0:0:
333,253,114871,2,0,P|357:224|382:205,1,58.4999973220826
392,59,115029,6,2,B|356:87|356:87|285:97|215:68,1,188.999994232178,10|0,0:0|2:0,0:0:0:0:
142,11,115343,5,8,0:0:0:0:
469,183,115552,1,0,0:0:0:0:
156,380,115761,1,0,0:0:0:0:
221,33,115971,5,8,0:0:0:0:
410,241,116180,1,0,0:0:0:0:
135,300,116389,1,0,0:0:0:0:
293,76,116599,5,8,0:0:0:0:
337,282,116808,1,0,0:0:0:0:
136,217,117017,1,0,0:0:0:0:
337,146,117227,5,8,0:0:0:0:
254,285,117436,1,0,0:0:0:0:
176,144,117645,1,0,0:0:0:0:
176,144,117751,1,0,0:0:0:0:
176,144,117856,5,8,0:0:0:0:
254,285,118065,1,0,0:0:0:0:
337,146,118275,1,0,0:0:0:0:
136,217,118484,5,8,0:0:0:0:
337,282,118693,1,8,0:0:0:0:
293,76,118902,1,8,0:0:0:0:
135,300,119112,5,8,0:0:0:0:
410,241,119321,1,8,0:0:0:0:
221,33,119530,1,8,0:0:0:0:
156,380,119741,5,10,0:0:0:0:
469,183,119950,1,10,0:0:0:0:
142,11,120159,1,10,0:0:0:0:
108,112,120369,6,0,P|152:115|208:96,2,90,2|0|0,0:0|0:0|0:0,0:0:0:0:
280,168,121311,2,0,P|336:156|376:164,2,90
180,296,122253,2,0,P|187:251|180:207,2,90
80,252,123196,1,0,0:0:0:0:
88,144,123510,1,0,0:0:0:0:
188,100,123824,1,0,0:0:0:0:
276,164,124138,6,0,P|320:176|376:172,2,90,2|0|0,0:0|0:0|0:0,0:0:0:0:
332,71,125081,2,0,P|393:59|431:64,2,90
224,69,126023,2,0,P|184:79|129:79,2,90
276,164,126965,1,0,0:0:0:0:
201,241,127279,1,0,0:0:0:0:
292,298,127594,1,0,0:0:0:0:
205,362,127908,6,0,P|142:342|81:339,1,107.999996704102,4|0,1:0|0:0,0:0:0:0:
34,252,128536,1,0,1:0:0:0:
131,205,128850,2,0,P|146:152|144:97,1,107.999996704102,8|0,1:0|0:0,0:0:0:0:
71,19,129478,1,0,1:0:0:0:
40,121,129793,6,0,P|94:119|143:99,1,107.999996704102,4|0,1:0|0:0,0:0:0:0:
210,13,130421,1,0,1:0:0:0:
307,156,130735,1,10,1:2:0:0:
143,98,131049,1,2,0:0:0:0:
310,53,131363,1,4,1:2:0:0:
201,187,131677,6,0,L|211:304,1,107.999996704102,4|0,1:0|0:0,0:0:0:0:
420,349,132306,1,0,1:0:0:0:
315,322,132620,2,0,L|306:206,1,107.999996704102,8|0,1:0|0:0,0:0:0:0:
485,92,133248,1,0,1:0:0:0:
399,157,133562,6,0,L|409:274,1,107.999996704102,4|0,1:0|0:0,0:0:0:0:
306,214,134033,1,0,1:0:0:0:
306,214,134190,1,0,1:0:0:0:
74,342,134505,1,10,1:2:0:0:
262,299,134819,1,10,1:2:0:0:
20,223,135133,1,4,1:2:0:0:
267,111,135447,6,0,P|271:51|256:5,1,107.999996704102,4|0,1:0|0:0,0:0:0:0:
186,179,136075,1,0,1:0:0:0:
285,212,136389,2,0,P|331:215|397:196,1,107.999996704102,8|0,1:0|0:0,0:0:0:0:
186,179,137018,1,0,1:0:0:0:
107,251,137332,6,0,L|95:369,2,107.999996704102,4|0|0,1:2|0:0|1:0,0:0:0:0:
186,179,138274,1,10,1:2:0:0:
272,295,138588,1,2,1:2:0:0:
366,151,138902,1,4,1:2:0:0:
484,300,139217,6,0,B|432:316|432:316|363:308,1,107.999996704102,4|0,1:0|0:0,0:0:0:0:
272,295,139846,1,0,1:0:0:0:
368,108,140160,2,0,B|360:164|360:164|328:216,1,107.999996704102,8|0,1:0|0:0,0:0:0:0:
272,295,140788,1,0,1:0:0:0:
137,134,141102,6,0,B|187:159|187:159|217:203,1,107.999996704102,4|0,1:0|0:0,0:0:0:0:
272,295,141730,1,0,1:0:0:0:
114,242,142044,1,10,1:2:0:0:
333,174,142358,1,2,1:2:0:0:
99,101,142672,1,4,1:2:0:0:
317,67,142986,6,0,B|337:68|354:79|354:79|375:77|390:65|390:65|459:97|456:184,1,215.999993408203,4|0,1:0|1:0,0:0:0:0:
405,272,143929,1,8,1:0:0:0:
312,217,144243,2,0,P|280:210|251:207,1,53.9999983520508,2|0,0:0|0:0,0:0:0:0:
246,311,144557,2,0,P|216:310|186:313,1,53.9999983520508,2|0,1:2|0:0,0:0:0:0:
405,272,144871,6,0,P|432:268|464:269,1,53.9999983520508,4|0,1:2|0:0,0:0:0:0:
325,121,145185,2,0,P|264:106|200:114,1,107.999996704102,2|0,0:0|1:0,0:0:0:0:
71,274,145814,1,8,1:0:0:0:
103,287,145971,2,0,B|159:305|159:305|270:271,1,161.999995056153,4|4,1:2|1:2,0:0:0:0:
181,108,146756,6,0,P|170:154|170:177,1,53.9999983520508,4|0,1:0|0:0,0:0:0:0:
251,36,147070,2,0,P|201:15|125:19,1,107.999996704102,2|0,0:0|1:0,0:0:0:0:
322,142,147698,2,0,P|372:136|431:103,1,107.999996704102,8|0,1:0|0:0,0:0:0:0:
491,171,148170,2,0,P|479:217|479:233,1,53.9999983520508,2|0,0:0|1:0,0:0:0:0:
478,223,148484,1,0,0:0:0:0:
402,276,148641,6,0,P|339:259|281:259,1,107.999996704102,4|0,1:2|0:0,0:0:0:0:
111,350,149269,1,0,1:0:0:0:
168,286,149426,1,0,1:0:0:0:
83,271,149583,1,12,1:2:0:0:
330,364,149897,1,8,1:0:0:0:
288,105,150211,1,4,1:2:0:0:
83,271,150526,5,4,1:0:0:0:
217,287,150840,2,0,L|286:276,1,53.9999983520508,2|0,0:0|0:0,0:0:0:0:
279,282,151075,1,0,0:0:0:0:
288,285,151154,1,0,1:0:0:0:
487,196,151468,2,0,B|372:212,1,107.999996704102,10|0,1:2|0:0,0:0:0:0:
288,285,152096,1,0,1:0:0:0:
306,31,152410,1,4,1:2:0:0:
168,158,152725,6,0,L|278:145,1,107.999996704102,0|0,0:0|1:0,0:0:0:0:
63,79,153353,1,12,1:2:0:0:
46,205,153667,1,2,1:2:0:0:
111,314,153981,1,4,1:2:0:0:
240,344,154295,6,0,B|283:343|336:321|384:299|429:237|436:163|434:64|369:14|354:-3|175:-51|124:-14|41:49|49:160|66:307|116:298|187:322|258:317|337:295|389:233|392:107|266:59|201:113|202:171|202:171|205:183,1,1138.50003474426,4|0,1:0|2:0,0:0:0:0:
202,160,158065,5,6,0:0:0:0:
221,129,158143,1,0,0:0:0:0:
253,118,158222,1,0,0:0:0:0:
287,127,158300,1,0,0:0:0:0:
310,154,158379,1,0,0:0:0:0:
317,188,158457,1,0,0:0:0:0:
306,222,158536,1,0,0:0:0:0:
282,248,158614,1,0,0:0:0:0:
250,264,158693,1,10,0:0:0:0:
215,268,158771,1,0,0:0:0:0:
181,259,158850,1,0,0:0:0:0:
152,239,158928,1,0,0:0:0:0:
133,209,159007,1,2,0:0:0:0:
124,175,159085,1,0,0:0:0:0:
127,140,159164,1,0,0:0:0:0:
139,107,159243,1,0,0:0:0:0:
161,78,159321,5,10,0:0:0:0:
189,57,159400,1,0,0:0:0:0:
222,45,159478,1,0,0:0:0:0:
258,41,159557,1,0,0:0:0:0:
293,47,159635,1,0,0:0:0:0:
325,61,159714,1,0,0:0:0:0:
353,83,159792,1,0,0:0:0:0:
374,111,159871,1,0,0:0:0:0:
388,144,159949,1,10,0:0:0:0:
393,179,160028,1,0,0:0:0:0:
390,214,160106,1,0,0:0:0:0:
379,248,160185,1,0,0:0:0:0:
361,279,160263,1,2,0:0:0:0:
337,305,160342,1,0,0:0:0:0:
307,324,160421,1,0,0:0:0:0:
274,338,160499,1,0,0:0:0:0:
240,344,160578,5,10,0:0:0:0:
223,332,160656,1,0,0:0:0:0:
206,320,160735,2,0,L|150:328,1,40.4999987640381
275,247,160892,5,10,0:0:0:0:
301,236,160970,1,0,0:0:0:0:
327,224,161049,2,0,L|383:236,1,47.2499985580445
215,171,161206,5,10,0:0:0:0:
184,151,161284,1,0,0:0:0:0:
152,131,161363,2,0,L|89:140,1,53.9999983520508
280,96,161520,5,10,0:0:0:0:
325,76,161599,1,0,0:0:0:0:
369,56,161677,2,0,L|432:73,1,60.7500002317429
222,10,161834,5,10,0:0:0:0:
179,10,161913,1,0,0:0:0:0:
142,31,161991,1,0,0:0:0:0:
119,67,162070,1,0,0:0:0:0:
116,110,162148,1,8,0:0:0:0:
136,148,162227,1,0,0:0:0:0:
169,174,162305,1,8,0:0:0:0:
212,179,162384,1,0,0:0:0:0:
262,165,162462,5,8,0:3:0:0:
315,165,162541,1,0,0:0:0:0:
361,190,162619,1,0,0:0:0:0:
388,235,162698,1,0,0:0:0:0:
390,287,162777,1,8,0:3:0:0:
368,334,162855,1,0,0:0:0:0:
324,363,162934,1,8,0:3:0:0:
272,368,163012,1,0,0:0:0:0:
224,347,163091,6,0,B|216:307|216:307|229:256,1,76.5000014591217,4|0,0:0|0:0,0:0:0:0:
481,250,163248,2,0,B|488:287|488:287|476:335,1,76.5000014591217
361,190,163405,1,8,0:0:0:0:
356,168,163719,5,8,0:0:0:0:
351,148,164033,5,4,0:2:0:0:
324,363,164190,1,0,0:0:0:0:
347,129,164347,5,8,0:0:0:0:
343,110,164661,5,8,0:0:0:0:
340,91,164975,6,0,P|305:97|264:97,1,76.5000014591217,4|0,0:0|0:0,0:0:0:0:
52,172,165133,2,0,P|86:165|128:166,1,76.5000014591217
354,221,165290,1,8,0:0:0:0:
356,240,165604,5,8,0:0:0:0:
358,259,165918,5,4,0:2:0:0:
341,88,166075,1,0,0:0:0:0:
153,173,166232,5,8,0:0:0:0:
465,222,166389,1,8,0:0:0:0:
239,254,166546,5,0,0:0:0:0:
506,98,166703,1,8,0:0:0:0:
242,41,166860,6,0,B|231:77|231:77|235:117,1,76.5000014591217,4|0,0:0|0:0,0:0:0:0:
437,130,167017,2,0,B|448:94|448:94|443:53,1,76.5000014591217
330,204,167174,1,8,0:0:0:0:
348,208,167489,5,8,0:0:0:0:
367,212,167803,5,4,0:2:0:0:
162,267,167960,1,0,0:0:0:0:
384,216,168117,5,8,0:0:0:0:
401,220,168431,5,8,0:0:0:0:
411,248,168510,1,0,2:0:0:0:
414,278,168588,1,2,2:0:0:0:
407,308,168667,1,0,2:0:0:0:
388,332,168745,6,0,P|364:293|361:250,1,76.5000014591217,4|0,0:0|0:0,0:0:0:0:
458,76,168902,2,0,P|436:116|400:140,1,76.5000014591217
186,140,169059,1,8,0:0:0:0:
170,126,169373,6,0,L|185:295,1,161.999995056153,8|0,0:0|0:0,0:0:0:0:
192,366,169688,5,10,0:2:0:0:
373,166,169845,1,8,0:0:0:0:
109,45,170002,5,10,0:2:0:0:
337,263,170159,1,8,0:0:0:0:
33,369,170316,5,10,0:2:0:0:
302,94,170473,1,8,0:0:0:0:
302,94,170551,1,0,2:0:0:0:
302,94,170630,6,0,L|416:76,1,99.0000030212403,4|0,0:0|0:0,0:0:0:0:
157,44,170944,2,0,P|136:81|143:197,1,148.50000453186,8|0,0:0|2:0,0:0:0:0:
161,208,171258,2,2,L|49:195,1,99.0000030212403,2|0,0:0|0:0,0:0:0:0:
3,72,171572,1,8,0:0:0:0:
157,44,171729,6,2,B|222:55|222:55|374:29,1,198.000006042481,2|0,0:0|0:0,0:0:0:0:
450,165,172201,2,2,P|444:204|451:282,1,99.0000030212403,10|0,0:0|0:0,0:0:0:0:
255,236,172515,2,0,P|267:291|266:351,1,99.0000030212403
77,159,172829,2,2,P|62:215|60:267,1,99.0000030212403,10|0,0:0|0:0,0:0:0:0:
180,41,173143,6,2,P|249:63|332:44,1,148.50000453186,2|0,0:0|0:0,0:0:0:0:
400,42,173457,2,0,P|371:37|332:39,1,49.5000015106202,8|0,0:0|2:0,0:0:0:0:
170,140,173614,2,0,P|197:135|228:136,1,49.5000015106202,2|0,0:2|2:0,0:0:0:0:
407,176,173771,1,2,0:0:0:0:
206,234,173928,1,0,0:0:0:0:
318,139,174085,1,8,0:0:0:0:
260,320,174243,1,2,0:0:0:0:
78,253,174400,6,2,P|121:233|191:227,1,99.0000030212403,2|0,0:0|0:0,0:0:0:0:
414,298,174714,2,0,P|309:314|269:284,1,148.50000453186,8|0,0:0|2:0,0:0:0:0:
266,260,175028,2,2,L|256:157,1,99.0000030212403,2|0,0:0|0:0,0:0:0:0:
414,43,175342,1,8,0:0:0:0:
349,205,175499,1,0,0:0:0:0:
186,86,175656,6,2,P|228:65|297:65,1,99.0000030212403,2|0,0:0|0:0,0:0:0:0:
313,73,175892,1,0,0:0:0:0:
343,91,175970,1,8,0:0:0:0:
186,224,176127,2,2,P|102:172|-6:207,1,198.000006042481,2|0,0:0|0:0,0:0:0:0:
10,193,176520,1,0,0:0:0:0:
10,193,176599,5,8,0:0:0:0:
21,177,176677,1,0,0:0:0:0:
30,159,176756,1,0,0:0:0:0:
37,140,176834,1,0,0:0:0:0:
39,120,176913,5,8,0:0:0:0:
58,142,176991,1,0,0:0:0:0:
66,170,177070,1,0,0:0:0:0:
68,199,177148,1,0,0:0:0:0:
62,228,177227,5,8,0:0:0:0:
97,210,177305,1,8,0:0:0:0:
136,205,177384,1,8,0:0:0:0:
173,216,177462,1,8,0:0:0:0:
200,244,177541,5,8,0:3:0:0:
207,205,177619,1,0,0:0:0:0:
232,174,177698,1,8,0:3:0:0:
268,158,177777,1,0,0:0:0:0:
307,158,177855,6,8,P|334:167|360:186,1,49.5000015106202,8|8,0:3|0:3,0:3:0:0:
315,291,178012,2,8,P|300:268|288:234,1,49.5000015106202,8|8,0:3|0:3,0:3:0:0:
372,83,178169,5,6,0:0:0:0:
448,251,178326,2,0,L|437:366,1,103.500001974106,0|8,0:0|0:0,0:0:0:0:
165,345,178640,1,2,0:0:0:0:
291,247,178797,2,0,L|300:128,1,103.500001974106
20,235,179112,2,2,L|33:340,1,103.500001974106,10|0,0:0|0:0,0:0:0:0:
179,185,179426,5,2,0:0:0:0:
76,113,179583,2,0,P|65:62|62:3,1,103.500001974106,0|8,0:0|0:0,0:0:0:0:
306,145,179897,2,2,P|295:194|290:255,1,103.500001974106,2|0,0:0|0:0,0:0:0:0:
395,319,180211,1,0,0:0:0:0:
179,185,180368,2,2,P|170:132|168:73,1,103.500001974106,10|0,0:0|0:0,0:0:0:0:
395,17,180682,5,2,0:0:0:0:
437,139,180839,2,0,L|322:126,1,103.500001974106,0|8,0:0|0:0,0:0:0:0:
88,104,181154,1,2,0:0:0:0:
49,234,181311,2,0,L|166:219,1,103.500001974106
465,284,181625,2,2,L|349:267,1,103.500001974106,10|0,0:0|0:0,0:0:0:0:
143,349,181939,5,2,0:0:0:0:
250,289,182096,2,0,L|261:178,1,103.500001974106,0|8,0:0|0:0,0:0:0:0:
153,14,182410,1,2,0:0:0:0:
44,120,182567,2,0,L|33:231,1,103.500001974106
356,113,182881,2,2,L|343:-1,1,103.500001974106,10|0,0:0|0:0,0:0:0:0:
260,186,183195,5,2,0:0:0:0:
362,268,183352,2,0,P|424:281|487:282,1,103.500001974106,0|8,0:0|0:0,0:0:0:0:
184,289,183667,2,2,P|127:279|67:282,1,103.500001974106
294,372,183981,1,0,0:0:0:0:
260,186,184138,2,0,P|264:117|274:59,1,103.500001974106,10|0,0:0|0:0,0:0:0:0:
362,268,184452,5,2,0:0:0:0:
138,133,184609,2,0,P|86:124|26:127,1,103.500001974106,0|8,0:0|0:0,0:0:0:0:
260,186,184923,1,2,0:0:0:0:
384,134,185080,2,2,L|398:30,1,103.500001974106,2|0,0:0|0:0,0:0:0:0:
143,170,185394,2,2,L|160:272,1,103.500001974106,10|0,0:0|0:0,0:0:0:0:
176,375,185708,5,0,0:0:0:0:
341,336,185865,1,0,0:0:0:0:
160,272,186022,1,8,0:0:0:0:
357,238,186179,1,0,0:0:0:0:
143,170,186336,1,0,0:0:0:0:
373,140,186493,1,0,0:0:0:0:
127,68,186650,1,8,0:0:0:0:
389,42,186808,1,0,0:0:0:0:
389,42,186886,1,0,0:0:0:0:
389,42,186965,5,10,0:2:0:0:
68,131,187122,1,8,0:0:0:0:
429,266,187279,1,10,0:2:0:0:
44,332,187436,1,10,0:2:0:0:
388,194,187593,5,8,0:3:0:0:
149,111,187750,1,0,0:0:0:0:
294,318,187907,1,8,0:3:0:0:
298,66,188064,1,8,0:3:0:0:
146,267,188222,5,6,0:0:0:0:
357,186,188379,2,2,P|305:184|236:196,1,107.999996704102,2|8,0:0|0:0,0:0:0:0:
396,279,188693,1,2,0:0:0:0:
161,135,188850,2,2,P|110:143|32:139,1,107.999996704102,2|0,0:0|0:0,0:0:0:0:
261,83,189164,1,10,0:0:0:0:
112,254,189321,1,0,0:0:0:0:
357,186,189478,5,2,0:0:0:0:
276,382,189635,2,2,L|262:267,1,107.999996704102,2|8,0:0|0:0,0:0:0:0:
53,142,189949,1,2,0:0:0:0:
139,39,190106,1,2,0:0:0:0:
171,75,190185,1,0,0:0:0:0:
185,121,190263,1,0,0:0:0:0:
185,169,190342,1,0,0:0:0:0:
166,214,190421,1,8,0:0:0:0:
134,250,190499,1,0,0:0:0:0:
124,297,190578,1,8,0:0:0:0:
139,342,190656,1,0,0:0:0:0:
175,374,190735,5,2,0:0:0:0:
386,333,190892,2,2,P|300:318|252:324,1,107.999996704102,2|8,0:0|0:0,0:0:0:0:
407,159,191206,1,2,0:0:0:0:
139,213,191363,2,2,P|216:222|263:216,1,107.999996704102,2|0,0:0|0:0,0:0:0:0:
84,303,191677,1,10,0:0:0:0:
200,109,191834,1,0,0:0:0:0:
279,319,191991,5,2,0:0:0:0:
111,186,192148,2,2,P|54:166|-2:160,1,107.999996704102,2|8,0:0|0:0,0:0:0:0:
180,364,192462,1,2,0:0:0:0:
220,240,192619,1,2,0:0:0:0:
264,220,192698,1,0,0:0:0:0:
312,224,192777,1,0,0:0:0:0:
352,252,192855,1,0,0:0:0:0:
376,292,192934,1,8,0:0:0:0:
421,308,193012,1,0,0:0:0:0:
469,305,193091,1,8,0:0:0:0:
506,274,193169,1,0,0:0:0:0:
512,226,193248,6,2,P|496:177|488:124,1,107.999996704102,2|0,0:0|0:0,0:0:0:0:
336,48,193562,1,8,0:0:0:0:
268,156,193719,2,2,P|260:220|264:276,1,107.999996704102,2|0,0:0|0:0,0:0:0:0:
66,346,194033,1,0,0:0:0:0:
28,188,194190,2,2,P|40:124|64:76,1,107.999996704102,10|0,0:0|0:0,0:0:0:0:
444,84,194504,6,2,L|328:74,1,107.999996704102,2|0,0:0|0:0,0:0:0:0:
212,264,194818,1,8,0:0:0:0:
148,168,194975,2,2,L|260:160,1,107.999996704102,2|0,0:0|0:0,0:0:0:0:
484,272,195289,1,0,0:0:0:0:
396,348,195446,2,2,L|276:340,1,107.999996704102,10|0,0:0|0:0,0:0:0:0:
88,368,195761,5,4,0:0:0:0:
108,352,195839,1,0,0:0:0:0:
133,343,195918,1,0,0:0:0:0:
159,339,195996,1,0,0:0:0:0:
185,343,196075,5,8,0:0:0:0:
160,321,196154,1,0,0:0:0:0:
128,314,196232,1,0,0:0:0:0:
95,316,196311,1,0,0:0:0:0:
65,328,196389,5,0,0:0:0:0:
85,296,196468,1,0,0:0:0:0:
119,281,196546,1,0,0:0:0:0:
157,279,196625,1,0,0:0:0:0:
192,290,196703,5,8,0:0:0:0:
164,256,196782,1,0,0:0:0:0:
121,247,196860,1,0,0:0:0:0:
78,255,196939,1,0,0:0:0:0:
41,278,197017,5,8,0:3:0:0:
13,237,197096,1,0,0:0:0:0:
17,188,197174,1,0,0:0:0:0:
42,146,197253,1,0,0:0:0:0:
85,123,197332,1,0,0:0:0:0:
133,125,197410,1,0,0:0:0:0:
176,147,197489,2,0,L|181:208,1,53.9999983520508,8|0,0:3|0:0,0:0:0:0:
244,293,197646,5,0,0:0:0:0:
290,304,197724,1,0,0:0:0:0:
336,288,197803,1,0,0:0:0:0:
366,250,197881,1,0,0:0:0:0:
369,201,197960,2,0,L|362:135,1,53.9999983520508,8|0,0:0|0:0,0:0:0:0:
192,4,198117,2,0,L|199:71,1,53.9999983520508,8|0,0:0|0:0,0:0:0:0:
282,215,198274,6,2,L|268:92,1,99.0000030212403,6|0,0:0|0:0,0:0:0:0:
183,377,198588,1,8,0:0:0:0:
365,284,198745,2,2,B|441:253|517:271|517:271|489:274|466:291,1,198.000006042481,2|0,0:0|0:0,0:0:0:0:
240,289,199216,6,2,B|204:285|178:274|178:274|107:308|49:279|49:279|92:237|149:249,1,306.000005836487,10|8,0:0|0:0,0:0:0:0:
240,289,200002,5,0,0:0:0:0:
315,217,200159,2,0,P|361:205|401:208,2,66.0000020141602,0|0|2,0:0|2:0|2:0,0:0:0:0:
217,151,200473,2,0,P|173:150|133:137,2,66.0000020141602,8|0|2,0:0|2:0|2:0,0:0:0:0:
299,54,200787,6,2,P|345:35|413:34,1,99.0000030212403,2|0,0:0|0:0,0:0:0:0:
493,76,201101,1,8,0:0:0:0:
195,53,201258,2,2,B|119:22|43:40|43:40|71:43|94:60,1,198.000006042481,2|0,0:0|0:0,0:0:0:0:
318,147,201729,6,2,B|353:143|379:132|379:132|450:166|508:137|508:137|465:95|408:107,1,306.000005836487,10|8,0:0|0:0,0:0:0:0:
220,203,202515,2,2,P|213:263|218:311,1,99.0000030212403,2|0,0:0|0:0,0:0:0:0:
324,254,202829,1,0,0:0:0:0:
141,134,202986,2,2,P|148:65|168:16,1,99.0000030212403,10|0,0:0|0:0,0:0:0:0:
377,122,203300,6,2,P|313:110|259:108,1,99.0000030212403,2|0,0:0|0:0,0:0:0:0:
141,134,203614,1,8,0:0:0:0:
351,24,203771,2,2,B|390:-3|446:6|446:6|482:48|475:99,1,198.000006042481,2|0,0:0|0:0,0:0:0:0:
340,216,204243,2,2,B|347:301|402:358|402:358|409:299,1,198.000006042481,10|0,0:0|0:0,0:0:0:0:
406,318,204714,5,0,0:0:0:0:
250,287,204871,2,0,P|195:293|140:309,1,99.0000030212403,8|0,0:0|0:0,0:0:0:0:
32,147,205185,1,0,0:0:0:0:
143,189,205342,2,2,P|236:190|344:155,1,198.000006042481,2|0,0:0|0:0,0:0:0:0:
156,28,205813,6,2,P|99:15|36:14,1,99.0000030212403,6|0,0:0|0:0,0:0:0:0:
253,73,206127,1,8,0:0:0:0:
350,30,206284,2,2,B|375:104|355:177|355:177|369:156|391:144,1,198.000006042481,2|0,0:0|0:0,0:0:0:0:
483,322,206756,2,0,P|453:272|438:217,1,99.0000030212403,8|0,0:0|0:0,0:0:0:0:
468,83,207070,5,0,0:0:0:0:
340,233,207227,1,2,0:0:0:0:
185,123,207384,1,10,0:0:0:0:
390,144,207541,1,2,0:0:0:0:
101,161,207698,6,0,P|94:128|95:91,1,53.9999983520508,8|0,0:3|0:0,0:0:0:0:
268,83,207855,2,0,P|275:116|274:153,1,53.9999983520508,8|0,0:3|0:0,0:0:0:0:
156,233,208012,1,8,0:0:0:0:
202,18,208169,1,8,0:0:0:0:
241,281,208326,5,6,0:0:0:0:
212,316,208405,1,0,0:0:0:0:
170,333,208483,1,0,0:0:0:0:
124,332,208562,1,0,0:0:0:0:
85,308,208640,1,8,0:0:0:0:
141,83,208797,2,0,P|146:112|148:146,1,45,2|0,0:0|0:0,0:0:0:0:
249,237,208955,2,0,P|252:210|258:189,1,45
362,114,209112,1,2,0:0:0:0:
236,17,209269,1,10,0:0:0:0:
241,61,209347,1,0,0:0:0:0:
264,99,209426,1,0,0:0:0:0:
462,198,209583,5,2,0:0:0:0:
418,189,209661,1,0,0:0:0:0:
374,201,209740,1,0,0:0:0:0:
340,231,209818,1,0,0:0:0:0:
326,274,209897,1,8,0:0:0:0:
468,305,210054,2,0,P|442:294|409:287,1,45,2|0,0:0|0:0,0:0:0:0:
280,360,210211,2,0,P|263:364|228:364,1,45
91,291,210368,1,2,0:0:0:0:
198,109,210525,1,10,0:0:0:0:
229,141,210604,1,0,0:0:0:0:
242,183,210682,1,0,0:0:0:0:
232,227,210761,1,0,0:0:0:0:
197,262,210839,6,0,P|188:232|190:200,1,49.5000015106202,6|0,0:0|0:0,0:0:0:0:
346,143,210996,2,0,P|352:169|351:196,1,49.5000015106202
301,348,211154,1,8,0:0:0:0:
100,253,211311,1,2,0:0:0:0:
79,208,211389,1,0,0:0:0:0:
79,158,211468,1,0,0:0:0:0:
98,113,211546,1,0,0:0:0:0:
135,79,211625,1,2,0:0:0:0:
294,170,211782,1,10,0:0:0:0:
249,190,211860,1,0,0:0:0:0:
199,183,211939,1,0,0:0:0:0:
41,295,212096,6,0,L|96:286,1,49.5000015106202,2|0,0:0|0:0,0:0:0:0:
246,351,212253,2,0,L|191:342,1,49.5000015106202
7,303,212410,1,8,0:0:0:0:
238,263,212567,1,2,0:0:0:0:
287,255,212646,1,0,0:0:0:0:
328,280,212724,1,0,0:0:0:0:
370,305,212803,1,0,0:0:0:0:
417,291,212881,1,2,0:0:0:0:
384,130,213038,2,0,L|382:186,1,49.5000015106202,10|0,0:0|0:0,0:0:0:0:
245,74,213195,2,0,L|317:56,1,49.5000015106202
290,160,213352,5,6,0:0:0:0:
236,171,213431,1,0,0:0:0:0:
184,152,213510,1,0,0:0:0:0:
152,108,213588,1,0,0:0:0:0:
149,53,213667,1,8,0:0:0:0:
192,242,213824,2,0,P|197:273|196:308,1,53.9999983520508,2|0,0:0|0:0,0:0:0:0:
58,215,213981,2,0,P|60:181|69:157,1,53.9999983520508
245,74,214137,2,0,P|266:95|282:135,1,53.9999983520508,2|0,0:0|0:0,0:0:0:0:
393,204,214295,1,10,0:0:0:0:
446,201,214373,1,0,0:0:0:0:
489,168,214452,1,0,0:0:0:0:
290,160,214609,5,2,0:0:0:0:
281,213,214688,1,0,0:0:0:0:
297,263,214766,1,0,0:0:0:0:
336,299,214845,1,0,0:0:0:0:
387,312,214923,1,8,0:0:0:0:
407,92,215080,2,0,P|404:62|399:34,1,53.9999983520508,2|0,0:0|0:0,0:0:0:0:
489,168,215237,2,0,P|486:189|485:232,1,53.9999983520508
489,341,215394,1,2,0:0:0:0:
441,317,215472,1,0,0:0:0:0:
387,312,215551,2,0,P|360:314|334:323,1,53.9999983520508,10|0,0:0|0:0,0:0:0:0:
248,249,215708,2,0,P|221:250|188:242,1,53.9999983520508
326,167,215866,5,6,0:0:0:0:
332,109,215944,1,0,0:0:0:0:
309,54,216023,1,0,0:0:0:0:
257,26,216101,1,0,0:0:0:0:
198,33,216180,2,0,P|170:38|135:34,1,58.4999973220826,8|0,0:0|0:0,0:0:0:0:
64,107,216337,5,2,0:0:0:0:
97,154,216415,1,0,0:0:0:0:
105,212,216494,1,0,0:0:0:0:
84,266,216572,1,0,0:0:0:0:
42,308,216651,2,0,P|71:304|109:304,1,58.4999973220826
190,357,216808,5,10,0:0:0:0:
238,324,216886,1,0,0:0:0:0:
296,319,216965,1,0,0:0:0:0:
353,330,217044,1,0,0:0:0:0:
397,366,217122,5,2,0:0:0:0:
363,317,217201,1,0,0:0:0:0:
369,259,217279,1,0,0:0:0:0:
405,212,217358,1,0,0:0:0:0:
461,196,217436,1,10,0:0:0:0:
494,147,217515,1,0,0:0:0:0:
496,88,217593,1,0,0:0:0:0:
466,36,217672,1,0,0:0:0:0:
411,16,217750,6,8,P|378:24|336:26,1,62.9999980773926
113,58,217907,2,8,P|146:59|179:64,1,62.9999980773926
397,114,218064,6,8,P|364:122|322:124,1,62.9999980773926,8|8,0:3|0:3,0:3:0:0:
135,154,218221,2,8,P|168:155|201:160,1,62.9999980773926,8|8,0:3|0:3,0:3:0:0:
387,229,218378,6,2,P|331:228|277:240,1,99.0000030212403,6|0,0:0|0:0,0:0:0:0:
147,350,218693,2,0,L|160:238,1,99.0000030212403,8|0,0:0|0:0,0:0:0:0:
48,235,219007,1,0,0:0:0:0:
247,350,219164,1,8,0:3:0:0:
196,134,219321,2,0,L|183:243,1,99.0000030212403
147,31,219635,5,12,0:2:0:0:
294,98,219792,2,2,P|360:105|407:98,1,99.0000030212403,2|0,0:0|0:0,0:0:0:0:
501,238,220106,2,2,P|435:246|389:262,1,99.0000030212403,2|0,0:0|0:0,0:0:0:0:
305,329,220421,1,0,0:0:0:0:
432,359,220578,1,2,0:0:0:0:
305,190,220735,1,0,0:0:0:0:
305,190,220813,1,0,0:0:0:0:
305,190,220892,5,6,0:0:0:0:
483,118,221049,1,0,0:0:0:0:
203,121,221206,2,0,L|191:231,1,99.0000030212403,8|0,0:0|0:0,0:0:0:0:
336,9,221520,2,0,L|351:118,1,99.0000030212403,8|0,0:0|0:0,0:0:0:0:
284,284,221834,1,0,0:0:0:0:
97,56,221991,2,0,L|87:154,1,99.0000030212403,8|0,0:0|0:0,0:0:0:0:
207,339,222305,1,8,0:0:0:0:
319,196,222462,6,0,P|352:189|411:199,2,66.0000020141602,8|0|0,0:3|0:0|0:0,0:0:0:0:
215,222,222777,2,0,P|224:190|221:158,1,66.0000020141602,8|0,0:3|0:0,0:0:0:0:
49,234,222986,2,0,P|72:257|103:271,1,66.0000020141602,8|0,0:3|0:0,0:0:0:0:
123,91,223195,2,8,P|91:99|65:119,1,66.0000020141602,8|8,0:3|0:3,0:3:0:0:
130,181,223405,5,4,0:0:0:0:
130,181,225133,2,0,L|126:217,2,22.5,0|0|6,2:0|2:0|2:0,2:0:0:0:
383,101,225918,5,4,0:0:0:0:
383,101,228117,1,0,0:0:0:0:
400,198,228274,1,0,0:0:0:0:
418,295,228431,5,4,0:0:0:0:
88,192,230944,5,4,0:0:0:0:
88,192,232515,2,0,L|84:216,4,22.5,0|0|0|0|4,2:0|2:0|2:0|2:0|2:0,2:0:0:0:
160,128,233457,6,0,L|232:136,1,62.9999980773926,4|0,0:2|2:0,0:0:0:0:
212,232,233771,2,0,L|284:220,1,62.9999980773926,0|0,0:0|2:0,0:0:0:0:
304,316,234085,2,0,L|360:276,1,62.9999980773926,0|0,0:0|2:0,0:0:0:0:
420,356,234400,2,0,L|460:288,1,62.9999980773926,0|0,0:0|2:0,0:0:0:0:
472,168,234714,6,0,P|460:128|436:92,1,62.9999980773926,0|0,0:0|2:0,0:0:0:0:
372,218,235028,2,0,P|360:266|348:294,1,62.9999980773926,0|0,0:0|2:0,0:0:0:0:
268,148,235342,2,0,P|256:108|232:72,1,62.9999980773926,0|0,0:0|2:0,0:0:0:0:
192,240,235656,1,0,0:0:0:0:
44,184,235813,1,8,0:0:0:0:
44,184,235892,1,0,0:0:0:0:
44,184,235970,6,0,L|112:172,1,62.9999980773926,8|0,0:0|2:0,0:0:0:0:
296,284,236284,2,0,L|312:356,1,62.9999980773926,0|0,0:0|2:0,0:0:0:0:
216,152,236599,2,0,L|284:140,1,62.9999980773926,0|0,0:0|2:0,0:0:0:0:
496,268,236913,2,0,L|512:340,1,62.9999980773926,0|0,0:0|2:0,0:0:0:0:
396,292,237227,6,0,P|396:244|412:204,1,62.9999980773926,0|0,0:0|2:0,0:0:0:0:
278,141,237541,2,2,P|240:192|168:200,1,125.999996154785
64,143,238012,1,0,2:0:0:0:
64,143,238091,1,0,2:0:0:0:
64,143,238169,2,2,L|56:250,1,94.499997116089,2|0,0:0|2:0,0:0:0:0:
57,238,238483,5,8,0:0:0:0:
450,81,238693,1,8,0:3:0:0:
450,81,238902,1,8,0:3:0:0:
132,73,239112,5,8,0:0:0:0:
394,245,239321,1,8,0:3:0:0:
394,245,239530,1,8,0:3:0:0:
75,147,239740,5,8,0:0:0:0:
442,169,239949,1,8,0:3:0:0:
442,169,240159,1,8,0:3:0:0:
221,41,240368,5,8,0:0:0:0:
310,277,240578,1,8,0:3:0:0:
221,41,240787,1,8,0:3:0:0:
221,41,240892,1,0,0:0:0:0:
221,41,240996,5,8,0:0:0:0:
216,257,241206,1,8,0:3:0:0:
433,254,241415,1,8,0:3:0:0:
168,45,241624,5,8,0:0:0:0:
199,311,241834,1,8,0:0:0:0:
439,199,242043,1,8,0:0:0:0:
119,67,242253,5,8,0:0:0:0:
203,366,242462,1,8,0:0:0:0:
423,146,242671,1,8,0:0:0:0:
85,108,242881,5,8,0:0:0:0:
69,154,242960,1,8,0:0:0:0:
70,203,243038,1,8,0:0:0:0:
90,249,243117,1,8,0:0:0:0:
124,284,243195,1,8,0:0:0:0:
168,305,243274,1,8,0:0:0:0:
217,309,243352,1,8,0:0:0:0:
264,294,243431,1,8,0:0:0:0:
303,264,243509,6,2,P|283:201|281:141,1,107.999996704102,6|0,0:0|0:0,0:0:0:0:
354,66,243823,1,8,0:0:0:0:
162,204,243980,2,2,P|63:207|8:105,1,215.999993408203,2|0,0:0|0:0,0:0:0:0:
261,28,244451,2,2,P|259:96|245:148,1,107.999996704102,10|0,0:0|0:0,0:0:0:0:
56,325,244766,6,0,B|107:307|161:326|161:326|213:349|274:336,1,215.999993408203,0|8,0:0|0:0,0:0:0:0:
377,290,245237,1,0,0:0:0:0:
289,209,245394,2,0,P|225:185|171:186,1,107.999996704102,2|0,0:2|0:0,0:0:0:0:
378,124,245708,2,0,P|425:115|485:85,1,107.999996704102,8|0,0:0|0:0,0:0:0:0:
127,97,246023,6,0,P|87:150|146:279,1,215.999993408203,2|8,0:0|0:0,0:0:0:0:
395,205,246494,2,0,B|328:210|328:210|257:180|257:180|185:183,1,215.999993408203
343,3,246965,2,0,B|357:54|357:54|345:116,1,107.999996704102,8|0,0:0|0:0,0:0:0:0:
240,384,247279,6,0,P|230:332|238:271,1,107.999996704102,2|0,0:2|0:0,0:0:0:0:
461,33,247593,2,2,P|453:85|460:140,1,107.999996704102,10|0,0:0|0:0,0:0:0:0:
398,346,247907,2,2,P|400:290|387:239,1,107.999996704102,2|0,0:0|0:0,0:0:0:0:
181,11,248222,2,2,P|165:67|166:122,1,107.999996704102,10|0,0:0|0:0,0:0:0:0:
304,267,248536,6,2,L|428:258,1,107.999996704102,6|0,0:0|0:0,0:0:0:0:
204,353,248850,1,8,0:0:0:0:
272,140,249007,2,2,B|331:121|331:121|488:143,1,215.999993408203,2|0,0:0|0:0,0:0:0:0:
172,228,249478,2,2,B|120:220|120:220|72:188,1,107.999996704102,10|0,0:0|0:0,0:0:0:0:
304,267,249792,6,2,L|312:374,1,107.999996704102,2|0,0:0|0:0,0:0:0:0:
172,228,250106,1,8,0:0:0:0:
416,121,250263,2,2,P|451:202|409:320,1,215.999993408203,2|0,0:0|0:0,0:0:0:0:
204,353,250735,2,2,P|129:337|80:342,1,107.999996704102,10|0,0:0|0:0,0:0:0:0:
50,159,251049,6,2,P|121:181|263:143,1,215.999993408203,2|8,0:0|0:0,0:0:0:0:
255,148,251520,1,0,0:0:0:0:
205,256,251677,2,0,P|198:300|197:372,1,107.999996704102
31,143,251991,2,0,P|38:99|39:27,1,107.999996704102,8|0,0:0|0:0,0:0:0:0:
81,249,252305,5,2,0:2:0:0:
81,249,252462,1,0,0:0:0:0:
255,148,252619,2,2,P|187:160|139:156,1,107.999996704102,10|0,0:0|0:0,0:0:0:0:
407,283,252934,2,2,P|351:298|306:326,1,107.999996704102,2|0,0:0|0:0,0:0:0:0:
497,104,253248,2,2,P|436:70|402:34,1,107.999996704102,10|0,0:0|0:0,0:0:0:0:
200,1,253562,6,2,P|212:58|209:115,1,107.999996704102,6|0,0:0|0:0,0:0:0:0:
159,215,253876,1,8,0:0:0:0:
300,356,254033,2,2,P|283:253|318:143,1,215.999993408203,2|0,0:0|0:0,0:0:0:0:
159,215,254504,2,2,P|92:224|36:219,1,107.999996704102,10|0,0:0|0:0,0:0:0:0:
247,48,254818,6,0,P|334:32|432:126,1,215.999993408203,0|8,0:0|0:0,0:0:0:0:
314,148,255290,1,0,0:0:0:0:
195,153,255447,2,0,P|145:107|127:59,1,107.999996704102,2|0,0:2|0:0,0:0:0:0:
314,148,255761,2,0,P|316:203|302:263,1,107.999996704102,8|0,0:0|0:0,0:0:0:0:
80,297,256075,6,0,L|199:285,1,107.999996704102,2|0,0:0|0:0,0:0:0:0:
488,349,256389,2,2,B|392:381|392:381|264:359,1,215.999993408203,10|0,0:0|0:0,0:0:0:0:
187,286,256860,1,0,0:0:0:0:
288,224,257017,2,0,L|407:213,1,107.999996704102,8|0,0:0|0:0,0:0:0:0:
190,41,257332,6,0,P|187:100|197:152,1,107.999996704102,2|0,0:2|0:0,0:0:0:0:
171,368,257646,2,2,P|165:318|141:242,1,107.999996704102,10|0,0:0|0:0,0:0:0:0:
332,70,257960,2,2,P|345:135|344:186,1,107.999996704102,2|0,0:0|0:0,0:0:0:0:
12,328,258274,2,2,P|12:261|30:204,1,107.999996704102,10|0,0:0|0:0,0:0:0:0:
267,330,258588,6,2,P|330:353|432:346,1,161.999995056153,2|2,0:0|2:0,0:0:0:0:
477,292,258902,2,0,L|466:169,1,107.999996704102,8|2,0:0|0:0,0:0:0:0:
242,313,259216,2,2,P|179:336|77:329,1,161.999995056153,2|2,0:0|2:0,0:0:0:0:
32,275,259530,2,0,L|43:152,1,107.999996704102,8|2,0:0|0:0,0:0:0:0:
218,22,259845,6,2,P|255:68|264:182,1,161.999995056153,2|2,0:0|2:0,0:0:0:0:
229,234,260159,1,8,0:0:0:0:
139,47,260316,1,2,0:0:0:0:
348,172,260473,2,2,P|450:146|478:90,1,161.999995056153,2|2,0:0|2:0,0:0:0:0:
468,25,260787,1,8,0:0:0:0:
232,72,260944,1,2,0:0:0:0:
357,277,261101,6,2,P|360:224|347:171,1,107.999996704102,2|0,0:0|0:0,0:0:0:0:
139,47,261415,2,0,P|90:138|131:234,1,215.999993408203,8|0,0:0|0:0,0:0:0:0:
388,238,261886,1,0,0:0:0:0:
313,145,262044,2,0,P|260:135|207:144,1,107.999996704102,8|0,0:0|0:0,0:0:0:0:
56,316,262358,5,10,0:0:0:0:
92,338,262436,1,0,0:0:0:0:
134,344,262515,1,8,0:0:0:0:
175,335,262593,1,0,0:0:0:0:
211,311,262672,1,8,0:3:0:0:
253,307,262750,1,8,0:3:0:0:
295,316,262829,2,0,P|318:331|339:355,1,53.9999983520508,8|0,0:0|0:0,0:0:0:0:
382,255,262986,5,0,0:0:0:0:
371,224,263064,1,0,0:0:0:0:
369,191,263143,1,8,0:3:0:0:
379,160,263222,1,8,0:3:0:0:
399,134,263300,5,10,0:0:0:0:
348,153,263379,1,8,0:0:0:0:
295,144,263457,1,8,0:0:0:0:
258,103,263536,1,8,0:0:0:0:
256,48,263614,5,6,0:0:0:0:
184,160,263771,1,0,0:0:0:0:
188,201,263850,1,0,0:0:0:0:
191,242,263928,1,8,0:0:0:0:
71,123,264085,2,2,B|62:64|62:64|88:-2,1,116.999994644165,2|0,0:0|0:0,0:0:0:0:
307,197,264400,1,0,0:0:0:0:
307,197,264478,1,0,0:0:0:0:
307,197,264557,2,2,B|316:256|316:256|290:322,1,116.999994644165,10|0,0:0|0:0,0:0:0:0:
31,284,264871,5,0,0:0:0:0:
59,246,264950,1,0,0:0:0:0:
101,226,265028,1,0,0:0:0:0:
148,223,265107,1,0,0:0:0:0:
191,242,265185,1,8,0:0:0:0:
132,342,265342,1,0,0:0:0:0:
32,145,265499,2,0,P|32:78|49:28,1,116.999994644165,2|0,0:2|0:0,0:0:0:0:
276,45,265813,1,8,0:0:0:0:
169,221,265970,1,0,0:0:0:0:
169,221,266049,1,0,0:0:0:0:
169,221,266127,6,2,P|151:156|153:100,1,116.999994644165,2|0,0:0|0:0,0:0:0:0:
363,222,266441,1,8,0:0:0:0:
409,216,266520,1,0,0:0:0:0:
447,188,266599,1,0,0:0:0:0:
468,146,266677,1,0,0:0:0:0:
466,98,266756,1,0,0:0:0:0:
269,148,266913,1,0,0:0:0:0:
303,366,267070,1,8,0:0:0:0:
349,370,267148,1,0,0:0:0:0:
388,344,267227,1,0,0:0:0:0:
428,316,267305,1,0,0:0:0:0:
476,324,267384,2,0,L|488:198,1,116.999994644165
368,35,267698,5,10,0:0:0:0:
368,35,267777,1,0,0:0:0:0:
368,35,267855,2,0,L|375:102,1,58.4999973220826
273,215,268012,5,2,0:0:0:0:
273,215,268091,1,0,0:0:0:0:
273,215,268169,2,0,L|281:142,1,62.9999980773926
185,15,268326,5,10,0:0:0:0:
185,15,268405,1,0,0:0:0:0:
185,15,268483,2,0,L|192:86,1,67.5000025749208
124,229,268640,5,6,0:0:0:0:
81,63,268797,1,0,0:0:0:0:
81,63,268876,1,0,0:0:0:0:
81,63,268955,1,8,0:0:0:0:
279,152,269112,1,2,0:0:0:0:
178,338,269269,1,0,0:0:0:0:
178,338,269347,1,0,0:0:0:0:
178,338,269426,1,0,0:0:0:0:
8,152,269583,1,10,0:0:0:0:
250,29,269740,1,0,0:0:0:0:
250,29,269818,1,0,0:0:0:0:
250,29,269897,6,2,L|376:18,1,116.999994644165,2|0,0:0|0:0,0:0:0:0:
504,165,270211,1,8,0:0:0:0:
369,314,270368,1,2,0:0:0:0:
369,314,270447,1,0,0:0:0:0:
369,314,270525,1,0,0:0:0:0:
349,102,270682,1,0,0:0:0:0:
506,324,270839,1,10,0:0:0:0:
506,324,270918,1,0,0:0:0:0:
506,324,270996,1,0,0:0:0:0:
236,375,271154,6,2,B|220:319|220:319|231:248,1,116.999994644165,2|0,0:0|0:0,0:0:0:0:
448,89,271468,1,8,0:0:0:0:
442,129,271546,1,0,0:0:0:0:
420,156,271624,1,0,0:0:0:0:
389,173,271703,1,0,0:0:0:0:
354,176,271781,1,0,0:0:0:0:
319,167,271860,1,0,0:0:0:0:
291,145,271938,1,0,0:0:0:0:
276,112,272017,1,0,0:0:0:0:
251,87,272095,1,8,0:0:0:0:
217,75,272174,1,0,0:0:0:0:
182,77,272252,1,0,0:0:0:0:
149,91,272331,1,0,0:0:0:0:
128,119,272410,1,0,0:0:0:0:
120,153,272488,1,0,0:0:0:0:
127,188,272567,1,0,0:0:0:0:
148,216,272646,1,0,0:0:0:0:
179,231,272724,5,10,0:0:0:0:
212,198,272803,1,0,0:0:0:0:
229,154,272881,2,0,P|234:124|225:80,1,58.4999973220826
72,59,273038,5,2,0:0:0:0:
45,97,273117,1,0,0:0:0:0:
36,143,273195,2,0,P|36:173|53:215,1,62.9999980773926
242,278,273352,5,10,0:0:0:0:
280,251,273431,1,0,0:0:0:0:
304,210,273509,2,0,P|314:181|314:133,1,67.5000025749208
139,141,273667,5,6,0:0:0:0:
398,216,273824,1,0,0:0:0:0:
413,172,273902,1,0,0:0:0:0:
413,125,273981,1,8,0:0:0:0:
173,278,274138,2,2,P|249:268|306:272,1,116.999994644165,2|0,0:0|0:0,0:0:0:0:
433,341,274452,1,0,0:0:0:0:
282,149,274609,2,2,P|268:83|268:27,1,116.999994644165,10|0,0:0|0:0,0:0:0:0:
267,33,274845,1,0,0:0:0:0:
267,33,274923,5,0,0:0:0:0:
398,216,275080,1,0,0:0:0:0:
160,115,275237,1,8,0:0:0:0:
107,123,275316,1,0,0:0:0:0:
73,163,275394,1,0,0:0:0:0:
71,215,275473,1,0,0:0:0:0:
101,257,275551,1,0,0:0:0:0:
282,149,275708,1,0,0:0:0:0:
416,325,275866,1,8,0:0:0:0:
369,349,275945,1,0,0:0:0:0:
317,344,276023,1,0,0:0:0:0:
276,312,276102,1,0,0:0:0:0:
260,263,276180,6,2,L|284:136,1,116.999994644165,2|0,0:0|0:0,0:0:0:0:
474,82,276494,1,8,0:0:0:0:
354,261,276651,1,0,0:0:0:0:
354,261,276729,1,0,0:0:0:0:
354,261,276808,1,0,0:0:0:0:
149,166,276965,1,0,0:0:0:0:
352,62,277122,1,8,0:0:0:0:
372,112,277201,1,0,0:0:0:0:
392,161,277279,1,0,0:0:0:0:
374,212,277358,1,0,0:0:0:0:
354,261,277436,2,0,B|297:259|297:259|236:284,1,116.999994644165
0,210,277750,5,10,0:0:0:0:
0,210,277829,1,0,0:0:0:0:
0,210,277907,2,0,B|33:212|33:212|85:198,1,58.4999973220826
201,63,278064,5,2,0:0:0:0:
201,63,278143,1,0,0:0:0:0:
201,63,278221,2,0,B|182:92|182:92|168:146,1,62.9999980773926
224,301,278379,6,2,B|182:271|182:271|173:224|173:224|137:195|137:195|98:132,1,202.500007724762,10|0,0:0|2:0,0:0:0:0:
64,68,278693,5,8,0:0:0:0:
448,316,278902,1,0,0:0:0:0:
136,24,279112,1,0,0:0:0:0:
376,360,279321,5,8,0:0:0:0:
220,24,279530,1,0,0:0:0:0:
292,360,279739,1,0,0:0:0:0:
292,64,279949,5,8,0:0:0:0:
220,320,280158,1,0,0:0:0:0:
336,136,280368,1,0,0:0:0:0:
176,248,280577,5,8,0:0:0:0:
340,220,280787,2,0,P|304:212|252:216,1,66.0000020141602
172,164,280996,2,8,P|208:172|260:168,1,66.0000020141602
340,220,281206,5,8,0:0:0:0:
172,164,281415,1,0,0:0:0:0:
300,296,281625,1,0,0:0:0:0:
212,88,281834,5,8,0:0:0:0:
224,336,282044,1,8,0:0:0:0:
288,48,282253,1,8,0:0:0:0:
140,340,282462,5,8,0:0:0:0:
372,44,282671,1,8,0:0:0:0:
64,300,282881,1,8,0:0:0:0:
448,84,283090,5,10,0:0:0:0:
28,224,283300,1,10,0:0:0:0:
484,160,283509,1,10,0:0:0:0:
24,140,283719,5,4,0:0:0:0:
496,244,284661,5,4,0:0:0:0:
36,310,285603,5,4,0:0:0:0:
36,310,285917,1,0,0:0:0:0:
68,293,285996,1,0,0:0:0:0:
85,261,286075,1,0,0:0:0:0:
86,225,286153,1,0,0:0:0:0:
72,191,286232,1,0,0:0:0:0:
43,169,286310,1,0,0:0:0:0:
31,134,286389,1,0,0:0:0:0:
36,98,286467,1,0,0:0:0:0:
61,67,286546,6,0,L|241:60,1,161.999995056153,8|0,0:0|2:0,0:0:0:0:
201,142,286860,2,0,L|66:147,1,135,4|0,0:2|2:0,0:0:0:0:
72,229,287174,2,0,L|190:224,1,108,0|0,0:2|2:0,0:0:0:0:
159,307,287488,2,0,L|79:311,1,80.9999975280763,4|0,0:2|2:0,0:0:0:0:
246,284,287802,6,0,P|276:294|298:305,1,53.9999983520508,12|0,0:0|0:0,0:0:0:0:
444,216,287959,2,0,P|415:208|382:207,1,53.9999983520508
269,265,288116,6,0,P|291:279|313:301,1,53.9999983520508,8|0,0:0|0:0,0:0:0:0:
461,186,288273,2,0,P|431:185|399:190,1,53.9999983520508
300,248,288430,6,0,P|316:267|331:301,1,53.9999983520508,8|0,0:0|0:0,0:0:0:0:
475,156,288587,2,0,P|444:162|412:172,1,53.9999983520508
296,115,288744,6,0,P|261:112|222:102,1,67.5000025749208,10|0,0:0|0:0,0:0:0:0:
145,203,288902,2,0,P|108:205|70:215,1,67.5000025749208,10|0,0:0|0:0,0:0:0:0:
114,354,289059,6,0,L|125:288,1,58.4999973220826,8|0,0:0|0:0,0:0:0:0:
62,155,289216,2,0,L|83:229,1,58.4999973220826
208,341,289373,6,0,L|219:275,1,58.4999973220826,8|0,0:0|0:0,0:0:0:0:
145,119,289530,2,0,L|166:193,1,58.4999973220826
301,330,289687,6,0,L|312:264,1,58.4999973220826,8|0,0:0|0:0,0:0:0:0:
228,80,289844,2,0,L|249:154,1,58.4999973220826
393,178,290001,6,0,P|424:165|455:138,1,67.5000025749208,10|0,0:0|0:0,0:0:0:0:
454,46,290158,2,0,P|430:20|387:0,1,67.5000025749208,10|0,0:0|0:0,0:0:0:0:
265,42,290315,6,0,L|252:113,1,62.9999980773926,8|0,0:0|0:0,0:0:0:0:
381,274,290472,2,0,L|326:228,1,62.9999980773926
121,259,290629,2,0,L|189:234,1,62.9999980773926,8|0,0:0|0:0,0:0:0:0:
379,147,290786,6,0,L|358:77,1,62.9999980773926
155,107,290943,2,0,L|105:161,1,62.9999980773926,8|0,0:0|0:0,0:0:0:0:
233,321,291100,2,0,L|304:337,1,62.9999980773926
430,252,291258,6,0,P|395:248|346:249,1,67.5000025749208,10|0,0:0|0:0,0:0:0:0:
243,202,291415,2,0,P|217:210|168:219,1,67.5000025749208,10|0,0:0|0:0,0:0:0:0:
98,98,291572,6,0,B|134:99|134:99|167:112,1,72,8|0,0:0|0:0,0:0:0:0:
328,360,291729,2,0,B|300:338|300:338|280:308,1,72
296,12,291886,2,0,B|306:47|306:47|304:83,1,72,8|0,0:0|0:0,0:0:0:0:
117,313,292043,2,0,B|129:279|129:279|152:251,1,72
439,175,292200,5,10,0:0:0:0:
387,201,292279,1,8,0:0:0:0:
329,205,292357,1,10,0:0:0:0:
275,183,292436,1,8,0:0:0:0:
240,137,292514,1,10,0:0:0:0:
186,115,292593,1,8,0:0:0:0:
129,122,292671,1,10,0:0:0:0:
85,160,292750,1,8,0:0:0:0:
70,216,292828,6,2,P|94:283|176:313,1,144,6|8,0:0|0:3,0:0:0:0:
107,333,293221,1,0,0:0:0:0:
60,312,293299,1,8,0:3:0:0:
44,262,293378,1,8,0:3:0:0:
70,216,293456,6,0,B|92:224|92:224|124:220,1,45.0000017166138,8|0,0:0|0:0,0:0:0:0:
256,192,293614,1,0,0:0:0:0:
256,192,294085,5,4,0:0:0:0:
256,192,294163,12,2,304137,2:0:0:0:
