osu file format v14

[General]
AudioFilename: audio.mp3
AudioLeadIn: 0
PreviewTime: -1
Countdown: 1
SampleSet: None
StackLeniency: 0.2
Mode: 0
LetterboxInBreaks: 0
WidescreenStoryboard: 1

[Editor]
Bookmarks: 1570,5653,10679,14763,19789,39894,44920,49946,54973,59999,70051,80104,94238,100208,115286,120312,127852,142930,145128,158009,163035,168374,170573,178114,185653,188166,195705,208271,218323,223349,233401,238428,240941,243454,257590,262302,278637,283663,287746,292772,294028,304081
DistanceSpacing: 1.1
BeatDivisor: 4
GridSize: 8
TimelineZoom: 2.2

[Metadata]
Title:Seijouki no Pierrot ~ The MadPiero Laughs
TitleUnicode:星条旗のピエロ ~ The MadPiero Laughs
Artist:Demetori
ArtistUnicode:Demetori
Creator:grandweek
Version:For graveyard
Source:東方紺珠伝 ~ Legacy of Lunatic Kingdom.
Tags:
BeatmapID:1835893
BeatmapSetID:877811

[Difficulty]
HPDrainRate:6
CircleSize:4
OverallDifficulty:9
ApproachRate:9.6
SliderMultiplier:1.4
SliderTickRate:1

[Events]
//Background and Video events
0,0,"1179caee0cdda29ce5c6ef2e181eaca16d6d42ed_s2_n1.jpg",0,0
//Break Periods
//Storyboard Layer 0 (Background)
//Storyboard Layer 1 (Fail)
//Storyboard Layer 2 (Pass)
//Storyboard Layer 3 (Foreground)
//Storyboard Sound Samples

[TimingPoints]
1570,314.13612565445,3,3,0,100,1,0
1570,-133.333333333333,3,3,0,100,0,0
5653,314.13612565445,4,3,0,100,1,0
5653,-83.3333333333333,3,3,0,100,0,0
8637,-66.6666666666667,3,3,0,100,0,0
10679,314.13612565445,3,3,0,100,1,0
10679,-66.6666666666667,3,3,0,100,0,0
13350,-133.333333333333,3,3,0,100,0,0
13506,314.13612565445,4,3,0,100,1,0
14763,-66.6666666666667,3,3,0,100,0,0
19789,-133.333333333333,3,3,0,100,0,0
44920,-83.3333333333333,3,3,0,100,0,0
47432,-66.6666666666667,3,3,0,100,0,0
49161,-133.333333333333,3,3,0,100,0,0
49945,-200,3,3,0,100,0,0
50339,-200,3,3,0,5,0,0
50418,-200,3,3,0,100,0,0
50810,-200,3,3,0,5,0,0
50889,-200,3,3,0,100,0,0
51124,-200,3,3,0,5,0,0
51203,-200,3,3,0,100,0,0
51596,-200,3,3,0,5,0,0
51674,-200,3,3,0,100,0,0
52067,-200,3,3,0,5,0,0
52145,-200,3,3,0,100,0,0
52381,-200,3,3,0,5,0,0
52460,-200,3,3,0,100,0,0
52695,-200,3,3,0,5,0,0
52774,-200,3,3,0,100,0,0
53009,-200,3,3,0,5,0,0
53088,-200,3,3,0,100,0,0
53323,-200,3,3,0,5,0,0
53402,-200,3,3,0,100,0,0
54343,-133.333333333333,3,3,0,100,0,0
57485,-100,3,3,0,100,0,0
73820,-66.6666666666667,3,3,0,100,0,0
75076,-100,3,3,0,100,0,0
78846,-500,3,3,0,100,0,0
80102,-83.3333333333333,3,3,0,100,0,0
83558,-54.054054054054,3,3,0,100,0,0
84500,-83.3333333333333,3,3,0,100,0,0
94238,-200,3,3,0,100,0,0
94448,-200,3,3,0,5,0,0
94553,-200,3,3,0,100,0,0
94762,-200,3,3,0,5,0,0
94867,-200,3,3,0,100,0,0
95076,-200,3,3,0,5,0,0
95181,-200,3,3,0,100,0,0
97694,-400,3,3,0,100,0,0
98951,-200,3,3,0,100,0,0
99265,-66.6666666666667,3,3,0,100,0,0
99736,-133.333333333333,3,3,0,100,0,0
100207,-83.3333333333333,3,3,0,100,0,0
107432,-133.333333333333,3,3,0,100,0,0
109631,-83.3333333333333,3,3,0,100,0,0
109945,-133.333333333333,3,3,0,100,0,0
111202,-200,3,3,0,100,0,0
113793,-100,3,3,0,100,0,0
120312,314.13612565445,3,3,0,100,1,0
120312,-200,3,3,0,60,0,0
120547,-200,3,3,0,5,0,0
120626,-200,3,3,0,60,0,0
120861,-200,3,3,0,5,0,0
120940,-200,3,3,0,60,0,0
121175,-200,3,3,0,5,0,0
121254,-200,3,3,0,60,0,0
121490,-200,3,3,0,5,0,0
121568,-200,3,3,0,60,0,0
121804,-200,3,3,0,5,0,0
121882,-200,3,3,0,60,0,0
122118,-200,3,3,0,5,0,0
122196,-200,3,3,0,60,0,0
122432,-200,3,3,0,5,0,0
122510,-200,3,3,0,60,0,0
122746,-200,3,3,0,5,0,0
122825,-200,3,3,0,60,0,0
123060,-200,3,3,0,5,0,0
123139,-200,3,3,0,60,0,0
123374,-200,3,3,0,5,0,0
123453,-200,3,3,0,60,0,0
123688,-200,3,3,0,5,0,0
123767,-200,3,3,0,60,0,0
124003,-200,3,3,0,5,0,0
124081,-200,3,3,0,60,0,0
124317,-200,3,3,0,5,0,0
124395,-200,3,3,0,60,0,0
124631,-200,3,3,0,5,0,0
124709,-200,3,3,0,60,0,0
124945,-200,3,3,0,5,0,0
125024,-200,3,3,0,60,0,0
125259,-200,3,3,0,5,0,0
125338,-200,3,3,0,60,0,0
125573,-200,3,3,0,5,0,0
125652,-200,3,3,0,60,0,0
125887,-200,3,3,0,5,0,0
125966,-200,3,3,0,60,0,0
126202,-200,3,3,0,5,0,0
126280,-200,3,3,0,60,0,0
126516,-200,3,3,0,5,0,0
126594,-200,3,3,0,60,0,0
126830,-200,3,3,0,5,0,0
126908,-333.333333333333,3,3,0,60,0,0
127144,-333.333333333333,3,3,0,5,0,0
127222,-333.333333333333,3,3,0,60,0,0
127458,-333.333333333333,3,3,0,5,0,0
127537,-666.666666666667,3,3,0,60,0,0
127772,-666.666666666667,3,3,0,5,0,0
127851,-100,3,3,0,80,0,0
128479,-333.333333333333,3,3,0,80,0,0
142929,-166.666666666667,3,3,0,80,0,0
154238,-500,3,3,0,80,0,0
157929,-500,3,3,0,5,0,0
158008,314.13612565445,4,3,0,100,1,0
158008,-66.6666666666667,4,3,0,100,0,0
163034,314.13612565445,3,3,0,100,1,0
178114,314.13612565445,4,3,0,100,1,0
198218,-133.333333333333,4,3,0,100,0,0
205286,-400,4,3,0,100,0,0
217066,-100,4,3,0,100,0,0
218323,-200,4,3,0,100,0,0
219579,-200,4,3,0,5,0,0
219737,-200,4,3,0,100,0,0
223663,-200,4,3,0,5,0,0
223820,-200,4,3,0,100,0,0
224134,-200,4,3,0,5,0,0
224292,-200,4,3,0,100,0,0
228689,-200,4,3,0,5,0,0
228846,-200,4,3,0,100,0,0
229161,-200,4,3,0,5,0,0
229318,-200,4,3,0,100,0,0
229475,-200,4,3,0,5,0,0
229632,-200,4,3,0,100,0,0
230417,-200,4,3,0,5,0,0
230574,-200,4,3,0,100,0,0
230731,-200,4,3,0,5,0,0
230888,-200,4,3,0,100,0,0
233401,-100,4,3,0,100,0,0
233716,-100,4,3,0,5,0,0
233873,-100,4,3,0,100,0,0
234187,-100,4,3,0,5,0,0
234344,-105.263157894737,4,3,0,100,0,0
237328,-105.263157894737,4,3,0,5,0,0
237485,-100,4,3,0,100,0,0
261045,-218.818380743982,4,3,0,100,0,0
262145,-218.818380743982,4,3,0,5,0,0
262302,-100,4,3,0,100,0,0
263559,-133.333333333333,4,3,0,100,0,0
264501,-380.228136882129,4,3,0,100,0,0
267642,-100,4,3,0,100,0,0
268585,-133.333333333333,4,3,0,100,0,0
270784,-100,4,3,0,100,0,0
271098,-83.3333333333333,4,3,0,100,0,0
274082,-121.212121212121,4,3,0,100,0,0
274553,-196.078431372549,4,3,0,100,0,0
277695,-100,4,3,0,100,0,0
278323,-71.4285714285714,4,3,0,100,0,0
283663,314.13612565445,3,3,0,100,1,0
287746,314.13612565445,4,3,0,100,1,0
289002,-88.8888888888889,4,3,0,100,0,0
289630,-79.0513833992095,4,3,0,100,0,0
290259,-69.9300699300699,4,3,0,100,0,0
304081,-100,4,3,0,5,0,0

[HitObjects]
50,199,627,6,0,B|127:62|127:62|123:185|297:202|326:98,1,420
413,179,1884,2,0,P|381:267|364:273,1,105.000004005432
347,205,2512,2,0,P|379:117|396:111,1,105.000004005432
390,47,3140,2,0,P|450:118|446:136,1,105.000004005432
369,337,3768,2,0,P|308:265|312:247,1,105.000004005432
385,39,4240,6,0,L|341:42,2,26.2500010013581
410,272,4711,1,0,0:0:0:0:
294,100,5025,1,0,0:0:0:0:
386,146,5339,1,0,0:0:0:0:
138,70,5653,6,0,L|74:162,1,83.9999974365235
100,251,5967,2,0,L|159:164,1,83.9999974365235
291,168,6282,2,0,L|204:108,1,83.9999974365235
299,86,6596,2,0,L|385:145,1,83.9999974365235
361,36,6910,5,0,0:0:0:0:
291,168,7067,1,0,0:0:0:0:
385,145,7224,5,0,0:0:0:0:
158,164,7381,1,0,0:0:0:0:
405,239,7538,5,0,0:0:0:0:
169,76,7695,1,0,0:0:0:0:
411,324,7852,5,0,0:0:0:0:
385,145,8009,1,0,3:0:0:0:
474,223,8166,5,0,3:0:0:0:
456,130,8323,1,0,0:0:0:0:
411,324,8480,5,0,0:0:0:0:
317,181,8638,2,0,L|263:301,1,105.000004005432
259,123,8952,2,0,L|215:218,1,105.000004005432
201,65,9266,2,0,L|157:160,1,105.000004005432
159,163,9580,2,0,P|218:119|282:149,1,105.000004005432
312,151,9894,2,0,P|276:188|225:192,1,105.000004005432
218,189,10130,5,0,0:0:0:0:
202,194,10208,1,0,0:0:0:0:
187,204,10287,1,0,0:0:0:0:
177,218,10365,1,0,0:0:0:0:
172,235,10444,1,0,0:0:0:0:
172,252,10522,1,0,0:0:0:0:
177,268,10601,1,0,0:0:0:0:
189,281,10679,2,0,L|156:326,2,52.5000020027161
277,90,10994,5,0,0:0:0:0:
255,244,11308,1,0,0:0:0:0:
368,134,11622,2,0,P|401:179|394:228,1,105.000004005432
449,88,11936,5,0,0:0:0:0:
255,244,12250,1,0,0:0:0:0:
395,225,12564,2,0,L|428:285,2,52.5000020027161
484,331,12878,5,0,0:0:0:0:
255,244,13193,1,0,0:0:0:0:
460,195,13350,2,0,L|480:229,2,26.2500010013581
453,172,13585,5,0,0:0:0:0:
440,149,13664,1,0,0:0:0:0:
421,130,13742,1,0,0:0:0:0:
398,117,13821,1,0,0:0:0:0:
373,111,13898,1,0,0:0:0:0:
347,111,13978,1,0,0:0:0:0:
322,118,14056,1,0,0:0:0:0:
300,132,14135,1,0,0:0:0:0:
282,151,14213,1,0,0:0:0:0:
270,174,14292,1,0,0:0:0:0:
265,195,14369,5,0,0:0:0:0:
248,174,14449,1,0,0:0:0:0:
231,154,14526,1,0,0:0:0:0:
215,134,14606,1,0,0:0:0:0:
198,113,14685,1,0,0:0:0:0:
181,90,14763,6,0,P|150:138|43:104,1,105.000004005432
36,160,15077,2,0,P|61:204|110:219,1,105.000004005432
180,208,15391,2,0,P|154:164|106:149,1,105.000004005432
110,219,15704,2,0,P|135:263|183:280,1,105.000004005432
48,280,16020,5,0,0:0:0:0:
184,280,16177,1,0,0:0:0:0:
116,344,16334,5,0,0:0:0:0:
181,90,16491,1,0,0:0:0:0:
116,160,16648,5,0,0:0:0:0:
352,152,16805,1,0,0:0:0:0:
88,256,16962,5,0,0:0:0:0:
380,56,17119,1,0,0:0:0:0:
116,160,17276,1,0,0:0:0:0:
352,152,17433,1,0,0:0:0:0:
88,256,17590,1,0,0:0:0:0:
352,328,17746,6,0,P|312:264|244:256,2,105.000004005432
416,176,18219,2,0,L|416:296,2,105.000004005432
272,336,18690,5,0,0:0:0:0:
472,112,18847,1,0,0:0:0:0:
272,216,19004,5,0,0:0:0:0:
360,112,19161,2,0,L|304:112,3,52.5000020027161
352,88,19475,5,0,0:0:0:0:
338,66,19554,1,0,0:0:0:0:
314,55,19632,1,0,0:0:0:0:
288,58,19711,1,0,0:0:0:0:
269,75,19789,6,0,P|278:32|296:29,1,52.5000020027161
194,134,20102,2,0,P|210:153|205:178,1,52.5000020027161
194,60,20416,2,0,P|133:42|94:85,1,105.000004005432
269,75,21046,2,0,P|163:157|178:56,1,315.000012016297
328,136,22145,1,0,0:0:0:0:
112,240,22302,5,0,0:0:0:0:
176,48,22458,1,0,0:0:0:0:
240,240,22615,1,0,0:0:0:0:
112,120,22774,5,0,0:0:0:0:
176,312,22931,1,0,0:0:0:0:
240,120,23088,1,0,0:0:0:0:
176,312,23245,5,0,0:0:0:0:
176,48,23402,1,0,0:0:0:0:
123,319,23559,2,0,P|203:263|123:303,1,315.000012016297
304,176,24657,6,0,P|320:195|315:220,1,52.5000020027161
384,96,24971,2,0,P|378:71|394:51,1,52.5000020027161
384,176,25287,5,0,0:0:0:0:
304,96,25444,2,0,P|309:71|240:48,1,105.000004005432
304,96,26071,2,0,B|272:150|207:164|165:131|180:83|180:83|131:30|73:111|103:141,1,315.000012016297
256,64,27170,1,0,0:0:0:0:
64,224,27327,5,0,0:0:0:0:
352,80,27485,1,0,0:0:0:0:
224,208,27642,1,0,0:0:0:0:
96,128,27957,5,0,0:0:0:0:
256,64,28114,1,0,0:0:0:0:
224,208,28271,2,0,L|176:96,1,105.000004005432
310,191,28742,5,0,0:0:0:0:
150,255,28899,1,0,0:0:0:0:
182,111,29213,2,0,L|208:168,1,52.5000020027161
223,160,29449,1,0,0:0:0:0:
245,144,29526,1,0,0:0:0:0:
257,122,29606,1,0,0:0:0:0:
260,96,29685,1,0,0:0:0:0:
251,71,29763,1,0,0:0:0:0:
238,60,29842,6,0,P|281:63|294:48,1,52.5000020027161,0|0,3:0|3:0,3:0:0:0:
390,122,30156,2,0,P|346:116|333:132,1,52.5000020027161,0|0,3:0|3:0,3:0:0:0:
283,61,30470,2,0,P|335:74|341:123,1,105.000004005432,0|0,3:0|3:0,3:0:0:0:
149,129,31097,6,0,B|228:143|208:215|208:215|146:164|66:197|71:273,1,315.000012016297
75,108,32197,1,0,0:0:0:0:
144,264,32355,5,0,0:0:0:0:
216,80,32512,1,0,0:0:0:0:
80,192,32669,1,0,0:0:0:0:
149,93,32826,5,0,0:0:0:0:
77,277,32983,1,0,0:0:0:0:
216,168,33140,2,0,P|192:192|194:218,2,52.5000020027161
240,272,33611,2,0,P|336:256|288:176,1,210.000008010865
191,209,34397,6,0,P|195:183|216:168,1,52.5000020027161
192,64,34711,2,0,P|187:89|167:105,1,52.5000020027161
264,96,35025,5,0,0:0:0:0:
120,176,35182,1,0,0:0:0:0:
320,184,35339,5,0,0:0:0:0:
80,80,35496,2,0,P|122:44|156:70,2,105.000004005432
168,280,37067,6,0,L|232:296,1,52.5000020027161
80,336,37381,5,0,0:0:0:0:
288,216,37538,1,0,0:0:0:0:
344,344,37695,1,0,0:0:0:0:
85,339,38009,5,0,0:0:0:0:
302,237,38166,1,0,0:0:0:0:
347,369,38323,1,0,0:0:0:0:
168,280,38636,6,0,L|232:296,2,52.5000020027161
344,344,39109,1,0,0:0:0:0:
24,208,39266,1,0,0:0:0:0:
96,272,39423,1,0,0:0:0:0:
120,176,39580,1,0,0:0:0:0:
96,272,39737,1,0,0:0:0:0:
192,256,39893,2,0,L|208:280,2,26.2500010013581
56,104,40208,6,0,L|72:128,2,26.2500010013581
160,80,40522,1,0,0:0:0:0:
344,96,41149,6,0,L|312:136,2,26.2500010013581
400,184,41465,2,0,L|383:163,2,26.2500010013581
448,96,41779,1,0,0:0:0:0:
91,255,42407,6,0,L|97:204,2,26.2500010013581
193,233,42721,2,0,L|167:236,2,26.2500010013581
152,328,43035,2,0,L|133:346,2,26.2500010013581
161,308,43271,1,0,0:0:0:0:
182,293,43348,1,0,0:0:0:0:
208,286,43428,1,0,0:0:0:0:
234,287,43505,1,0,0:0:0:0:
259,295,43585,1,0,0:0:0:0:
282,310,43664,6,0,P|253:269|268:216,1,105.000004005432
359,126,44292,2,0,P|372:175|343:217,1,105.000004005432
65,152,44920,6,0,L|162:100,1,83.9999974365235
146,188,45234,2,0,L|53:237,1,83.9999974365235
258,248,45547,2,0,L|206:151,1,83.9999974365235
294,167,45863,2,0,L|343:259,1,83.9999974365235
331,94,46177,5,0,0:0:0:0:
211,152,46334,1,0,0:0:0:0:
184,72,46491,5,0,0:0:0:0:
368,168,46648,1,0,0:0:0:0:
128,136,46805,5,0,0:0:0:0:
416,104,46962,1,0,0:0:0:0:
104,56,47119,5,0,0:0:0:0:
456,176,47276,1,0,0:0:0:0:
211,152,47433,6,0,P|219:88|187:56,1,105.000004005432
331,94,47746,2,0,P|318:143|347:185,1,105.000004005432
104,56,48060,6,0,P|116:105|87:147,1,105.000004005432
456,176,48376,2,0,P|443:126|472:84,2,105.000004005432
465,195,48768,1,0,0:0:0:0:
472,219,48847,1,0,0:0:0:0:
470,245,48924,1,0,0:0:0:0:
457,268,49004,1,0,0:0:0:0:
436,284,49081,1,0,0:0:0:0:
411,291,49161,2,0,P|412:316|434:330,1,52.5000020027161
340,188,49475,6,0,P|338:213|316:227,1,52.5000020027161
298,223,49711,1,0,0:0:0:0:
272,219,49789,1,0,0:0:0:0:
247,226,49868,1,0,0:0:0:0:
227,243,49946,6,0,L|169:161,1,87.5
210,71,50416,6,0,L|260:142,1,87.5
324,26,50889,2,0,B|301:47|301:47|290:81,1,52.5
363,167,51203,2,0,P|375:104|356:77,1,87.5
298,194,51673,2,0,P|345:235|379:232,1,87.5
223,186,52145,2,0,L|234:250,1,52.5
158,150,52458,2,0,L|135:210,1,52.5
125,84,52773,2,0,L|75:125,1,52.5
108,15,53087,2,0,L|44:26,1,52.5
229,91,53402,2,0,P|221:57|195:34,1,70
298,174,54030,5,0,0:0:0:0:
474,165,54344,2,0,L|440:194,3,26.2500010013581
385,233,54657,2,0,L|419:262,3,26.2500010013581
363,127,54971,5,0,0:0:0:0:
362,109,55051,1,0,0:0:0:0:
356,93,55130,1,0,0:0:0:0:
346,79,55208,1,0,0:0:0:0:
332,68,55287,1,0,0:0:0:0:
316,62,55365,1,0,0:0:0:0:
298,61,55444,1,0,0:0:0:0:
281,66,55522,1,0,0:0:0:0:
267,75,55601,5,0,0:0:0:0:
272,91,55679,1,0,0:0:0:0:
278,108,55758,1,0,0:0:0:0:
283,124,55836,1,0,0:0:0:0:
289,141,55915,1,0,0:0:0:0:
294,158,55993,1,0,0:0:0:0:
300,174,56072,1,0,0:0:0:0:
306,191,56150,1,0,0:0:0:0:
311,207,56229,5,0,0:0:0:0:
296,216,56307,1,0,0:0:0:0:
279,220,56386,1,0,0:0:0:0:
261,219,56464,1,0,0:0:0:0:
245,213,56543,1,0,0:0:0:0:
231,203,56621,1,0,0:0:0:0:
221,189,56700,1,0,0:0:0:0:
215,172,56778,1,0,0:0:0:0:
214,153,56857,5,0,0:0:0:0:
205,168,56935,1,0,0:0:0:0:
197,183,57014,1,0,0:0:0:0:
188,199,57092,1,0,0:0:0:0:
180,214,57171,1,0,0:0:0:0:
171,229,57249,1,0,0:0:0:0:
163,245,57328,1,0,0:0:0:0:
154,260,57406,1,0,0:0:0:0:
148,274,57486,6,0,P|132:243|101:228,1,70
84,124,57800,2,0,P|52:138|37:169,1,70
236,133,58114,2,0,P|204:118|189:87,2,70
261,140,58505,1,0,0:0:0:0:
285,164,58585,1,0,0:0:0:0:
295,197,58664,1,0,0:0:0:0:
288,231,58742,1,0,0:0:0:0:
361,87,58899,5,0,0:0:0:0:
387,245,59056,1,0,0:0:0:0:
464,103,59213,5,0,0:0:0:0:
237,104,59369,2,0,B|162:69|162:69|167:176|82:115|94:243,1,280
88,83,60156,5,0,0:0:0:0:
195,262,60313,1,0,0:0:0:0:
207,52,60470,1,0,0:0:0:0:
69,210,60627,2,0,P|124:162|194:174,2,140
387,78,62198,6,0,L|332:166,1,70
217,52,62512,5,0,0:0:0:0:
159,253,62669,1,0,0:0:0:0:
365,218,62826,1,0,0:0:0:0:
262,75,62982,5,0,0:0:0:0:
169,262,63139,1,0,0:0:0:0:
377,263,63296,1,0,0:0:0:0:
349,137,63454,6,0,L|387:78,2,70
86,83,64396,6,0,P|114:57|147:47,1,70
154,55,64710,2,0,P|121:67|96:91,1,70
157,126,65024,5,0,0:0:0:0:
316,54,65181,1,0,0:0:0:0:
96,91,65338,1,0,0:0:0:0:
377,89,65495,5,0,0:0:0:0:
95,161,65652,1,0,0:0:0:0:
38,127,65966,2,0,P|30:70|91:22,1,140
158,73,67223,5,0,0:0:0:0:
313,153,67380,1,0,0:0:0:0:
42,129,67537,5,0,0:0:0:0:
347,283,67694,1,0,0:0:0:0:
161,239,67851,1,0,0:0:0:0:
158,73,68165,5,0,0:0:0:0:
313,153,68322,1,0,0:0:0:0:
161,239,68479,2,0,P|232:192|235:115,1,140
239,122,68872,5,0,0:0:0:0:
240,87,68950,1,0,0:0:0:0:
255,56,69029,1,0,0:0:0:0:
282,33,69107,1,0,0:0:0:0:
315,22,69186,1,0,0:0:0:0:
349,26,69264,1,0,0:0:0:0:
380,42,69343,1,0,0:0:0:0:
401,70,69421,1,0,0:0:0:0:
411,100,69500,5,0,0:0:0:0:
388,126,69578,1,0,0:0:0:0:
365,153,69657,1,0,0:0:0:0:
343,180,69735,1,0,0:0:0:0:
320,206,69814,5,0,0:0:0:0:
316,241,69892,1,0,0:0:0:0:
328,273,69971,1,0,0:0:0:0:
353,297,70050,6,0,P|386:290|401:243,1,70
256,280,70364,2,0,P|223:287|208:334,1,70
291,372,70678,5,0,0:0:0:0:
143,150,70992,1,0,0:0:0:0:
409,142,71307,1,0,0:0:0:0:
86,83,72249,6,0,P|114:57|147:47,1,70
147,118,72563,1,0,0:0:0:0:
459,108,72720,1,0,0:0:0:0:
170,216,72877,1,0,0:0:0:0:
460,161,73034,1,0,0:0:0:0:
147,170,73191,1,0,0:0:0:0:
436,62,73348,1,0,0:0:0:0:
389,230,73505,2,0,P|422:218|447:194,1,70
246,329,73820,6,0,B|224:286|251:246|251:246|212:232|212:232|187:210|187:210|106:237|128:166|128:166|40:128|0:272|88:325|164:292|164:292|197:127|197:127|268:157|268:157|287:88,1,840.000032043458,0|0,0:0|0:0,0:0:0:0:
319,320,75233,1,0,0:0:0:0:
447,153,75390,1,0,0:0:0:0:
273,34,75547,1,0,0:0:0:0:
159,210,75704,1,0,0:0:0:0:
254,180,76019,2,0,B|324:153|324:153|313:227,1,140
279,118,77275,5,0,0:0:0:0:
51,245,77432,1,0,0:0:0:0:
310,277,77589,1,0,0:0:0:0:
113,102,77746,1,0,0:0:0:0:
167,355,77903,1,0,0:0:0:0:
279,118,78218,5,0,0:0:0:0:
51,245,78375,1,0,0:0:0:0:
310,277,78532,1,0,0:0:0:0:
113,102,78846,6,0,L|207:72,1,98
283,59,80102,6,0,L|366:108,1,83.9999974365235
451,152,80416,1,0,0:0:0:0:
241,156,80574,1,0,0:0:0:0:
409,249,80731,6,0,L|326:200,1,83.9999974365235
241,156,81045,1,0,0:0:0:0:
451,152,81203,1,0,0:0:0:0:
441,91,81359,6,0,L|392:174,1,83.9999974365235
348,259,81673,1,0,0:0:0:0:
344,49,81831,1,0,0:0:0:0:
250,217,81988,6,0,L|300:134,1,83.9999974365235
344,49,82302,1,0,0:0:0:0:
348,259,82458,1,0,0:0:0:0:
160,168,82615,5,0,0:0:0:0:
288,144,82773,1,0,0:0:0:0:
104,88,82930,5,0,0:0:0:0:
344,232,83087,1,0,0:0:0:0:
48,184,83244,5,0,0:0:0:0:
400,120,83401,1,0,0:0:0:0:
160,168,83558,6,0,L|338:133,1,129.499999505997
296,152,83872,6,0,L|169:177,1,129.499999505997
113,97,84186,5,0,0:0:0:0:
353,241,84343,1,0,0:0:0:0:
97,319,84500,2,0,L|165:225,1,83.9999974365235
194,183,84814,5,0,0:0:0:0:
68,237,84971,1,0,0:0:0:0:
189,317,85129,1,0,0:0:0:0:
326,106,85286,5,0,0:0:0:0:
74,104,85443,1,0,0:0:0:0:
189,317,85601,1,0,0:0:0:0:
485,163,85757,5,0,0:0:0:0:
190,1,85914,1,0,0:0:0:0:
189,317,86072,1,0,0:0:0:0:
440,330,86228,5,0,0:0:0:0:
316,112,86385,1,0,0:0:0:0:
189,317,86543,1,0,0:0:0:0:
306,384,86699,5,0,0:0:0:0:
319,252,86856,1,0,0:0:0:0:
189,317,87014,1,0,0:0:0:0:
442,185,87170,5,0,0:0:0:0:
246,216,87327,1,0,0:0:0:0:
394,286,87485,1,0,0:0:0:0:
291,288,87642,2,0,L|346:218,1,83.9999974365235
420,134,87956,5,0,0:0:0:0:
242,346,88113,1,0,0:0:0:0:
468,227,88270,5,0,0:0:0:0:
193,252,88427,1,0,0:0:0:0:
437,329,88584,5,0,0:0:0:0:
225,151,88741,1,0,0:0:0:0:
369,301,88898,2,0,P|300:303|271:280,1,83.9999974365235
328,376,89212,5,0,0:0:0:0:
296,230,89369,1,0,0:0:0:0:
369,301,89526,5,0,0:0:0:0:
131,180,89684,1,0,0:0:0:0:
356,49,89841,5,0,0:0:0:0:
219,311,89998,1,0,0:0:0:0:
205,44,90156,5,0,0:0:0:0:
431,174,90313,1,0,0:0:0:0:
261,150,90469,5,0,0:0:0:0:
378,80,90626,1,0,0:0:0:0:
290,73,90783,5,0,0:0:0:0:
352,162,90940,1,0,0:0:0:0:
225,102,91097,5,0,0:0:0:0:
422,133,91254,1,0,0:0:0:0:
205,186,91411,5,0,0:0:0:0:
439,43,91568,1,0,0:0:0:0:
194,67,91725,6,0,L|120:28,1,83.9999974365235
47,90,92040,1,0,0:0:0:0:
321,44,92197,1,0,0:0:0:0:
116,36,92354,6,0,L|190:75,1,83.9999974365235
317,52,92668,1,0,0:0:0:0:
43,98,92825,1,0,0:0:0:0:
473,101,92982,1,0,0:0:0:0:
199,147,93139,1,0,0:0:0:0:
413,61,93297,5,0,0:0:0:0:
259,187,93453,1,0,0:0:0:0:
344,72,93610,5,0,0:0:0:0:
328,176,93767,1,0,0:0:0:0:
288,116,93924,5,0,0:0:0:0:
384,132,94081,1,0,0:0:0:0:
344,72,94238,6,0,B|313:52|313:52|311:28,1,46.6666666666667
199,147,94553,2,0,P|178:170|176:193,1,46.6666666666667
173,74,94867,2,0,P|191:55|196:30,1,46.6666666666667
272,81,95181,2,0,L|320:61,2,46.6666666666667
468,225,95809,2,0,L|417:248,2,46.6666666666667
377,274,96437,2,0,L|327:250,1,46.6666666666667
457,68,96856,6,0,L|469:119,1,46.6666666666667
282,237,97275,2,0,L|268:182,1,46.6666666666667
490,166,97694,6,0,P|384:200|367:224,1,140
356,206,99029,1,0,0:0:0:0:
347,191,99108,1,0,0:0:0:0:
344,174,99186,1,0,0:0:0:0:
347,157,99265,6,0,L|277:122,1,52.5000020027161
257,111,99422,2,0,L|327:76,1,52.5000020027161
210,87,99579,2,0,L|280:122,1,52.5000020027161
225,108,99736,1,0,0:0:0:0:
231,133,99815,1,0,0:0:0:0:
228,159,99893,1,0,0:0:0:0:
216,182,99972,1,0,0:0:0:0:
196,199,100050,1,0,0:0:0:0:
171,208,100129,1,0,0:0:0:0:
150,208,100207,6,0,L|185:232,5,41.9999987182618
242,175,100678,2,0,L|289:143,5,41.9999987182618
219,126,101149,5,0,0:0:0:0:
244,92,101227,1,0,0:0:0:0:
278,68,101306,1,0,0:0:0:0:
318,57,101384,1,0,0:0:0:0:
360,59,101463,1,0,0:0:0:0:
399,74,101541,1,0,0:0:0:0:
431,101,101620,1,0,0:0:0:0:
453,136,101698,1,0,0:0:0:0:
462,177,101778,5,0,0:0:0:0:
433,181,101856,1,0,0:0:0:0:
403,184,101935,1,0,0:0:0:0:
374,188,102013,1,0,0:0:0:0:
344,191,102092,1,0,0:0:0:0:
315,195,102170,1,0,0:0:0:0:
285,198,102249,1,0,0:0:0:0:
255,202,102327,1,0,0:0:0:0:
226,205,102406,5,0,0:0:0:0:
235,245,102484,1,0,0:0:0:0:
257,281,102563,1,0,0:0:0:0:
289,308,102641,1,0,0:0:0:0:
328,323,102720,1,0,0:0:0:0:
369,325,102798,1,0,0:0:0:0:
410,314,102877,1,0,0:0:0:0:
444,290,102955,1,0,0:0:0:0:
469,256,103034,5,0,0:0:0:0:
461,250,103112,1,0,0:0:0:0:
452,244,103191,1,0,0:0:0:0:
444,238,103269,1,0,0:0:0:0:
435,232,103348,1,0,0:0:0:0:
427,226,103426,1,0,0:0:0:0:
418,219,103505,1,0,0:0:0:0:
410,213,103583,1,0,0:0:0:0:
401,207,103663,5,0,0:0:0:0:
402,197,103741,1,0,0:0:0:0:
406,187,103820,1,0,0:0:0:0:
412,178,103898,1,0,0:0:0:0:
420,171,103977,1,0,0:0:0:0:
429,167,104055,1,0,0:0:0:0:
439,164,104134,1,0,0:0:0:0:
450,165,104212,1,0,0:0:0:0:
459,168,104291,6,0,L|472:111,3,41.9999987182618
385,94,104605,2,0,L|375:23,3,41.9999987182618
338,182,104919,2,0,L|295:124,3,41.9999987182618
223,174,105233,5,0,0:0:0:0:
198,182,105311,1,0,0:0:0:0:
172,180,105390,1,0,0:0:0:0:
149,167,105468,1,0,0:0:0:0:
134,146,105547,1,0,0:0:0:0:
128,121,105625,1,0,0:0:0:0:
134,95,105704,1,0,0:0:0:0:
124,106,105782,1,0,0:0:0:0:
114,116,105861,5,0,0:0:0:0:
105,126,105939,1,0,0:0:0:0:
95,136,106018,1,0,0:0:0:0:
86,146,106096,1,0,0:0:0:0:
75,157,106176,6,0,L|5:149,3,41.9999987182618
100,152,106489,5,0,0:0:0:0:
126,154,106568,1,0,0:0:0:0:
149,167,106646,1,0,0:0:0:0:
164,188,106725,1,0,0:0:0:0:
170,213,106803,1,0,0:0:0:0:
164,239,106882,1,0,0:0:0:0:
172,228,106961,5,0,0:0:0:0:
181,218,107039,1,0,0:0:0:0:
191,208,107118,1,0,0:0:0:0:
200,198,107196,1,0,0:0:0:0:
210,188,107275,1,0,0:0:0:0:
220,177,107353,1,0,0:0:0:0:
228,166,107432,5,0,0:0:0:0:
228,192,107510,1,0,0:0:0:0:
234,217,107589,1,0,0:0:0:0:
244,242,107667,1,0,0:0:0:0:
258,264,107746,6,0,L|278:223,11,26.2500010013581
376,218,108689,2,0,L|364:194,7,26.2500010013581
251,95,109317,5,0,0:0:0:0:
226,85,109395,1,0,0:0:0:0:
202,75,109474,1,0,0:0:0:0:
178,65,109552,1,0,0:0:0:0:
153,55,109631,5,0,0:0:0:0:
185,82,109709,1,0,0:0:0:0:
205,119,109788,1,0,0:0:0:0:
210,160,109866,1,0,0:0:0:0:
201,201,109945,5,0,0:0:0:0:
176,191,110023,1,0,0:0:0:0:
152,181,110102,1,0,0:0:0:0:
128,171,110180,1,0,0:0:0:0:
103,161,110259,6,0,L|99:119,5,26.2500010013581
60,256,110731,2,0,L|67:281,5,26.2500010013581
151,162,111202,5,0,0:0:0:0:
159,147,111280,1,0,0:0:0:0:
171,134,111359,1,0,0:0:0:0:
186,124,111437,1,0,0:0:0:0:
202,118,111516,1,0,0:0:0:0:
219,115,111594,1,0,0:0:0:0:
237,116,111673,1,0,0:0:0:0:
254,120,111751,1,0,0:0:0:0:
269,129,111830,5,0,0:0:0:0:
275,145,111908,1,0,0:0:0:0:
282,161,111987,1,0,0:0:0:0:
289,177,112065,1,0,0:0:0:0:
296,193,112144,1,0,0:0:0:0:
303,209,112222,1,0,0:0:0:0:
310,225,112301,1,0,0:0:0:0:
317,241,112379,1,0,0:0:0:0:
324,257,112458,5,0,0:0:0:0:
339,265,112536,1,0,0:0:0:0:
356,269,112615,1,0,0:0:0:0:
373,270,112693,1,0,0:0:0:0:
390,268,112772,1,0,0:0:0:0:
407,261,112850,1,0,0:0:0:0:
421,251,112929,1,0,0:0:0:0:
433,239,113007,1,0,0:0:0:0:
442,224,113087,5,0,0:0:0:0:
448,207,113165,1,0,0:0:0:0:
455,191,113244,1,0,0:0:0:0:
462,175,113322,1,0,0:0:0:0:
469,159,113401,1,0,0:0:0:0:
476,143,113479,1,0,0:0:0:0:
483,127,113558,1,0,0:0:0:0:
490,111,113636,1,0,0:0:0:0:
497,95,113715,5,0,0:0:0:0:
462,95,113793,1,0,0:0:0:0:
427,95,113872,1,0,0:0:0:0:
392,96,113950,1,0,0:0:0:0:
357,96,114029,1,0,0:0:0:0:
322,96,114107,1,0,0:0:0:0:
287,97,114186,1,0,0:0:0:0:
252,97,114264,1,0,0:0:0:0:
217,97,114343,6,0,L|236:55,3,35
126,155,114657,2,0,L|140:187,3,35
222,209,114971,2,0,L|207:176,3,35
93,47,115286,5,0,0:0:0:0:
332,186,115495,1,0,0:0:0:0:
77,300,115704,1,0,0:0:0:0:
152,65,115914,5,0,0:0:0:0:
366,237,116123,1,0,0:0:0:0:
95,305,116332,1,0,0:0:0:0:
200,94,116542,5,0,0:0:0:0:
373,307,116751,1,0,0:0:0:0:
95,327,116960,1,0,0:0:0:0:
243,134,117170,5,0,3:0:0:0:
377,370,117380,1,0,0:0:0:0:
100,342,117589,1,0,0:0:0:0:
279,177,117799,5,0,3:0:0:0:
199,254,118008,1,0,0:0:0:0:
344,240,118218,5,0,0:0:0:0:
134,191,118427,1,0,0:0:0:0:
362,158,118636,5,0,0:0:0:0:
116,273,118846,1,0,0:0:0:0:
427,221,119055,5,0,0:0:0:0:
51,210,119265,1,0,0:0:0:0:
445,139,119474,5,0,0:0:0:0:
33,292,119684,1,0,0:0:0:0:
380,76,119893,5,0,0:0:0:0:
98,355,120102,1,0,0:0:0:0:
200,228,120312,6,0,P|206:198|233:174,1,52.5
340,141,120626,2,0,P|334:171|307:195,1,52.5
226,114,120940,2,0,P|256:120|280:147,1,52.5
313,254,121254,2,0,P|283:248|259:221,1,52.5
320,187,121568,6,0,L|371:157,1,52.5
487,250,121882,2,0,L|472:307,1,52.5
356,358,122196,2,0,L|307:324,1,52.5
360,256,122510,6,0,P|374:284|406:297,1,52.5
455,175,122825,2,0,P|444:151|423:136,1,52.5
367,168,123139,2,0,P|339:182|326:214,1,52.5
448,263,123454,2,0,P|471:252|486:231,1,52.5
360,256,123767,2,0,P|374:284|406:297,1,52.5
448,263,124081,6,0,B|452:232|452:232|479:221,1,52.5
423,98,124395,6,0,P|397:95|378:73,1,52.5
219,147,124709,2,0,P|244:149|262:168,1,52.5
345,224,125024,2,0,P|348:198|370:179,1,52.5
296,20,125338,2,0,P|293:46|275:64,1,52.5
423,98,125652,6,0,L|361:115,1,52.5
366,181,125966,2,0,L|416:167,1,52.5
372,111,126280,2,0,L|430:135,1,52.5
416,167,126594,2,0,L|367:146,1,52.5
420,131,126908,2,0,L|389:147,1,31.4999990386963
367,146,127222,2,0,L|394:131,1,31.4999990386963
394,131,127537,2,0,L|394:147,1,15.7499995193482
310,113,127851,5,0,0:0:0:0:
124,174,128479,6,0,L|141:212,1,41.9999987182618
43,155,129421,6,0,L|60:117,1,41.9999987182618
328,152,130364,6,0,L|311:114,1,41.9999987182618
124,174,131306,6,0,L|141:212,1,41.9999987182618
43,155,132248,6,0,L|60:117,1,41.9999987182618
328,152,133191,6,0,L|311:114,1,41.9999987182618
143,45,133976,6,0,L|139:73,1,20.9999993591309
310,113,134448,5,0,0:0:0:0:
310,113,134762,1,0,0:0:0:0:
124,174,135076,6,0,L|141:212,1,41.9999987182618
328,152,136018,6,0,L|311:114,1,41.9999987182618
43,155,136961,6,0,L|60:117,1,41.9999987182618
124,174,137903,6,0,L|141:212,1,41.9999987182618
43,155,138531,6,0,L|60:117,2,41.9999987182618
328,152,139788,6,0,L|311:114,1,41.9999987182618
124,174,140730,6,0,L|141:212,1,41.9999987182618
328,152,141673,6,0,L|311:114,1,41.9999987182618
43,155,142301,6,0,L|60:117,1,41.9999987182618
310,113,142929,6,0,P|410:127|414:264,1,251.999992309571
114,93,144186,2,0,L|71:154,1,62.9999980773926
157,162,144500,2,0,L|193:213,1,62.9999980773926
77,144,144814,6,0,L|114:93,1,62.9999980773926
193,213,145128,2,0,B|158:161|158:161|231:62|231:62,1,167.999994873047
245,163,145835,6,0,L|279:120,1,41.9999987182618
321,183,146071,2,0,L|308:199,1,20.9999993591309
245,163,146228,2,0,L|279:120,2,41.9999987182618
321,183,146699,1,0,0:0:0:0:
56,137,147013,2,0,L|63:228,2,83.9999974365235
328,152,147956,6,0,L|311:114,1,41.9999987182618
124,174,148270,2,0,L|141:212,1,41.9999987182618
43,155,148584,2,0,L|60:117,1,41.9999987182618
311,114,148898,6,0,L|328:152,1,41.9999987182618
141,212,149212,2,0,L|124:174,1,41.9999987182618
56,137,149526,2,0,L|63:228,2,83.9999974365235
321,183,150469,1,0,0:0:0:0:
328,152,150783,6,0,L|311:114,1,41.9999987182618
124,174,151097,2,0,L|141:212,1,41.9999987182618
43,155,151411,2,0,L|60:117,1,41.9999987182618
311,114,151725,2,0,L|328:152,1,41.9999987182618
141,212,152039,2,0,L|124:174,1,41.9999987182618
60,117,152353,2,0,L|43:155,1,41.9999987182618
51,163,152668,6,0,L|68:125,1,41.9999987182618
124,174,152982,2,0,L|141:212,1,41.9999987182618
328,152,153296,2,0,L|311:114,1,41.9999987182618
43,155,153610,2,0,L|60:117,1,41.9999987182618
328,152,153924,2,0,L|311:114,1,41.9999987182618
237,104,154238,2,0,B|162:69|162:69|167:176|82:115|86:224|119:296,1,329
338,293,158008,6,0,P|366:249|342:196,1,105.000004005432
268,156,158322,1,0,0:0:0:0:
268,156,158400,1,0,0:0:0:0:
268,156,158479,1,0,0:0:0:0:
349,202,158636,6,0,P|398:192|421:146,1,105.000004005432
387,46,158950,1,0,0:0:0:0:
387,46,159028,1,0,0:0:0:0:
387,46,159107,1,0,0:0:0:0:
349,202,159264,5,0,0:0:0:0:
399,192,159342,1,0,0:0:0:0:
421,147,159421,1,0,0:0:0:0:
236,63,159578,1,0,0:0:0:0:
193,88,159657,1,0,0:0:0:0:
202,137,159735,1,0,0:0:0:0:
443,315,159892,6,0,P|481:281|478:230,1,105.000004005432
110,168,160206,1,0,0:0:0:0:
78,206,160285,1,0,0:0:0:0:
103,249,160363,1,0,0:0:0:0:
443,315,160521,2,0,P|467:270|447:223,1,105.000004005432
375,237,160835,6,0,L|298:186,2,52.5000020027161
446,132,161149,1,0,0:0:0:0:
299,351,161306,1,0,0:0:0:0:
331,208,161463,2,0,L|375:237,2,52.5000020027161
188,230,161777,6,0,B|219:184|219:184|211:140,3,52.5000020027161
163,184,162091,1,0,0:0:0:0:
164,132,162170,1,0,0:0:0:0:
191,87,162248,1,0,0:0:0:0:
236,62,162327,1,0,0:0:0:0:
288,62,162405,5,0,0:0:0:0:
282,114,162483,1,0,0:0:0:0:
277,166,162562,1,0,0:0:0:0:
271,219,162640,1,0,0:0:0:0:
265,271,162720,5,0,0:0:0:0:
316,272,162798,1,0,0:0:0:0:
362,246,162877,1,0,0:0:0:0:
387,201,162955,1,0,0:0:0:0:
386,149,163034,5,0,0:0:0:0:
388,116,163112,1,0,0:0:0:0:
417,99,163191,1,0,0:0:0:0:
448,113,163269,1,0,0:0:0:0:
454,146,163348,2,0,P|431:175|415:109,1,140
12,223,163976,5,0,0:0:0:0:
44,210,164054,1,0,0:0:0:0:
77,197,164133,1,0,0:0:0:0:
109,185,164211,1,0,0:0:0:0:
142,172,164290,1,0,0:0:0:0:
12,223,164605,5,0,0:0:0:0:
12,223,164918,5,0,0:0:0:0:
44,210,164996,1,0,0:0:0:0:
77,197,165075,1,0,0:0:0:0:
109,185,165153,1,0,0:0:0:0:
142,172,165232,1,0,0:0:0:0:
12,223,165547,5,0,0:0:0:0:
278,120,165861,5,0,0:0:0:0:
347,330,166018,1,0,0:0:0:0:
130,284,166175,2,0,L|203:250,2,70
255,228,166646,1,0,0:0:0:0:
12,223,166803,5,0,0:0:0:0:
44,210,166881,1,0,0:0:0:0:
77,197,166960,1,0,0:0:0:0:
109,185,167038,1,0,0:0:0:0:
142,172,167117,1,0,0:0:0:0:
12,223,167432,5,0,0:0:0:0:
328,281,167746,5,0,0:0:0:0:
306,47,167903,1,0,0:0:0:0:
115,184,168060,1,0,0:0:0:0:
257,153,168374,1,0,0:0:0:0:
12,223,168688,5,0,0:0:0:0:
44,210,168766,1,0,0:0:0:0:
77,197,168845,1,0,0:0:0:0:
109,185,168923,1,0,0:0:0:0:
142,172,169002,1,0,0:0:0:0:
12,223,169317,5,0,0:0:0:0:
326,202,169630,5,0,0:0:0:0:
207,269,169787,1,0,0:0:0:0:
359,125,169944,5,0,0:0:0:0:
173,347,170102,1,0,0:0:0:0:
323,205,170259,5,0,0:0:0:0:
204,272,170416,1,0,0:0:0:0:
356,128,170573,5,0,0:0:0:0:
273,138,170730,1,0,0:0:0:0:
320,208,170887,5,0,0:0:0:0:
305,69,171044,1,0,0:0:0:0:
397,197,171201,5,0,0:0:0:0:
204,105,171358,1,0,0:0:0:0:
330,285,171515,6,0,L|321:212,1,70
320,208,171829,1,0,0:0:0:0:
269,328,171986,1,0,0:0:0:0:
399,313,172143,2,0,L|427:245,1,70
269,328,172458,2,0,L|224:269,1,70
455,252,172772,2,0,L|420:313,1,70
197,278,173086,6,0,B|246:328|246:328|261:254,1,140
268,224,173479,1,0,0:0:0:0:
288,196,173558,1,0,0:0:0:0:
317,177,173636,1,0,0:0:0:0:
351,169,173714,2,0,P|323:148|319:114,1,70
181,46,174028,2,0,P|209:67|212:101,1,70
278,15,174342,5,0,0:0:0:0:
212,98,174499,2,0,P|196:69|164:59,1,70
112,121,174814,2,0,P|56:198|131:277,1,210
134,197,175442,1,0,0:0:0:0:
49,330,175599,1,0,0:0:0:0:
207,338,175756,1,0,0:0:0:0:
207,338,175835,1,0,0:0:0:0:
207,338,175913,2,0,P|247:314|253:278,1,70
52,239,176227,5,0,0:0:0:0:
200,93,176384,1,0,0:0:0:0:
99,266,176541,5,0,0:0:0:0:
159,39,176698,1,0,0:0:0:0:
152,266,176855,5,0,0:0:0:0:
99,65,177013,2,0,L|54:69,2,35
133,58,177248,1,0,0:0:0:0:
165,71,177327,1,0,0:0:0:0:
184,99,177405,1,0,0:0:0:0:
183,134,177484,5,0,0:0:0:0:
214,150,177562,1,0,0:0:0:0:
246,164,177641,1,0,0:0:0:0:
280,171,177719,1,0,0:0:0:0:
315,169,177798,1,0,0:0:0:0:
349,163,177876,1,0,0:0:0:0:
384,167,177955,1,0,0:0:0:0:
416,180,178033,1,0,0:0:0:0:
446,198,178114,6,0,P|404:222|391:260,2,70
373,94,178585,2,0,P|415:70|428:32,2,70
319,209,179056,6,0,L|281:116,1,70
214,281,179370,2,0,L|252:188,1,70
245,206,179684,1,0,0:0:0:0:
292,144,179841,2,0,L|319:209,1,70
323,219,180155,1,0,0:0:0:0:
134,144,180312,2,0,L|107:208,1,70
147,314,180627,6,0,L|185:221,1,70
178,239,180941,1,0,0:0:0:0:
322,211,181098,2,0,L|295:146,1,70
291,136,181412,1,0,0:0:0:0:
234,262,181569,2,0,L|261:326,1,70
291,136,181883,6,0,L|329:43,1,70
322,61,182197,1,0,0:0:0:0:
451,215,182354,2,0,L|424:150,1,70
420,140,182668,1,0,0:0:0:0:
306,337,182826,2,0,L|344:244,1,70
358,207,183140,6,0,L|331:271,1,70
327,282,183454,1,0,0:0:0:0:
171,203,183611,2,0,L|197:267,1,70
202,278,183925,1,0,0:0:0:0:
266,97,184082,2,0,L|266:169,1,70
358,207,184396,6,0,B|342:138,1,70
266,97,184710,1,0,0:0:0:0:
171,203,184867,2,0,B|186:134,1,70
266,97,185182,1,0,0:0:0:0:
161,291,185339,2,0,L|215:335,1,70
226,343,185653,5,0,0:0:0:0:
81,226,185809,1,0,0:0:0:0:
254,158,185967,1,0,0:0:0:0:
226,343,186124,5,0,0:0:0:0:
115,60,186280,1,0,0:0:0:0:
412,105,186438,1,0,0:0:0:0:
226,343,186595,5,0,0:0:0:0:
254,158,186751,1,0,0:0:0:0:
400,274,186909,1,0,0:0:0:0:
186,242,187066,5,0,0:0:0:0:
451,225,187223,1,0,0:0:0:0:
134,290,187380,5,0,0:0:0:0:
404,173,187538,1,0,0:0:0:0:
124,201,187695,5,0,0:0:0:0:
367,269,187852,1,0,0:0:0:0:
218,247,188009,1,0,0:0:0:0:
311,128,188166,5,0,0:0:0:0:
283,341,188323,1,0,0:0:0:0:
252,32,188637,5,0,0:0:0:0:
318,309,188794,1,0,0:0:0:0:
96,128,189108,5,0,0:0:0:0:
190,314,189265,1,0,0:0:0:0:
189,44,189422,1,0,0:0:0:0:
168,288,189579,1,0,0:0:0:0:
320,128,189894,5,0,0:0:0:0:
216,200,190051,2,0,L|184:144,3,35
208,72,190365,2,0,L|184:104,3,35
315,42,190679,1,0,0:0:0:0:
339,281,190836,1,0,0:0:0:0:
371,73,191150,5,0,0:0:0:0:
221,330,191307,1,0,0:0:0:0:
135,77,191621,5,0,0:0:0:0:
255,335,191778,1,0,0:0:0:0:
412,121,191935,1,0,0:0:0:0:
289,328,192093,1,0,0:0:0:0:
168,120,192407,5,0,0:0:0:0:
288,104,192564,5,0,0:0:0:0:
317,86,192642,1,0,0:0:0:0:
351,88,192721,1,0,0:0:0:0:
378,110,192799,1,0,0:0:0:0:
388,143,192878,1,0,0:0:0:0:
377,175,192956,1,0,0:0:0:0:
349,196,193035,1,0,0:0:0:0:
314,196,193113,1,0,0:0:0:0:
286,177,193192,6,0,L|307:258,1,70
216,270,193506,2,0,L|198:202,1,70
195,191,193820,1,0,0:0:0:0:
286,177,193977,2,0,L|307:258,1,70
307,256,194292,1,0,0:0:0:0:
166,159,194449,6,0,L|247:138,1,70
245,138,194763,1,0,0:0:0:0:
335,287,194920,2,0,L|267:304,1,70
256,308,195234,1,0,0:0:0:0:
264,295,195391,2,0,L|331:277,1,70
433,349,195705,5,0,0:0:0:0:
418,327,195783,1,0,0:0:0:0:
403,305,195862,1,0,0:0:0:0:
389,283,195940,1,0,0:0:0:0:
320,281,196019,5,0,0:0:0:0:
305,259,196097,1,0,0:0:0:0:
290,237,196176,1,0,0:0:0:0:
276,215,196254,1,0,0:0:0:0:
207,213,196333,5,0,0:0:0:0:
192,191,196411,1,0,0:0:0:0:
177,169,196490,1,0,0:0:0:0:
163,147,196568,1,0,0:0:0:0:
94,145,196648,5,0,0:0:0:0:
79,123,196726,1,0,0:0:0:0:
64,101,196805,1,0,0:0:0:0:
50,79,196883,1,0,0:0:0:0:
35,57,196962,5,0,0:0:0:0:
58,45,197040,1,0,0:0:0:0:
83,37,197119,1,0,0:0:0:0:
109,34,197197,1,0,0:0:0:0:
135,36,197276,1,0,0:0:0:0:
160,43,197354,1,0,0:0:0:0:
184,54,197433,1,0,0:0:0:0:
205,70,197511,1,0,0:0:0:0:
223,89,197590,1,0,0:0:0:0:
237,111,197668,1,0,0:0:0:0:
246,136,197747,1,0,0:0:0:0:
251,162,197825,1,0,0:0:0:0:
250,188,197904,1,0,0:0:0:0:
245,214,197982,1,0,0:0:0:0:
235,238,198061,1,0,0:0:0:0:
221,260,198140,1,0,0:0:0:0:
203,279,198218,6,0,P|174:210|79:204,1,157.500006008148
125,273,199161,6,0,P|20:192|141:124,1,315.000012016297
165,151,200182,1,0,0:0:0:0:
165,151,200260,1,0,0:0:0:0:
165,151,200339,1,0,0:0:0:0:
165,151,200417,1,0,0:0:0:0:
165,151,200496,1,0,0:0:0:0:
165,151,200574,1,0,0:0:0:0:
165,151,200653,1,0,0:0:0:0:
165,151,200731,2,0,P|255:122|249:62,1,157.500006008148
135,121,201674,6,0,P|39:192|125:273,1,262.500010013581
184,321,202616,1,0,0:0:0:0:
272,190,202773,5,0,0:0:0:0:
341,332,202930,1,0,0:0:0:0:
367,206,203087,5,0,0:0:0:0:
427,328,203244,1,0,0:0:0:0:
467,233,203401,5,0,0:0:0:0:
427,152,203559,2,0,L|474:111,2,52.5000020027161
337,146,204030,2,0,L|384:105,2,52.5000020027161
247,140,204501,2,0,L|294:99,2,52.5000020027161
376,111,204972,2,0,L|337:146,1,52.5000020027161
466,117,205286,6,0,L|427:152,1,52.5000020027161
218,307,206386,6,0,L|202:282,1,26.25
165,207,206857,2,0,L|189:206,1,17.5,0|0,0:3|0:3,0:0:0:0:
279,212,207250,2,0,L|265:238,1,26.25
308,283,208271,5,0,0:0:0:0:
291,281,208349,1,0,0:0:0:0:
275,277,208428,1,0,0:0:0:0:
303,201,208742,2,0,L|317:198,2,8.75
363,201,209056,2,0,L|377:198,2,8.75
260,269,209527,5,0,0:0:0:0:
247,259,209606,1,0,0:0:0:0:
237,246,209684,1,0,0:0:0:0:
303,201,209998,2,0,L|317:198,2,8.75
353,201,210312,2,0,L|367:198,2,8.75
229,231,210784,5,0,0:0:0:0:
225,215,210862,1,0,0:0:0:0:
224,198,210941,1,0,0:0:0:0:
303,201,211255,2,0,L|317:198,2,8.75
343,201,211569,2,0,L|357:198,2,8.75
226,182,212040,5,0,0:0:0:0:
232,166,212119,1,0,0:0:0:0:
241,152,212197,1,0,0:0:0:0:
303,201,212511,2,0,L|317:198,2,8.75
333,201,212825,2,0,L|347:198,2,8.75
252,139,213297,5,0,0:0:0:0:
265,130,213375,1,0,0:0:0:0:
280,123,213454,1,0,0:0:0:0:
303,201,213768,2,0,L|317:198,2,8.75
323,201,214082,2,0,L|337:198,2,8.75
297,119,214553,5,0,0:0:0:0:
313,119,214631,1,0,0:0:0:0:
327,118,214710,1,0,0:0:0:0:
303,201,215024,2,0,L|317:198,2,8.75
313,201,215338,2,0,L|327:198,2,8.75
328,102,215810,5,0,0:0:0:0:
329,85,215889,1,0,0:0:0:0:
331,69,215967,1,0,0:0:0:0:
303,201,216281,2,0,L|317:198,2,8.75
303,201,216595,2,0,L|317:198,2,8.75
333,53,217066,5,0,0:0:0:0:
367,46,217144,1,0,0:0:0:0:
401,50,217223,1,0,0:0:0:0:
433,64,217301,1,0,0:0:0:0:
459,88,217381,5,0,0:0:0:0:
424,81,217459,1,0,0:0:0:0:
390,85,217538,1,0,0:0:0:0:
358,99,217616,1,0,0:0:0:0:
332,123,217695,5,0,0:0:0:0:
365,114,217773,1,0,0:0:0:0:
400,118,217852,1,0,0:0:0:0:
430,135,217930,1,0,0:0:0:0:
451,163,218009,1,0,0:0:0:0:
461,196,218087,1,0,0:0:0:0:
457,231,218166,1,0,0:0:0:0:
440,261,218244,1,0,0:0:0:0:
412,283,218323,2,0,P|282:197|332:123,1,280
179,57,219737,6,0,L|219:120,1,70
221,111,220208,2,0,L|183:51,1,70
87,52,220836,1,0,0:0:0:0:
123,86,223349,6,0,P|101:130|103:163,1,70
172,139,223820,2,0,P|170:174|145:210,1,70
193,70,224292,1,0,0:0:0:0:
193,70,225862,5,0,0:0:0:0:
193,70,227433,6,0,P|226:43|256:43,2,70
246,107,228375,2,0,L|226:185,1,70
287,259,228846,2,0,L|307:181,1,70
313,125,229318,2,0,L|264:113,1,35
246,107,229632,1,0,0:0:0:0:
347,133,230103,6,0,L|269:114,1,70
246,107,230574,2,0,L|280:116,1,35
381,140,230888,1,0,0:0:0:0:
222,306,232459,6,0,L|201:228,2,70
137,265,233401,2,0,P|142:197|203:166,1,140
172,96,233873,2,0,P|240:104|276:162,1,140
342,131,234344,2,0,B|353:172|341:217|285:232|285:232|354:285|467:268|511:127|500:12|317:-5|252:21|222:162|222:162|146:145|97:206|97:206|261:264|157:308|316:361|391:363|475:287,1,1263.49996626091
287,233,237485,6,0,L|431:271,2,140
354,69,238428,6,0,L|328:165,2,93.3333333333333
282,338,239056,2,0,L|211:267,2,93.3333333333333
85,142,239684,2,0,L|181:116,2,93.3333333333333
343,210,240312,5,0,0:0:0:0:
164,258,240522,1,0,0:0:0:0:
212,79,240731,1,0,0:0:0:0:
282,338,240941,5,0,0:0:0:0:
85,141,241151,1,0,0:0:0:0:
353,69,241360,1,0,0:0:0:0:
71,66,241569,5,0,0:0:0:0:
366,144,241778,1,0,0:0:0:0:
67,176,241988,5,0,0:0:0:0:
371,33,242197,1,0,0:0:0:0:
342,367,242407,1,0,0:0:0:0:
177,17,242616,1,0,0:0:0:0:
314,112,242826,1,0,0:0:0:0:
318,146,242904,1,0,0:0:0:0:
309,179,242983,1,0,0:0:0:0:
282,201,243061,1,0,0:0:0:0:
248,210,243140,1,0,0:0:0:0:
234,241,243218,1,0,0:0:0:0:
230,276,243297,1,0,0:0:0:0:
237,310,243375,1,0,0:0:0:0:
254,340,243454,6,0,P|199:352|168:328,1,70
231,142,243768,1,0,0:0:0:0:
70,261,243925,2,0,P|125:249|156:273,1,70
131,152,244239,5,0,0:0:0:0:
188,347,244396,1,0,0:0:0:0:
172,75,244553,5,0,0:0:0:0:
114,311,244710,1,0,0:0:0:0:
59,85,244867,5,0,0:0:0:0:
188,347,245024,1,0,0:0:0:0:
169,20,245182,5,0,0:0:0:0:
88,348,245339,1,0,0:0:0:0:
94,64,245496,5,0,0:0:0:0:
213,306,245653,1,0,0:0:0:0:
161,77,245810,5,0,0:0:0:0:
146,293,245967,1,0,0:0:0:0:
115,107,246124,5,0,0:0:0:0:
192,263,246281,1,0,0:0:0:0:
158,116,246438,5,0,0:0:0:0:
149,254,246595,1,0,0:0:0:0:
184,139,246752,5,0,0:0:0:0:
123,231,246909,1,0,0:0:0:0:
193,166,247066,5,0,0:0:0:0:
114,205,247223,1,0,0:0:0:0:
189,187,247381,5,0,0:0:0:0:
118,183,247538,1,0,0:0:0:0:
215,167,247695,5,0,0:0:0:0:
92,203,247852,1,0,0:0:0:0:
241,224,248009,5,0,0:0:0:0:
66,146,248166,1,0,0:0:0:0:
277,193,248323,5,0,0:0:0:0:
30,177,248480,1,0,0:0:0:0:
357,71,248637,5,0,0:0:0:0:
90,129,248794,1,0,0:0:0:0:
103,143,248951,5,0,0:0:0:0:
329,100,249108,1,0,0:0:0:0:
310,135,249265,5,0,0:0:0:0:
113,161,249422,1,0,0:0:0:0:
117,180,249579,5,0,0:0:0:0:
301,174,249737,1,0,0:0:0:0:
301,213,249894,5,0,0:0:0:0:
117,200,250051,1,0,0:0:0:0:
112,219,250208,5,0,0:0:0:0:
311,252,250365,1,0,0:0:0:0:
330,287,250522,5,0,0:0:0:0:
103,237,250679,1,0,0:0:0:0:
89,251,250836,5,0,0:0:0:0:
357,316,250993,1,0,0:0:0:0:
280,52,251150,1,0,0:0:0:0:
161,129,251307,5,0,0:0:0:0:
348,175,251464,1,0,0:0:0:0:
215,314,251621,1,0,0:0:0:0:
167,228,251778,5,0,0:0:0:0:
298,259,251935,1,0,0:0:0:0:
260,130,252092,1,0,0:0:0:0:
185,152,252250,5,0,0:0:0:0:
316,184,252407,1,0,0:0:0:0:
144,180,252564,5,0,0:0:0:0:
358,156,252721,1,0,0:0:0:0:
82,157,252878,5,0,0:0:0:0:
419,179,253035,1,0,0:0:0:0:
48,172,253192,5,0,0:0:0:0:
453,164,253349,1,0,0:0:0:0:
59,155,253506,5,0,0:0:0:0:
259,185,253663,1,0,0:0:0:0:
132,342,253820,1,0,0:0:0:0:
164,135,253977,5,0,0:0:0:0:
223,285,254134,1,0,0:0:0:0:
63,261,254291,1,0,0:0:0:0:
149,227,254449,5,0,0:0:0:0:
135,318,254606,1,0,0:0:0:0:
132,222,254763,5,0,0:0:0:0:
151,322,254920,1,0,0:0:0:0:
159,219,255077,5,0,0:0:0:0:
124,325,255234,1,0,0:0:0:0:
130,212,255391,5,0,0:0:0:0:
153,332,255548,1,0,0:0:0:0:
174,213,255705,5,0,0:0:0:0:
109,331,255862,1,0,0:0:0:0:
140,198,256019,5,0,0:0:0:0:
143,346,256176,1,0,0:0:0:0:
147,191,256333,5,0,0:0:0:0:
136,353,256490,1,0,0:0:0:0:
124,184,256648,5,0,0:0:0:0:
159,360,256805,1,0,0:0:0:0:
294,242,256962,1,0,0:0:0:0:
91,282,257119,5,0,0:0:0:0:
261,340,257276,1,0,0:0:0:0:
225,164,257433,1,0,0:0:0:0:
123,187,257590,2,0,P|155:151|159:105,1,70
263,220,257904,2,0,P|231:184|227:138,2,70
300,153,258532,6,0,P|261:96|203:94,2,93.3333333333333
300,153,259161,2,0,P|362:123|413:150,2,93.3333333333333
344,299,259789,1,0,0:0:0:0:
448,187,259998,1,0,0:0:0:0:
428,273,260208,5,0,0:0:0:0:
280,238,260417,1,0,0:0:0:0:
383,127,260627,1,0,0:0:0:0:
300,153,260836,5,0,0:0:0:0:
344,299,261045,2,0,P|352:192|458:199,1,223.930006252928
435,88,262302,6,0,L|384:107,5,35
347,33,262773,2,0,L|320:80,5,35
248,64,263244,5,0,0:0:0:0:
219,85,263322,1,0,0:0:0:0:
200,114,263401,1,0,0:0:0:0:
191,148,263479,1,0,0:0:0:0:
195,182,263559,5,0,0:0:0:0:
176,163,263637,1,0,0:0:0:0:
157,144,263716,1,0,0:0:0:0:
139,126,263794,1,0,0:0:0:0:
120,107,263873,1,0,0:0:0:0:
102,89,263951,1,0,0:0:0:0:
84,71,264030,5,0,0:0:0:0:
81,97,264108,1,0,0:0:0:0:
79,123,264187,1,0,0:0:0:0:
76,149,264265,1,0,0:0:0:0:
74,175,264344,1,0,0:0:0:0:
71,201,264422,1,0,0:0:0:0:
62,234,264501,5,0,0:0:0:0:
67,241,264579,1,0,0:0:0:0:
74,247,264658,1,0,0:0:0:0:
81,253,264736,1,0,0:0:0:0:
88,259,264815,1,0,0:0:0:0:
96,264,264893,1,0,0:0:0:0:
104,268,264972,1,0,0:0:0:0:
112,272,265050,1,0,0:0:0:0:
121,275,265129,1,0,0:0:0:0:
130,278,265207,1,0,0:0:0:0:
139,279,265286,1,0,0:0:0:0:
148,281,265364,1,0,0:0:0:0:
157,281,265443,1,0,0:0:0:0:
166,281,265521,1,0,0:0:0:0:
175,280,265600,1,0,0:0:0:0:
184,278,265679,1,0,0:0:0:0:
193,276,265757,1,0,0:0:0:0:
202,273,265836,1,0,0:0:0:0:
211,269,265914,1,0,0:0:0:0:
219,265,265993,1,0,0:0:0:0:
227,260,266071,1,0,0:0:0:0:
234,255,266150,1,0,0:0:0:0:
241,249,266228,1,0,0:0:0:0:
247,242,266307,1,0,0:0:0:0:
253,235,266385,1,0,0:0:0:0:
259,228,266464,1,0,0:0:0:0:
264,220,266542,1,0,0:0:0:0:
268,212,266621,1,0,0:0:0:0:
272,204,266699,1,0,0:0:0:0:
275,195,266778,1,0,0:0:0:0:
277,186,266857,1,0,0:0:0:0:
279,177,266935,1,0,0:0:0:0:
280,168,267014,1,0,0:0:0:0:
280,159,267092,1,0,0:0:0:0:
280,149,267171,1,0,0:0:0:0:
279,140,267249,1,0,0:0:0:0:
277,131,267328,1,0,0:0:0:0:
275,122,267406,1,0,0:0:0:0:
272,114,267485,1,0,0:0:0:0:
268,105,267563,1,0,0:0:0:0:
341,57,267642,6,0,L|352:121,3,35
416,76,267956,2,0,L|378:129,3,35
461,138,268271,2,0,L|397:149,3,35
455,215,268585,5,0,0:0:0:0:
428,216,268663,1,0,0:0:0:0:
403,223,268742,1,0,0:0:0:0:
380,236,268820,1,0,0:0:0:0:
361,253,268899,1,0,0:0:0:0:
345,275,268977,1,0,0:0:0:0:
335,299,269056,5,0,0:0:0:0:
311,287,269134,1,0,0:0:0:0:
286,281,269213,1,0,0:0:0:0:
259,280,269291,1,0,0:0:0:0:
234,285,269370,1,0,0:0:0:0:
210,296,269448,1,0,0:0:0:0:
189,312,269527,5,0,0:0:0:0:
173,290,269605,1,0,0:0:0:0:
152,275,269684,1,0,0:0:0:0:
128,266,269762,1,0,0:0:0:0:
101,266,269841,5,0,0:0:0:0:
112,242,269919,1,0,0:0:0:0:
118,216,269998,1,0,0:0:0:0:
118,190,270076,1,0,0:0:0:0:
113,165,270155,1,0,0:0:0:0:
102,141,270233,1,0,0:0:0:0:
87,120,270312,5,0,0:0:0:0:
113,118,270390,1,0,0:0:0:0:
138,111,270469,1,0,0:0:0:0:
161,98,270547,1,0,0:0:0:0:
180,81,270626,1,0,0:0:0:0:
196,59,270704,1,0,0:0:0:0:
206,35,270784,6,0,L|245:74,3,35
342,101,271098,5,0,0:0:0:0:
362,137,271176,1,0,0:0:0:0:
371,178,271255,1,0,0:0:0:0:
370,220,271333,1,0,0:0:0:0:
357,260,271412,1,0,0:0:0:0:
335,295,271490,1,0,0:0:0:0:
304,323,271569,1,0,0:0:0:0:
266,342,271647,1,0,0:0:0:0:
225,350,271726,1,0,0:0:0:0:
183,347,271804,1,0,0:0:0:0:
144,333,271883,1,0,0:0:0:0:
110,309,271961,1,0,0:0:0:0:
83,277,272040,1,0,0:0:0:0:
65,239,272118,1,0,0:0:0:0:
58,198,272197,1,0,0:0:0:0:
63,156,272276,1,0,0:0:0:0:
78,117,272354,1,0,0:0:0:0:
103,84,272433,1,0,0:0:0:0:
136,58,272511,1,0,0:0:0:0:
175,42,272590,1,0,0:0:0:0:
190,112,272668,6,0,P|155:134|148:163,3,41.9999987182618
162,258,272983,2,0,P|198:276|227:268,3,41.9999987182618
298,208,273297,2,0,P|295:166|273:145,3,41.9999987182618
260,104,273611,5,0,0:0:0:0:
293,79,273689,1,0,0:0:0:0:
333,65,273768,1,0,0:0:0:0:
375,64,273846,1,0,0:0:0:0:
415,76,273925,1,0,0:0:0:0:
450,99,274003,1,0,0:0:0:0:
476,132,274082,5,0,0:0:0:0:
448,123,274160,1,0,0:0:0:0:
419,122,274239,1,0,0:0:0:0:
391,127,274317,1,0,0:0:0:0:
365,140,274396,1,0,0:0:0:0:
343,158,274474,1,0,0:0:0:0:
326,181,274553,5,0,0:0:0:0:
327,199,274631,1,0,0:0:0:0:
327,217,274710,1,0,0:0:0:0:
324,234,274788,1,0,0:0:0:0:
319,252,274867,1,0,0:0:0:0:
312,268,274945,1,0,0:0:0:0:
304,284,275024,1,0,0:0:0:0:
293,298,275102,1,0,0:0:0:0:
281,311,275181,1,0,0:0:0:0:
267,322,275259,1,0,0:0:0:0:
252,332,275338,1,0,0:0:0:0:
236,340,275416,1,0,0:0:0:0:
219,346,275495,1,0,0:0:0:0:
202,349,275573,1,0,0:0:0:0:
184,351,275652,1,0,0:0:0:0:
166,350,275731,1,0,0:0:0:0:
148,348,275809,1,0,0:0:0:0:
131,343,275888,1,0,0:0:0:0:
115,336,275966,1,0,0:0:0:0:
99,327,276045,1,0,0:0:0:0:
85,317,276123,1,0,0:0:0:0:
72,304,276202,1,0,0:0:0:0:
61,291,276280,1,0,0:0:0:0:
51,276,276359,1,0,0:0:0:0:
43,260,276437,1,0,0:0:0:0:
38,243,276516,1,0,0:0:0:0:
34,225,276594,1,0,0:0:0:0:
32,207,276673,1,0,0:0:0:0:
33,190,276751,1,0,0:0:0:0:
36,172,276830,1,0,0:0:0:0:
41,155,276909,1,0,0:0:0:0:
47,138,276987,1,0,0:0:0:0:
56,123,277066,1,0,0:0:0:0:
67,109,277144,1,0,0:0:0:0:
79,96,277223,1,0,0:0:0:0:
93,84,277301,1,0,0:0:0:0:
108,75,277380,1,0,0:0:0:0:
124,67,277458,1,0,0:0:0:0:
141,61,277537,1,0,0:0:0:0:
158,58,277615,1,0,0:0:0:0:
176,56,277695,5,0,0:0:0:0:
179,91,277773,1,0,0:0:0:0:
182,126,277852,1,0,0:0:0:0:
185,161,277930,1,0,0:0:0:0:
188,196,278009,5,0,0:0:0:0:
222,192,278087,1,0,0:0:0:0:
257,189,278166,1,0,0:0:0:0:
292,186,278244,1,0,0:0:0:0:
327,183,278323,5,0,0:0:0:0:
290,152,278401,1,0,0:0:0:0:
252,120,278480,1,0,0:0:0:0:
215,88,278558,1,0,0:0:0:0:
177,57,278637,6,0,P|201:142|167:180,2,130.666662679037
135,229,279265,6,0,P|111:144|145:106,2,130.666662679037
108,43,279894,6,0,P|50:101|33:167,1,130.666662679037
159,156,280312,1,0,0:0:0:0:
284,167,280522,6,0,P|259:226|210:269,2,130.666662679037
231,55,281150,1,0,0:0:0:0:
87,257,281360,1,0,0:0:0:0:
158,41,281569,5,0,0:0:0:0:
131,312,281779,1,0,0:0:0:0:
380,200,281988,1,0,0:0:0:0:
66,168,282197,5,0,3:0:0:0:
287,327,282407,1,0,3:0:0:0:
96,351,282616,5,0,3:0:0:0:
393,216,282826,1,0,3:0:0:0:
128,26,283035,1,0,3:0:0:0:
271,343,283244,5,0,3:0:0:0:
298,67,283454,1,0,3:0:0:0:
46,181,283663,2,0,P|101:108|173:104,2,140
400,182,284605,2,0,P|345:255|273:259,2,140
223,181,285547,1,0,0:0:0:0:
311,335,285861,5,0,0:0:0:0:
344,337,285939,1,0,0:0:0:0:
369,314,286018,1,0,0:0:0:0:
368,280,286096,1,0,0:0:0:0:
343,258,286176,1,0,0:0:0:0:
317,235,286254,1,0,0:0:0:0:
316,201,286333,1,0,0:0:0:0:
341,178,286411,1,0,0:0:0:0:
375,181,286490,1,0,0:0:0:0:
223,181,286804,5,0,0:0:0:0:
223,334,287118,1,0,0:0:0:0:
376,334,287432,1,0,0:0:0:0:
375,181,287746,5,0,0:0:0:0:
392,151,287824,1,0,0:0:0:0:
393,116,287903,1,0,0:0:0:0:
379,84,287981,1,0,0:0:0:0:
353,62,288060,1,0,0:0:0:0:
319,54,288138,1,0,0:0:0:0:
285,62,288217,1,0,0:0:0:0:
259,84,288295,1,0,0:0:0:0:
245,116,288374,5,0,0:0:0:0:
231,147,288452,1,0,0:0:0:0:
204,169,288531,1,0,0:0:0:0:
170,178,288609,1,0,0:0:0:0:
136,170,288688,1,0,0:0:0:0:
110,147,288766,1,0,0:0:0:0:
96,116,288845,1,0,0:0:0:0:
98,81,288923,1,0,0:0:0:0:
93,54,289002,5,0,0:0:0:0:
79,91,289080,1,0,0:0:0:0:
81,130,289159,1,0,0:0:0:0:
99,164,289237,1,0,0:0:0:0:
130,188,289316,1,0,0:0:0:0:
168,196,289394,1,0,0:0:0:0:
206,188,289473,1,0,0:0:0:0:
237,164,289551,1,0,0:0:0:0:
268,150,289630,5,0,0:0:0:0:
243,186,289708,1,0,0:0:0:0:
206,210,289787,1,0,0:0:0:0:
162,216,289865,1,0,0:0:0:0:
120,206,289944,1,0,0:0:0:0:
85,179,290022,1,0,0:0:0:0:
64,140,290101,1,0,0:0:0:0:
59,97,290179,1,0,0:0:0:0:
48,56,290259,5,0,0:0:0:0:
38,104,290337,1,0,0:0:0:0:
47,153,290416,1,0,0:0:0:0:
73,195,290494,1,0,0:0:0:0:
114,224,290573,1,0,0:0:0:0:
162,236,290651,1,0,0:0:0:0:
211,230,290730,1,0,0:0:0:0:
255,205,290808,1,0,0:0:0:0:
286,166,290887,5,0,0:0:0:0:
280,116,290965,1,0,0:0:0:0:
249,78,291044,1,0,0:0:0:0:
202,61,291122,1,0,0:0:0:0:
154,72,291201,1,0,0:0:0:0:
118,106,291279,1,0,0:0:0:0:
106,154,291358,1,0,0:0:0:0:
121,201,291436,1,0,0:0:0:0:
159,234,291515,5,0,0:0:0:0:
207,242,291593,1,0,0:0:0:0:
252,222,291672,1,0,0:0:0:0:
276,179,291750,1,0,0:0:0:0:
272,130,291829,1,0,0:0:0:0:
241,92,291907,1,0,0:0:0:0:
193,80,291986,1,0,0:0:0:0:
147,97,292064,1,0,0:0:0:0:
136,186,292143,6,0,L|87:207,7,50.0500006873322
63,120,292772,1,0,0:0:0:0:
136,186,293086,5,0,0:0:0:0:
147,153,293164,1,0,0:0:0:0:
170,127,293243,1,0,0:0:0:0:
202,113,293321,1,0,0:0:0:0:
237,114,293400,2,0,P|196:93|189:24,1,100.100001374664
256,192,294028,12,0,304081,0:0:0:0:
