osu file format v14

[General]
AudioFilename: audio.mp3
AudioLeadIn: 0
PreviewTime: 223260
Countdown: 0
SampleSet: None
StackLeniency: 0.7
Mode: 0
LetterboxInBreaks: 0
WidescreenStoryboard: 1

[Editor]
Bookmarks: 1545,19764,39869,59974,80078,120288,127827,154214,157984,163010,208260,223323,233376,283638,294004
DistanceSpacing: 0.8
BeatDivisor: 6
GridSize: 32
TimelineZoom: 3.299999

[Metadata]
Title:Seijouki no Pierrot ~ The MadPiero Laughs
TitleUnicode:星条旗のピエロ ~ The MadPiero Laughs
Artist:Demetori
ArtistUnicode:Demetori
Creator:Jean-Michel Jr
Version:Apollo Hoax Theory
Source:東方紺珠伝 ~ Legacy of Lunatic Kingdom.
Tags:Determinism & DestruKction C92 clownpiece the pierrot of the star-spangled banner touhou15 heavy metal instrumental Touhou Kanjuden 東方Project th15 LoLK ZUN Stage 5 lazyboy007
BeatmapID:1412805
BeatmapSetID:661333

[Difficulty]
HPDrainRate:5.5
CircleSize:4.5
OverallDifficulty:9
ApproachRate:9.5
SliderMultiplier:1.6
SliderTickRate:1

[Events]
//Background and Video events
0,0,"clownpiece.jpg",0,0
//Break Periods
//Storyboard Layer 0 (Background)
//Storyboard Layer 1 (Fail)
//Storyboard Layer 2 (Pass)
//Storyboard Layer 3 (Foreground)
//Storyboard Sound Samples

[TimingPoints]
1545.38149282621,314.13612565445,3,3,1,80,1,0
1859,-100,3,2,2,40,0,0
2487,-100,3,3,1,80,0,0
2566,-100,3,2,2,40,0,0
3430,-100,3,3,1,80,0,0
3744,-100,3,2,2,40,0,0
4214,-100,3,3,1,80,0,0
4372,314.13612565445,4,3,1,80,1,0
4372,-76.9230769230769,4,3,1,80,0,0
4529,-100,4,2,2,80,0,0
4686,-100,4,3,1,80,0,0
4843,-100,4,2,2,80,0,0
5000,-100,4,3,1,80,0,0
5157,-100,4,2,2,80,0,0
5314,-100,4,3,1,80,0,0
5471,-100,4,2,2,80,0,0
5628,-100,4,3,1,80,0,0
9398,-76.9230769230769,4,3,1,80,0,0
10026,-76.9230769230769,4,3,2,80,0,0
10339,-76.9230769230769,4,3,3,80,0,0
10654,314.13612565445,3,3,1,80,1,0
10654,-76.9230769230769,4,3,1,80,0,0
13482,314.13612565445,4,3,7,80,1,0
13796,-100,4,3,2,80,0,0
14110,-100,4,3,3,80,0,0
14424,-100,4,3,4,80,0,0
14738,-76.9230769230769,4,3,1,80,0,0
18508,-66.6666666666667,4,3,1,80,0,0
19764,-90.9090909090909,4,3,1,80,0,0
20942,-90.9090909090909,4,3,1,5,0,0
21021,-90.9090909090908,4,3,1,80,0,0
25968,-90.9090909090909,4,3,1,5,0,0
26047,-90.9090909090908,4,3,1,80,0,0
26989,-76.9230769230769,4,3,1,80,0,0
27068,-76.9230769230769,4,3,1,5,0,0
27146,-76.9230769230769,4,3,1,80,0,0
27225,-76.9230769230769,4,3,1,5,0,0
27303,-71.4285714285714,4,3,1,80,0,0
29502,-71.4285714285714,4,3,7,80,0,0
29581,-71.4285714285714,4,3,2,80,0,0
29660,-71.4285714285714,4,3,3,80,0,0
29738,-71.4285714285714,4,3,4,80,0,0
29817,-83.3333333333333,4,3,1,80,0,0
37356,-71.4285714285714,4,3,1,80,0,0
39241,-83.3333333333333,4,2,7,50,0,0
39398,-83.3333333333333,4,2,2,50,0,0
39555,-83.3333333333333,4,2,3,50,0,0
39712,-83.3333333333333,4,2,4,50,0,0
39869,-111.111111111111,4,3,1,80,0,0
43010,-83.3333333333333,4,3,1,80,0,0
43639,-83.3333333333333,4,3,1,80,0,0
43796,-83.3333333333333,4,3,1,5,0,0
43953,-100,4,3,1,80,0,0
44110,-100,4,3,1,5,0,0
44267,-125,4,3,1,80,0,0
44424,-125,4,3,1,5,0,0
44581,-166.666666666667,4,3,1,80,0,0
44738,-166.666666666667,4,3,1,5,0,0
44895,-111.111111111111,4,3,1,80,0,0
48665,-111.111111111111,4,3,2,80,0,0
48822,-111.111111111111,4,3,3,80,0,0
48979,-111.111111111111,4,3,4,80,0,0
49136,-76.9230769230769,4,3,1,80,0,0
49921,-90.9090909090909,4,3,1,80,0,0
54398,-90.9090909090909,4,2,2,80,0,0
54633,-90.9090909090909,4,3,1,80,0,0
54712,-90.9090909090909,4,2,2,80,0,0
54947,-90.9090909090909,4,3,1,80,0,0
57461,-71.4285714285714,4,3,1,80,0,0
58403,-71.4285714285714,4,3,3,80,0,0
58717,-71.4285714285714,4,3,1,80,0,0
59502,-100,4,3,1,80,0,0
59974,-76.9230769230769,4,3,1,80,0,0
61152,-76.9230769230769,4,3,1,5,0,0
61230,-76.9230769230769,4,3,1,80,0,0
65000,-76.9230769230769,4,3,1,80,0,0
66178,-76.9230769230769,4,3,1,5,0,0
66256,-76.9230769230769,4,3,1,80,0,0
67277,-76.9230769230769,4,2,2,80,0,0
67356,-76.9230769230769,4,3,1,80,0,0
67434,-76.9230769230769,4,2,2,80,0,0
67513,-76.9230769230769,4,3,1,80,0,0
70026,-71.4285714285714,4,3,1,80,0,0
79450,-71.4285714285714,4,3,7,50,0,0
79607,-71.4285714285714,4,2,2,50,0,0
79764,-71.4285714285714,4,3,3,50,0,0
79921,-71.4285714285714,4,2,4,50,0,0
80078,-83.3333333333333,4,3,1,80,0,0
95314,-83.3333333333333,4,3,1,5,0,0
95392,-83.3333333333333,4,3,1,80,0,0
95785,-90.9090909090909,4,3,1,80,0,0
95942,-90.9090909090909,4,3,1,5,0,0
96021,-90.9090909090909,4,3,1,80,0,0
96413,-100,4,3,1,80,0,0
96571,-100,4,3,1,5,0,0
96649,-100,4,3,1,80,0,0
97042,-83.3333333333333,4,3,1,80,0,0
97199,-83.3333333333333,4,3,1,5,0,0
97277,-83.3333333333333,4,3,1,80,0,0
97670,-90.9090909090909,4,3,1,80,0,0
98927,-83.3333333333333,4,3,1,80,0,0
99869,-83.3333333333333,4,3,2,80,0,0
100183,-83.3333333333333,4,3,1,95,0,1
104581,-74.0740740740741,4,3,1,95,0,1
104895,-66.6666666666667,4,3,1,95,0,1
105209,-83.3333333333333,4,3,1,95,0,1
109607,-71.4285714285714,4,3,1,95,0,1
109921,-62.5,4,3,1,95,0,1
110235,-83.3333333333333,4,3,1,95,0,1
114633,-68.9655172413793,4,3,1,95,0,1
114947,-58.8235294117647,4,3,1,95,0,1
115262,-100,4,3,1,95,0,1
117984,-100,4,3,1,35,0,1
118612,-100,4,3,1,50,0,1
118822,-100,4,3,1,65,0,1
119031,-100,4,3,1,80,0,1
119660,-100,4,3,1,95,0,1
120288,314.13612565445,3,2,2,30,1,0
120288,-222.222222222222,4,2,2,30,0,0
120602,-222.222222222222,4,2,2,30,0,0
127827,-153.846153846154,4,3,1,60,0,0
128141,-153.846153846154,4,3,2,60,0,0
131596,-153.846153846154,4,3,1,60,0,0
131911,-153.846153846154,4,3,2,60,0,0
135366,-153.846153846154,4,3,1,60,0,0
135680,-153.846153846154,4,3,2,60,0,0
139136,-153.846153846154,4,3,1,60,0,0
139450,-153.846153846154,4,3,2,60,0,0
142906,-181.818181818182,4,3,1,60,0,0
143848,-125,4,3,2,60,0,0
144162,-125,4,2,2,60,0,0
145418,-125,4,3,2,60,0,0
146675,-125,4,3,1,60,0,0
146989,-125,4,3,2,60,0,0
148560,-125,4,3,1,60,0,0
148874,-125,4,3,2,60,0,0
149502,-125,4,3,1,60,0,0
150759,-153.846153846154,4,3,2,60,0,0
151387,-111.111111111111,4,3,2,60,0,0
152644,-153.846153846154,4,3,2,60,0,0
153272,-111.111111111111,4,3,2,60,0,0
153507,-111.111111111111,4,3,2,5,0,0
153586,-111.111111111111,4,3,2,60,0,0
154214,320.855614973262,3,3,1,40,1,0
154214,-200,3,3,1,40,0,0
155176,324.324324324324,3,3,1,30,1,0
155176,-250,3,3,1,30,0,0
156148,327.868852459016,3,3,1,20,1,0
156148,-333.333333333334,3,3,1,20,0,0
157131,321.71581769437,3,3,1,10,1,0
157131,-500,3,3,1,10,0,0
157984,314.13612565445,4,3,1,80,1,0
159240,-83.3333333333333,4,3,1,80,0,0
161753,-100,4,3,2,60,0,0
162067,-100,4,3,3,60,0,0
162224,-100,4,3,4,60,0,0
162381,-100,4,3,2,70,0,0
162696,-100,4,3,3,70,0,0
162853,-100,4,3,4,70,0,0
163010,314.13612565445,3,3,1,95,1,1
170549,314.13612565445,4,3,1,80,1,0
170549,-83.3333333333333,4,3,1,80,0,0
177460,-83.3333333333333,4,3,3,80,0,0
177538,-83.3333333333333,4,3,7,80,0,0
177617,-83.3333333333333,4,3,2,80,0,0
177774,-83.3333333333333,4,3,3,80,0,0
177931,-83.3333333333333,4,3,4,80,0,0
178088,-100,4,3,1,80,0,0
183114,-83.3333333333333,4,3,1,80,0,0
184371,-100,4,3,1,80,0,0
187512,-100,4,3,4,80,0,0
187669,-100,4,2,3,80,0,0
187826,-100,4,3,2,80,0,0
187983,-100,4,2,7,80,0,0
188141,-76.9230769230769,4,3,1,80,0,0
190654,-86.9565217391304,4,3,1,80,0,0
193167,-100,4,3,1,80,0,0
194423,-117.647058823529,4,3,1,80,0,0
195680,-71.4285714285714,4,3,1,80,0,0
196936,-71.4285714285714,4,3,4,80,0,0
197407,-71.4285714285714,4,3,3,80,0,0
197878,-71.4285714285714,4,3,1,80,0,0
198193,-83.3333333333333,4,3,1,80,0,0
199135,-100,4,3,1,80,0,0
200078,-83.3333333333333,4,3,1,80,0,0
201648,-100,4,3,1,80,0,0
202434,-83.3333333333333,4,3,1,80,0,0
202983,-83.3333333333333,3,2,2,80,0,0
205103,-83.3333333333333,3,3,1,80,0,0
208245,-83.3333333333333,4,3,1,95,0,1
210758,-76.9230769230769,4,3,1,95,0,1
213271,-71.4285714285714,4,3,1,95,0,1
215785,-66.6666666666667,4,3,1,95,0,1
218297,-90.9090909090909,4,3,1,60,0,0
219083,-90.9090909090909,4,3,2,60,0,0
219240,-90.9090909090909,4,3,1,60,0,0
220025,-90.9090909090909,4,3,2,60,0,0
220496,-90.9090909090909,4,3,1,60,0,0
222381,-90.9090909090909,4,3,2,60,0,0
223324,-200,4,3,1,80,0,0
233376,-142.857142857143,4,3,1,80,0,0
235889,-111.111111111111,4,3,1,80,0,0
238402,-100,4,3,1,80,0,0
241125,-100,4,3,1,35,0,0
241753,-100,4,3,1,50,0,0
241963,-100,4,3,1,65,0,0
242172,-100,4,3,1,80,0,0
243428,-76.9230769230769,4,3,1,95,0,1
258664,-76.9230769230769,4,3,1,5,0,1
258742,-76.9230769230769,4,3,1,95,0,1
259135,-83.3333333333333,4,3,1,95,0,1
259292,-83.3333333333333,4,3,1,5,0,1
259370,-83.3333333333333,4,3,1,95,0,1
259763,-90.9090909090909,4,3,1,95,0,1
259920,-90.9090909090909,4,3,1,5,0,1
259999,-90.9090909090909,4,3,1,95,0,1
260391,-76.9230769230769,4,3,1,95,0,1
260548,-76.9230769230769,4,3,1,5,0,1
260627,-76.9230769230769,4,3,1,95,0,1
262276,-76.9230769230769,4,3,2,95,0,0
262433,-76.9230769230769,4,3,3,95,0,0
262590,-76.9230769230769,4,3,4,95,0,0
262747,-76.9230769230769,4,3,2,95,0,0
262905,-76.9230769230769,4,3,3,95,0,0
263062,-76.9230769230769,4,3,4,95,0,0
263219,-76.9230769230769,4,3,1,95,0,0
263533,-76.9230769230769,4,3,1,95,0,1
267931,-68.9655172413793,4,3,1,95,0,1
268245,-62.5,4,3,1,95,0,1
268559,-76.9230769230769,4,3,1,95,0,1
272957,-66.6666666666667,4,3,1,95,0,1
273271,-58.8235294117647,4,3,1,95,0,1
273586,-76.9230769230769,4,3,1,95,0,1
277983,-64.5161290322581,4,3,1,95,0,1
278298,-55.5555555555556,4,3,1,95,0,1
278612,-90.9090909090909,4,3,1,95,0,1
281334,-90.9090909090909,4,3,1,35,0,1
281963,-90.9090909090909,4,3,1,50,0,1
282172,-90.9090909090909,4,3,1,65,0,1
282381,-90.9090909090909,4,3,1,80,0,1
283010,-90.9090909090909,4,3,1,95,0,1
283638,314.13612565445,3,3,1,80,1,0
283638,-125,4,3,1,80,0,0
285836,-125,4,3,3,80,0,0
286151,-125,4,3,7,80,0,0
286229,-125,4,3,2,80,0,0
286308,-125,4,3,3,80,0,0
286386,-125,4,3,4,80,0,0
286465,314.13612565445,4,3,1,80,1,0
287721,-76.9230769230769,4,3,1,95,0,1
288978,-66.6666666666667,4,3,1,100,0,1
292747,-83.3333333333333,4,3,1,80,0,0
293061,-83.3333333333333,4,3,2,80,0,0
293375,-83.3333333333333,4,3,1,80,0,0
294004,-200,4,3,1,80,0,0
294082,-200,4,3,1,20,0,0
301543,-200,4,2,2,80,0,0
302485,-83.3333333333333,4,2,2,35,0,0
302800,-83.3333333333333,4,2,2,30,0,0
303114,-83.3333333333333,4,2,2,25,0,0
303428,-83.3333333333333,4,2,2,20,0,0
303742,-83.3333333333333,4,2,2,15,0,0
304056,-83.3333333333333,4,2,2,10,0,0

[Colours]
Combo1 : 237,186,12
Combo2 : 215,0,0
Combo3 : 5,172,207
Combo4 : 231,226,226

[HitObjects]
73,72,1545,5,4,0:0:0:0:
97,194,1859,1,0,0:0:0:0:
121,316,2173,1,0,0:0:0:0:
247,106,2487,6,0,L|251:66,2,40,4|0|0,0:0|0:0|0:0,0:0:0:0:
234,215,2801,1,0,0:0:0:0:
221,324,3116,1,0,0:0:0:0:
377,162,3430,5,4,0:0:0:0:
349,247,3744,1,0,0:0:0:0:
321,332,4058,1,0,0:0:0:0:
384,168,4215,1,0,0:0:0:0:
384,168,4294,1,0,0:0:0:0:
384,168,4372,6,0,B|415:160|415:160|458:167|458:167|492:159,1,103.999995239258,12|0,0:0|0:0,0:0:0:0:
176,197,4686,6,0,L|92:193,1,80
349,247,5000,2,0,L|433:243,1,80,0|0,0:0|0:0,0:0:0:0:
206,287,5314,2,0,L|122:283,1,80
387,327,5628,5,12,0:0:0:0:
349,247,5786,1,0,0:0:0:0:
429,210,5943,1,8,0:0:0:0:
466,289,6100,1,0,0:0:0:0:
270,285,6257,5,8,0:0:0:0:
312,168,6414,1,0,0:0:0:0:
429,210,6571,1,8,0:0:0:0:
387,327,6728,1,0,0:0:0:0:
176,123,6885,5,8,0:0:0:0:
395,106,7042,1,0,0:0:0:0:
239,235,7199,1,8,0:0:0:0:
249,56,7356,1,0,0:0:0:0:
493,230,7513,5,8,0:0:0:0:
219,251,7670,1,0,0:0:0:0:
414,90,7827,1,8,0:0:0:0:
401,313,7984,1,0,0:0:0:0:
176,123,8142,5,8,0:0:0:0:
375,37,8298,1,0,0:0:0:0:
144,129,8455,1,8,0:0:0:0:
374,220,8612,1,0,0:0:0:0:
374,220,8691,1,0,0:0:0:0:
374,220,8769,5,8,0:0:0:0:
111,306,8926,1,0,0:0:0:0:
406,226,9084,1,8,0:0:0:0:
112,135,9241,1,0,0:0:0:0:
419,31,9398,5,8,0:0:0:0:
377,329,9555,1,0,0:0:0:0:
236,78,9712,1,8,0:0:0:0:
278,376,9869,1,0,0:0:0:0:
512,94,10026,5,12,0:0:0:0:
509,114,10104,1,6,0:0:0:0:
507,135,10183,1,4,0:0:0:0:
504,155,10261,1,4,0:0:0:0:
502,175,10340,2,0,L|494:236,3,51.999997619629,4|4|4|4,0:0|0:0|0:0|0:0,0:0:0:0:
436,275,10654,5,4,0:2:0:0:
402,259,10732,1,0,0:0:0:0:
365,254,10811,1,0,0:0:0:0:
329,258,10889,1,0,0:0:0:0:
295,272,10968,5,8,0:0:0:0:
291,283,11283,1,8,0:0:0:0:
101,173,11596,5,4,0:0:0:0:
0,201,11753,1,0,0:0:0:0:
77,308,11910,5,8,0:0:0:0:
81,297,12224,1,8,0:0:0:0:
295,272,12539,5,4,0:2:0:0:
329,258,12618,1,0,0:0:0:0:
365,254,12696,1,0,0:0:0:0:
402,259,12775,1,0,0:0:0:0:
436,275,12852,5,8,0:0:0:0:
440,286,13168,1,8,0:0:0:0:
511,146,13325,1,0,0:0:0:0:
511,146,13403,1,0,0:0:0:0:
511,146,13482,5,12,0:0:0:0:
484,136,13560,1,4,0:0:0:0:
456,131,13639,1,4,0:0:0:0:
428,133,13717,1,4,0:0:0:0:
400,140,13796,2,0,L|350:150,3,40,4|4|4|4,0:0|0:0|0:0|0:0,0:0:0:0:
355,231,14110,2,0,L|315:223,1,40,4|4,0:0|0:0,0:0:0:0:
286,129,14267,2,0,L|236:139,1,40,4|4,0:0|0:0,0:0:0:0:
241,242,14424,2,0,L|201:234,1,40,4|4,0:0|0:0,0:0:0:0:
158,115,14581,1,4,0:0:0:0:
158,115,14660,1,4,0:0:0:0:
158,115,14738,6,0,P|147:156|150:197,1,51.999997619629,4|0,0:2|0:0,0:0:0:0:
154,349,14895,2,0,P|165:308|162:267,1,51.999997619629,0|0,0:0|0:0,0:0:0:0:
74,147,15052,2,0,P|95:183|126:210,1,51.999997619629,0|0,0:0|0:0,0:0:0:0:
237,316,15209,2,0,P|215:279|184:252,1,51.999997619629,0|0,0:0|0:0,0:0:0:0:
39,230,15366,2,0,P|80:240|121:238,1,51.999997619629,8|0,0:0|0:0,0:0:0:0:
273,234,15523,2,0,P|232:223|191:226,1,51.999997619629,0|0,0:0|0:0,0:0:0:0:
71,313,15680,6,0,P|107:291|134:260,1,51.999997619629
401,313,15838,2,0,P|365:291|338:260,1,51.999997619629
265,93,15995,6,0,P|252:142|255:190,1,51.999997619629,0|0,0:0|0:0,0:0:0:0:
260,368,16152,2,0,P|272:320|269:272,1,51.999997619629,0|0,0:0|0:0,0:0:0:0:
165,130,16309,2,0,P|189:173|226:205,1,51.999997619629,0|0,0:0|0:0,0:0:0:0:
358,329,16466,2,0,P|332:286|295:254,1,51.999997619629,0|0,0:0|0:0,0:0:0:0:
125,228,16623,2,0,P|173:240|221:238,1,51.999997619629,8|0,0:0|0:0,0:0:0:0:
400,233,16780,2,0,P|351:221|303:224,1,51.999997619629,0|0,0:0|0:0,0:0:0:0:
162,326,16937,6,0,P|204:301|236:264,1,51.999997619629
512,332,17094,2,0,P|470:307|438:270,1,51.999997619629
210,78,17251,6,0,P|225:52|253:32,1,51.999997619629
512,153,17408,2,0,P|508:123|490:93,1,51.999997619629
249,137,17565,2,0,P|274:122|309:118,1,51.999997619629
452,191,17722,1,0,0:0:0:0:
452,191,17801,1,0,0:0:0:0:
452,191,17879,6,0,P|433:166|403:149,1,51.999997619629,8|0,0:0|0:0,0:0:0:0:
172,201,18036,2,0,P|173:225|177:252,1,51.999997619629
305,347,18194,2,0,P|304:323|299:295,1,51.999997619629
100,133,18351,2,0,P|101:157|105:184,1,51.999997619629
368,378,18508,5,2,0:0:0:0:
91,269,18665,2,0,L|32:259,1,60.0000022888184
432,265,18822,1,2,0:0:0:0:
155,373,18979,2,0,L|96:384,1,60.0000022888184
436,151,19136,5,2,0:0:0:0:
414,127,19214,1,2,0:0:0:0:
387,108,19293,1,2,0:0:0:0:
357,96,19371,1,2,0:0:0:0:
325,90,19450,1,2,0:0:0:0:
293,92,19528,1,2,0:0:0:0:
261,100,19607,1,2,0:0:0:0:
233,115,19685,1,2,0:0:0:0:
208,136,19764,5,4,0:0:0:0:
237,278,19921,1,0,0:0:0:0:
172,134,20078,1,8,0:0:0:0:
273,280,20235,1,0,0:0:0:0:
136,132,20392,2,0,P|93:125|39:136,1,88.000002685547
24,316,20707,2,0,P|59:341|161:347,1,132.00000402832,8|0,0:0|0:0,0:0:0:0:
181,328,21021,6,0,L|161:242,1,88.000002685547
307,127,21335,2,0,L|283:234,1,88.000002685547,8|0,0:0|0:0,0:0:0:0:
266,321,21649,1,0,0:0:0:0:
266,321,21806,1,0,0:0:0:0:
368,175,21963,1,8,0:0:0:0:
155,150,22120,1,0,0:0:0:0:
420,300,22277,5,0,0:0:0:0:
471,134,22434,1,0,0:0:0:0:
470,134,22591,1,8,0:0:0:0:
378,334,22749,5,0,0:0:0:0:
327,168,22906,1,0,0:0:0:0:
327,168,23063,1,0,0:0:0:0:
420,368,23220,5,8,0:0:0:0:
512,216,23377,1,0,0:0:0:0:
378,334,23534,6,0,P|337:351|294:347,1,88.000002685547
212,193,23848,2,0,P|166:206|137:234,1,88.000002685547,8|0,0:0|0:0,0:0:0:0:
84,335,24162,1,0,0:0:0:0:
219,334,24319,1,0,0:0:0:0:
49,299,24476,1,8,0:0:0:0:
254,370,24633,1,0,0:0:0:0:
139,235,24790,5,4,0:0:0:0:
312,245,24947,1,0,0:0:0:0:
109,257,25105,1,8,0:0:0:0:
342,223,25262,1,0,0:0:0:0:
79,279,25419,2,0,B|67:246|67:246|75:182,1,88.000002685547
197,84,25733,2,0,L|176:232,1,132.00000402832,8|0,0:0|0:0,0:0:0:0:
174,258,26047,6,0,L|267:266,1,88.000002685547
427,343,26361,2,0,L|334:351,1,88.000002685547,8|0,0:0|0:0,0:0:0:0:
235,360,26675,1,0,0:0:0:0:
235,360,26832,1,0,0:0:0:0:
84,205,26989,2,0,L|77:268,1,51.999997619629,8|0,0:0|0:0,0:0:0:0:
274,219,27146,2,0,L|267:156,1,51.999997619629
123,79,27303,5,4,0:2:0:0:
232,31,27461,1,0,0:0:0:0:
364,264,27618,2,0,B|348:153|348:153|379:93,1,167.999994873047,12|0,0:2|0:0,0:0:0:0:
389,79,27932,5,4,0:2:0:0:
280,31,28089,1,0,0:0:0:0:
148,264,28246,2,0,B|164:153|164:153|133:93,1,167.999994873047,12|0,0:2|0:0,0:0:0:0:
123,79,28560,5,4,0:2:0:0:
277,149,28717,1,0,0:0:0:0:
63,128,28874,1,12,0:2:0:0:
337,100,29031,1,0,0:0:0:0:
3,177,29188,1,12,0:2:0:0:
217,198,29345,1,0,0:0:0:0:
227,230,29424,1,0,0:0:0:0:
224,263,29502,2,0,L|201:313,3,55.9999982910157,12|4|4|4,0:0|0:0|0:0|0:0,0:0:0:0:
229,347,29817,5,4,0:0:0:0:
316,229,29974,1,0,0:0:0:0:
89,259,30131,1,8,0:0:0:0:
229,347,30288,1,0,0:0:0:0:
238,347,30366,1,0,0:0:0:0:
247,347,30445,1,0,0:0:0:0:
217,198,30602,1,0,0:0:0:0:
23,319,30759,2,0,P|-2:244|15:199,1,95.9999970703126,8|0,0:0|0:0,0:0:0:0:
4,221,30995,1,0,0:0:0:0:
7,213,31073,5,0,0:0:0:0:
146,316,31230,1,0,0:0:0:0:
197,127,31387,1,8,0:0:0:0:
19,188,31544,1,0,0:0:0:0:
15,197,31623,1,0,0:0:0:0:
11,205,31701,1,0,0:0:0:0:
158,291,31858,1,0,0:0:0:0:
209,102,32016,1,8,0:0:0:0:
0,71,32173,1,0,0:0:0:0:
217,198,32330,5,0,0:0:0:0:
338,165,32487,1,0,0:0:0:0:
337,39,32644,1,8,0:0:0:0:
223,226,32801,5,0,0:0:0:0:
348,236,32958,1,0,0:0:0:0:
389,117,33115,1,0,0:0:0:0:
229,253,33272,5,8,0:0:0:0:
376,372,33429,1,0,0:0:0:0:
423,210,33586,5,0,0:0:0:0:
376,372,33743,1,0,0:0:0:0:
134,266,33900,2,0,L|230:253,1,95.9999970703126,8|0,0:0|0:0,0:0:0:0:
423,174,34214,5,0,0:0:0:0:
376,12,34371,1,0,0:0:0:0:
134,118,34528,2,0,L|230:131,1,95.9999970703126,8|0,0:0|0:0,0:0:0:0:
423,210,34843,5,4,0:0:0:0:
324,324,35000,1,0,0:0:0:0:
258,135,35157,1,8,0:0:0:0:
423,210,35314,1,0,0:0:0:0:
422,219,35392,1,0,0:0:0:0:
420,228,35471,1,0,0:0:0:0:
266,242,35628,1,0,0:0:0:0:
443,121,35785,2,0,P|494:157|507:210,1,95.9999970703126,8|0,0:0|0:0,0:0:0:0:
506,196,36021,1,0,0:0:0:0:
504,205,36099,5,0,0:0:0:0:
331,204,36256,1,0,0:0:0:0:
477,54,36413,1,8,0:0:0:0:
489,230,36571,1,0,0:0:0:0:
488,239,36649,1,0,0:0:0:0:
487,248,36728,1,0,0:0:0:0:
316,229,36885,1,0,0:0:0:0:
462,79,37042,1,8,0:0:0:0:
364,306,37199,1,0,0:0:0:0:
354,305,37277,1,0,0:0:0:0:
344,304,37356,5,0,0:0:0:0:
217,181,37513,1,8,0:0:0:0:
455,207,37670,2,0,L|425:338,1,111.999996582031
168,304,37984,5,8,0:0:0:0:
295,181,38141,1,0,0:0:0:0:
57,207,38298,2,0,L|87:338,1,111.999996582031,8|0,0:0|0:0,0:0:0:0:
90,342,38534,1,0,0:0:0:0:
97,368,38612,5,8,0:0:0:0:
282,331,38769,1,8,0:0:0:0:
25,360,38927,1,8,0:0:0:0:
278,261,39084,1,8,0:0:0:0:
57,207,39241,5,4,0:3:0:0:
151,160,39398,1,4,0:3:0:0:
244,183,39555,1,4,0:3:0:0:
278,261,39712,1,4,0:3:0:0:
282,331,39869,6,0,L|277:385,2,35.9999989013672,4|0|0,0:0|0:0|0:0,0:0:0:0:
166,246,40183,2,0,L|169:210,2,35.9999989013672
50,331,40497,2,0,B|51:331|32:261|32:261|65:198|65:198|41:113,1,215.999993408203,8|0,0:0|0:0,0:0:0:0:
93,44,41125,6,0,L|156:52,2,35.9999989013672,0|0|0,0:0|0:0|0:0,0:0:0:0:
219,101,41440,2,0,L|254:96,2,35.9999989013672,0|0|0,0:0|0:0|0:0,0:0:0:0:
345,44,41754,2,0,B|369:103|343:152|343:152|278:160|238:226,1,215.999993408203,8|0,0:0|0:0,0:0:0:0:
165,216,42382,6,0,L|163:251,2,35.9999989013672,4|0|0,0:0|0:0|0:0,0:0:0:0:
120,349,42696,2,0,L|122:396,2,35.9999989013672
283,326,43010,2,0,P|332:306|385:307,1,95.9999970703126,8|0,0:0|0:0,0:0:0:0:
394,306,43245,1,0,0:0:0:0:
412,299,43324,1,0,0:0:0:0:
427,288,43402,1,0,0:0:0:0:
441,274,43481,1,0,0:0:0:0:
452,258,43559,1,0,0:0:0:0:
461,241,43639,6,0,B|476:207|476:207|460:140,1,95.9999970703126,4|0,0:0|0:0,0:0:0:0:
293,236,43953,2,0,B|319:247|319:247|372:235,1,80,4|0,0:0|0:0,0:0:0:0:
298,68,44267,2,0,B|286:94|286:94|298:147,1,64,4|0,0:0|0:0,0:0:0:0:
466,73,44581,2,0,B|447:64|447:64|410:73,1,47.9999985351563,4|0,0:0|0:0,0:0:0:0:
294,129,44895,5,12,0:0:0:0:
224,229,45052,1,0,0:0:0:0:
194,58,45209,1,8,0:0:0:0:
124,159,45366,1,0,0:0:0:0:
277,43,45523,5,8,0:0:0:0:
307,210,45680,1,0,0:0:0:0:
108,74,45838,1,8,0:0:0:0:
139,239,45994,1,0,0:0:0:0:
294,129,46152,5,8,0:0:0:0:
224,229,46309,1,0,0:0:0:0:
327,143,46466,1,8,0:0:0:0:
284,295,46623,1,0,0:0:0:0:
363,147,46780,5,8,0:0:0:0:
376,340,46937,1,0,0:0:0:0:
396,139,47094,1,8,0:0:0:0:
488,351,47251,1,0,0:0:0:0:
500,78,47408,5,8,0:0:0:0:
264,129,47565,1,0,0:0:0:0:
376,340,47722,1,8,0:0:0:0:
310,56,47879,1,0,0:0:0:0:
310,56,47958,1,0,0:0:0:0:
310,56,48036,5,8,0:0:0:0:
197,325,48194,1,0,0:0:0:0:
446,174,48351,1,8,0:0:0:0:
156,149,48508,1,0,0:0:0:0:
376,340,48665,5,12,0:0:0:0:
406,341,48743,1,4,0:0:0:0:
441,332,48822,1,4,0:0:0:0:
467,310,48900,1,4,0:0:0:0:
484,279,48979,1,4,0:0:0:0:
487,245,49057,1,4,0:0:0:0:
481,211,49136,2,0,L|438:166,1,51.999997619629,12|0,0:2|0:0,0:0:0:0:
286,169,49293,5,0,0:0:0:0:
278,205,49372,1,0,0:0:0:0:
291,238,49450,2,0,L|326:275,1,51.999997619629,12|0,0:2|0:0,0:0:0:0:
492,110,49607,5,0,0:0:0:0:
451,78,49685,1,0,0:0:0:0:
399,68,49764,1,0,0:0:0:0:
348,76,49842,1,0,0:0:0:0:
306,96,49921,6,0,P|249:104|197:95,1,88.000002685547,4|8,0:0|0:0,0:0:0:0:
65,165,50235,1,0,0:0:0:0:
59,199,50314,1,0,0:0:0:0:
53,233,50392,1,8,0:0:0:0:
182,318,50550,1,0,0:0:0:0:
176,284,50628,1,0,0:0:0:0:
170,250,50707,1,8,0:0:0:0:
299,164,50864,1,0,0:0:0:0:
293,199,50942,1,0,0:0:0:0:
287,233,51021,1,8,0:0:0:0:
344,340,51178,6,0,B|389:347|389:347|447:334,1,88.000002685547,0|8,0:0|0:0,0:0:0:0:
361,175,51492,1,0,0:0:0:0:
330,170,51571,1,0,0:0:0:0:
299,164,51649,1,8,0:0:0:0:
414,256,51806,1,0,0:0:0:0:
445,251,51885,1,0,0:0:0:0:
476,245,51963,1,8,0:0:0:0:
361,138,52120,1,0,0:0:0:0:
330,133,52199,1,0,0:0:0:0:
299,127,52277,1,8,0:0:0:0:
486,155,52434,6,0,P|491:99|451:42,1,88.000002685547,0|8,0:0|0:0,0:0:0:0:
326,41,52749,1,0,0:0:0:0:
300,44,52827,1,0,0:0:0:0:
273,47,52906,1,8,0:0:0:0:
166,136,53063,1,0,0:0:0:0:
187,138,53141,1,0,0:0:0:0:
209,140,53220,1,8,0:0:0:0:
307,217,53377,1,0,0:0:0:0:
289,218,53455,1,0,0:0:0:0:
271,220,53534,1,8,0:0:0:0:
152,298,53691,5,4,0:0:0:0:
367,55,54005,1,0,0:0:0:0:
25,97,54319,2,0,B|32:153,2,44.0000013427735
152,298,54633,2,0,B|157:254,2,44.0000013427735
44,96,54947,5,8,0:0:0:0:
59,69,55025,1,0,0:0:0:0:
82,49,55104,1,0,0:0:0:0:
111,40,55182,1,0,0:0:0:0:
142,41,55261,1,0,0:0:0:0:
170,54,55339,1,0,0:0:0:0:
191,76,55418,1,0,0:0:0:0:
203,104,55496,1,0,0:0:0:0:
209,134,55576,5,8,0:0:0:0:
228,172,55654,1,0,0:0:0:0:
265,195,55733,1,0,0:0:0:0:
309,196,55811,1,0,0:0:0:0:
346,174,55890,1,0,0:0:0:0:
371,132,55968,1,0,0:0:0:0:
370,78,56047,1,0,0:0:0:0:
347,25,56125,1,0,0:0:0:0:
291,0,56204,5,8,0:0:0:0:
272,30,56282,1,0,0:0:0:0:
264,63,56361,1,0,0:0:0:0:
268,99,56439,1,0,0:0:0:0:
283,131,56518,1,0,0:0:0:0:
303,162,56596,1,0,0:0:0:0:
309,196,56675,1,0,0:0:0:0:
304,231,56753,1,0,0:0:0:0:
290,264,56832,5,8,0:0:0:0:
254,302,56910,1,0,0:0:0:0:
204,317,56989,1,0,0:0:0:0:
154,306,57067,1,0,0:0:0:0:
114,272,57146,1,0,0:0:0:0:
99,217,57224,1,0,0:0:0:0:
117,157,57303,1,0,0:0:0:0:
170,119,57381,1,0,0:0:0:0:
241,123,57461,6,0,L|308:142,1,55.9999982910157,8|0,0:0|0:0,0:0:0:0:
493,172,57618,1,0,0:0:0:0:
493,172,57696,1,0,0:0:0:0:
493,172,57775,2,0,L|426:191,1,55.9999982910157,8|0,0:0|0:0,0:0:0:0:
250,215,57932,1,0,0:0:0:0:
250,215,58010,1,0,0:0:0:0:
250,215,58089,2,0,L|317:234,1,55.9999982910157,8|0,0:0|0:0,0:0:0:0:
502,264,58246,1,0,0:0:0:0:
502,264,58324,1,0,0:0:0:0:
502,264,58403,5,12,0:0:0:0:
492,290,58481,1,4,0:0:0:0:
486,317,58560,1,4,0:0:0:0:
480,344,58639,1,4,0:0:0:0:
457,375,58717,6,0,L|419:376,1,37.3333321940105,8|2,0:0|0:0,0:0:0:0:
457,375,59502,1,0,0:0:0:0:
419,375,59580,1,0,0:0:0:0:
381,377,59660,2,0,B|334:378|334:378|272:365,1,80,12|0,0:2|0:0,0:0:0:0:
249,212,59974,5,4,0:0:0:0:
195,355,60131,1,0,0:0:0:0:
212,183,60288,1,8,0:0:0:0:
232,384,60445,1,0,0:0:0:0:
175,154,60602,2,0,P|190:83|216:48,1,103.999995239258,0|0,0:0|0:0,0:0:0:0:
436,236,60916,2,0,B|400:250|400:250|367:237|367:237|315:260|266:222,1,155.999992858887,8|0,0:0|0:0,0:0:0:0:
249,212,61230,6,0,P|286:170|339:153,1,103.999995239258
368,326,61544,2,0,P|283:325|253:310,1,103.999995239258,8|0,0:0|0:0,0:0:0:0:
175,261,61858,1,0,0:0:0:0:
175,261,62015,1,0,0:0:0:0:
330,153,62173,1,8,0:0:0:0:
368,326,62330,1,0,0:0:0:0:
221,138,62487,5,0,0:0:0:0:
192,280,62644,1,0,0:0:0:0:
329,233,62801,1,8,0:0:0:0:
84,184,62958,5,0,0:0:0:0:
192,280,63115,1,0,0:0:0:0:
221,138,63272,1,0,0:0:0:0:
55,327,63429,5,8,0:0:0:0:
192,280,63586,1,0,0:0:0:0:
221,138,63743,6,0,P|210:77|193:21,1,103.999995239258
43,188,64057,2,0,P|91:199|146:208,1,103.999995239258,8|0,0:0|0:0,0:0:0:0:
288,235,64372,1,0,0:0:0:0:
167,365,64529,1,0,0:0:0:0:
167,203,64686,1,8,0:0:0:0:
288,333,64843,1,0,0:0:0:0:
221,138,65000,5,4,0:0:0:0:
373,178,65157,1,0,0:0:0:0:
186,166,65314,1,8,0:0:0:0:
408,150,65471,1,0,0:0:0:0:
167,203,65628,2,0,B|165:255|165:255|204:327,1,103.999995239258
370,291,65942,2,0,B|373:252|373:252|402:229|402:229|409:127,1,155.999992858887,8|0,0:0|0:0,0:0:0:0:
427,113,66256,6,0,P|366:98|296:116,1,103.999995239258
248,288,66571,2,0,L|242:185,1,103.999995239258,8|0,0:0|0:0,0:0:0:0:
232,79,66885,1,0,0:0:0:0:
232,79,67042,1,0,0:0:0:0:
500,177,67199,2,0,L|503:125,1,51.999997619629,8|0,0:0|0:0,0:0:0:0:
353,0,67356,2,0,L|349:51,1,51.999997619629
370,291,67513,5,0,0:0:0:0:
500,177,67670,1,8,0:0:0:0:
210,100,67827,2,0,L|221:212,1,103.999995239258
224,224,68063,1,0,0:0:0:0:
226,244,68141,1,8,0:0:0:0:
302,118,68299,1,0,0:0:0:0:
300,97,68377,1,0,0:0:0:0:
298,77,68456,1,8,0:0:0:0:
128,185,68612,1,0,0:0:0:0:
130,206,68690,1,0,0:0:0:0:
132,226,68769,5,8,0:0:0:0:
157,218,68848,1,0,0:0:0:0:
183,220,68927,1,0,0:0:0:0:
207,228,69005,1,0,0:0:0:0:
226,244,69084,5,8,0:0:0:0:
250,217,69162,1,0,0:0:0:0:
281,197,69241,1,0,0:0:0:0:
316,189,69319,1,0,0:0:0:0:
352,193,69398,5,8,0:0:0:0:
360,142,69476,1,0,0:0:0:0:
342,94,69555,1,0,0:0:0:0:
309,64,69633,1,0,0:0:0:0:
268,53,69712,2,0,L|197:62,3,51.999997619629
223,151,70026,5,4,0:0:0:0:
57,124,70183,1,0,0:0:0:0:
196,297,70340,1,8,0:0:0:0:
223,151,70497,1,0,0:0:0:0:
221,142,70576,1,0,0:0:0:0:
219,133,70654,1,0,0:0:0:0:
88,251,70811,1,0,0:0:0:0:
343,302,70968,2,0,B|352:257|352:257|346:226|346:226|357:172,1,111.999996582031,8|0,0:0|0:0,0:0:0:0:
355,184,71204,1,0,0:0:0:0:
357,175,71283,5,0,0:0:0:0:
486,152,71440,1,0,0:0:0:0:
420,310,71597,1,8,0:0:0:0:
373,137,71754,1,0,0:0:0:0:
375,128,71832,1,0,0:0:0:0:
377,119,71911,1,0,0:0:0:0:
502,114,72068,1,0,0:0:0:0:
404,348,72225,1,8,0:0:0:0:
227,168,72382,1,0,0:0:0:0:
470,190,72539,5,0,0:0:0:0:
282,327,72697,1,0,0:0:0:0:
282,327,72853,1,8,0:0:0:0:
404,348,73010,5,0,0:0:0:0:
191,253,73168,1,0,0:0:0:0:
191,253,73324,1,0,0:0:0:0:
403,225,73481,5,8,0:0:0:0:
282,327,73639,1,0,0:0:0:0:
239,134,73796,5,0,0:0:0:0:
326,224,73953,1,0,0:0:0:0:
512,97,74110,2,0,L|370:75,1,111.999996582031,8|0,0:0|0:0,0:0:0:0:
273,134,74424,5,0,0:0:0:0:
186,224,74581,1,0,0:0:0:0:
0,97,74738,2,0,L|142:75,1,111.999996582031,8|0,0:0|0:0,0:0:0:0:
341,256,75052,5,4,0:0:0:0:
457,134,75209,1,0,0:0:0:0:
233,123,75366,1,8,0:0:0:0:
341,256,75523,1,0,0:0:0:0:
349,257,75602,1,0,0:0:0:0:
357,258,75680,1,0,0:0:0:0:
322,88,75838,1,0,0:0:0:0:
103,224,75995,2,0,B|124:259|124:259|199:270,1,111.999996582031,8|0,0:0|0:0,0:0:0:0:
202,270,76230,1,0,0:0:0:0:
210,271,76309,5,0,0:0:0:0:
193,145,76466,1,0,0:0:0:0:
357,207,76623,1,8,0:0:0:0:
251,286,76780,1,0,0:0:0:0:
242,285,76858,1,0,0:0:0:0:
233,284,76937,1,0,0:0:0:0:
234,160,77094,1,0,0:0:0:0:
385,295,77251,1,8,0:0:0:0:
165,358,77408,1,0,0:0:0:0:
318,142,77565,5,0,0:0:0:0:
385,295,77722,1,8,0:0:0:0:
146,73,77879,2,0,L|287:51,1,111.999996582031
318,242,78194,5,8,0:0:0:0:
385,89,78351,1,0,0:0:0:0:
146,311,78508,2,0,L|287:333,1,111.999996582031,8|0,0:0|0:0,0:0:0:0:
280,332,78743,1,0,0:0:0:0:
304,335,78822,5,8,0:0:0:0:
272,65,78979,1,8,0:0:0:0:
152,219,79136,1,8,0:0:0:0:
421,186,79293,1,8,0:0:0:0:
272,65,79450,5,4,0:0:0:0:
297,162,79607,1,4,0:3:0:0:
231,223,79764,1,4,0:0:0:0:
152,219,79921,1,4,0:3:0:0:
85,178,80078,6,0,B|64:82|64:82|110:0,1,191.999994140625,4|8,0:0|0:0,0:0:0:0:
257,240,80550,2,0,B|184:305|184:305|89:307,1,191.999994140625
225,61,81021,2,0,P|277:79|306:120,1,95.9999970703126,8|0,0:0|0:0,0:0:0:0:
257,240,81335,5,0,0:0:0:0:
235,380,81492,1,0,0:0:0:0:
446,335,81649,2,0,L|432:240,1,95.9999970703126,8|0,0:0|0:0,0:0:0:0:
281,227,81963,1,0,0:0:0:0:
259,367,82120,1,0,0:0:0:0:
470,322,82277,2,0,L|456:227,1,95.9999970703126,8|0,0:0|0:0,0:0:0:0:
435,68,82591,6,0,B|396:63|396:63|308:92,1,95.9999970703126
257,278,82906,2,0,L|245:159,1,95.9999970703126,8|0,0:0|0:0,0:0:0:0:
388,142,83220,1,0,0:0:0:0:
439,295,83377,1,0,0:0:0:0:
289,254,83534,2,0,L|277:135,1,95.9999970703126,8|0,0:0|0:0,0:0:0:0:
512,189,83848,6,0,B|502:243|502:243|478:276,1,95.9999970703126
268,347,84162,2,0,P|291:305|330:278,1,95.9999970703126,8|0,0:0|0:0,0:0:0:0:
189,299,84476,2,0,P|187:252|208:209,1,95.9999970703126
97,296,84790,2,0,P|72:256|67:209,1,95.9999970703126,8|0,0:0|0:0,0:0:0:0:
308,136,85105,6,0,P|201:86|112:134,1,191.999994140625,4|8,0:0|0:0,0:0:0:0:
322,259,85576,2,0,P|418:192|421:90,1,191.999994140625,0|0,0:0|0:0,0:0:0:0:
208,209,86047,2,0,P|198:269|220:328,1,95.9999970703126,8|0,0:0|0:0,0:0:0:0:
236,19,86361,6,0,L|207:208,1,191.999994140625,0|8,0:0|0:0,0:0:0:0:
458,255,86832,2,0,L|307:135,1,191.999994140625
142,329,87303,2,0,L|231:293,1,95.9999970703126,8|0,0:0|0:0,0:0:0:0:
98,102,87618,6,0,P|81:163|95:207,1,95.9999970703126
180,326,87932,2,0,L|269:290,1,95.9999970703126,8|0,0:0|0:0,0:0:0:0:
174,154,88246,1,0,0:0:0:0:
17,156,88403,1,0,0:0:0:0:
104,330,88560,2,0,L|193:294,1,95.9999970703126,8|0,0:0|0:0,0:0:0:0:
372,232,88874,6,0,B|344:192|344:192|300:174,1,95.9999970703126
88,193,89188,2,0,L|190:234,1,95.9999970703126,8|0,0:0|0:0,0:0:0:0:
101,44,89502,2,0,L|13:112,1,95.9999970703126
220,130,89817,2,0,L|204:20,1,95.9999970703126,8|0,0:0|0:0,0:0:0:0:
102,264,90131,6,0,P|184:327|272:306,1,191.999994140625,4|8,0:0|0:0,0:0:0:0:
392,200,90602,2,0,P|334:148|323:225,1,191.999994140625
455,346,91073,2,0,L|472:232,1,95.9999970703126,8|0,0:0|0:0,0:0:0:0:
435,101,91387,5,0,0:0:0:0:
323,224,91544,1,0,0:0:0:0:
160,75,91701,2,0,L|275:99,1,95.9999970703126,8|0,0:0|0:0,0:0:0:0:
440,139,92016,1,0,0:0:0:0:
328,262,92173,1,0,0:0:0:0:
165,113,92330,2,0,L|280:137,1,95.9999970703126,8|0,0:0|0:0,0:0:0:0:
255,294,92644,6,0,B|209:310|209:310|147:292,1,95.9999970703126
11,152,92958,2,0,L|21:248,1,95.9999970703126,8|0,0:0|0:0,0:0:0:0:
181,215,93272,1,0,0:0:0:0:
214,66,93429,1,0,0:0:0:0:
28,120,93586,2,0,L|38:215,1,95.9999970703126,8|0,0:0|0:0,0:0:0:0:
101,343,93900,6,0,B|141:357|141:357|217:348,1,95.9999970703126
342,265,94214,2,0,P|297:267|251:299,1,95.9999970703126,8|0,0:0|0:0,0:0:0:0:
369,185,94529,2,0,P|334:154|288:144,1,95.9999970703126
445,149,94843,2,0,P|443:103|411:57,1,95.9999970703126,8|0,0:0|0:0,0:0:0:0:
342,265,95157,6,0,P|297:267|251:299,1,95.9999970703126
201,344,95392,1,0,0:0:0:0:
195,351,95471,2,0,P|171:271|154:254,1,95.9999970703126,8|0,0:0|0:0,0:0:0:0:
166,30,95785,6,0,P|168:75|200:121,1,88.000002685547
240,166,96021,1,0,0:0:0:0:
246,172,96099,2,0,P|166:196|138:220,1,88.000002685547,8|0,0:0|0:0,0:0:0:0:
330,349,96413,6,0,P|328:304|295:258,1,80
271,218,96649,1,0,0:0:0:0:
266,212,96728,2,0,P|326:193|361:159,1,80,8|0,0:0|0:0,0:0:0:0:
154,117,97042,6,0,P|199:115|245:83,1,95.9999970703126
294,37,97277,1,0,0:0:0:0:
301,31,97356,2,0,P|325:111|360:142,1,95.9999970703126,8|0,0:0|0:0,0:0:0:0:
330,349,97670,6,0,P|277:349|238:319,1,88.000002685547
403,228,97984,2,0,P|456:228|495:258,1,88.000002685547,8|0,0:0|0:0,0:0:0:0:
342,368,98298,1,0,0:0:0:0:
391,209,98455,1,0,0:0:0:0:
455,384,98612,2,0,P|402:384|363:354,1,88.000002685547,8|0,0:0|0:0,0:0:0:0:
319,175,98927,6,0,B|276:194|276:194|229:270,1,95.9999970703126
435,297,99241,1,8,0:0:0:0:
452,146,99398,1,0,0:0:0:0:
455,122,99476,1,0,0:0:0:0:
457,98,99555,5,2,0:0:0:0:
415,86,99633,1,2,0:0:0:0:
373,74,99712,1,2,0:0:0:0:
331,62,99790,1,2,0:0:0:0:
289,50,99869,2,0,L|223:72,3,47.9999985351563,4|4|4|4,0:0|0:0|0:0|0:0,0:0:0:0:
156,100,100183,5,4,0:0:0:0:
147,122,100261,1,0,0:0:0:0:
145,146,100340,1,0,0:0:0:0:
149,169,100418,1,0,0:0:0:0:
159,191,100497,1,8,0:0:0:0:
174,209,100575,1,0,0:0:0:0:
195,221,100654,5,0,0:0:0:0:
194,256,100732,1,0,0:0:0:0:
186,291,100811,1,0,0:0:0:0:
168,322,100889,1,0,0:0:0:0:
142,347,100968,1,0,0:0:0:0:
111,365,101047,1,0,0:0:0:0:
75,366,101125,5,8,0:0:0:0:
78,318,101203,1,0,0:0:0:0:
104,278,101282,1,0,0:0:0:0:
145,255,101360,1,0,0:0:0:0:
194,256,101439,1,0,0:0:0:0:
239,272,101518,1,0,0:0:0:0:
285,278,101596,1,0,0:0:0:0:
327,255,101675,1,0,0:0:0:0:
346,212,101754,1,8,0:0:0:0:
335,166,101832,1,0,0:0:0:0:
299,136,101910,1,0,0:0:0:0:
252,134,101989,1,0,0:0:0:0:
213,160,102068,2,0,L|155:166,3,47.9999985351563,0|0|0|0,0:0|0:0|0:0|0:0,0:0:0:0:
128,72,102382,2,0,L|70:66,3,47.9999985351563,8|0|0|0,0:0|0:0|0:0|0:0,0:0:0:0:
30,142,102696,5,0,0:0:0:0:
12,176,102774,1,0,0:0:0:0:
5,213,102853,1,0,0:0:0:0:
7,251,102931,1,0,0:0:0:0:
18,288,103010,1,8,0:0:0:0:
39,320,103088,1,0,0:0:0:0:
68,346,103167,1,0,0:0:0:0:
102,363,103245,1,0,0:0:0:0:
139,371,103324,1,0,0:0:0:0:
177,370,103402,1,0,0:0:0:0:
214,358,103481,1,0,0:0:0:0:
246,338,103559,1,0,0:0:0:0:
272,310,103638,1,8,0:0:0:0:
290,276,103716,1,0,0:0:0:0:
299,238,103795,1,0,0:0:0:0:
297,200,103874,1,0,0:0:0:0:
291,162,103953,2,0,L|283:88,3,47.9999985351563
193,131,104267,5,8,0:0:0:0:
178,129,104345,1,0,0:0:0:0:
163,126,104424,2,0,L|143:195,1,47.9999985351563,0|0,0:0|0:0,0:0:0:0:
357,86,104581,5,0,0:0:0:0:
372,84,104659,1,0,0:0:0:0:
387,81,104738,2,0,L|407:150,1,54.0000002059937,0|0,0:0|0:0,0:0:0:0:
143,51,104895,5,8,0:0:0:0:
128,49,104974,1,0,0:0:0:0:
113,46,105053,2,0,L|93:115,1,60.0000022888184,0|0,0:0|0:0,0:0:0:0:
56,214,105209,5,0,0:0:0:0:
69,234,105287,1,0,0:0:0:0:
85,251,105366,1,0,0:0:0:0:
105,265,105444,1,0,0:0:0:0:
126,275,105523,1,8,0:0:0:0:
150,281,105601,1,0,0:0:0:0:
173,282,105680,5,0,0:0:0:0:
194,253,105758,1,0,0:0:0:0:
225,234,105837,1,0,0:0:0:0:
260,229,105915,1,0,0:0:0:0:
295,238,105994,1,0,0:0:0:0:
323,259,106072,1,0,0:0:0:0:
342,290,106152,5,8,0:0:0:0:
347,237,106230,1,0,0:0:0:0:
362,186,106309,1,0,0:0:0:0:
384,139,106387,1,0,0:0:0:0:
414,96,106466,5,0,0:0:0:0:
390,81,106544,1,0,0:0:0:0:
362,73,106623,1,0,0:0:0:0:
333,73,106701,1,0,0:0:0:0:
305,79,106780,1,8,0:0:0:0:
280,93,106858,1,0,0:0:0:0:
260,113,106937,5,0,0:0:0:0:
235,80,107015,1,0,0:0:0:0:
201,59,107094,1,0,0:0:0:0:
161,52,107172,1,0,0:0:0:0:
121,60,107251,1,0,0:0:0:0:
87,82,107329,1,0,0:0:0:0:
64,116,107408,5,8,0:0:0:0:
98,149,107486,1,0,0:0:0:0:
120,191,107565,1,0,0:0:0:0:
127,238,107643,1,0,0:0:0:0:
119,285,107722,5,0,0:0:0:0:
143,249,107800,1,0,0:0:0:0:
178,224,107879,1,0,0:0:0:0:
220,213,107957,1,0,0:0:0:0:
263,215,108036,1,8,0:0:0:0:
302,232,108114,1,0,0:0:0:0:
334,261,108193,1,0,0:0:0:0:
354,299,108271,1,0,0:0:0:0:
369,340,108351,2,0,L|378:292,3,47.9999985351563,0|0|0|0,0:0|0:0|0:0|0:0,0:0:0:0:
272,335,108665,2,0,L|286:408,3,47.9999985351563,8|0|0|0,0:0|0:0|0:0|0:0,0:0:0:0:
473,346,108979,2,0,L|482:298,3,47.9999985351563,0|0|0|0,0:0|0:0|0:0|0:0,0:0:0:0:
460,201,109293,5,12,0:2:0:0:
462,176,109372,1,0,0:0:0:0:
466,152,109450,2,0,L|474:94,1,47.9999985351563,0|0,0:0|0:0,0:0:0:0:
336,170,109607,5,0,0:0:0:0:
323,143,109686,1,0,0:0:0:0:
313,117,109764,2,0,L|287:54,1,55.9999982910157,0|0,0:0|0:0,0:0:0:0:
203,185,109921,5,8,0:0:0:0:
175,166,110000,1,0,0:0:0:0:
150,146,110078,2,0,L|90:99,1,64,0|0,0:0|0:0,0:0:0:0:
42,250,110235,5,0,0:0:0:0:
58,267,110313,1,0,0:0:0:0:
77,281,110392,1,0,0:0:0:0:
99,292,110470,1,0,0:0:0:0:
121,299,110549,1,8,0:0:0:0:
145,302,110627,1,0,0:0:0:0:
169,301,110707,5,0,0:0:0:0:
197,278,110785,1,0,0:0:0:0:
229,263,110864,1,0,0:0:0:0:
265,256,110942,1,0,0:0:0:0:
300,258,111021,1,0,0:0:0:0:
335,268,111099,1,0,0:0:0:0:
366,284,111178,5,8,0:0:0:0:
353,335,111256,1,0,0:0:0:0:
310,364,111335,1,0,0:0:0:0:
258,356,111413,1,0,0:0:0:0:
226,315,111492,1,0,0:0:0:0:
229,263,111570,1,0,0:0:0:0:
264,223,111649,1,0,0:0:0:0:
311,199,111728,1,0,0:0:0:0:
335,152,111806,1,8,0:0:0:0:
332,100,111885,1,0,0:0:0:0:
304,56,111963,1,0,0:0:0:0:
258,32,112042,1,0,0:0:0:0:
206,35,112120,2,0,L|138:45,3,47.9999985351563,0|0|0|0,0:0|0:0|0:0|0:0,0:0:0:0:
136,124,112434,2,0,L|88:117,3,47.9999985351563,8|0|0|0,0:0|0:0|0:0|0:0,0:0:0:0:
65,203,112749,5,0,0:0:0:0:
66,245,112827,1,0,0:0:0:0:
84,284,112906,1,0,0:0:0:0:
117,312,112984,1,0,0:0:0:0:
158,324,113063,1,8,0:0:0:0:
201,319,113141,1,0,0:0:0:0:
237,297,113220,1,0,0:0:0:0:
262,261,113298,1,0,0:0:0:0:
277,220,113377,1,0,0:0:0:0:
289,179,113455,1,0,0:0:0:0:
317,146,113534,1,0,0:0:0:0:
356,127,113612,1,0,0:0:0:0:
399,126,113691,1,8,0:0:0:0:
438,142,113769,1,0,0:0:0:0:
468,173,113848,1,0,0:0:0:0:
483,213,113926,1,0,0:0:0:0:
486,251,114005,2,0,L|484:331,3,47.9999985351563,0|0|0|0,0:0|0:0|0:0|0:0,0:0:0:0:
382,298,114319,5,8,0:0:0:0:
348,295,114398,1,0,0:0:0:0:
317,281,114476,2,0,L|311:210,1,47.9999985351563
139,216,114633,5,0,0:0:0:0:
180,213,114712,1,0,0:0:0:0:
216,196,114790,2,0,L|220:138,1,58.0000017700196
428,103,114947,6,0,B|392:78|392:78|348:77|348:77|320:12|252:6,1,204.000003890991,8|0,0:0|0:0,0:0:0:0:
125,20,115262,6,0,B|71:13|71:13|20:24,2,106.666666666667,8|0|0,0:0|0:0|0:0,0:0:0:0:
40,134,115890,6,0,B|90:122|90:122|144:129,2,106.666666666667,8|0|0,0:0|0:0|0:0,0:0:0:0:
163,238,116518,5,8,0:0:0:0:
59,243,116728,1,0,0:0:0:0:
163,238,116937,1,0,0:0:0:0:
78,352,117146,5,8,0:0:0:0:
182,347,117356,1,0,0:0:0:0:
78,352,117565,1,0,0:0:0:0:
56,352,117670,1,0,0:0:0:0:
34,352,117775,5,8,0:0:0:0:
59,243,117984,1,8,0:0:0:0:
143,146,118194,1,8,0:0:0:0:
281,106,118403,1,8,0:0:0:0:
435,145,118612,1,8,0:0:0:0:
510,303,118822,1,8,0:0:0:0:
291,289,119031,5,8,0:0:0:0:
403,135,119241,1,8,0:0:0:0:
478,312,119450,1,8,0:0:0:0:
242,124,119660,5,8,0:0:0:0:
326,373,119870,1,8,0:0:0:0:
503,171,120079,1,8,0:0:0:0:
319,194,120288,6,0,L|411:184,1,71.9999978027344
403,192,120916,1,0,0:0:0:0:
244,117,121230,2,0,L|152:107,1,71.9999978027344
160,115,121858,1,0,0:0:0:0:
319,40,122172,6,0,L|411:30,2,71.9999978027344
172,109,123115,2,0,L|244:117,2,71.9999978027344,0|0|0,0:0|0:0|0:0,0:0:0:0:
23,46,124057,6,0,L|17:128,1,71.9999978027344,2|0,0:0|0:0,0:0:0:0:
28,127,124685,1,0,0:0:0:0:
124,284,125000,2,0,L|118:202,1,71.9999978027344,0|0,0:0|0:0,0:0:0:0:
129,203,125628,1,0,0:0:0:0:
225,46,125942,6,0,L|219:128,2,71.9999978027344
118,212,126884,2,0,L|124:284,2,71.9999978027344,0|0|0,0:0|0:0|0:0,0:0:0:0:
225,378,127827,6,0,B|235:341|235:341|262:314|262:314|276:256,1,103.999995239258,4|0,0:0|2:0,0:0:0:0:
287,207,128455,1,0,0:0:0:0:
506,384,128769,2,0,B|496:347|496:347|469:320|469:320|455:262,1,103.999995239258,8|0,0:0|2:0,0:0:0:0:
444,213,129397,1,0,0:0:0:0:
237,313,129712,6,0,B|200:303|200:303|173:276|173:276|115:262,1,103.999995239258,0|0,0:0|2:0,0:0:0:0:
66,251,130340,1,0,0:0:0:0:
322,89,130654,2,0,B|285:99|285:99|258:126|258:126|200:140,1,103.999995239258,8|0,0:0|2:0,0:0:0:0:
151,151,131282,1,4,0:2:0:0:
407,312,131596,6,0,B|402:235|402:235|424:196,1,103.999995239258,4|0,0:0|2:0,0:0:0:0:
456,138,132225,1,0,0:0:0:0:
184,167,132539,2,0,B|253:201|253:201|275:239,1,103.999995239258,8|0,0:0|2:0,0:0:0:0:
310,296,133168,1,0,0:0:0:0:
421,46,133481,6,0,B|356:88|356:88|312:89,1,103.999995239258,0|0,0:0|2:0,0:0:0:0:
246,90,133952,1,0,0:0:0:0:
246,90,134109,1,0,0:0:0:0:
407,312,134424,1,8,0:0:0:0:
421,46,134738,1,8,0:0:0:0:
184,167,135052,1,4,0:2:0:0:
452,148,135366,6,0,P|466:231|440:271,1,103.999995239258,4|0,0:0|2:0,0:0:0:0:
407,312,135994,1,0,0:0:0:0:
288,103,136308,2,0,P|371:88|411:115,1,103.999995239258,8|0,0:0|2:0,0:0:0:0:
452,148,136936,1,0,0:0:0:0:
243,268,137251,6,0,P|229:184|255:144,1,103.999995239258,0|0,0:0|2:0,0:0:0:0:
288,103,137879,1,0,0:0:0:0:
407,312,138193,1,8,0:0:0:0:
243,268,138507,1,0,0:0:0:0:
452,148,138822,1,4,0:2:0:0:
288,103,139136,6,0,L|162:93,1,103.999995239258,4|0,0:0|2:0,0:0:0:0:
101,87,139764,1,0,0:0:0:0:
243,268,140078,2,0,L|369:258,1,103.999995239258,8|0,0:0|2:0,0:0:0:0:
430,252,140706,1,0,0:0:0:0:
268,61,141020,6,0,L|142:51,1,103.999995239258,0|0,0:0|2:0,0:0:0:0:
81,45,141648,1,0,0:0:0:0:
263,310,141963,1,8,0:0:0:0:
450,294,142277,1,0,0:0:0:0:
510,145,142591,1,4,0:2:0:0:
323,161,142905,6,0,B|275:170|244:138|244:138|210:152|210:152|168:117|118:131,1,207.999990478516,4|0,0:0|0:0,0:0:0:0:
31,146,143848,1,8,0:0:0:0:
134,299,144162,2,0,L|141:235,1,64,0|0,0:0|0:0,0:0:0:0:
297,179,144476,2,0,L|304:242,1,64,0|0,3:0|0:0,0:0:0:0:
106,310,144790,6,0,L|113:246,1,64,0|0,3:0|0:0,0:0:0:0:
323,161,145104,2,0,L|337:288,1,128,0|0,0:0|0:0,0:0:0:0:
476,312,145733,1,8,0:0:0:0:
367,377,145890,2,0,L|303:383,1,64,0|0,2:0|2:0,0:0:0:0:
221,311,146204,1,0,0:0:0:0:
221,311,146361,2,0,L|157:305,1,64,4|0,2:0|2:0,0:0:0:0:
52,358,146675,6,0,L|60:230,1,128,4|0,0:0|0:0,0:0:0:0:
65,131,147303,1,0,0:0:0:0:
284,302,147617,2,0,L|275:174,1,128,8|0,0:0|2:0,0:0:0:0:
269,47,148089,1,0,2:0:0:0:
197,143,148246,1,0,0:0:0:0:
143,82,148403,1,0,2:0:0:0:
323,108,148560,6,0,B|389:127|389:127|446:172,1,128,4|0,0:0|2:0,0:0:0:0:
512,224,149188,1,0,0:0:0:0:
512,224,149345,1,0,0:0:0:0:
462,330,149502,1,12,2:0:0:0:
323,108,149816,1,12,2:0:0:0:
370,328,150130,1,0,0:0:0:0:
509,106,150445,5,4,0:0:0:0:
389,141,150759,2,0,L|376:206,1,51.999997619629,0|0,2:0|2:0,0:0:0:0:
373,217,151073,1,0,0:0:0:0:
349,35,151387,2,0,B|322:25|322:25|299:35|299:35|249:19|184:45,1,143.999995605469,8|0,0:0|2:0,0:0:0:0:
121,62,152015,1,0,0:0:0:0:
239,200,152329,5,0,0:0:0:0:
116,171,152644,2,0,L|129:236,1,51.999997619629,0|0,2:0|2:0,0:0:0:0:
132,247,152958,1,0,0:0:0:0:
121,62,153272,2,0,B|150:85|150:85|191:81|225:105,1,107.999996704102
259,130,153586,1,4,0:2:0:0:
132,247,153900,1,4,0:2:0:0:
335,347,154214,6,0,P|363:273|310:198,1,160,4|0,0:0|0:0,0:0:0:0:
158,330,155176,6,0,P|215:328|267:276,1,128,8|0,0:0|0:0,0:0:0:0:
114,172,156148,6,0,P|144:220|177:238,1,95.9999970703126
229,89,157131,6,0,P|206:121|201:148,1,64,8|0,0:0|0:0,0:0:0:0:
120,291,157984,6,0,L|117:330,3,40,12|0|0|0,0:0|0:0|0:0|0:0,0:0:0:0:
205,185,158298,2,0,L|202:145,3,40
339,242,158612,1,8,0:0:0:0:
361,256,158690,1,0,0:0:0:0:
388,258,158769,1,0,0:0:0:0:
411,243,158847,1,0,0:0:0:0:
425,218,158926,1,0,0:0:0:0:
422,191,159004,1,0,0:0:0:0:
406,169,159083,1,0,0:0:0:0:
380,159,159161,1,0,0:0:0:0:
349,157,159240,6,0,L|279:153,3,47.9999985351563,8|0|0|0,0:0|0:0|0:0|0:0,0:0:0:0:
231,272,159554,2,0,L|161:276,3,47.9999985351563
184,124,159868,1,8,0:0:0:0:
155,96,159946,1,0,0:0:0:0:
116,91,160025,1,0,0:0:0:0:
81,110,160103,1,0,0:0:0:0:
64,145,160182,1,0,0:0:0:0:
72,184,160260,1,0,0:0:0:0:
100,211,160339,1,0,0:0:0:0:
139,216,160417,1,0,0:0:0:0:
183,194,160497,5,8,0:0:0:0:
208,205,160575,1,0,0:0:0:0:
234,216,160654,1,0,0:0:0:0:
260,227,160732,1,0,0:0:0:0:
279,268,160811,5,8,0:0:0:0:
308,255,160889,1,0,0:0:0:0:
337,242,160968,1,0,0:0:0:0:
367,230,161046,1,0,0:0:0:0:
386,190,161125,5,8,0:0:0:0:
424,199,161203,1,0,0:0:0:0:
454,225,161282,1,0,0:0:0:0:
470,261,161360,1,0,0:0:0:0:
500,289,161439,5,8,0:0:0:0:
482,324,161517,1,0,0:0:0:0:
450,348,161596,1,0,0:0:0:0:
411,355,161674,1,0,0:0:0:0:
373,345,161753,5,12,0:0:0:0:
339,331,161832,1,0,0:0:0:0:
307,328,161910,1,0,0:0:0:0:
279,332,161989,1,0,0:0:0:0:
257,341,162067,1,4,0:0:0:0:
240,352,162146,1,0,0:0:0:0:
223,362,162224,1,4,0:0:0:0:
204,370,162303,1,0,0:0:0:0:
184,375,162381,1,4,0:0:0:0:
160,371,162460,1,0,0:0:0:0:
134,359,162538,1,0,0:0:0:0:
113,334,162617,1,0,0:0:0:0:
103,298,162696,1,4,0:0:0:0:
113,259,162774,1,0,0:0:0:0:
145,228,162853,1,4,0:0:0:0:
187,218,162931,1,0,0:0:0:0:
221,191,163010,5,4,0:0:0:0:
226,147,163088,1,0,0:0:0:0:
231,103,163167,1,0,0:0:0:0:
236,59,163245,1,0,0:0:0:0:
241,16,163324,5,8,0:0:0:0:
261,11,163638,1,8,0:0:0:0:
280,5,163952,5,0,0:0:0:0:
81,91,164109,1,0,0:0:0:0:
339,173,164266,5,8,0:0:0:0:
358,179,164580,1,8,0:0:0:0:
377,185,164894,5,0,0:0:0:0:
382,228,164973,1,0,0:0:0:0:
387,272,165051,1,0,0:0:0:0:
392,316,165130,1,0,0:0:0:0:
397,360,165208,5,8,0:0:0:0:
378,366,165523,1,8,0:0:0:0:
359,372,165837,5,0,0:0:0:0:
512,243,165994,1,0,0:0:0:0:
222,183,166151,1,8,0:0:0:0:
359,372,166308,1,2,0:0:0:0:
359,139,166465,1,8,0:0:0:0:
222,327,166622,1,2,0:0:0:0:
443,255,166780,5,0,0:0:0:0:
438,211,166858,1,0,0:0:0:0:
433,167,166937,1,0,0:0:0:0:
428,123,167015,1,0,0:0:0:0:
423,80,167093,5,8,0:0:0:0:
403,75,167407,1,8,0:0:0:0:
384,69,167721,5,0,0:0:0:0:
320,269,167879,1,0,0:0:0:0:
236,7,168036,5,8,0:0:0:0:
217,13,168350,5,8,0:0:0:0:
200,24,168429,1,0,0:0:0:0:
181,29,168507,1,0,0:0:0:0:
160,30,168586,1,0,0:0:0:0:
140,25,168664,5,0,0:0:0:0:
135,68,168742,1,0,0:0:0:0:
130,112,168820,1,0,0:0:0:0:
125,156,168899,1,0,0:0:0:0:
120,200,168978,5,8,0:0:0:0:
88,215,169056,1,0,0:0:0:0:
74,247,169135,1,0,0:0:0:0:
83,281,169213,1,0,0:0:0:0:
113,300,169292,5,8,0:0:0:0:
135,284,169371,1,0,0:0:0:0:
160,273,169449,1,0,0:0:0:0:
188,271,169528,1,0,0:0:0:0:
215,277,169607,5,8,0:0:0:0:
444,204,169763,1,8,0:0:0:0:
191,186,169921,1,8,0:0:0:0:
420,294,170078,1,8,0:0:0:0:
167,96,170235,1,8,0:0:0:0:
396,384,170392,1,8,0:0:0:0:
468,113,170549,6,0,P|412:83|365:96,1,95.9999970703126,4|0,0:0|0:0,0:0:0:0:
191,186,170863,2,0,B|184:235|184:235|191:283,1,95.9999970703126,8|0,0:0|0:0,0:0:0:0:
340,232,171177,2,0,P|380:214|405:147,1,95.9999970703126
324,11,171491,5,8,0:0:0:0:
248,118,171648,1,0,0:0:0:0:
132,21,171805,2,0,L|23:27,1,95.9999970703126,0|0,0:0|0:0,0:0:0:0:
153,113,172120,2,0,L|248:118,1,95.9999970703126,8|0,0:0|0:0,0:0:0:0:
132,205,172434,5,0,0:0:0:0:
36,210,172591,1,0,0:0:0:0:
153,297,172748,2,0,L|248:302,1,95.9999970703126,8|0,0:0|0:0,0:0:0:0:
403,305,173062,2,0,P|316:351|246:297,1,191.999994140625,0|8,0:0|0:0,0:0:0:0:
228,200,173533,5,0,0:0:0:0:
387,209,173690,2,0,P|448:218|495:274,1,95.9999970703126
486,260,173926,1,0,0:0:0:0:
491,284,174004,2,0,L|482:347,1,47.9999985351563,8|0,0:0|0:0,0:0:0:0:
326,270,174161,2,0,L|317:207,1,47.9999985351563,0|0,0:0|0:0,0:0:0:0:
480,147,174318,6,0,P|487:100|475:54,1,95.9999970703126
317,77,174633,2,0,B|292:119|292:119|249:140,1,95.9999970703126,8|0,0:0|0:0,0:0:0:0:
80,29,174946,2,0,B|121:4|121:4|169:6,1,95.9999970703126
348,8,175261,5,8,0:0:0:0:
439,121,175418,1,0,0:0:0:0:
302,250,175575,2,0,P|204:250|185:231,1,95.9999970703126
189,229,175811,1,0,0:0:0:0:
163,208,175889,2,0,P|65:208|46:227,1,95.9999970703126,8|0,0:0|0:0,0:0:0:0:
115,302,176203,5,0,0:0:0:0:
254,156,176360,1,0,0:0:0:0:
53,28,176518,1,8,0:0:0:0:
43,64,176596,1,0,0:0:0:0:
54,100,176675,1,0,0:0:0:0:
83,125,176753,1,0,0:0:0:0:
120,132,176832,1,8,0:0:0:0:
166,122,176910,1,0,0:0:0:0:
213,131,176989,1,0,0:0:0:0:
254,156,177067,1,0,0:0:0:0:
278,197,177146,5,8,0:0:0:0:
275,253,177224,1,2,0:0:0:0:
239,297,177303,1,2,0:0:0:0:
183,308,177381,1,2,0:0:0:0:
132,284,177460,5,4,0:0:0:0:
171,249,177538,1,4,0:0:0:0:
223,239,177617,1,4,0:0:0:0:
275,253,177695,1,4,0:0:0:0:
319,282,177774,1,4,0:0:0:0:
361,302,177852,1,4,0:0:0:0:
404,302,177931,1,4,0:0:0:0:
438,286,178010,1,4,0:0:0:0:
459,243,178088,6,0,P|463:191|456:147,1,80,4|0,0:0|0:0,0:0:0:0:
330,70,178402,1,8,0:0:0:0:
330,70,178559,2,0,P|326:122|333:166,1,80,0|0,0:0|0:0,0:0:0:0:
512,75,178874,1,0,0:0:0:0:
512,75,179030,2,0,P|460:71|416:78,1,80,8|0,0:0|0:0,0:0:0:0:
277,238,179345,6,0,P|328:242|372:235,1,80,0|0,0:0|0:0,0:0:0:0:
244,141,179659,1,8,0:0:0:0:
244,141,179816,2,0,P|204:137|165:142,1,80,0|0,0:0|0:0,0:0:0:0:
53,238,180130,1,0,0:0:0:0:
53,238,180287,2,0,P|104:242|148:235,1,80,8|0,0:0|0:0,0:0:0:0:
244,140,180601,6,0,P|262:106|262:66,1,80,0|0,0:0|0:0,0:0:0:0:
103,92,180915,1,8,0:0:0:0:
102,91,181073,2,0,P|63:92|28:111,1,80,0|0,0:0|0:0,0:0:0:0:
132,238,181387,1,0,0:0:0:0:
132,238,181544,2,0,P|164:281|212:294,1,80,8|0,0:0|0:0,0:0:0:0:
373,303,181858,6,0,L|396:211,1,80,0|0,0:0|0:0,0:0:0:0:
263,217,182172,1,8,0:0:0:0:
263,217,182329,2,0,L|240:125,1,80,0|0,0:0|0:0,0:0:0:0:
373,131,182643,1,0,0:0:0:0:
373,131,182800,2,0,B|401:14,1,120,8|0,0:0|0:0,0:0:0:0:
470,68,183114,6,0,B|482:118|482:118|472:176,1,95.9999970703126,0|0,0:0|0:0,0:0:0:0:
373,303,183429,1,8,0:0:0:0:
373,303,183586,2,0,B|366:260|366:260|378:210,2,95.9999970703126
286,154,184057,2,0,B|191:135|191:135|130:167,1,143.999995605469,8|0,0:0|0:0,0:0:0:0:
116,179,184371,6,0,P|120:240|136:291,1,80,0|0,0:0|0:0,0:0:0:0:
261,365,184685,1,8,0:0:0:0:
261,365,184842,2,0,P|257:304|241:253,2,80
452,222,185313,2,0,P|395:204|341:225,1,120,8|0,0:0|0:0,0:0:0:0:
314,251,185627,5,0,0:0:0:0:
167,328,185785,1,0,0:0:0:0:
331,270,185942,1,8,0:0:0:0:
119,307,186099,1,0,0:0:0:0:
341,294,186256,1,0,0:0:0:0:
87,266,186413,1,0,0:0:0:0:
346,319,186570,1,8,0:0:0:0:
66,219,186727,1,0,0:0:0:0:
66,219,186805,1,0,0:0:0:0:
66,219,186884,5,8,0:0:0:0:
357,183,187041,1,8,0:0:0:0:
229,347,187198,1,8,0:0:0:0:
194,55,187355,1,8,0:0:0:0:
327,292,187512,5,4,0:0:0:0:
96,112,187669,1,4,0:3:0:0:
302,86,187826,1,4,0:0:0:0:
120,317,187983,1,4,0:3:0:0:
357,183,188141,5,4,0:0:0:0:
260,142,188297,2,0,P|197:140|150:158,1,103.999995239258,0|8,0:0|0:0,0:0:0:0:
370,183,188612,1,0,0:0:0:0:
256,212,188769,2,0,P|206:250|182:294,1,103.999995239258
383,183,189083,1,8,0:0:0:0:
299,271,189240,1,0,0:0:0:0:
396,183,189397,5,0,0:0:0:0:
369,287,189554,2,0,P|382:347|412:388,1,103.999995239258,0|8,0:0|0:0,0:0:0:0:
409,183,189868,1,0,0:0:0:0:
258,137,190025,1,0,0:0:0:0:
216,143,190104,1,0,0:0:0:0:
186,168,190182,1,0,0:0:0:0:
172,202,190261,1,0,0:0:0:0:
174,235,190340,1,8,0:0:0:0:
188,262,190418,1,0,0:0:0:0:
210,280,190497,1,0,0:0:0:0:
234,289,190575,1,0,0:0:0:0:
257,289,190654,5,0,0:0:0:0:
327,192,190811,2,0,P|290:150|249:134,1,92.0000017547608,0|8,0:0|0:0,0:0:0:0:
257,277,191125,1,0,0:0:0:0:
404,204,191282,2,0,P|421:151|414:108,1,92.0000017547608
257,265,191596,1,8,0:0:0:0:
419,276,191753,1,0,0:0:0:0:
257,253,191910,5,0,0:0:0:0:
367,329,192067,2,0,P|401:348|455:340,1,92.0000017547608,0|8,0:0|0:0,0:0:0:0:
257,241,192381,1,0,0:0:0:0:
309,368,192538,1,0,0:0:0:0:
341,353,192617,1,0,0:0:0:0:
367,329,192696,1,0,0:0:0:0:
381,301,192774,1,0,0:0:0:0:
386,270,192853,1,8,0:0:0:0:
381,243,192931,1,0,0:0:0:0:
372,218,193010,1,0,0:0:0:0:
360,198,193088,1,0,0:0:0:0:
341,185,193167,6,0,B|302:171|302:171|245:167,1,80,0|0,0:0|0:0,0:0:0:0:
166,166,193481,1,8,0:0:0:0:
365,106,193638,2,0,B|326:92|326:92|269:88,1,80,0|0,0:0|0:0,0:0:0:0:
190,87,193952,1,0,0:0:0:0:
389,27,194109,2,0,P|428:52|436:148,1,120,8|0,0:0|0:0,0:0:0:0:
439,155,194423,6,0,P|442:208|449:244,1,68.0000012969971,0|0,0:0|0:0,0:0:0:0:
472,303,194737,1,8,0:0:0:0:
333,230,194894,2,0,P|372:265|403:285,1,68.0000012969971,0|0,0:0|0:0,0:0:0:0:
460,311,195208,1,0,0:0:0:0:
293,351,195365,2,0,P|222:338|176:341,1,102.000001945496,8|0,0:0|0:0,0:0:0:0:
148,354,195680,5,0,0:0:0:0:
114,357,195758,1,0,0:0:0:0:
79,344,195837,1,0,0:0:0:0:
53,315,195915,1,0,0:0:0:0:
45,274,195994,1,8,0:0:0:0:
59,232,196073,1,0,0:0:0:0:
95,204,196151,1,0,0:0:0:0:
143,201,196230,1,0,0:0:0:0:
185,227,196308,1,0,0:0:0:0:
227,252,196386,1,0,0:0:0:0:
277,252,196465,1,0,0:0:0:0:
320,227,196543,1,0,0:0:0:0:
345,184,196622,1,8,0:0:0:0:
344,134,196700,1,0,0:0:0:0:
319,91,196779,1,0,0:0:0:0:
275,67,196857,1,0,0:0:0:0:
225,69,196936,5,12,0:0:0:0:
243,123,197014,1,4,0:0:0:0:
283,164,197093,1,4,0:0:0:0:
337,183,197171,1,4,0:0:0:0:
393,177,197250,1,4,0:0:0:0:
441,146,197328,1,4,0:0:0:0:
471,97,197408,5,12,0:0:0:0:
412,105,197486,1,4,0:0:0:0:
367,139,197565,1,4,0:0:0:0:
341,189,197643,1,4,0:0:0:0:
339,245,197722,1,4,0:0:0:0:
362,299,197800,1,4,0:0:0:0:
406,334,197879,2,0,P|433:340|466:336,1,55.9999982910157,8|0,0:0|0:0,0:0:0:0:
512,221,198036,2,0,P|485:215|452:219,1,55.9999982910157,8|0,0:0|0:0,0:0:0:0:
267,257,198193,6,0,P|211:272|202:157,1,191.999994140625,4|8,0:0|0:0,0:0:0:0:
46,212,198664,2,0,P|61:306|136:371,1,191.999994140625
267,257,199135,6,0,B|325:196|293:110|293:110|392:77|461:152,1,320,8|8,0:0|0:0,0:0:0:0:
477,242,199921,1,0,0:0:0:0:
359,314,200078,6,0,L|340:377,2,63.9999980468751
267,257,200392,2,0,L|247:195,2,63.9999980468751,8|0|0,0:0|0:0|0:0,0:0:0:0:
175,314,200706,6,0,B|79:292|79:292|-14:382,1,191.999994140625,0|8,0:0|0:0,0:0:0:0:
267,257,201177,2,0,B|238:163|238:163|113:127,1,191.999994140625
175,314,201648,6,0,P|239:362|363:207,1,320,8|8,0:0|0:0,0:0:0:0:
332,139,202434,1,0,0:0:0:0:
267,257,202591,1,0,0:0:0:0:
444,193,202748,1,0,0:0:0:0:
281,68,202905,1,8,0:0:0:0:
259,61,202983,6,0,P|191:62|154:77,2,95.9999970703126
453,129,203428,6,0,L|439:221,1,63.9999980468751,0|8,0:0|0:0,0:0:0:0:
166,200,203690,6,0,L|88:202,2,63.9999980468751
274,245,204004,6,0,P|342:244|379:229,2,95.9999970703126,0|8|0,0:0|0:0|0:0,0:0:0:0:
31,193,204475,6,0,L|45:285,2,63.9999980468751
137,328,204789,6,0,L|146:264,2,63.9999980468751,8|0|0,0:0|0:0|0:0,0:0:0:0:
284,342,205104,5,0,0:0:0:0:
194,102,205261,2,0,P|217:38|355:60,1,191.999994140625
480,124,205732,6,0,B|435:151|388:124|388:124|343:99|296:123,1,191.999994140625,0|8,0:0|0:0,0:0:0:0:
146,197,206203,1,0,0:0:0:0:
284,342,206360,2,0,P|318:300|326:244,1,95.9999970703126
324,235,206596,1,0,0:0:0:0:
313,209,206674,1,8,0:0:0:0:
400,311,206831,1,0,0:0:0:0:
188,261,206989,5,0,0:0:0:0:
400,311,207146,1,0,0:0:0:0:
334,133,207303,1,8,0:0:0:0:
284,342,207460,1,0,0:0:0:0:
471,253,207617,1,8,0:0:0:0:
478,235,207695,1,0,0:0:0:0:
481,216,207774,1,0,0:0:0:0:
479,197,207852,1,0,0:0:0:0:
472,179,207931,1,8,0:0:0:0:
334,133,208088,1,8,0:0:0:0:
400,311,208245,5,4,0:0:0:0:
366,333,208323,1,0,0:0:0:0:
326,345,208402,1,0,0:0:0:0:
284,342,208480,1,0,0:0:0:0:
248,321,208559,2,0,L|246:256,1,47.9999985351563,8|0,0:0|0:0,0:0:0:0:
201,153,208716,5,0,0:0:0:0:
172,159,208795,1,0,0:0:0:0:
143,165,208874,2,0,L|141:212,1,47.9999985351563,0|0,0:0|0:0,0:0:0:0:
37,295,209031,5,0,0:0:0:0:
16,265,209109,1,0,0:0:0:0:
4,231,209188,1,8,0:0:0:0:
1,195,209266,1,0,0:0:0:0:
5,160,209345,2,0,P|23:124|45:103,1,47.9999985351563,0|0,0:0|0:0,0:0:0:0:
123,33,209502,5,0,0:0:0:0:
163,35,209580,1,0,0:0:0:0:
204,37,209659,1,0,0:0:0:0:
245,39,209737,1,0,0:0:0:0:
285,41,209816,2,0,L|332:43,1,47.9999985351563,8|0,0:0|0:0,0:0:0:0:
458,121,209973,5,0,0:0:0:0:
456,149,210051,1,0,0:0:0:0:
454,178,210130,2,0,L|404:200,1,47.9999985351563
271,197,210287,5,0,0:0:0:0:
271,232,210365,1,0,0:0:0:0:
271,268,210444,1,8,0:0:0:0:
272,304,210522,1,0,0:0:0:0:
272,340,210601,2,0,L|322:362,1,47.9999985351563
450,258,210758,5,0,0:0:0:0:
405,243,210836,1,0,0:0:0:0:
359,240,210915,1,0,0:0:0:0:
313,248,210993,1,0,0:0:0:0:
271,268,211073,2,0,P|227:272|200:263,1,51.999997619629,8|0,0:0|0:0,0:0:0:0:
43,232,211230,5,0,0:0:0:0:
33,264,211308,1,0,0:0:0:0:
35,297,211387,2,0,P|64:296|90:282,1,51.999997619629,0|0,0:0|0:0,0:0:0:0:
153,219,211544,5,0,0:0:0:0:
143,178,211622,1,0,0:0:0:0:
119,145,211701,1,8,0:0:0:0:
84,123,211779,1,0,0:0:0:0:
44,116,211858,2,0,P|52:158|70:189,1,51.999997619629,0|0,0:0|0:0,0:0:0:0:
136,336,212015,5,0,0:0:0:0:
181,324,212093,1,0,0:0:0:0:
226,313,212172,1,0,0:0:0:0:
271,324,212251,1,0,0:0:0:0:
317,336,212329,2,0,L|374:322,1,51.999997619629,8|0,0:0|0:0,0:0:0:0:
445,230,212486,5,0,0:0:0:0:
455,197,212565,1,0,0:0:0:0:
449,163,212643,2,0,P|432:136|410:115,1,51.999997619629
252,44,212800,5,0,0:0:0:0:
224,75,212878,1,0,0:0:0:0:
211,114,212957,1,8,0:0:0:0:
212,155,213035,1,0,0:0:0:0:
228,193,213114,2,0,P|246:206|297:207,1,51.999997619629,0|0,0:0|0:0,0:0:0:0:
465,62,213271,5,0,0:0:0:0:
411,57,213349,1,0,0:0:0:0:
358,53,213428,1,0,0:0:0:0:
305,49,213506,1,0,0:0:0:0:
252,44,213585,2,0,L|196:38,1,55.9999982910157,8|0,0:0|0:0,0:0:0:0:
84,177,213743,5,0,0:0:0:0:
84,214,213821,1,0,0:0:0:0:
92,253,213900,2,0,P|123:272|165:280,1,55.9999982910157
328,216,214057,5,0,0:0:0:0:
301,177,214135,1,0,0:0:0:0:
259,155,214214,1,8,0:0:0:0:
212,155,214292,1,0,0:0:0:0:
171,177,214371,2,0,P|205:226|240:244,1,55.9999982910157,0|0,0:0|0:0,0:0:0:0:
383,355,214528,5,0,0:0:0:0:
426,324,214606,1,0,0:0:0:0:
449,277,214685,1,0,0:0:0:0:
447,225,214763,1,0,0:0:0:0:
420,180,214842,2,0,P|383:152|361:144,1,55.9999982910157,8|0,0:0|0:0,0:0:0:0:
194,107,214999,5,0,0:0:0:0:
154,108,215077,1,0,0:0:0:0:
115,109,215156,2,0,L|103:190,1,55.9999982910157,0|0,0:0|0:0,0:0:0:0:
124,311,215313,5,0,0:0:0:0:
166,331,215391,1,0,0:0:0:0:
213,330,215470,1,8,0:0:0:0:
255,308,215548,1,0,0:0:0:0:
282,269,215627,2,0,P|284:218|271:193,1,55.9999982910157,0|0,0:0|0:0,0:0:0:0:
154,108,215785,5,0,0:0:0:0:
149,167,215863,1,0,0:0:0:0:
177,220,215942,1,0,0:0:0:0:
223,257,216020,1,0,0:0:0:0:
282,269,216098,2,0,P|301:223|301:199,1,60.0000022888184,8|0,0:0|0:0,0:0:0:0:
303,83,216256,5,0,0:0:0:0:
271,49,216334,1,0,0:0:0:0:
230,31,216413,2,0,L|154:31,1,60.0000022888184,0|0,0:0|0:0,0:0:0:0:
1,183,216570,5,0,0:0:0:0:
46,155,216648,1,0,0:0:0:0:
99,153,216727,1,8,0:0:0:0:
147,176,216805,1,0,0:0:0:0:
177,220,216884,2,0,P|238:249|272:245,1,60.0000022888184,0|0,0:0|0:0,0:0:0:0:
391,244,217041,5,0,0:0:0:0:
447,227,217119,1,0,0:0:0:0:
485,182,217198,1,0,0:0:0:0:
493,123,217276,1,0,0:0:0:0:
467,70,217355,1,8,0:0:0:0:
416,40,217433,1,0,0:0:0:0:
357,42,217512,1,0,0:0:0:0:
309,77,217590,1,0,0:0:0:0:
289,133,217669,5,2,0:0:0:0:
306,197,217748,1,2,0:0:0:0:
285,259,217826,1,2,0:0:0:0:
233,301,217905,1,2,0:0:0:0:
177,309,217983,1,0,0:0:0:0:
130,294,218062,1,0,0:0:0:0:
98,270,218141,1,0,0:0:0:0:
82,244,218219,1,0,0:0:0:0:
78,214,218298,6,0,B|94:172|94:172|150:125,1,88.000002685547,4|0,0:0|0:0,0:0:0:0:
306,197,218612,2,0,P|257:216|207:211,1,88.000002685547,8|0,0:0|0:0,0:0:0:0:
240,86,218926,1,0,0:0:0:0:
374,134,219083,2,0,L|381:226,1,88.000002685547,4|0,0:0|0:0,0:0:0:0:
457,151,219397,1,0,0:0:0:0:
298,284,219554,6,0,L|308:164,1,88.000002685547,12|0,0:2|0:0,0:0:0:0:
213,297,219868,1,0,0:0:0:0:
355,383,220025,1,4,0:0:0:0:
385,251,220182,1,0,0:0:0:0:
196,382,220340,1,4,0:0:0:0:
230,212,220497,1,0,0:0:0:0:
355,383,220654,1,0,0:0:0:0:
355,383,220732,1,0,0:0:0:0:
355,383,220811,5,4,0:0:0:0:
340,193,220968,1,0,0:0:0:0:
213,297,221125,2,0,P|164:303|122:283,1,88.000002685547,8|0,0:0|0:0,0:0:0:0:
59,173,221439,2,0,P|99:158|142:165,1,88.000002685547,8|0,0:0|0:0,0:0:0:0:
230,212,221753,1,0,0:0:0:0:
175,53,221910,2,0,L|276:76,1,88.000002685547,8|0,0:0|0:0,0:0:0:0:
354,94,222224,1,8,0:0:0:0:
383,240,222381,6,0,L|367:156,2,58.6666684570313,4|4|4,0:0|0:0|0:0,0:0:0:0:
474,309,222696,2,0,L|490:225,2,58.6666684570313,4|4|4,0:0|0:0|0:0,0:0:0:0:
383,378,223010,2,0,L|367:294,2,58.6666684570313,4|4|4,0:0|0:0|0:0,0:0:0:0:
280,309,223324,5,4,0:0:0:0:
105,66,225837,5,4,0:0:0:0:
105,66,228036,1,0,0:0:0:0:
105,66,228193,1,0,0:0:0:0:
63,254,228350,5,4,0:0:0:0:
310,88,230863,5,4,0:0:0:0:
437,346,233376,6,0,P|456:304|466:273,1,55.9999982910157,4|0,0:2|0:0,0:0:0:0:
333,353,233690,2,0,P|314:311|304:280,1,55.9999982910157,0|0,0:0|0:0,0:0:0:0:
451,257,234004,2,0,P|470:215|480:184,1,55.9999982910157,0|0,0:0|0:0,0:0:0:0:
321,265,234319,2,0,P|302:223|292:192,1,55.9999982910157,0|0,0:0|0:0,0:0:0:0:
469,171,234633,6,0,P|488:129|498:98,1,55.9999982910157,0|0,0:0|0:0,0:0:0:0:
307,182,234947,2,0,P|288:140|278:109,1,55.9999982910157,0|0,0:0|0:0,0:0:0:0:
489,87,235261,2,0,P|508:45|518:14,1,55.9999982910157,0|0,0:0|0:0,0:0:0:0:
287,101,235575,1,0,0:0:0:0:
449,299,235732,1,2,0:0:0:0:
453,278,235811,1,2,0:0:0:0:
451,257,235889,6,0,L|366:264,1,71.9999978027344,8|0,0:0|0:0,0:0:0:0:
307,182,236203,2,0,L|236:230,1,71.9999978027344,0|0,0:0|0:0,0:0:0:0:
144,189,236518,2,0,L|107:266,1,71.9999978027344,0|0,0:0|0:0,0:0:0:0:
7,276,236832,2,0,L|14:361,1,71.9999978027344,0|0,0:0|0:0,0:0:0:0:
59,121,237146,6,0,P|105:87|129:83,1,71.9999978027344,0|0,0:0|0:0,0:0:0:0:
221,45,237460,2,0,P|226:101|218:124,1,71.9999978027344,0|0,0:0|0:0,0:0:0:0:
205,223,237774,2,0,P|154:199|138:180,1,71.9999978027344,0|0,0:0|0:0,0:0:0:0:
132,171,238010,1,0,0:0:0:0:
123,152,238088,2,0,L|120:258,1,71.9999978027344,4|0,0:2|0:0,0:0:0:0:
204,295,238402,6,0,B|279:299|279:299|320:287,2,106.666666666667,8|0|0,0:0|0:0|0:0,0:0:0:0:
434,208,239031,6,0,B|359:204|359:204|318:216,2,106.666666666667,8|0|0,0:0|0:0|0:0,0:0:0:0:
219,370,239658,5,8,0:0:0:0:
324,365,239868,1,0,0:0:0:0:
219,370,240078,1,0,0:0:0:0:
449,283,240287,5,8,0:0:0:0:
344,288,240496,1,0,0:0:0:0:
449,283,240706,1,0,0:0:0:0:
470,283,240811,1,0,0:0:0:0:
491,282,240915,5,8,0:0:0:0:
327,193,241125,1,8,0:0:0:0:
498,249,241334,1,8,0:0:0:0:
216,246,241544,1,8,0:0:0:0:
505,216,241753,1,8,0:0:0:0:
219,370,241963,1,8,0:0:0:0:
512,183,242172,5,8,0:0:0:0:
167,106,242381,1,8,0:0:0:0:
340,364,242591,1,8,0:0:0:0:
462,36,242800,5,2,0:0:0:0:
422,32,242878,1,2,0:0:0:0:
382,28,242957,1,2,0:0:0:0:
342,24,243035,1,2,0:0:0:0:
302,21,243114,1,2,0:0:0:0:
268,42,243192,1,2,0:0:0:0:
234,63,243271,1,2,0:0:0:0:
200,84,243349,1,2,0:0:0:0:
167,106,243429,6,0,B|133:204|133:204|168:306,1,207.999990478516,4|8,0:0|0:0,0:0:0:0:
383,224,243900,2,0,B|416:125|416:125|381:27,1,207.999990478516
99,104,244371,2,0,L|139:221,1,103.999995239258,8|0,0:0|0:0,0:0:0:0:
274,306,244685,5,0,0:0:0:0:
410,179,244842,1,0,0:0:0:0:
153,100,244999,2,0,L|132:202,1,103.999995239258,8|0,0:0|0:0,0:0:0:0:
302,334,245313,1,0,0:0:0:0:
438,207,245470,1,0,0:0:0:0:
181,128,245627,2,0,L|160:230,1,103.999995239258,8|0,0:0|0:0,0:0:0:0:
330,362,245942,6,0,B|373:352|373:352|418:301,1,103.999995239258,0|0,0:0|0:0,0:0:0:0:
502,181,246256,1,8,0:0:0:0:
300,128,246413,1,0,0:0:0:0:
335,270,246570,1,0,0:0:0:0:
335,270,246727,1,0,0:0:0:0:
424,143,246884,1,8,0:0:0:0:
222,90,247041,1,0,0:0:0:0:
243,325,247198,6,0,B|255:282|255:282|236:226,1,103.999995239258,0|0,0:0|0:0,0:0:0:0:
50,176,247512,2,0,P|23:219|24:270,1,103.999995239258,8|0,0:0|0:0,0:0:0:0:
160,135,247826,2,0,P|136:90|91:66,1,103.999995239258
140,251,248141,2,0,P|191:252|235:225,1,103.999995239258,8|0,0:0|0:0,0:0:0:0:
304,74,248455,6,0,B|334:125|334:125|324:310,1,207.999990478516,4|8,0:0|0:0,0:0:0:0:
461,372,248926,2,0,L|447:164,1,207.999990478516,0|0,0:0|0:0,0:0:0:0:
353,146,249397,2,0,P|415:173|476:141,1,103.999995239258,8|0,0:0|0:0,0:0:0:0:
376,42,249711,6,0,P|294:54|250:177,1,207.999990478516,0|8,0:0|0:0,0:0:0:0:
389,317,250182,2,0,P|419:240|335:141,1,207.999990478516
143,191,250653,2,0,P|165:234|247:267,1,103.999995239258,8|0,0:0|0:0,0:0:0:0:
430,86,250968,6,0,B|371:109|371:109|352:145,1,103.999995239258
315,341,251281,2,0,B|327:278|327:278|308:243,1,103.999995239258,8|0,0:0|0:0,0:0:0:0:
143,191,251596,1,0,0:0:0:0:
246,377,251753,1,0,0:0:0:0:
374,155,251910,2,0,P|328:133|277:137,1,103.999995239258,8|0,0:0|0:0,0:0:0:0:
458,318,252224,6,0,L|472:187,1,103.999995239258
383,55,252538,2,0,P|367:99|385:176,1,103.999995239258,8|0,0:0|0:0,0:0:0:0:
272,63,252852,2,0,P|238:96|222:173,1,103.999995239258
168,23,253166,2,0,P|124:39|76:102,1,103.999995239258,8|0,0:0|0:0,0:0:0:0:
282,253,253480,6,0,B|265:210|294:167|294:167|273:147|273:147|298:103|272:63,1,207.999990478516,4|8,0:0|0:0,0:0:0:0:
354,220,253952,2,0,P|316:326|214:293,1,207.999990478516,0|0,0:0|0:0,0:0:0:0:
170,150,254423,2,0,P|216:143|290:151,1,103.999995239258,8|0,0:0|0:0,0:0:0:0:
416,163,254737,5,0,0:0:0:0:
282,253,254894,1,0,0:0:0:0:
225,47,255051,2,0,L|329:58,1,103.999995239258,8|0,0:0|0:0,0:0:0:0:
420,207,255366,1,0,0:0:0:0:
286,297,255523,1,0,0:0:0:0:
229,91,255679,2,0,L|333:102,1,103.999995239258,8|0,0:0|0:0,0:0:0:0:
424,251,255994,6,0,B|395:303|395:303|346:325,1,103.999995239258,0|0,0:0|0:0,0:0:0:0:
214,369,256308,1,8,0:0:0:0:
255,179,256465,1,0,0:0:0:0:
286,297,256622,1,0,0:0:0:0:
286,297,256779,1,0,0:0:0:0:
151,229,256936,1,8,0:0:0:0:
315,125,257093,1,0,0:0:0:0:
312,368,257251,6,0,B|254:384|254:384|204:365,1,103.999995239258,0|0,0:0|0:0,0:0:0:0:
151,229,257564,2,0,B|155:191|155:191|172:165|172:165|177:124,1,103.999995239258,8|0,0:0|0:0,0:0:0:0:
286,269,257879,2,0,B|290:303|290:303|307:329|307:329|311:367,1,103.999995239258
421,229,258192,2,0,B|425:195|425:195|442:169|442:169|446:131,1,103.999995239258,8|0,0:0|0:0,0:0:0:0:
194,51,258507,6,0,L|314:37,1,103.999995239258
369,28,258742,1,0,0:0:0:0:
380,27,258821,1,8,0:0:0:0:
194,3,258978,1,0,0:0:0:0:
456,38,259135,6,0,L|468:148,1,95.9999970703126
477,202,259370,1,0,0:0:0:0:
479,211,259449,1,8,0:0:0:0:
501,38,259606,1,0,0:0:0:0:
469,279,259763,6,0,L|367:290,1,88.000002685547
314,296,259999,1,0,0:0:0:0:
305,297,260077,1,8,0:0:0:0:
469,320,260234,1,0,0:0:0:0:
236,296,260391,6,0,L|222:175,1,103.999995239258
214,123,260627,1,0,0:0:0:0:
212,113,260706,1,8,0:0:0:0:
188,296,260862,1,0,0:0:0:0:
19,155,261020,6,0,P|63:181|114:179,1,103.999995239258
188,296,261334,2,0,P|135:268|66:285,1,103.999995239258,8|0,0:0|0:0,0:0:0:0:
23,350,261648,1,0,0:0:0:0:
118,374,261805,1,0,0:0:0:0:
199,216,261962,2,0,P|200:146|153:93,1,103.999995239258,8|0,0:0|0:0,0:0:0:0:
188,296,262277,5,12,0:0:0:0:
208,293,262355,1,4,0:0:0:0:
229,290,262434,1,4,0:0:0:0:
249,287,262512,1,4,0:0:0:0:
270,284,262591,1,4,0:0:0:0:
291,281,262669,1,4,0:0:0:0:
311,250,262748,5,12,0:0:0:0:
330,251,262827,1,4,0:0:0:0:
351,254,262905,1,4,0:0:0:0:
371,257,262984,1,4,0:0:0:0:
392,260,263062,1,4,0:0:0:0:
413,263,263141,1,4,0:0:0:0:
433,294,263219,5,2,0:0:0:0:
461,251,263297,1,2,0:0:0:0:
473,200,263376,1,2,0:0:0:0:
465,149,263454,1,2,0:0:0:0:
427,116,263533,5,4,0:0:0:0:
398,127,263611,1,0,0:0:0:0:
367,132,263690,1,0,0:0:0:0:
336,130,263768,1,0,0:0:0:0:
306,120,263847,1,8,0:0:0:0:
280,103,263925,1,0,0:0:0:0:
258,81,264004,5,0,0:0:0:0:
217,81,264082,1,0,0:0:0:0:
177,92,264161,1,0,0:0:0:0:
143,116,264239,1,0,0:0:0:0:
117,148,264318,1,0,0:0:0:0:
102,187,264396,1,0,0:0:0:0:
99,228,264476,5,8,0:0:0:0:
147,210,264554,1,0,0:0:0:0:
196,224,264633,1,0,0:0:0:0:
227,264,264711,1,0,0:0:0:0:
261,303,264789,1,0,0:0:0:0:
309,321,264868,1,0,0:0:0:0:
360,313,264946,1,0,0:0:0:0:
400,281,265025,1,0,0:0:0:0:
420,233,265103,1,8,0:0:0:0:
414,182,265182,1,0,0:0:0:0:
384,141,265260,1,0,0:0:0:0:
338,119,265339,1,0,0:0:0:0:
286,122,265418,2,0,L|213:136,3,51.999997619629,0|0|0|0,0:0|0:0|0:0|0:0,0:0:0:0:
196,224,265732,2,0,L|144:214,3,51.999997619629,8|0|0|0,0:0|0:0|0:0|0:0,0:0:0:0:
106,122,266046,5,0,0:0:0:0:
71,144,266124,1,0,0:0:0:0:
49,179,266203,1,0,0:0:0:0:
42,220,266281,1,0,0:0:0:0:
52,260,266360,1,8,0:0:0:0:
78,292,266438,1,0,0:0:0:0:
114,312,266517,1,0,0:0:0:0:
155,315,266596,1,0,0:0:0:0:
193,300,266675,1,0,0:0:0:0:
221,270,266753,1,0,0:0:0:0:
233,230,266832,1,0,0:0:0:0:
235,188,266910,1,0,0:0:0:0:
238,146,266988,1,8,0:0:0:0:
257,110,267067,1,0,0:0:0:0:
289,83,267145,1,0,0:0:0:0:
329,72,267224,1,0,0:0:0:0:
370,79,267303,2,0,L|437:93,3,51.999997619629,0|0|0|0,0:0|0:0|0:0|0:0,0:0:0:0:
480,146,267617,5,8,0:0:0:0:
477,166,267696,1,0,0:0:0:0:
475,186,267774,2,0,L|408:200,1,51.999997619629,0|0,0:0|0:0,0:0:0:0:
308,218,267931,5,0,0:0:0:0:
311,241,268010,1,0,0:0:0:0:
313,263,268088,2,0,L|380:277,1,58.0000017700196,0|0,0:0|0:0,0:0:0:0:
480,295,268245,5,8,0:0:0:0:
478,320,268324,1,0,0:0:0:0:
476,345,268402,2,0,L|409:359,1,64,0|0,0:0|0:0,0:0:0:0:
298,379,268559,5,0,0:0:0:0:
262,374,268637,1,0,0:0:0:0:
229,358,268716,1,0,0:0:0:0:
202,333,268794,1,0,0:0:0:0:
185,302,268873,1,8,0:0:0:0:
178,266,268951,1,0,0:0:0:0:
182,230,269031,5,0,0:0:0:0:
152,198,269109,1,0,0:0:0:0:
110,184,269188,1,0,0:0:0:0:
67,193,269266,1,0,0:0:0:0:
34,221,269345,1,0,0:0:0:0:
19,263,269423,1,0,0:0:0:0:
18,307,269502,5,8,0:0:0:0:
71,287,269580,1,0,0:0:0:0:
105,241,269659,1,0,0:0:0:0:
110,184,269737,1,0,0:0:0:0:
96,127,269816,5,0,0:0:0:0:
108,87,269894,1,0,0:0:0:0:
133,54,269973,1,0,0:0:0:0:
168,32,270051,1,0,0:0:0:0:
208,23,270130,1,8,0:0:0:0:
249,28,270208,1,0,0:0:0:0:
286,47,270287,5,0,0:0:0:0:
304,93,270365,1,0,0:0:0:0:
342,123,270444,1,0,0:0:0:0:
391,132,270522,1,0,0:0:0:0:
437,115,270601,1,0,0:0:0:0:
469,79,270679,1,0,0:0:0:0:
479,31,270758,5,8,0:0:0:0:
417,30,270836,1,0,0:0:0:0:
365,66,270915,1,0,0:0:0:0:
342,123,270993,1,0,0:0:0:0:
336,186,271073,5,0,0:0:0:0:
307,142,271151,1,0,0:0:0:0:
265,112,271230,1,0,0:0:0:0:
216,97,271308,1,0,0:0:0:0:
164,100,271387,1,8,0:0:0:0:
116,120,271465,1,0,0:0:0:0:
79,156,271544,1,0,0:0:0:0:
55,202,271622,1,0,0:0:0:0:
49,253,271701,2,0,L|56:339,3,51.999997619629,0|0|0|0,0:0|0:0|0:0|0:0,0:0:0:0:
0,138,272015,2,0,L|4:86,3,51.999997619629,8|0|0|0,0:0|0:0|0:0|0:0,0:0:0:0:
161,138,272329,2,0,L|168:224,3,51.999997619629,0|0|0|0,0:0|0:0|0:0|0:0,0:0:0:0:
176,284,272643,5,8,0:0:0:0:
202,282,272722,1,0,0:0:0:0:
227,279,272800,2,0,L|313:272,1,51.999997619629,0|0,0:0|0:0,0:0:0:0:
348,371,272957,5,0,0:0:0:0:
317,368,273036,1,0,0:0:0:0:
287,366,273114,2,0,L|201:359,1,60.0000022888184,0|0,0:0|0:0,0:0:0:0:
383,264,273271,5,8,0:0:0:0:
417,261,273350,1,0,0:0:0:0:
450,257,273428,2,0,L|536:250,1,51.999997619629
503,377,273585,5,4,0:0:0:0:
472,375,273664,1,0,0:0:0:0:
443,365,273743,1,0,0:0:0:0:
418,347,273821,1,0,0:0:0:0:
398,323,273899,1,8,0:0:0:0:
386,294,273978,1,0,0:0:0:0:
383,264,274057,5,0,0:0:0:0:
403,225,274135,1,0,0:0:0:0:
409,181,274214,1,0,0:0:0:0:
399,139,274292,1,0,0:0:0:0:
375,102,274371,1,0,0:0:0:0:
339,77,274449,1,0,0:0:0:0:
296,66,274528,5,8,0:0:0:0:
289,122,274606,1,0,0:0:0:0:
250,163,274685,1,0,0:0:0:0:
195,174,274763,1,0,0:0:0:0:
141,156,274842,1,0,0:0:0:0:
87,139,274920,1,0,0:0:0:0:
35,160,274999,1,0,0:0:0:0:
6,208,275077,1,0,0:0:0:0:
14,264,275156,1,8,0:0:0:0:
54,304,275234,1,0,0:0:0:0:
111,310,275313,1,0,0:0:0:0:
162,284,275392,1,0,0:0:0:0:
210,255,275470,1,0,0:0:0:0:
267,251,275549,1,0,0:0:0:0:
318,274,275627,1,0,0:0:0:0:
357,315,275706,1,0,0:0:0:0:
401,351,275784,2,0,L|462:358,3,51.999997619629,8|0|0|0,0:0|0:0|0:0|0:0,0:0:0:0:
476,272,276099,5,0,0:0:0:0:
498,231,276177,1,0,0:0:0:0:
508,185,276256,1,0,0:0:0:0:
504,138,276334,1,0,0:0:0:0:
488,95,276413,1,8,0:0:0:0:
460,57,276491,1,0,0:0:0:0:
423,30,276570,1,0,0:0:0:0:
379,13,276648,1,0,0:0:0:0:
332,10,276727,1,0,0:0:0:0:
287,20,276805,1,0,0:0:0:0:
246,43,276884,1,0,0:0:0:0:
213,76,276962,1,0,0:0:0:0:
191,117,277041,1,8,0:0:0:0:
181,163,277119,1,0,0:0:0:0:
185,209,277198,1,0,0:0:0:0:
202,253,277277,1,0,0:0:0:0:
236,284,277355,2,0,L|295:276,3,51.999997619629,0|0|0|0,0:0|0:0|0:0|0:0,0:0:0:0:
401,191,277669,5,8,0:0:0:0:
434,177,277748,1,0,0:0:0:0:
470,177,277826,2,0,L|482:257,1,51.999997619629,0|0,0:0|0:0,0:0:0:0:
275,134,277983,5,0,0:0:0:0:
235,116,278062,1,0,0:0:0:0:
191,117,278140,2,0,L|179:197,1,62.0000004730225
507,92,278298,6,0,B|428:78|428:78|389:40|389:40|296:21,1,215.999993408203,8|0,0:0|0:0,0:0:0:0:
202,12,278612,5,8,0:0:0:0:
181,178,278821,1,0,0:0:0:0:
160,344,279031,1,0,0:0:0:0:
95,66,279240,5,8,0:0:0:0:
181,178,279449,1,0,0:0:0:0:
269,290,279659,1,0,0:0:0:0:
62,163,279868,5,8,0:0:0:0:
181,178,280077,1,0,0:0:0:0:
301,193,280287,1,0,0:0:0:0:
101,241,280497,5,8,0:0:0:0:
181,178,280706,1,0,0:0:0:0:
201,162,280811,1,0,0:0:0:0:
221,146,280915,1,0,0:0:0:0:
241,130,281020,1,0,0:0:0:0:
261,114,281125,5,8,0:0:0:0:
105,128,281334,1,8,0:0:0:0:
333,157,281544,1,8,0:0:0:0:
48,192,281753,1,8,0:0:0:0:
409,242,281963,1,8,0:0:0:0:
4,303,282172,1,8,0:0:0:0:
311,345,282381,5,8,0:0:0:0:
311,39,282591,1,8,0:0:0:0:
48,192,282800,1,8,0:0:0:0:
464,192,283010,5,8,0:0:0:0:
201,345,283219,1,8,0:0:0:0:
201,39,283428,1,8,0:0:0:0:
339,231,283638,6,0,P|387:137|282:142,1,256,4|0,0:0|0:0,0:0:0:0:
100,269,284580,6,0,B|146:239|211:256|211:256|228:239|228:239|284:264|339:231,1,256,4|0,0:0|0:0,0:0:0:0:
230,45,285522,6,0,B|241:111|241:111|279:146,1,96,4|0,0:0|0:0,0:0:0:0:
281,142,285836,1,4,0:0:0:0:
308,134,285914,1,4,0:0:0:0:
329,114,285993,1,4,0:0:0:0:
337,86,286071,1,4,0:0:0:0:
330,57,286150,1,4,0:0:0:0:
311,35,286228,1,4,0:0:0:0:
283,27,286307,1,4,0:0:0:0:
254,30,286385,1,4,0:0:0:0:
230,45,286465,6,0,L|118:66,1,80,12|0,0:2|0:0,0:0:0:0:
15,90,286779,2,0,L|127:111,1,80,4|0,0:2|0:0,0:0:0:0:
282,142,287093,2,0,L|170:163,1,80,4|0,0:2|0:0,0:0:0:0:
70,198,287407,2,0,L|182:219,1,80,4|0,0:2|0:0,0:0:0:0:
196,348,287721,6,0,L|270:326,1,51.999997619629,8|0,0:0|0:0,0:0:0:0:
294,221,287878,1,0,0:0:0:0:
294,221,287957,1,0,0:0:0:0:
294,221,288035,2,0,L|343:235,1,51.999997619629,8|0,0:0|0:0,0:0:0:0:
387,376,288192,1,0,0:0:0:0:
387,376,288271,1,0,0:0:0:0:
387,376,288349,2,0,L|436:362,1,51.999997619629,8|0,0:0|0:0,0:0:0:0:
500,182,288506,2,0,P|510:152|511:114,1,51.999997619629,0|0,0:0|0:0,0:0:0:0:
409,253,288663,2,0,P|399:283|398:321,1,51.999997619629,8|0,0:0|0:0,0:0:0:0:
450,87,288821,2,0,P|443:56|425:22,1,51.999997619629
211,68,288978,6,0,L|218:159,1,60.0000022888184,8|0,0:0|0:0,0:0:0:0:
345,141,289135,1,0,0:0:0:0:
345,141,289213,1,0,0:0:0:0:
345,141,289292,2,0,L|338:232,1,60.0000022888184,8|0,0:0|0:0,0:0:0:0:
147,180,289449,1,0,0:0:0:0:
147,180,289527,1,0,0:0:0:0:
147,180,289606,2,0,L|154:271,1,60.0000022888184,8|0,0:0|0:0,0:0:0:0:
368,296,289763,2,0,P|396:272|415:239,1,60.0000022888184
224,328,289920,2,0,P|195:352|176:384,1,60.0000022888184,8|0,0:0|0:0,0:0:0:0:
468,346,290077,2,0,P|480:311|480:274,1,60.0000022888184
340,200,290234,5,8,0:0:0:0:
315,182,290313,1,0,0:0:0:0:
283,174,290391,1,0,0:0:0:0:
248,177,290470,1,0,0:0:0:0:
213,191,290548,1,8,0:0:0:0:
183,217,290627,1,0,0:0:0:0:
152,245,290705,1,0,0:0:0:0:
110,260,290784,1,0,0:0:0:0:
63,254,290862,1,8,0:0:0:0:
23,224,290941,1,0,0:0:0:0:
2,177,291019,1,0,0:0:0:0:
8,123,291098,1,0,0:0:0:0:
46,81,291177,1,8,0:0:0:0:
102,65,291255,1,0,0:0:0:0:
161,81,291334,1,0,0:0:0:0:
223,70,291412,1,0,0:0:0:0:
265,19,291491,5,8,0:0:0:0:
265,66,291569,1,0,0:0:0:0:
283,113,291648,1,0,0:0:0:0:
320,149,291726,1,0,0:0:0:0:
371,168,291805,1,8,0:0:0:0:
428,163,291883,1,0,0:0:0:0:
479,131,291962,1,0,0:0:0:0:
510,77,292040,1,0,0:0:0:0:
510,10,292119,5,2,0:0:0:0:
444,8,292197,1,2,0:0:0:0:
382,33,292276,1,2,0:0:0:0:
341,86,292354,1,2,0:0:0:0:
320,149,292433,1,2,0:0:0:0:
324,215,292511,1,2,0:0:0:0:
349,276,292590,1,2,0:0:0:0:
395,323,292668,1,2,0:0:0:0:
459,340,292747,6,0,L|245:360,1,191.999994140625,4|4,0:0|0:0,0:0:0:0:
236,334,293140,1,4,0:0:0:0:
200,320,293218,1,4,0:0:0:0:
161,324,293297,1,4,0:0:0:0:
127,342,293375,2,0,P|102:341|88:334,1,31.9999990234375,8|2,0:0|0:0,0:0:0:0:
2,238,293533,1,0,0:0:0:0:
262,42,294004,6,0,B|360:73|360:73|453:33|453:33|453:134|453:134|522:211|522:211|424:243|424:243|373:331|373:331|312:248|312:248|213:227|213:227|268:155|268:155|144:123|68:184|68:184|104:133|138:120|138:120|16:131|16:131|92:95|137:102|137:102|72:64|-3:53|-3:53|116:22|210:98|234:103|234:103|305:125,1,1920,4|0,0:0|0:0,0:0:0:0:
256,192,301622,12,0,304056,0:0:0:0:
