osu file format v14

[General]
AudioFilename: audio.mp3
AudioLeadIn: 0
PreviewTime: 223326
Countdown: 0
SampleSet: Soft
StackLeniency: 0.7
Mode: 0
LetterboxInBreaks: 0
WidescreenStoryboard: 0

[Editor]
DistanceSpacing: 0.8
BeatDivisor: 4
GridSize: 32
TimelineZoom: 2.6

[Metadata]
Title:Seijouki no Pierrot ~ The MadPiero Laughs
TitleUnicode:星条旗のピエロ ~ The MadPiero Laughs
Artist:Demetori
ArtistUnicode:Demetori
Creator:FinallyV
Version:Ascension to the Madness
Source:東方紺珠伝 ~ Legacy of Lunatic Kingdom.
Tags:
BeatmapID:2160184
BeatmapSetID:1033173

[Difficulty]
HPDrainRate:5.3
CircleSize:4.2
OverallDifficulty:9.4
ApproachRate:9.7
SliderMultiplier:2
SliderTickRate:1

[Events]
//Background and Video events
0,0,"Clownpiece.full.2059833.jpg",0,0
//Break Periods
//Storyboard Layer 0 (Background)
//Storyboard Layer 1 (Fail)
//Storyboard Layer 2 (Pass)
//Storyboard Layer 3 (Foreground)
//Storyboard Layer 4 (Overlay)
//Storyboard Sound Samples

[TimingPoints]
684,314.13612565445,4,2,0,50,1,0
684,-161.290322580645,4,2,0,50,0,0
1547,-161.290322580645,4,2,0,5,0,0
1626,-138.888888888889,4,2,0,50,0,0
4453,314.13612565445,4,2,0,50,1,0
4453,-121.951219512195,4,2,0,50,0,0
5709,-108.695652173913,4,2,0,50,0,0
10735,314.13612565445,4,2,0,50,1,0
10735,-121.951219512195,4,2,0,50,0,0
13563,314.13612565445,4,2,0,50,1,0
13563,-121.951219512195,4,2,0,50,0,0
21023,-121.951219512195,4,2,0,5,0,0
21102,-121.951219512195,4,2,0,50,0,0
26049,-121.951219512195,4,2,0,5,0,0
26128,-121.951219512195,4,2,0,50,0,0
27070,-121.951219512195,4,2,0,50,0,0
27149,-121.951219512195,4,2,0,5,0,0
27227,-121.951219512195,4,2,0,50,0,0
27306,-121.951219512195,4,2,0,5,0,0
27384,-121.951219512195,4,2,0,50,0,0
29898,-108.695652173913,4,2,0,50,0,0
37437,-121.951219512195,4,2,0,50,0,0
39950,-138.888888888889,4,2,0,50,0,0
43327,-138.888888888889,4,2,0,5,0,0
43405,-138.888888888889,4,2,0,50,0,0
44976,-108.695652173913,4,2,0,50,0,0
50002,-98.0392156862745,4,2,0,50,0,0
53772,-121.951219512195,4,2,0,50,0,0
55028,-121.951219512195,4,2,0,50,0,0
57542,-108.695652173913,4,2,0,50,0,0
59583,-121.951219512195,4,2,0,50,0,0
61233,-121.951219512195,4,2,0,5,0,0
61311,-121.951219512195,4,2,0,50,0,0
66259,-121.951219512195,4,2,0,5,0,0
66337,-121.951219512195,4,2,0,50,0,0
67358,-121.951219512195,4,2,0,5,0,0
67437,-121.951219512195,4,2,0,50,0,0
67515,-121.951219512195,4,2,0,5,0,0
67594,-121.951219512195,4,2,0,50,0,0
68693,-108.695652173913,4,2,0,50,0,0
77646,-121.951219512195,4,2,0,50,0,0
78196,-121.951219512195,4,2,0,5,0,0
78275,-121.951219512195,4,2,0,50,0,0
78824,-121.951219512195,4,2,0,5,0,0
78903,-121.951219512195,4,2,0,50,0,0
80159,-138.888888888889,4,2,0,50,0,0
83929,-138.888888888889,4,2,0,50,0,0
95395,-138.888888888889,4,2,0,5,0,0
95473,-138.888888888889,4,2,0,50,0,0
96023,-138.888888888889,4,2,0,5,0,0
96102,-138.888888888889,4,2,0,50,0,0
96652,-138.888888888889,4,2,0,5,0,0
96730,-138.888888888889,4,2,0,50,0,0
97280,-138.888888888889,4,2,0,5,0,0
97358,-138.888888888889,4,2,0,50,0,0
99479,-121.951219512195,4,2,0,50,0,0
100264,-108.695652173913,4,2,0,50,0,1
115343,-138.888888888889,4,2,0,50,0,0
120369,314.13612565445,4,2,0,50,1,0
120369,-192.307692307692,4,2,0,20,0,0
127908,-138.888888888889,4,2,0,50,0,0
134426,-138.888888888889,4,2,0,5,0,0
134505,-138.888888888889,4,2,0,50,0,0
152018,-138.888888888889,4,2,0,5,0,0
152096,-138.888888888889,4,2,0,50,0,0
154295,320.855614973262,4,2,0,50,1,0
154295,-192.307692307693,4,2,0,50,0,0
155257,324.324324324324,4,2,0,50,1,0
155257,-238.095238095238,4,2,0,50,0,0
156229,327.868852459016,4,2,0,50,1,0
156229,-312.499999999999,4,2,0,50,0,0
157212,321.71581769437,4,2,0,50,1,0
157212,-454.545454545452,4,2,0,50,0,0
158065,314.13612565445,4,2,0,50,1,0
158065,-108.695652173913,4,2,0,50,0,0
161834,-108.695652173913,4,2,0,50,0,0
163091,314.13612565445,4,2,0,50,1,0
163091,-121.951219512195,4,2,0,50,0,1
163954,-121.951219512195,4,2,0,5,0,1
164033,-121.951219512195,4,2,0,50,0,1
164897,-121.951219512195,4,2,0,5,0,1
164975,-121.951219512195,4,2,0,50,0,1
165839,-121.951219512195,4,2,0,5,0,1
165918,-121.951219512195,4,2,0,50,0,1
167724,-121.951219512195,4,2,0,5,0,1
167803,-121.951219512195,4,2,0,50,0,1
169687,-121.951219512195,4,2,0,50,0,0
170630,314.13612565445,4,2,0,50,1,0
170630,-121.951219512195,4,2,0,50,0,0
184373,-121.951219512195,4,2,0,5,0,0
184451,-121.951219512195,4,2,0,50,0,0
185630,-121.951219512195,4,2,0,5,0,0
185708,-121.951219512195,4,2,0,50,0,0
194425,-121.951219512195,4,2,0,5,0,0
194504,-121.951219512195,4,2,0,50,0,0
195682,-121.951219512195,4,2,0,5,0,0
195760,-121.951219512195,4,2,0,50,0,0
197488,-108.695652173913,4,2,0,50,0,0
198273,-121.951219512195,4,2,0,50,0,0
203064,-108.695652173913,4,2,0,50,0,0
205184,-121.951219512195,4,2,0,50,0,0
208326,-108.695652173913,4,2,0,50,0,1
218378,-138.888888888889,4,2,0,50,0,0
233457,-138.888888888889,4,2,0,50,0,0
242881,-108.695652173913,4,2,0,50,0,0
243509,-121.951219512195,4,2,0,50,0,1
258745,-121.951219512195,4,2,0,5,0,1
258823,-121.951219512195,4,2,0,50,0,1
259373,-121.951219512195,4,2,0,5,0,1
259451,-121.951219512195,4,2,0,50,0,1
260001,-121.951219512195,4,2,0,5,0,1
260079,-121.951219512195,4,2,0,50,0,1
260629,-121.951219512195,4,2,0,5,0,1
260707,-121.951219512195,4,2,0,50,0,1
262357,-108.695652173913,4,2,0,50,0,0
263614,-98.0392156862745,4,2,0,50,0,1
283719,314.13612565445,4,2,0,50,1,0
283719,-138.888888888889,4,2,0,50,0,0
285839,-138.888888888889,4,2,0,5,0,0
285917,-138.888888888889,4,2,0,50,0,0
286546,314.13612565445,4,2,0,50,1,0
286546,-121.951219512195,4,2,0,50,0,0
287802,-108.695652173913,4,2,0,50,0,1
292828,-89.2857142857143,4,2,0,50,0,0
294085,-312.5,4,2,0,50,0,0
301546,-312.5,4,2,0,5,0,0
301624,-312.5,4,2,0,50,0,0

[Colours]
Combo1 : 255,255,0
Combo2 : 213,0,0
Combo3 : 255,0,128
Combo4 : 255,191,128
Combo5 : 255,0,255
Combo6 : 9,132,255
Combo7 : 192,192,192

[HitObjects]
85,325,684,6,0,B|73:364|3:355|-4:306|20:266|62:255|89:282|106:314|106:314|118:312|118:312|157:358|233:356,1,340.999986471558
298,347,1626,6,0,L|462:328,2,144.000003515625
203,240,2568,2,0,L|207:276,2,36.0000008789063
191,162,2882,2,0,L|27:143,1,144.000003515625
158,127,3511,6,0,L|-6:108,2,144.000003515625
297,113,4296,1,0,0:0:0:0:
295,120,4375,1,0,0:0:0:0:
293,127,4453,6,0,P|287:169|288:225,1,82.0000012512207
459,336,4767,2,0,P|458:289|454:254,1,82.0000012512207
182,275,5081,2,0,P|167:215|165:195,1,82.0000012512207
413,78,5395,2,0,P|407:117|396:158,1,82.0000012512207
167,377,5709,5,0,0:0:0:0:
124,45,5866,1,0,0:0:0:0:
246,368,6023,5,0,0:0:0:0:
203,36,6180,1,0,0:0:0:0:
327,357,6337,5,0,0:0:0:0:
59,94,6494,1,0,0:0:0:0:
469,191,6651,5,0,0:0:0:0:
100,333,6809,1,0,0:0:0:0:
489,191,6966,5,0,0:0:0:0:
38,89,7123,1,0,0:0:0:0:
459,29,7280,5,0,0:0:0:0:
443,362,7437,1,0,0:0:0:0:
380,29,7594,5,0,0:0:0:0:
364,362,7751,1,0,0:0:0:0:
301,29,7908,5,0,0:0:0:0:
285,362,8065,1,0,0:0:0:0:
381,16,8222,5,0,0:0:0:0:
363,375,8379,1,0,0:0:0:0:
193,51,8536,1,0,0:0:0:0:
468,221,8693,1,0,0:0:0:0:
468,221,8772,1,0,0:0:0:0:
468,221,8850,1,0,0:0:0:0:
169,300,9007,1,0,0:0:0:0:
371,57,9165,1,0,0:0:0:0:
312,348,9322,1,0,0:0:0:0:
44,92,9479,5,0,0:0:0:0:
477,118,9636,1,0,0:0:0:0:
22,90,9793,5,0,0:0:0:0:
498,119,9950,1,0,0:0:0:0:
41,254,10107,6,0,L|112:227,1,45.9999984558106
184,355,10264,1,0,0:0:0:0:
184,355,10343,1,0,0:0:0:0:
184,355,10421,2,0,L|138:347,1,45.9999984558106
253,222,10578,2,0,L|327:204,1,45.9999984558106
421,309,10735,5,0,0:0:0:0:
393,327,10813,1,0,0:0:0:0:
357,337,10892,1,0,0:0:0:0:
316,335,10970,1,0,0:0:0:0:
274,317,11049,5,0,0:0:0:0:
462,44,11363,1,0,0:0:0:0:
357,337,11677,5,0,0:0:0:0:
462,44,11834,1,0,0:0:0:0:
274,317,11991,5,0,0:0:0:0:
379,20,12305,1,0,0:0:0:0:
284,275,12619,5,0,0:0:0:0:
312,293,12698,1,0,0:0:0:0:
348,303,12776,1,0,0:0:0:0:
389,301,12855,1,0,0:0:0:0:
431,283,12933,5,0,0:0:0:0:
205,32,13248,1,0,0:0:0:0:
290,157,13405,5,0,0:0:0:0:
276,148,13483,1,0,0:0:0:0:
260,140,13563,2,0,P|233:132|201:130,1,41.0000006256104
209,298,13720,2,0,P|236:306|268:308,1,41.0000006256104
135,212,13877,5,0,0:0:0:0:
135,212,13955,1,0,0:0:0:0:
135,211,14034,2,0,P|114:215|95:221,1,41.0000006256104
240,89,14191,5,0,0:0:0:0:
240,89,14269,1,0,0:0:0:0:
240,88,14348,2,0,P|260:92|279:98,1,41.0000006256104
399,203,14505,2,0,P|377:212|353:222,1,41.0000006256104
411,77,14662,1,0,0:0:0:0:
443,83,14741,1,0,0:0:0:0:
470,99,14819,6,0,P|482:116|501:148,1,41.0000006256104
339,253,14976,2,0,P|349:235|361:218,1,41.0000006256104
508,331,15133,5,0,0:0:0:0:
481,351,15212,1,0,0:0:0:0:
449,360,15290,1,0,0:0:0:0:
416,360,15369,1,0,0:0:0:0:
384,351,15447,2,0,L|313:336,1,41.0000006256104
234,290,15604,2,0,L|193:298,1,41.0000006256104
49,358,15761,6,0,P|35:327|27:292,1,41.0000006256104
148,202,15919,2,0,P|141:221|131:239,1,41.0000006256104
10,132,16076,6,0,L|58:141,1,41.0000006256104
202,40,16233,2,0,L|154:49,1,41.0000006256104
260,172,16390,5,0,0:0:0:0:
292,168,16468,1,0,0:0:0:0:
324,163,16547,1,0,0:0:0:0:
356,160,16625,1,0,0:0:0:0:
388,157,16704,2,0,L|436:150,1,41.0000006256104
506,56,16861,2,0,L|458:49,1,41.0000006256104
260,172,17018,6,0,L|308:165,1,41.0000006256104
484,313,17175,2,0,L|436:306,1,41.0000006256104
319,280,17332,5,0,0:0:0:0:
287,270,17411,1,0,0:0:0:0:
254,268,17489,1,0,0:0:0:0:
221,274,17568,1,0,0:0:0:0:
191,288,17646,1,0,0:0:0:0:
161,303,17725,1,0,0:0:0:0:
129,309,17803,1,0,0:0:0:0:
96,310,17882,1,0,0:0:0:0:
56,299,17960,5,0,0:0:0:0:
24,272,18039,1,0,0:0:0:0:
7,234,18117,1,0,0:0:0:0:
5,192,18196,1,0,0:0:0:0:
24,155,18275,1,0,0:0:0:0:
56,130,18353,1,0,0:0:0:0:
96,120,18432,1,0,0:0:0:0:
135,130,18510,1,0,0:0:0:0:
170,151,18589,6,0,P|201:159|269:151,1,82.0000012512207
457,47,18824,1,0,0:0:0:0:
418,31,18903,2,0,P|377:27|337:36,1,82.0000012512207
318,315,19217,5,0,0:0:0:0:
365,305,19295,1,0,0:0:0:0:
413,296,19374,1,0,0:0:0:0:
461,286,19453,1,0,0:0:0:0:
509,278,19531,1,0,0:0:0:0:
459,271,19610,1,0,0:0:0:0:
411,261,19688,1,0,0:0:0:0:
362,251,19767,1,0,0:0:0:0:
314,239,19845,5,0,0:0:0:0:
439,138,20002,1,0,0:0:0:0:
256,63,20159,1,0,0:0:0:0:
477,152,20316,1,0,0:0:0:0:
264,312,20473,2,0,L|277:194,1,82.0000012512207
288,59,20788,2,0,P|214:42|146:74,1,123.000001876831
93,83,21102,6,0,L|74:170,1,82.0000012512207
271,356,21416,2,0,L|253:275,1,82.0000012512207
77,276,21730,1,0,0:0:0:0:
77,276,21887,1,0,0:0:0:0:
257,126,22044,1,0,0:0:0:0:
271,356,22201,1,0,0:0:0:0:
453,259,22358,5,0,0:0:0:0:
213,203,22515,1,0,0:0:0:0:
364,119,22672,1,0,0:0:0:0:
466,281,22830,5,0,0:0:0:0:
226,225,22987,1,0,0:0:0:0:
377,141,23144,1,0,0:0:0:0:
484,308,23301,5,0,0:0:0:0:
349,90,23458,1,0,0:0:0:0:
285,349,23615,6,0,P|298:306|299:268,1,82.0000012512207
66,253,23929,2,0,P|69:285|86:333,1,82.0000012512207
207,167,24243,1,0,0:0:0:0:
207,167,24400,1,0,0:0:0:0:
382,241,24557,1,0,0:0:0:0:
355,44,24714,1,0,0:0:0:0:
207,167,24871,5,0,0:0:0:0:
410,237,25028,1,0,0:0:0:0:
139,318,25186,1,0,0:0:0:0:
438,233,25343,1,0,0:0:0:0:
232,53,25500,2,0,P|191:38|149:32,1,82.0000012512207
36,152,25814,2,0,L|46:304,1,123.000001876831
61,345,26128,6,0,L|149:314,1,82.0000012512207
425,311,26442,2,0,L|337:280,1,82.0000012512207
221,181,26756,5,0,0:0:0:0:
185,364,26913,1,0,0:0:0:0:
411,313,27070,2,0,L|389:264,1,41.0000006256104
310,131,27227,2,0,L|298:184,1,41.0000006256104
234,341,27384,5,0,0:0:0:0:
455,309,27542,1,0,0:0:0:0:
401,97,27699,2,0,B|404:134|404:134|401:157|401:157|407:205,1,82.0000012512207
363,346,28013,1,0,0:0:0:0:
142,314,28170,1,0,0:0:0:0:
238,83,28327,2,0,B|241:120|241:120|238:143|238:143|244:191,1,82.0000012512207
447,255,28641,5,0,0:0:0:0:
462,33,28798,1,0,0:0:0:0:
217,177,28955,5,0,0:0:0:0:
499,152,29112,1,0,0:0:0:0:
193,170,29269,5,0,0:0:0:0:
481,271,29426,1,0,0:0:0:0:
238,67,29583,5,0,0:0:0:0:
199,51,29662,1,0,0:0:0:0:
157,54,29741,1,0,0:0:0:0:
120,72,29819,1,0,0:0:0:0:
95,105,29898,5,0,0:0:0:0:
162,352,30055,1,0,0:0:0:0:
199,169,30212,2,0,B|161:179|161:179|136:180|136:180|96:193,1,91.9999969116212
89,195,30447,1,0,0:0:0:0:
73,199,30526,1,0,0:0:0:0:
274,357,30683,1,0,0:0:0:0:
50,205,30840,1,0,0:0:0:0:
335,112,30997,1,0,0:0:0:0:
335,112,31076,1,0,0:0:0:0:
335,112,31154,6,0,P|385:102|434:117,1,91.9999969116212
438,302,31468,1,0,0:0:0:0:
176,141,31625,1,0,0:0:0:0:
176,141,31704,1,0,0:0:0:0:
176,141,31782,1,0,0:0:0:0:
242,345,31939,1,0,0:0:0:0:
303,77,32097,2,0,L|298:130,1,45.9999984558106
296,227,32254,1,0,0:0:0:0:
300,242,32332,1,0,0:0:0:0:
304,257,32411,5,0,0:0:0:0:
509,146,32568,1,0,0:0:0:0:
361,105,32725,1,0,0:0:0:0:
314,292,32882,5,0,0:0:0:0:
505,170,33039,1,0,0:0:0:0:
357,129,33196,1,0,0:0:0:0:
306,328,33353,5,0,0:0:0:0:
366,74,33510,1,0,0:0:0:0:
448,349,33667,5,0,0:0:0:0:
448,349,33824,1,0,0:0:0:0:
426,170,33981,2,0,B|389:172|389:172|365:181|365:181|329:186,1,91.9999969116212
137,262,34295,1,0,0:0:0:0:
306,328,34453,1,0,0:0:0:0:
234,85,34610,2,0,B|235:119|235:119|229:144|229:144|230:183,1,91.9999969116212
232,199,34845,1,0,0:0:0:0:
234,215,34924,5,0,0:0:0:0:
43,321,35081,1,0,0:0:0:0:
141,156,35238,1,0,0:0:0:0:
212,362,35395,1,0,0:0:0:0:
212,362,35473,1,0,0:0:0:0:
212,362,35552,1,0,0:0:0:0:
307,120,35709,1,0,0:0:0:0:
137,262,35866,1,0,0:0:0:0:
410,315,36023,1,0,0:0:0:0:
410,315,36102,1,0,0:0:0:0:
410,315,36180,5,0,0:0:0:0:
106,255,36337,1,0,0:0:0:0:
286,96,36494,2,0,B|286:129|286:129|279:154|279:154|278:198,1,91.9999969116212
256,324,36809,1,0,0:0:0:0:
125,124,36966,1,0,0:0:0:0:
398,76,37123,1,0,0:0:0:0:
398,76,37202,1,0,0:0:0:0:
398,76,37280,2,0,L|370:145,1,45.9999984558106
337,239,37437,5,0,0:0:0:0:
192,83,37594,1,0,0:0:0:0:
135,282,37751,2,0,B|47:302,1,82.0000012512207
348,242,38065,5,0,0:0:0:0:
189,71,38222,1,0,0:0:0:0:
126,290,38379,2,0,B|38:310,1,82.0000012512207
42,296,38615,1,0,0:0:0:0:
40,283,38693,5,0,0:0:0:0:
348,242,38850,1,0,0:0:0:0:
59,200,39008,5,0,0:0:0:0:
297,172,39165,1,0,0:0:0:0:
82,119,39322,5,0,0:0:0:0:
257,98,39479,1,0,0:0:0:0:
106,40,39636,5,0,0:0:0:0:
210,28,39793,1,0,0:0:0:0:
59,200,39950,6,0,L|111:194,1,36.0000008789063
195,187,40107,1,0,0:0:0:0:
348,324,40264,6,0,L|294:317,1,36.0000008789063
212,311,40421,1,0,0:0:0:0:
256,48,40578,2,0,B|307:24|352:53|352:53|365:42|365:42|418:73|482:43,1,216.000005273438
189,100,41206,6,0,L|186:157,1,36.0000008789063
180,236,41363,1,0,0:0:0:0:
386,330,41521,6,0,L|383:289,1,36.0000008789063
376,193,41678,1,0,0:0:0:0:
86,278,41835,2,0,B|65:225|98:181|98:181|87:168|87:168|122:118|97:52,1,216.000005273438
128,365,42463,6,0,L|185:358,1,36.0000008789063
263,352,42620,1,0,0:0:0:0:
379,216,42777,6,0,L|321:209,1,36.0000008789063
244,203,42934,1,0,0:0:0:0:
436,22,43091,2,0,B|436:65|436:65|426:89|426:89|422:146,1,108.000002636719
395,132,43405,1,0,0:0:0:0:
371,131,43484,1,0,0:0:0:0:
348,140,43562,1,0,0:0:0:0:
327,151,43641,1,0,0:0:0:0:
310,171,43720,6,0,L|290:269,1,72.0000017578125
399,345,44034,2,0,L|383:268,1,72.0000017578125
220,200,44348,2,0,L|203:116,1,72.0000017578125
87,32,44662,2,0,L|71:107,1,72.0000017578125
70,343,44976,5,0,0:0:0:0:
453,282,45133,1,0,0:0:0:0:
50,263,45290,5,0,0:0:0:0:
433,202,45447,1,0,0:0:0:0:
30,186,45604,5,0,0:0:0:0:
453,282,45761,1,0,0:0:0:0:
219,49,45919,5,0,0:0:0:0:
70,343,46076,1,0,0:0:0:0:
302,69,46233,5,0,0:0:0:0:
60,355,46390,1,0,0:0:0:0:
218,32,46547,5,0,0:0:0:0:
175,371,46704,1,0,0:0:0:0:
303,33,46861,5,0,0:0:0:0:
260,372,47018,1,0,0:0:0:0:
388,34,47175,5,0,0:0:0:0:
345,373,47332,1,0,0:0:0:0:
296,19,47489,5,0,0:0:0:0:
434,367,47646,1,0,0:0:0:0:
216,50,47803,5,0,0:0:0:0:
494,296,47960,1,0,0:0:0:0:
494,296,48039,1,0,0:0:0:0:
494,296,48117,1,0,0:0:0:0:
152,234,48275,1,0,0:0:0:0:
512,134,48432,1,0,0:0:0:0:
154,54,48589,1,0,0:0:0:0:
381,323,48746,5,0,0:0:0:0:
391,283,48824,1,0,0:0:0:0:
392,241,48903,1,0,0:0:0:0:
385,200,48981,1,0,0:0:0:0:
368,162,49060,2,0,P|347:132|331:113,1,45.9999984558106
174,262,49217,1,0,0:0:0:0:
214,256,49295,1,0,0:0:0:0:
254,250,49374,2,0,L|319:242,1,45.9999984558106
454,92,49531,1,0,0:0:0:0:
413,70,49609,1,0,0:0:0:0:
366,68,49688,1,0,0:0:0:0:
321,81,49767,1,0,0:0:0:0:
279,99,49845,1,0,0:0:0:0:
232,96,49924,1,0,0:0:0:0:
192,72,50002,6,0,P|153:51|90:45,1,102.000000622559
49,328,50316,1,0,0:0:0:0:
81,320,50395,1,0,0:0:0:0:
113,314,50473,1,0,0:0:0:0:
180,144,50631,1,0,0:0:0:0:
148,138,50709,1,0,0:0:0:0:
116,130,50788,1,0,0:0:0:0:
266,311,50945,1,0,0:0:0:0:
298,305,51023,1,0,0:0:0:0:
330,297,51102,1,0,0:0:0:0:
478,89,51259,6,0,P|434:71|377:67,1,102.000000622559
452,342,51573,1,0,0:0:0:0:
457,309,51652,1,0,0:0:0:0:
463,277,51730,1,0,0:0:0:0:
277,181,51887,1,0,0:0:0:0:
283,213,51965,1,0,0:0:0:0:
288,246,52044,1,0,0:0:0:0:
473,122,52201,1,0,0:0:0:0:
478,89,52280,1,0,0:0:0:0:
484,57,52358,1,0,0:0:0:0:
283,213,52515,6,0,P|226:211|178:187,1,102.000000622559
29,32,52830,1,0,0:0:0:0:
61,33,52908,1,0,0:0:0:0:
93,34,52987,1,0,0:0:0:0:
256,136,53144,1,0,0:0:0:0:
224,137,53222,1,0,0:0:0:0:
192,138,53301,1,0,0:0:0:0:
46,272,53458,1,0,0:0:0:0:
77,266,53536,1,0,0:0:0:0:
109,261,53615,1,0,0:0:0:0:
324,358,53772,6,0,P|282:348|232:328,1,82.0000012512207
434,195,54086,2,0,P|472:180|512:171,1,82.0000012512207
245,334,54400,2,0,P|203:324|153:304,1,82.0000012512207
377,124,54714,2,0,P|415:109|455:100,1,82.0000012512207
166,310,55028,5,0,0:0:0:0:
125,316,55107,1,0,0:0:0:0:
84,307,55186,1,0,0:0:0:0:
53,279,55264,1,0,0:0:0:0:
40,239,55343,1,0,0:0:0:0:
46,198,55421,1,0,0:0:0:0:
67,163,55500,1,0,0:0:0:0:
103,144,55578,1,0,0:0:0:0:
152,139,55657,5,0,0:0:0:0:
195,160,55735,1,0,0:0:0:0:
230,194,55814,1,0,0:0:0:0:
276,209,55892,1,0,0:0:0:0:
333,204,55971,1,0,0:0:0:0:
385,181,56049,1,0,0:0:0:0:
416,132,56128,1,0,0:0:0:0:
416,74,56206,1,0,0:0:0:0:
385,34,56285,5,0,0:0:0:0:
354,72,56364,1,0,0:0:0:0:
341,119,56442,1,0,0:0:0:0:
345,168,56521,1,0,0:0:0:0:
366,211,56599,1,0,0:0:0:0:
391,253,56678,1,0,0:0:0:0:
394,301,56756,1,0,0:0:0:0:
376,347,56835,1,0,0:0:0:0:
323,370,56913,5,0,0:0:0:0:
265,365,56992,1,0,0:0:0:0:
229,320,57070,1,0,0:0:0:0:
227,262,57149,1,0,0:0:0:0:
255,203,57227,1,0,0:0:0:0:
237,139,57306,1,0,0:0:0:0:
186,97,57384,1,0,0:0:0:0:
120,101,57463,1,0,0:0:0:0:
69,143,57542,6,0,L|61:217,1,45.9999984558106
229,320,57699,5,0,0:0:0:0:
229,320,57777,1,0,0:0:0:0:
229,320,57856,2,0,L|221:243,1,45.9999984558106
358,96,58013,5,0,0:0:0:0:
358,96,58091,1,0,0:0:0:0:
358,96,58170,2,0,L|348:142,1,45.9999984558106
450,338,58327,5,0,0:0:0:0:
438,316,58405,1,0,0:0:0:0:
413,294,58484,1,0,0:0:0:0:
379,278,58562,1,0,0:0:0:0:
337,276,58641,1,0,0:0:0:0:
292,285,58720,1,0,0:0:0:0:
256,318,58798,6,0,L|207:320,1,30.6666656372071
26,210,59583,5,0,0:0:0:0:
67,206,59662,1,0,0:0:0:0:
108,203,59741,2,0,L|196:195,1,82.0000012512207
385,183,60055,5,0,0:0:0:0:
298,323,60212,1,0,0:0:0:0:
355,101,60369,1,0,0:0:0:0:
429,278,60526,1,0,0:0:0:0:
416,37,60683,2,0,P|370:16|319:21,1,82.0000012512207
189,195,60997,2,0,L|318:168,1,123.000001876831
385,183,61311,5,0,0:0:0:0:
303,336,61468,1,0,0:0:0:0:
141,268,61625,2,0,P|107:216|102:190,1,82.0000012512207
227,79,61939,1,0,0:0:0:0:
227,79,62097,1,0,0:0:0:0:
295,301,62254,1,0,0:0:0:0:
102,197,62411,1,0,0:0:0:0:
355,101,62568,5,0,0:0:0:0:
283,324,62725,1,0,0:0:0:0:
191,171,62882,1,0,0:0:0:0:
381,88,63039,5,0,0:0:0:0:
309,311,63196,1,0,0:0:0:0:
217,158,63353,1,0,0:0:0:0:
454,57,63510,5,0,0:0:0:0:
163,185,63667,1,0,0:0:0:0:
465,171,63824,5,0,0:0:0:0:
234,106,63981,1,0,0:0:0:0:
344,286,64138,2,0,L|443:264,1,82.0000012512207
360,115,64453,5,0,0:0:0:0:
274,322,64610,1,0,0:0:0:0:
358,81,64767,5,0,0:0:0:0:
441,347,64924,1,0,0:0:0:0:
179,294,65081,5,0,0:0:0:0:
309,197,65238,1,0,0:0:0:0:
120,227,65395,1,0,0:0:0:0:
362,325,65552,1,0,0:0:0:0:
82,369,65709,2,0,P|38:333|20:304,1,82.0000012512207
108,124,66023,2,0,P|172:144|214:205,1,123.000001876831
247,252,66337,5,0,0:0:0:0:
202,49,66494,1,0,0:0:0:0:
383,139,66652,2,0,L|476:132,1,82.0000012512207
462,280,66966,1,0,0:0:0:0:
462,280,67123,1,0,0:0:0:0:
233,317,67280,2,0,L|246:272,1,41.0000006256104
333,105,67437,2,0,L|358:145,1,41.0000006256104
478,295,67594,5,0,0:0:0:0:
321,84,67751,1,0,0:0:0:0:
227,332,67908,2,0,L|128:349,1,82.0000012512207
121,342,68144,1,0,0:0:0:0:
105,335,68222,1,0,0:0:0:0:
154,141,68379,1,0,0:0:0:0:
177,134,68458,1,0,0:0:0:0:
201,132,68536,1,0,0:0:0:0:
326,321,68693,2,0,L|381:313,1,45.9999984558106
481,286,68850,5,0,0:0:0:0:
463,248,68929,1,0,0:0:0:0:
434,218,69008,1,0,0:0:0:0:
395,204,69086,1,0,0:0:0:0:
353,206,69165,2,0,L|279:214,1,45.9999984558106
213,354,69322,2,0,L|277:360,1,45.9999984558106
413,210,69479,2,0,L|398:164,1,45.9999984558106
312,37,69636,1,0,0:0:0:0:
279,35,69714,1,0,0:0:0:0:
239,47,69793,1,0,0:0:0:0:
204,68,69871,1,0,0:0:0:0:
165,81,69950,1,0,0:0:0:0:
124,82,70028,1,0,0:0:0:0:
87,62,70107,5,0,0:0:0:0:
257,188,70264,1,0,0:0:0:0:
55,283,70421,2,0,P|40:230|44:190,1,91.9999969116212
55,168,70657,1,0,0:0:0:0:
64,154,70735,1,0,0:0:0:0:
171,0,70892,1,0,0:0:0:0:
253,163,71049,1,0,0:0:0:0:
104,290,71206,1,0,0:0:0:0:
104,290,71285,1,0,0:0:0:0:
104,290,71364,6,0,L|-9:269,1,91.9999969116212
155,110,71678,1,0,0:0:0:0:
244,320,71835,1,0,0:0:0:0:
244,320,71913,1,0,0:0:0:0:
244,320,71992,1,0,0:0:0:0:
60,180,72149,1,0,0:0:0:0:
329,102,72306,2,0,L|321:161,1,45.9999984558106
305,269,72463,1,0,0:0:0:0:
321,271,72542,1,0,0:0:0:0:
337,273,72620,5,0,0:0:0:0:
512,177,72777,1,0,0:0:0:0:
301,89,72934,1,0,0:0:0:0:
323,294,73091,5,0,0:0:0:0:
498,198,73248,1,0,0:0:0:0:
287,110,73405,1,0,0:0:0:0:
304,325,73562,5,0,0:0:0:0:
317,61,73720,1,0,0:0:0:0:
457,307,73877,5,0,0:0:0:0:
361,141,74034,1,0,0:0:0:0:
289,372,74191,2,0,L|180:350,1,91.9999969116212
183,345,74426,1,0,0:0:0:0:
168,336,74505,1,0,0:0:0:0:
264,189,74662,1,0,0:0:0:0:
377,323,74819,1,0,0:0:0:0:
377,323,74898,1,0,0:0:0:0:
377,323,74976,2,0,L|384:258,1,45.9999984558106
419,91,75133,5,0,0:0:0:0:
236,273,75290,1,0,0:0:0:0:
218,52,75447,1,0,0:0:0:0:
399,203,75604,1,0,0:0:0:0:
399,203,75683,1,0,0:0:0:0:
399,203,75761,1,0,0:0:0:0:
125,274,75919,1,0,0:0:0:0:
315,107,76076,2,0,L|323:173,1,45.9999984558106
344,323,76233,1,0,0:0:0:0:
328,326,76311,1,0,0:0:0:0:
311,329,76390,5,0,0:0:0:0:
65,331,76547,1,0,0:0:0:0:
202,161,76704,2,0,L|198:267,1,91.9999969116212
198,271,76939,1,0,0:0:0:0:
198,287,77018,1,0,0:0:0:0:
448,227,77175,1,0,0:0:0:0:
278,89,77332,1,0,0:0:0:0:
328,326,77489,1,0,0:0:0:0:
512,149,77646,5,0,0:0:0:0:
291,233,77803,1,0,0:0:0:0:
365,17,77960,2,0,L|391:139,1,123.000001876831
366,208,78275,5,0,0:0:0:0:
191,138,78432,1,0,0:0:0:0:
154,344,78589,2,0,L|279:318,1,123.000001876831
341,366,78903,5,0,0:0:0:0:
389,134,79060,1,0,0:0:0:0:
266,338,79217,5,0,0:0:0:0:
309,149,79374,1,0,0:0:0:0:
193,310,79531,5,0,0:0:0:0:
232,166,79688,1,0,0:0:0:0:
120,281,79845,5,0,0:0:0:0:
156,186,80002,1,0,0:0:0:0:
60,351,80159,6,0,L|24:199,1,144.000003515625
181,44,80631,2,0,L|153:197,1,144.000003515625
247,351,81102,2,0,L|339:334,1,72.0000017578125
488,315,81416,5,0,0:0:0:0:
380,225,81573,1,0,0:0:0:0:
468,118,81730,2,0,L|445:44,1,72.0000017578125
472,318,82044,5,0,0:0:0:0:
364,228,82201,1,0,0:0:0:0:
452,121,82358,2,0,L|429:47,1,72.0000017578125
251,274,82672,6,0,L|240:345,1,72.0000017578125
49,223,82987,2,0,L|39:151,1,72.0000017578125
192,23,83301,1,0,0:0:0:0:
192,23,83458,1,0,0:0:0:0:
257,232,83615,2,0,L|158:208,1,72.0000017578125
272,50,83929,6,0,L|352:39,1,72.0000017578125
462,176,84243,2,0,P|477:213|487:249,1,72.0000017578125
314,346,84557,2,0,P|325:291|336:257,1,72.0000017578125
472,141,84871,2,0,P|492:183|507:232,1,72.0000017578125
327,357,85186,6,0,L|172:334,1,144.000003515625
15,219,85657,2,0,L|180:203,1,144.000003515625
340,107,86128,2,0,L|257:81,1,72.0000017578125
42,46,86442,6,0,P|99:59|150:123,1,144.000003515625
373,211,86913,2,0,P|303:198|238:227,1,144.000003515625
68,320,87384,2,0,P|102:328|132:347,1,72.0000017578125
349,340,87699,5,0,0:0:0:0:
238,227,87856,1,0,0:0:0:0:
375,148,88013,2,0,L|449:175,1,72.0000017578125
325,335,88327,5,0,0:0:0:0:
214,222,88484,1,0,0:0:0:0:
351,143,88641,2,0,L|425:170,1,72.0000017578125
232,309,88955,6,0,L|153:327,1,72.0000017578125
50,194,89269,2,0,P|37:160|32:124,1,72.0000017578125
221,23,89583,2,0,P|214:59|197:94,1,72.0000017578125
26,228,89898,2,0,P|13:194|8:158,1,72.0000017578125
167,14,90212,6,0,P|229:17|289:80,1,144.000003515625
167,315,90683,2,0,L|125:167,1,144.000003515625
310,63,91154,2,0,L|299:147,1,72.0000017578125
349,338,91468,5,0,0:0:0:0:
238,227,91625,1,0,0:0:0:0:
396,156,91782,2,0,L|378:247,1,72.0000017578125
327,336,92097,5,0,0:0:0:0:
216,225,92254,1,0,0:0:0:0:
374,154,92411,2,0,L|356:245,1,72.0000017578125
153,343,92725,6,0,L|139:272,1,72.0000017578125
250,120,93039,2,0,L|319:139,1,72.0000017578125
468,283,93353,1,0,0:0:0:0:
468,283,93510,1,0,0:0:0:0:
480,43,93667,2,0,L|410:62,1,72.0000017578125
222,212,93981,6,0,L|295:228,1,72.0000017578125
187,27,94295,2,0,P|165:49|135:101,1,72.0000017578125
365,159,94610,2,0,P|345:128|320:102,1,72.0000017578125
102,177,94924,2,0,P|101:217|122:273,1,72.0000017578125
330,346,95238,6,0,L|416:332,1,72.0000017578125
483,285,95473,1,0,0:0:0:0:
467,269,95552,2,0,P|436:253|388:248,1,72.0000017578125
220,295,95866,6,0,L|134:281,1,72.0000017578125
67,234,96101,1,0,0:0:0:0:
83,218,96180,2,0,P|114:202|162:197,1,72.0000017578125
264,223,96494,6,0,L|350:209,1,72.0000017578125
417,162,96729,1,0,0:0:0:0:
401,146,96808,2,0,P|370:130|322:125,1,72.0000017578125
242,137,97123,6,0,L|156:123,1,72.0000017578125
89,76,97358,1,0,0:0:0:0:
105,60,97437,2,0,P|136:44|184:39,1,72.0000017578125
401,146,97751,5,0,0:0:0:0:
329,305,97908,1,0,0:0:0:0:
190,194,98065,2,0,L|168:114,1,72.0000017578125
406,169,98379,5,0,0:0:0:0:
334,328,98536,1,0,0:0:0:0:
195,217,98693,2,0,L|173:137,1,72.0000017578125
404,24,99008,6,0,L|389:124,1,72.0000017578125
334,328,99322,1,0,0:0:0:0:
278,159,99479,2,0,L|271:207,1,41.0000006256104
178,288,99636,1,0,0:0:0:0:
142,283,99714,1,0,0:0:0:0:
106,278,99793,1,0,0:0:0:0:
70,273,99871,1,0,0:0:0:0:
34,268,99950,2,0,L|28:327,3,41.0000006256104
45,151,100264,5,0,0:0:0:0:
62,129,100343,1,0,0:0:0:0:
86,116,100421,1,0,0:0:0:0:
113,110,100500,1,0,0:0:0:0:
149,111,100578,1,0,0:0:0:0:
182,127,100657,1,0,0:0:0:0:
211,148,100735,1,0,0:0:0:0:
235,175,100814,1,0,0:0:0:0:
264,197,100892,1,0,0:0:0:0:
298,210,100971,1,0,0:0:0:0:
334,214,101049,1,0,0:0:0:0:
370,208,101128,1,0,0:0:0:0:
410,187,101206,1,0,0:0:0:0:
437,149,101285,1,0,0:0:0:0:
442,103,101364,1,0,0:0:0:0:
427,59,101442,1,0,0:0:0:0:
390,31,101521,5,0,0:0:0:0:
348,33,101599,1,0,0:0:0:0:
318,55,101678,1,0,0:0:0:0:
304,83,101756,1,0,0:0:0:0:
305,119,101835,1,0,0:0:0:0:
324,150,101913,1,0,0:0:0:0:
358,165,101992,1,0,0:0:0:0:
394,169,102070,1,0,0:0:0:0:
432,184,102149,5,0,0:0:0:0:
453,218,102227,1,0,0:0:0:0:
457,259,102306,1,0,0:0:0:0:
439,296,102384,1,0,0:0:0:0:
399,319,102463,1,0,0:0:0:0:
352,316,102542,1,0,0:0:0:0:
313,291,102620,1,0,0:0:0:0:
296,247,102699,1,0,0:0:0:0:
310,194,102777,5,0,0:0:0:0:
312,138,102856,1,0,0:0:0:0:
288,88,102934,1,0,0:0:0:0:
242,55,103013,1,0,0:0:0:0:
187,47,103091,1,0,0:0:0:0:
134,64,103170,1,0,0:0:0:0:
100,107,103248,1,0,0:0:0:0:
86,160,103327,1,0,0:0:0:0:
98,213,103405,1,0,0:0:0:0:
135,254,103484,1,0,0:0:0:0:
187,270,103562,1,0,0:0:0:0:
242,263,103641,1,0,0:0:0:0:
290,235,103720,1,0,0:0:0:0:
332,200,103798,1,0,0:0:0:0:
386,188,103877,1,0,0:0:0:0:
438,202,103955,1,0,0:0:0:0:
477,240,104034,6,0,L|486:306,3,45.9999984558106
449,128,104348,5,0,0:0:0:0:
423,118,104426,1,0,0:0:0:0:
395,114,104505,2,0,P|362:118|332:126,1,45.9999984558106
284,292,104662,5,0,0:0:0:0:
309,282,104740,1,0,0:0:0:0:
333,269,104819,2,0,P|356:245|375:220,1,45.9999984558106
202,173,104976,5,0,0:0:0:0:
175,166,105054,1,0,0:0:0:0:
146,167,105133,2,0,P|120:175|90:194,1,45.9999984558106
39,325,105290,5,0,0:0:0:0:
64,335,105369,1,0,0:0:0:0:
91,339,105447,1,0,0:0:0:0:
118,338,105526,1,0,0:0:0:0:
144,332,105604,1,0,0:0:0:0:
168,318,105683,1,0,0:0:0:0:
195,293,105761,5,0,0:0:0:0:
217,322,105840,1,0,0:0:0:0:
250,338,105919,1,0,0:0:0:0:
286,339,105997,1,0,0:0:0:0:
322,332,106076,1,0,0:0:0:0:
354,315,106154,1,0,0:0:0:0:
382,278,106233,5,0,0:0:0:0:
345,249,106311,1,0,0:0:0:0:
336,203,106390,1,0,0:0:0:0:
348,159,106468,1,0,0:0:0:0:
390,123,106547,5,0,0:0:0:0:
367,72,106625,1,0,0:0:0:0:
319,43,106704,1,0,0:0:0:0:
264,48,106782,1,0,0:0:0:0:
217,78,106861,1,0,0:0:0:0:
202,130,106939,1,0,0:0:0:0:
217,183,107018,5,0,0:0:0:0:
177,159,107097,1,0,0:0:0:0:
131,156,107175,1,0,0:0:0:0:
87,170,107254,1,0,0:0:0:0:
54,202,107332,1,0,0:0:0:0:
44,247,107411,1,0,0:0:0:0:
57,290,107489,5,0,0:0:0:0:
80,255,107568,1,0,0:0:0:0:
85,218,107646,1,0,0:0:0:0:
75,182,107725,1,0,0:0:0:0:
43,148,107803,5,0,0:0:0:0:
43,101,107882,1,0,0:0:0:0:
62,59,107960,1,0,0:0:0:0:
99,32,108039,1,0,0:0:0:0:
144,25,108117,1,0,0:0:0:0:
188,38,108196,1,0,0:0:0:0:
220,71,108275,1,0,0:0:0:0:
232,114,108353,1,0,0:0:0:0:
223,159,108432,1,0,0:0:0:0:
193,194,108510,1,0,0:0:0:0:
178,237,108589,1,0,0:0:0:0:
182,282,108667,1,0,0:0:0:0:
201,324,108746,1,0,0:0:0:0:
239,348,108824,1,0,0:0:0:0:
285,351,108903,1,0,0:0:0:0:
326,331,108981,1,0,0:0:0:0:
352,293,109060,6,0,L|332:231,3,45.9999984558106
442,328,109374,5,0,0:0:0:0:
443,291,109453,1,0,0:0:0:0:
444,254,109531,2,0,L|445:182,1,45.9999984558106
320,131,109688,5,0,0:0:0:0:
325,167,109767,1,0,0:0:0:0:
330,203,109845,2,0,L|341:274,1,45.9999984558106
215,336,110002,5,0,0:0:0:0:
216,298,110081,1,0,0:0:0:0:
218,261,110159,2,0,L|219:186,1,45.9999984558106
148,96,110316,5,0,0:0:0:0:
122,107,110395,1,0,0:0:0:0:
101,125,110473,1,0,0:0:0:0:
85,148,110552,1,0,0:0:0:0:
72,182,110631,1,0,0:0:0:0:
70,218,110709,1,0,0:0:0:0:
82,252,110788,1,0,0:0:0:0:
102,282,110866,1,0,0:0:0:0:
132,303,110945,1,0,0:0:0:0:
167,309,111023,1,0,0:0:0:0:
203,305,111102,1,0,0:0:0:0:
236,291,111180,1,0,0:0:0:0:
270,260,111259,1,0,0:0:0:0:
304,229,111337,1,0,0:0:0:0:
348,217,111416,1,0,0:0:0:0:
393,220,111494,1,0,0:0:0:0:
434,246,111573,5,0,0:0:0:0:
455,276,111652,1,0,0:0:0:0:
455,312,111730,1,0,0:0:0:0:
440,345,111809,1,0,0:0:0:0:
405,375,111887,1,0,0:0:0:0:
358,378,111966,1,0,0:0:0:0:
318,355,112044,1,0,0:0:0:0:
297,313,112123,1,0,0:0:0:0:
302,266,112201,1,0,0:0:0:0:
325,225,112280,1,0,0:0:0:0:
343,183,112358,1,0,0:0:0:0:
342,136,112437,1,0,0:0:0:0:
320,85,112515,1,0,0:0:0:0:
274,53,112594,1,0,0:0:0:0:
220,43,112672,1,0,0:0:0:0:
167,59,112751,1,0,0:0:0:0:
128,111,112830,5,0,0:0:0:0:
122,174,112908,1,0,0:0:0:0:
150,232,112987,1,0,0:0:0:0:
206,262,113065,1,0,0:0:0:0:
270,260,113144,1,0,0:0:0:0:
328,234,113222,1,0,0:0:0:0:
352,173,113301,1,0,0:0:0:0:
340,110,113379,1,0,0:0:0:0:
280,83,113458,1,0,0:0:0:0:
218,98,113536,1,0,0:0:0:0:
191,157,113615,1,0,0:0:0:0:
206,219,113693,1,0,0:0:0:0:
260,254,113772,1,0,0:0:0:0:
323,259,113850,1,0,0:0:0:0:
382,232,113929,1,0,0:0:0:0:
446,238,114008,1,0,0:0:0:0:
495,278,114086,6,0,L|511:327,3,45.9999984558106
423,165,114400,5,0,0:0:0:0:
396,155,114479,1,0,0:0:0:0:
368,152,114557,2,0,P|336:161|301:179,1,45.9999984558106
213,282,114714,5,0,0:0:0:0:
248,293,114793,1,0,0:0:0:0:
284,294,114871,2,0,P|315:284|351:267,1,45.9999984558106
196,149,115028,5,0,0:0:0:0:
151,135,115107,1,0,0:0:0:0:
104,139,115186,2,0,P|72:148|46:159,1,45.9999984558106
141,262,115343,5,0,0:0:0:0:
267,102,115552,1,0,0:0:0:0:
397,262,115761,1,0,0:0:0:0:
123,254,115971,5,0,0:0:0:0:
276,91,116180,1,0,0:0:0:0:
403,279,116389,1,0,0:0:0:0:
105,245,116599,5,0,0:0:0:0:
288,80,116808,1,0,0:0:0:0:
409,298,117017,1,0,0:0:0:0:
86,233,117227,5,0,0:0:0:0:
302,70,117436,1,0,0:0:0:0:
414,321,117645,1,0,0:0:0:0:
421,302,117751,1,0,0:0:0:0:
429,284,117856,5,0,0:0:0:0:
213,46,118065,1,0,0:0:0:0:
91,319,118275,1,0,0:0:0:0:
466,207,118484,5,0,0:0:0:0:
182,40,118693,1,0,0:0:0:0:
102,360,118903,1,0,0:0:0:0:
502,147,119112,5,0,0:0:0:0:
162,20,119321,1,0,0:0:0:0:
135,381,119531,1,0,0:0:0:0:
182,52,119741,5,0,0:0:0:0:
454,154,119950,1,0,0:0:0:0:
161,341,120160,1,0,0:0:0:0:
205,92,120369,6,0,L|319:108,1,103.999999365234
454,154,120997,1,0,0:0:0:0:
147,150,121311,2,0,L|256:185,1,103.999999365234
381,254,121939,1,0,0:0:0:0:
84,200,122253,6,0,L|185:254,2,103.999999365234
428,200,123196,2,0,L|326:254,2,103.999999365234
238,53,124138,6,0,L|254:168,1,103.999999365234
274,288,124766,1,0,0:0:0:0:
344,90,125081,2,0,L|339:206,1,103.999999365234
338,327,125709,1,0,0:0:0:0:
443,162,126023,6,0,L|418:275,2,103.999999365234
69,162,126965,2,0,L|93:275,2,103.999999365234
323,56,127908,6,0,P|251:54|202:112,1,144.000003515625
158,245,128536,1,0,0:0:0:0:
231,30,128850,2,0,P|159:40|121:106,1,144.000003515625
128,285,129478,1,0,0:0:0:0:
361,203,129793,6,0,P|283:207|224:138,1,144.000003515625
175,32,130421,1,0,0:0:0:0:
457,51,130735,6,0,P|387:44|332:88,1,144.000003515625
269,221,131363,1,0,0:0:0:0:
507,340,131677,6,0,L|348:322,1,144.000003515625
209,342,132306,1,0,0:0:0:0:
423,242,132620,2,0,L|263:251,1,144.000003515625
128,295,133249,1,0,0:0:0:0:
314,152,133562,6,0,L|158:189,1,144.000003515625
32,255,134033,1,0,0:0:0:0:
32,255,134190,6,0,P|11:191|26:139,1,108.000002636719
66,100,134505,1,0,0:0:0:0:
249,196,134819,1,0,0:0:0:0:
446,100,135133,1,0,0:0:0:0:
445,301,135447,6,0,P|382:249|310:255,1,144.000003515625
177,312,136075,1,0,0:0:0:0:
403,194,136389,2,0,P|331:153|262:172,1,144.000003515625
140,251,137017,1,0,0:0:0:0:
210,81,137332,6,0,P|278:60|343:88,1,144.000003515625
432,208,137960,1,0,0:0:0:0:
284,321,138274,6,0,P|214:330|154:291,1,144.000003515625
80,162,138902,1,0,0:0:0:0:
285,23,139217,6,0,L|308:173,1,144.000003515625
388,308,139845,1,0,0:0:0:0:
177,85,140159,2,0,L|225:228,1,144.000003515625
327,347,140787,1,0,0:0:0:0:
35,209,141101,6,0,P|98:203|170:262,1,144.000003515625
255,374,141730,1,0,0:0:0:0:
431,143,142044,6,0,P|368:137|296:196,1,144.000003515625
211,308,142673,1,0,0:0:0:0:
89,118,142986,6,0,B|150:127|185:85|185:85|246:118|246:118|293:83|354:111,1,288.00000703125
211,308,143929,1,0,0:0:0:0:
300,179,144243,6,0,L|226:198,1,72.0000017578125
98,59,144557,2,0,L|114:143,1,72.0000017578125
296,197,144871,2,0,L|222:216,1,72.0000017578125
69,36,145185,6,0,L|97:187,1,144.000003515625
135,349,145814,1,0,0:0:0:0:
226,214,145971,1,0,0:0:0:0:
244,189,146442,1,0,0:0:0:0:
387,331,146756,6,0,P|447:283|455:191,1,144.000003515625
422,77,147384,1,0,0:0:0:0:
308,289,147698,2,0,P|358:231|350:139,1,144.000003515625
298,32,148326,1,0,0:0:0:0:
216,262,148641,6,0,P|255:196|232:107,1,144.000003515625
161,10,149269,1,0,0:0:0:0:
110,101,149426,1,0,0:0:0:0:
233,83,149583,1,0,0:0:0:0:
68,203,149897,1,0,0:0:0:0:
223,332,150211,1,0,0:0:0:0:
360,161,150526,6,0,L|184:181,1,144.000003515625
48,256,150997,1,0,0:0:0:0:
48,256,151154,2,0,L|63:332,1,72.0000017578125
202,247,151468,2,0,L|215:176,1,72.0000017578125
345,34,151782,6,0,L|376:159,1,108.000002636719
391,211,152096,1,0,0:0:0:0:
219,62,152410,2,0,P|138:40|72:68,1,144.000003515625
5,199,152882,1,0,0:0:0:0:
5,199,153039,1,0,0:0:0:0:
136,330,153353,1,0,0:0:0:0:
259,191,153667,1,0,0:0:0:0:
390,336,153981,1,0,0:0:0:0:
511,188,154295,6,0,P|468:86|372:29,1,207.999998730469
399,257,155257,6,0,P|376:175|292:132,1,167.999994873047
295,305,156229,6,0,P|292:246|225:229,1,128
203,330,157212,6,0,P|218:300|189:316,1,88.0000026855469
89,273,158065,5,0,0:0:0:0:
75,249,158143,1,0,0:0:0:0:
66,222,158222,1,0,0:0:0:0:
63,194,158300,1,0,0:0:0:0:
49,164,158379,5,0,0:0:0:0:
78,177,158457,1,0,0:0:0:0:
110,181,158536,1,0,0:0:0:0:
141,176,158614,1,0,0:0:0:0:
175,161,158693,5,0,0:0:0:0:
208,174,158771,1,0,0:0:0:0:
244,177,158850,1,0,0:0:0:0:
279,170,158928,1,0,0:0:0:0:
317,185,159007,5,0,0:0:0:0:
325,144,159085,1,0,0:0:0:0:
333,103,159164,1,0,0:0:0:0:
341,62,159243,1,0,0:0:0:0:
327,18,159321,5,0,0:0:0:0:
350,57,159400,1,0,0:0:0:0:
392,73,159478,1,0,0:0:0:0:
437,78,159557,1,0,0:0:0:0:
486,69,159635,5,0,0:0:0:0:
453,108,159714,1,0,0:0:0:0:
439,156,159792,1,0,0:0:0:0:
450,205,159871,1,0,0:0:0:0:
479,251,159949,5,0,0:0:0:0:
424,239,160028,1,0,0:0:0:0:
369,248,160106,1,0,0:0:0:0:
326,283,160185,1,0,0:0:0:0:
309,340,160263,5,0,0:0:0:0:
302,280,160342,1,0,0:0:0:0:
290,221,160421,1,0,0:0:0:0:
283,161,160499,1,0,0:0:0:0:
273,96,160578,5,0,0:0:0:0:
224,129,160656,1,0,0:0:0:0:
163,129,160735,1,0,0:0:0:0:
113,96,160813,1,0,0:0:0:0:
102,36,160892,5,0,0:0:0:0:
131,87,160970,1,0,0:0:0:0:
129,147,161049,1,0,0:0:0:0:
94,195,161127,1,0,0:0:0:0:
35,209,161206,5,0,0:0:0:0:
86,180,161284,1,0,0:0:0:0:
145,184,161363,1,0,0:0:0:0:
193,217,161441,1,0,0:0:0:0:
213,273,161520,5,0,0:0:0:0:
252,249,161599,1,0,0:0:0:0:
297,250,161677,1,0,0:0:0:0:
339,269,161756,1,0,0:0:0:0:
365,306,161834,6,0,L|356:359,3,45.9999984558106
355,197,162148,2,0,P|380:207|416:232,1,45.9999984558106
467,320,162305,2,0,L|478:251,1,45.9999984558106
476,117,162462,2,0,L|488:161,1,45.9999984558106
263,107,162619,1,0,0:0:0:0:
263,107,162698,1,0,0:0:0:0:
263,107,162777,2,0,L|269:63,1,45.9999984558106
396,216,162934,2,0,L|350:224,1,45.9999984558106
190,288,163091,6,0,L|190:247,1,41.0000006256104
116,78,163248,1,0,0:0:0:0:
116,94,163326,1,0,0:0:0:0:
116,110,163405,2,0,L|116:213,1,82.0000012512207
125,338,163640,1,0,0:0:0:0:
137,348,163719,2,0,P|180:365|261:331,1,123.000001876831
300,293,164033,6,0,P|284:280|266:273,1,41.0000006256104
364,334,164190,2,0,P|379:321|398:313,1,41.0000006256104
474,246,164347,2,0,P|485:201|485:162,1,82.0000012512207
421,56,164583,1,0,0:0:0:0:
406,48,164661,2,0,P|352:32|268:65,1,123.000001876831
233,96,164975,6,0,L|233:137,1,41.0000006256104
352,261,165132,1,0,0:0:0:0:
352,245,165210,1,0,0:0:0:0:
352,229,165289,2,0,L|352:126,1,82.0000012512207
220,22,165525,1,0,0:0:0:0:
204,28,165604,2,0,P|168:57|173:145,1,123.000001876831
190,194,165918,6,0,P|158:199|125:191,1,41.0000006256104
54,152,166075,2,0,P|86:147|119:155,1,41.0000006256104
76,299,166232,5,0,0:0:0:0:
323,278,166389,1,0,0:0:0:0:
51,301,166546,5,0,0:0:0:0:
347,275,166703,1,0,0:0:0:0:
168,64,166860,6,0,L|124:64,1,41.0000006256104
190,194,167017,1,0,0:0:0:0:
206,194,167096,1,0,0:0:0:0:
222,195,167174,2,0,L|333:195,1,82.0000012512207
430,81,167410,1,0,0:0:0:0:
417,70,167488,2,0,P|354:54|289:79,1,123.000001876831
235,97,167803,6,0,P|249:119|273:138,1,41.0000006256104
337,192,167960,2,0,P|351:177|361:159,1,41.0000006256104
201,235,168117,2,0,P|212:271|258:309,1,82.0000012512207
330,330,168352,1,0,0:0:0:0:
327,313,168431,6,0,L|321:273,3,41.0000006256104
415,352,168745,5,0,0:0:0:0:
431,334,168823,1,0,0:0:0:0:
453,324,168902,1,0,0:0:0:0:
477,322,168981,1,0,0:0:0:0:
509,328,169059,5,0,0:0:0:0:
482,307,169138,1,0,0:0:0:0:
467,277,169216,1,0,0:0:0:0:
460,244,169295,1,0,0:0:0:0:
465,203,169373,5,0,0:0:0:0:
424,194,169452,1,0,0:0:0:0:
390,170,169530,1,0,0:0:0:0:
372,132,169609,1,0,0:0:0:0:
373,83,169687,5,0,0:0:0:0:
329,309,169844,1,0,0:0:0:0:
306,43,170001,5,0,0:0:0:0:
253,314,170158,1,0,0:0:0:0:
51,102,170316,5,0,0:0:0:0:
394,194,170473,1,0,0:0:0:0:
106,363,170630,6,0,P|79:320|66:267,1,82.0000012512207
279,153,170944,2,0,P|265:191|242:225,1,82.0000012512207
21,94,171258,2,0,L|131:122,1,82.0000012512207
225,22,171572,1,0,0:0:0:0:
189,150,171729,1,0,0:0:0:0:
430,57,171886,6,0,L|348:63,1,82.0000012512207
346,226,172200,1,0,0:0:0:0:
368,234,172278,1,0,0:0:0:0:
392,237,172357,1,0,0:0:0:0:
416,235,172435,1,0,0:0:0:0:
439,228,172514,1,0,0:0:0:0:
236,384,172671,1,0,0:0:0:0:
257,193,172828,1,0,0:0:0:0:
407,309,172986,1,0,0:0:0:0:
283,115,173143,6,0,P|263:111|195:136,1,82.0000012512207
126,285,173457,1,0,0:0:0:0:
323,261,173614,1,0,0:0:0:0:
148,191,173771,5,0,0:0:0:0:
134,170,173849,1,0,0:0:0:0:
125,146,173928,1,0,0:0:0:0:
124,121,174006,1,0,0:0:0:0:
132,93,174085,5,0,0:0:0:0:
159,103,174164,1,0,0:0:0:0:
187,101,174242,1,0,0:0:0:0:
215,95,174321,1,0,0:0:0:0:
243,79,174399,6,0,P|276:99|346:106,1,82.0000012512207
476,179,174713,2,0,L|498:100,1,82.0000012512207
281,330,175027,2,0,L|258:251,1,82.0000012512207
414,98,175342,1,0,0:0:0:0:
391,227,175499,1,0,0:0:0:0:
222,92,175656,6,0,P|258:110|286:140,1,82.0000012512207
318,209,175891,1,0,0:0:0:0:
318,209,175970,2,0,L|310:297,1,82.0000012512207
84,255,176284,1,0,0:0:0:0:
191,190,176441,1,0,0:0:0:0:
37,324,176598,2,0,P|9:285|3:246,1,82.0000012512207
53,71,176912,6,0,L|144:72,1,82.0000012512207
198,115,177148,1,0,0:0:0:0:
198,115,177226,2,0,L|196:184,1,41.0000006256104
370,232,177383,2,0,L|368:191,1,41.0000006256104
243,36,177540,1,0,0:0:0:0:
268,48,177619,1,0,0:0:0:0:
287,69,177698,1,0,0:0:0:0:
300,93,177776,1,0,0:0:0:0:
306,125,177855,1,0,0:0:0:0:
297,156,177933,1,0,0:0:0:0:
286,187,178012,1,0,0:0:0:0:
280,219,178090,1,0,0:0:0:0:
281,260,178169,6,0,P|290:301|310:338,1,82.0000012512207
454,181,178483,1,0,0:0:0:0:
206,213,178640,2,0,P|196:253|199:295,1,82.0000012512207
396,220,178954,1,0,0:0:0:0:
157,144,179111,2,0,P|131:177|115:216,1,82.0000012512207
326,231,179425,6,0,P|295:203|259:184,1,82.0000012512207
308,336,179739,1,0,0:0:0:0:
315,113,179897,2,0,P|276:100|235:98,1,82.0000012512207
425,192,180211,1,0,0:0:0:0:
250,9,180368,2,0,P|209:14|171:30,1,82.0000012512207
161,104,180603,1,0,0:0:0:0:
161,104,180682,6,0,L|174:190,1,82.0000012512207
127,258,180996,1,0,0:0:0:0:
255,171,181153,2,0,L|230:254,1,82.0000012512207
188,318,181467,1,0,0:0:0:0:
340,249,181624,2,0,L|282:314,1,82.0000012512207
444,250,181938,6,0,P|431:204|396:169,1,82.0000012512207
321,155,182253,1,0,0:0:0:0:
492,139,182410,2,0,P|460:102|414:85,1,82.0000012512207
332,119,182724,1,0,0:0:0:0:
487,19,182881,2,0,P|443:0|394:3,1,82.0000012512207
259,74,183195,6,0,L|353:56,1,82.0000012512207
409,178,183509,1,0,0:0:0:0:
203,234,183666,2,0,L|109:216,1,82.0000012512207
348,349,183980,1,0,0:0:0:0:
409,178,184137,2,0,P|351:157|281:180,1,123.000001876831
223,160,184451,6,0,L|129:142,1,82.0000012512207
49,313,184766,1,0,0:0:0:0:
266,278,184923,2,0,L|360:260,1,82.0000012512207
456,81,185237,1,0,0:0:0:0:
293,171,185394,2,0,P|213:154|181:108,1,123.000001876831
162,57,185708,5,0,0:0:0:0:
271,86,185865,1,0,0:0:0:0:
129,172,186022,1,0,0:0:0:0:
292,76,186179,1,0,0:0:0:0:
108,182,186336,1,0,0:0:0:0:
298,269,186493,1,0,0:0:0:0:
162,57,186650,1,0,0:0:0:0:
48,280,186808,1,0,0:0:0:0:
48,280,186886,1,0,0:0:0:0:
48,280,186965,5,0,0:0:0:0:
231,166,187122,1,0,0:0:0:0:
220,357,187279,1,0,0:0:0:0:
144,226,187436,1,0,0:0:0:0:
381,290,187593,1,0,0:0:0:0:
226,251,187750,1,0,0:0:0:0:
339,147,187907,1,0,0:0:0:0:
446,381,188064,1,0,0:0:0:0:
135,320,188221,5,0,0:0:0:0:
316,240,188378,2,0,P|290:191|257:169,1,82.0000012512207
145,185,188691,1,0,0:0:0:0:
318,336,188849,2,0,P|370:318|398:290,1,82.0000012512207
385,53,189164,1,0,0:0:0:0:
269,175,189321,1,0,0:0:0:0:
464,198,189478,5,0,0:0:0:0:
244,173,189635,2,0,L|132:159,1,82.0000012512207
282,384,189949,1,0,0:0:0:0:
464,198,190106,1,0,0:0:0:0:
435,182,190184,1,0,0:0:0:0:
402,176,190263,1,0,0:0:0:0:
369,183,190342,1,0,0:0:0:0:
333,203,190420,1,0,0:0:0:0:
316,165,190499,1,0,0:0:0:0:
284,139,190577,1,0,0:0:0:0:
244,127,190656,1,0,0:0:0:0:
195,131,190734,5,0,0:0:0:0:
385,0,190891,2,0,L|372:89,1,82.0000012512207
339,297,191205,1,0,0:0:0:0:
130,188,191362,2,0,P|113:155|116:90,1,82.0000012512207
279,166,191677,1,0,0:0:0:0:
193,329,191834,1,0,0:0:0:0:
408,300,191991,5,0,0:0:0:0:
167,333,192148,2,0,L|72:345,1,82.0000012512207
221,97,192462,1,0,0:0:0:0:
408,300,192619,1,0,0:0:0:0:
376,310,192697,1,0,0:0:0:0:
342,309,192776,1,0,0:0:0:0:
311,296,192855,1,0,0:0:0:0:
280,270,192933,1,0,0:0:0:0:
256,304,193012,1,0,0:0:0:0:
220,323,193090,1,0,0:0:0:0:
178,327,193169,1,0,0:0:0:0:
131,314,193247,6,0,P|80:315|42:330,1,82.0000012512207
128,123,193561,1,0,0:0:0:0:
128,123,193719,2,0,P|157:154|175:220,1,82.0000012512207
280,270,194033,1,0,0:0:0:0:
442,116,194190,2,0,P|391:75|330:83,1,123.000001876831
277,116,194504,6,0,L|278:217,1,82.0000012512207
499,335,194818,1,0,0:0:0:0:
499,335,194975,2,0,P|463:303|409:291,1,82.0000012512207
220,375,195289,1,0,0:0:0:0:
217,149,195446,2,0,P|271:192|292:262,1,123.000001876831
298,334,195760,5,0,0:0:0:0:
320,313,195839,1,0,0:0:0:0:
348,307,195917,1,0,0:0:0:0:
377,309,195996,1,0,0:0:0:0:
409,319,196075,1,0,0:0:0:0:
441,320,196153,1,0,0:0:0:0:
473,310,196232,1,0,0:0:0:0:
498,287,196310,1,0,0:0:0:0:
512,250,196389,1,0,0:0:0:0:
510,212,196467,1,0,0:0:0:0:
494,174,196546,1,0,0:0:0:0:
463,150,196624,1,0,0:0:0:0:
420,137,196703,1,0,0:0:0:0:
379,150,196781,1,0,0:0:0:0:
346,179,196860,1,0,0:0:0:0:
310,204,196938,1,0,0:0:0:0:
257,209,197017,5,0,0:0:0:0:
210,202,197095,1,0,0:0:0:0:
173,169,197174,1,0,0:0:0:0:
156,122,197253,1,0,0:0:0:0:
162,71,197331,1,0,0:0:0:0:
191,33,197410,1,0,0:0:0:0:
243,15,197488,5,0,0:0:0:0:
257,68,197567,1,0,0:0:0:0:
241,120,197645,1,0,0:0:0:0:
197,154,197724,1,0,0:0:0:0:
143,165,197802,1,0,0:0:0:0:
88,154,197881,1,0,0:0:0:0:
45,118,197959,2,0,P|26:105|-24:86,1,45.9999984558106
139,277,198116,2,0,P|157:264|203:244,1,45.9999984558106
332,123,198273,6,0,P|405:85|494:118,1,164.000002502441
389,362,198745,2,0,L|420:178,1,164.000002502441
153,110,199216,2,0,L|170:204,1,82.0000012512207
288,350,199530,5,0,0:0:0:0:
301,221,199687,1,0,0:0:0:0:
171,282,199844,2,0,P|116:270|84:229,1,82.0000012512207
170,101,200158,6,0,L|179:48,2,54.6666675008138
301,221,200472,2,0,L|292:167,2,54.6666675008138
177,351,200787,6,0,P|84:319|55:251,1,164.000002502441
147,47,201258,2,0,L|172:226,1,164.000002502441
319,311,201729,2,0,L|327:230,1,82.0000012512207
269,98,202043,5,0,0:0:0:0:
245,258,202200,1,0,0:0:0:0:
410,183,202357,1,0,0:0:0:0:
410,183,202514,1,0,0:0:0:0:
258,179,202671,1,0,0:0:0:0:
398,307,202828,1,0,0:0:0:0:
480,142,202986,1,0,0:0:0:0:
459,117,203064,6,0,P|421:100|361:115,2,91.9999969116212
328,248,203509,6,0,L|334:186,1,61.3333312744141
230,51,203771,2,0,L|239:115,2,61.3333312744141
84,192,204085,2,0,L|185:208,2,91.9999969116212
229,338,204556,6,0,L|235:275,2,61.3333312744141
37,310,204870,2,0,L|44:371,2,61.3333312744141
106,119,205184,5,0,0:0:0:0:
235,277,205342,2,0,P|306:270|370:192,1,164.000002502441
163,35,205813,6,0,P|168:83|253:154,1,164.000002502441
429,98,206284,1,0,0:0:0:0:
366,204,206441,2,0,P|351:253|349:293,1,82.0000012512207
367,353,206677,1,0,0:0:0:0:
367,353,206755,1,0,0:0:0:0:
496,255,206912,1,0,0:0:0:0:
287,225,207069,5,0,0:0:0:0:
431,310,207226,1,0,0:0:0:0:
234,378,207383,2,0,P|178:369|145:338,1,82.0000012512207
100,161,207698,1,0,0:0:0:0:
225,295,207855,1,0,0:0:0:0:
225,295,207933,1,0,0:0:0:0:
225,295,208012,1,0,0:0:0:0:
278,128,208169,1,0,0:0:0:0:
76,341,208326,5,0,0:0:0:0:
59,311,208404,1,0,0:0:0:0:
52,283,208483,1,0,0:0:0:0:
52,255,208561,1,0,0:0:0:0:
57,227,208640,1,0,0:0:0:0:
71,203,208719,1,0,0:0:0:0:
97,185,208797,5,0,0:0:0:0:
119,207,208876,1,0,0:0:0:0:
148,220,208954,1,0,0:0:0:0:
180,224,209033,1,0,0:0:0:0:
211,221,209111,1,0,0:0:0:0:
241,209,209190,1,0,0:0:0:0:
270,186,209268,5,0,0:0:0:0:
302,203,209347,1,0,0:0:0:0:
325,231,209425,1,0,0:0:0:0:
336,266,209504,1,0,0:0:0:0:
333,307,209582,5,0,0:0:0:0:
352,270,209661,1,0,0:0:0:0:
387,249,209739,1,0,0:0:0:0:
428,244,209818,1,0,0:0:0:0:
465,262,209897,1,0,0:0:0:0:
491,293,209975,1,0,0:0:0:0:
496,338,210054,5,0,0:0:0:0:
450,330,210132,1,0,0:0:0:0:
417,296,210211,1,0,0:0:0:0:
410,250,210289,1,0,0:0:0:0:
422,205,210368,1,0,0:0:0:0:
453,171,210446,1,0,0:0:0:0:
503,165,210525,5,0,0:0:0:0:
483,118,210603,1,0,0:0:0:0:
438,93,210682,1,0,0:0:0:0:
387,90,210760,1,0,0:0:0:0:
340,119,210839,5,0,0:0:0:0:
322,86,210917,1,0,0:0:0:0:
293,62,210996,1,0,0:0:0:0:
258,49,211075,1,0,0:0:0:0:
221,51,211153,1,0,0:0:0:0:
186,63,211232,1,0,0:0:0:0:
156,91,211310,5,0,0:0:0:0:
175,127,211389,1,0,0:0:0:0:
179,167,211467,1,0,0:0:0:0:
162,205,211546,1,0,0:0:0:0:
127,228,211624,1,0,0:0:0:0:
86,236,211703,1,0,0:0:0:0:
43,218,211781,5,0,0:0:0:0:
89,214,211860,1,0,0:0:0:0:
129,235,211938,1,0,0:0:0:0:
153,274,212017,1,0,0:0:0:0:
151,324,212095,5,0,0:0:0:0:
173,278,212174,1,0,0:0:0:0:
216,251,212253,1,0,0:0:0:0:
265,244,212331,1,0,0:0:0:0:
312,261,212410,1,0,0:0:0:0:
350,293,212488,1,0,0:0:0:0:
364,346,212567,5,0,0:0:0:0:
418,341,212645,1,0,0:0:0:0:
461,305,212724,1,0,0:0:0:0:
474,251,212802,1,0,0:0:0:0:
459,197,212881,1,0,0:0:0:0:
415,163,212959,1,0,0:0:0:0:
354,160,213038,5,0,0:0:0:0:
307,196,213116,1,0,0:0:0:0:
246,193,213195,1,0,0:0:0:0:
204,150,213273,1,0,0:0:0:0:
200,85,213352,5,0,0:0:0:0:
244,132,213431,1,0,0:0:0:0:
256,194,213509,1,0,0:0:0:0:
221,248,213588,1,0,0:0:0:0:
161,272,213666,1,0,0:0:0:0:
97,259,213745,1,0,0:0:0:0:
65,213,213823,5,0,0:0:0:0:
113,186,213902,1,0,0:0:0:0:
167,190,213980,1,0,0:0:0:0:
213,220,214059,1,0,0:0:0:0:
231,271,214137,1,0,0:0:0:0:
228,326,214216,1,0,0:0:0:0:
194,363,214294,5,0,0:0:0:0:
163,322,214373,1,0,0:0:0:0:
115,304,214451,1,0,0:0:0:0:
64,307,214530,1,0,0:0:0:0:
22,328,214609,5,0,0:0:0:0:
64,345,214687,1,0,0:0:0:0:
110,345,214766,1,0,0:0:0:0:
152,328,214844,1,0,0:0:0:0:
181,292,214923,1,0,0:0:0:0:
186,246,215001,1,0,0:0:0:0:
169,197,215080,5,0,0:0:0:0:
202,234,215158,1,0,0:0:0:0:
252,241,215237,1,0,0:0:0:0:
301,232,215315,1,0,0:0:0:0:
346,208,215394,1,0,0:0:0:0:
366,161,215472,1,0,0:0:0:0:
360,115,215551,5,0,0:0:0:0:
314,122,215629,1,0,0:0:0:0:
268,111,215708,1,0,0:0:0:0:
237,76,215787,1,0,0:0:0:0:
234,21,215865,5,0,0:0:0:0:
284,44,215944,1,0,0:0:0:0:
310,91,216022,1,0,0:0:0:0:
306,146,216101,1,0,0:0:0:0:
269,186,216179,1,0,0:0:0:0:
215,200,216258,1,0,0:0:0:0:
158,180,216336,5,0,0:0:0:0:
209,148,216415,1,0,0:0:0:0:
267,157,216493,1,0,0:0:0:0:
314,194,216572,1,0,0:0:0:0:
329,251,216650,1,0,0:0:0:0:
313,308,216729,1,0,0:0:0:0:
257,341,216808,5,0,0:0:0:0:
288,285,216886,1,0,0:0:0:0:
348,261,216965,1,0,0:0:0:0:
411,269,217043,1,0,0:0:0:0:
462,316,217122,5,0,0:0:0:0:
403,351,217200,1,0,0:0:0:0:
333,351,217279,1,0,0:0:0:0:
277,310,217357,1,0,0:0:0:0:
255,243,217436,1,0,0:0:0:0:
267,175,217514,1,0,0:0:0:0:
314,124,217593,1,0,0:0:0:0:
381,113,217671,1,0,0:0:0:0:
443,142,217750,5,0,0:0:0:0:
380,154,217828,1,0,0:0:0:0:
323,132,217907,1,0,0:0:0:0:
295,83,217986,1,0,0:0:0:0:
255,51,218064,1,0,0:0:0:0:
212,31,218143,1,0,0:0:0:0:
170,31,218221,1,0,0:0:0:0:
136,47,218300,1,0,0:0:0:0:
109,65,218378,6,0,P|57:81|25:77,1,72.0000017578125
159,263,218692,2,0,P|211:247|243:251,1,72.0000017578125
300,92,219006,1,0,0:0:0:0:
415,219,219164,2,0,P|433:249|441:284,1,72.0000017578125
310,384,219478,1,0,0:0:0:0:
276,180,219635,6,0,P|250:166|197:163,1,72.0000017578125
37,302,219949,1,0,0:0:0:0:
227,247,220106,1,0,0:0:0:0:
227,247,220184,1,0,0:0:0:0:
227,247,220263,1,0,0:0:0:0:
82,113,220420,1,0,0:0:0:0:
141,347,220577,2,0,L|144:275,1,72.0000017578125
150,205,220813,1,0,0:0:0:0:
150,205,220891,5,0,0:0:0:0:
295,332,221048,1,0,0:0:0:0:
378,95,221205,2,0,P|362:123|350:170,1,72.0000017578125
500,340,221520,2,0,P|490:305|473:273,1,72.0000017578125
221,275,221834,1,0,0:0:0:0:
421,213,221991,2,0,P|431:199|436:139,1,72.0000017578125
235,50,222305,1,0,0:0:0:0:
300,172,222462,6,0,L|362:154,2,48.000001171875
221,275,222776,2,0,L|267:288,2,48.000001171875
131,170,223090,2,0,L|177:156,2,48.000001171875
66,294,223404,5,0,0:0:0:0:
89,288,225917,5,0,0:0:0:0:
480,224,228116,5,0,0:0:0:0:
397,308,228273,1,0,0:0:0:0:
352,158,228431,5,0,0:0:0:0:
336,139,230944,5,0,0:0:0:0:
52,53,233457,6,0,L|126:70,1,72.0000017578125
260,128,233771,2,0,L|186:145,1,72.0000017578125
96,227,234085,2,0,L|73:141,1,72.0000017578125
190,232,234399,2,0,L|171:301,1,72.0000017578125
355,238,234713,6,0,L|268:212,1,72.0000017578125
229,369,235027,2,0,L|316:343,1,72.0000017578125
449,319,235342,2,0,L|462:248,1,72.0000017578125
341,167,235656,2,0,L|354:237,1,72.0000017578125
371,308,235891,1,0,0:0:0:0:
349,308,235970,6,0,P|308:293|281:246,1,72.0000017578125
224,172,236284,2,0,P|189:155|149:152,1,72.0000017578125
86,276,236598,2,0,P|121:271|153:255,1,72.0000017578125
54,90,236912,2,0,P|35:117|27:163,1,72.0000017578125
224,172,237226,6,0,P|189:167|157:151,1,72.0000017578125
295,37,237540,2,0,P|326:20|362:15,1,72.0000017578125
427,224,237855,2,0,P|401:186|391:152,1,72.0000017578125
353,99,238090,1,0,0:0:0:0:
337,114,238169,2,0,P|321:151|334:209,1,72.0000017578125
372,253,238483,5,0,0:0:0:0:
246,93,238692,1,0,0:0:0:0:
116,253,238901,1,0,0:0:0:0:
390,245,239111,5,0,0:0:0:0:
237,82,239320,1,0,0:0:0:0:
110,270,239529,1,0,0:0:0:0:
408,236,239739,5,0,0:0:0:0:
225,71,239948,1,0,0:0:0:0:
104,289,240157,1,0,0:0:0:0:
427,224,240367,5,0,0:0:0:0:
211,61,240576,1,0,0:0:0:0:
99,312,240787,1,0,0:0:0:0:
92,293,240891,1,0,0:0:0:0:
84,275,240996,5,0,0:0:0:0:
300,37,241205,1,0,0:0:0:0:
422,310,241415,1,0,0:0:0:0:
47,198,241624,5,0,0:0:0:0:
331,31,241833,1,0,0:0:0:0:
411,351,242043,1,0,0:0:0:0:
11,138,242252,5,0,0:0:0:0:
351,11,242461,1,0,0:0:0:0:
378,372,242671,1,0,0:0:0:0:
331,43,242881,5,0,0:0:0:0:
289,53,242959,1,0,0:0:0:0:
246,61,243038,1,0,0:0:0:0:
203,69,243116,1,0,0:0:0:0:
160,80,243195,1,0,0:0:0:0:
201,89,243273,1,0,0:0:0:0:
243,98,243352,1,0,0:0:0:0:
285,105,243431,1,0,0:0:0:0:
327,113,243509,6,0,L|513:150,1,164.000002502441
271,296,243980,2,0,L|85:333,1,164.000002502441
84,72,244451,2,0,P|107:103|141:148,1,82.0000012512207
271,296,244766,5,0,0:0:0:0:
128,235,244923,1,0,0:0:0:0:
320,157,245080,2,0,P|355:174|389:215,1,82.0000012512207
254,291,245394,5,0,0:0:0:0:
111,230,245551,1,0,0:0:0:0:
303,152,245708,2,0,P|338:169|372:210,1,82.0000012512207
497,367,246022,6,0,L|413:340,1,82.0000012512207
288,225,246336,2,0,L|372:198,1,82.0000012512207
447,56,246650,1,0,0:0:0:0:
447,56,246808,1,0,0:0:0:0:
226,96,246965,2,0,P|174:85|132:42,1,82.0000012512207
366,199,247279,6,0,P|388:239|391:293,1,82.0000012512207
178,277,247593,2,0,P|131:268|91:235,1,82.0000012512207
300,147,247907,2,0,P|334:125|374:119,1,82.0000012512207
174,301,248221,2,0,P|127:292|87:259,1,82.0000012512207
92,42,248535,6,0,P|145:81|178:177,1,164.000002502441
374,119,249006,2,0,P|321:158|288:254,1,164.000002502441
464,352,249478,2,0,P|451:309|429:277,1,82.0000012512207
188,323,249792,6,0,P|223:359|334:362,1,164.000002502441
417,132,250263,2,0,P|328:154|290:221,1,164.000002502441
155,181,250734,2,0,L|128:103,1,82.0000012512207
263,23,251048,5,0,0:0:0:0:
235,156,251205,1,0,0:0:0:0:
398,77,251362,2,0,L|491:100,1,82.0000012512207
253,42,251677,5,0,0:0:0:0:
225,175,251834,1,0,0:0:0:0:
388,96,251991,2,0,L|481:119,1,82.0000012512207
408,326,252305,6,0,P|395:278|374:242,1,82.0000012512207
225,175,252619,2,0,P|185:179|142:202,1,82.0000012512207
330,303,252933,2,0,P|366:320|407:325,1,82.0000012512207
219,151,253247,2,0,P|179:155|136:178,1,82.0000012512207
68,369,253561,6,0,P|156:346|196:249,1,164.000002502441
358,168,254033,2,0,P|404:233|483:249,1,164.000002502441
207,43,254504,2,0,L|192:141,1,82.0000012512207
45,209,254818,5,0,0:0:0:0:
193,287,254975,1,0,0:0:0:0:
194,124,255132,2,0,P|151:115|102:129,1,82.0000012512207
59,226,255446,5,0,0:0:0:0:
207,304,255603,1,0,0:0:0:0:
208,141,255760,2,0,P|165:132|116:146,1,82.0000012512207
230,323,256075,6,0,P|273:332|322:318,1,82.0000012512207
464,105,256389,2,0,L|454:209,1,82.0000012512207
510,383,256703,1,0,0:0:0:0:
510,383,256860,1,0,0:0:0:0:
364,243,257017,2,0,P|319:226|276:235,1,82.0000012512207
125,352,257331,6,0,P|85:296|88:253,1,82.0000012512207
260,124,257645,2,0,P|249:158|210:204,1,82.0000012512207
75,122,257959,2,0,P|49:89|36:51,1,82.0000012512207
324,159,258273,2,0,P|313:193|274:239,1,82.0000012512207
0,345,258588,6,0,P|36:323|88:318,1,82.0000012512207
143,328,258823,1,0,0:0:0:0:
157,348,258902,2,0,P|190:369|245:371,1,82.0000012512207
465,262,259216,6,0,P|429:240|377:235,1,82.0000012512207
322,245,259451,1,0,0:0:0:0:
308,265,259530,2,0,P|275:286|220:288,1,82.0000012512207
90,216,259844,6,0,P|126:194|178:189,1,82.0000012512207
233,199,260079,1,0,0:0:0:0:
247,219,260158,2,0,P|280:240|335:242,1,82.0000012512207
399,173,260472,6,0,P|363:151|311:146,1,82.0000012512207
256,156,260707,1,0,0:0:0:0:
242,176,260786,2,0,P|209:197|154:199,1,82.0000012512207
82,56,261101,5,0,0:0:0:0:
183,120,261258,1,0,0:0:0:0:
55,256,261415,2,0,P|47:216|55:176,1,82.0000012512207
100,72,261729,5,0,0:0:0:0:
201,136,261886,1,0,0:0:0:0:
73,272,262043,2,0,P|65:231|72:191,1,82.0000012512207
276,304,262357,5,0,0:0:0:0:
302,310,262436,1,0,0:0:0:0:
329,310,262514,2,0,P|353:308|406:293,1,45.9999984558106
417,162,262671,2,0,P|401:186|389:218,1,45.9999984558106
512,350,262828,5,0,0:0:0:0:
509,322,262907,1,0,0:0:0:0:
501,295,262986,2,0,P|485:264|471:246,1,45.9999984558106
269,191,263143,2,0,P|285:209|330:239,1,45.9999984558106
417,89,263300,5,0,0:0:0:0:
371,82,263378,1,0,0:0:0:0:
324,76,263457,1,0,0:0:0:0:
278,70,263535,1,0,0:0:0:0:
232,64,263614,5,0,0:0:0:0:
201,68,263692,1,0,0:0:0:0:
175,85,263771,1,0,0:0:0:0:
155,108,263849,1,0,0:0:0:0:
140,140,263928,1,0,0:0:0:0:
136,175,264006,1,0,0:0:0:0:
147,209,264085,1,0,0:0:0:0:
166,239,264164,1,0,0:0:0:0:
195,259,264242,1,0,0:0:0:0:
230,265,264321,1,0,0:0:0:0:
265,263,264399,1,0,0:0:0:0:
298,249,264478,1,0,0:0:0:0:
328,221,264556,1,0,0:0:0:0:
363,199,264635,1,0,0:0:0:0:
402,188,264713,1,0,0:0:0:0:
443,186,264792,1,0,0:0:0:0:
485,203,264870,5,0,0:0:0:0:
450,211,264949,1,0,0:0:0:0:
414,207,265027,1,0,0:0:0:0:
384,186,265106,1,0,0:0:0:0:
363,150,265184,1,0,0:0:0:0:
365,109,265263,1,0,0:0:0:0:
382,71,265342,1,0,0:0:0:0:
417,52,265420,1,0,0:0:0:0:
463,53,265499,5,0,0:0:0:0:
435,89,265577,1,0,0:0:0:0:
392,108,265656,1,0,0:0:0:0:
346,114,265734,1,0,0:0:0:0:
297,98,265813,1,0,0:0:0:0:
260,63,265891,1,0,0:0:0:0:
214,39,265970,1,0,0:0:0:0:
163,31,266048,1,0,0:0:0:0:
103,46,266127,5,0,0:0:0:0:
61,90,266205,1,0,0:0:0:0:
44,149,266284,1,0,0:0:0:0:
48,209,266362,1,0,0:0:0:0:
85,257,266441,1,0,0:0:0:0:
141,281,266520,1,0,0:0:0:0:
201,276,266598,1,0,0:0:0:0:
255,246,266677,1,0,0:0:0:0:
287,194,266755,1,0,0:0:0:0:
339,161,266834,1,0,0:0:0:0:
399,158,266912,1,0,0:0:0:0:
457,178,266991,1,0,0:0:0:0:
492,227,267069,1,0,0:0:0:0:
498,286,267148,1,0,0:0:0:0:
472,343,267226,1,0,0:0:0:0:
417,372,267305,1,0,0:0:0:0:
356,371,267383,6,0,L|279:355,3,51.0000003112793
392,266,267698,5,0,0:0:0:0:
364,252,267776,1,0,0:0:0:0:
333,246,267855,2,0,P|294:244|266:250,1,51.0000003112793
196,340,268012,5,0,0:0:0:0:
224,354,268090,1,0,0:0:0:0:
255,360,268169,2,0,P|294:362|322:356,1,51.0000003112793
165,222,268326,5,0,0:0:0:0:
137,208,268404,1,0,0:0:0:0:
106,202,268483,2,0,P|67:200|39:206,1,51.0000003112793
17,381,268640,5,0,0:0:0:0:
44,367,268719,1,0,0:0:0:0:
67,348,268797,1,0,0:0:0:0:
84,322,268876,1,0,0:0:0:0:
92,292,268954,1,0,0:0:0:0:
88,261,269033,1,0,0:0:0:0:
74,228,269111,5,0,0:0:0:0:
104,247,269190,1,0,0:0:0:0:
139,252,269268,1,0,0:0:0:0:
174,249,269347,1,0,0:0:0:0:
205,232,269425,1,0,0:0:0:0:
229,205,269504,1,0,0:0:0:0:
241,166,269582,5,0,0:0:0:0:
201,175,269661,1,0,0:0:0:0:
160,172,269739,1,0,0:0:0:0:
125,149,269818,1,0,0:0:0:0:
109,105,269897,5,0,0:0:0:0:
145,132,269975,1,0,0:0:0:0:
189,142,270054,1,0,0:0:0:0:
234,137,270132,1,0,0:0:0:0:
275,116,270211,1,0,0:0:0:0:
302,79,270289,1,0,0:0:0:0:
312,28,270368,5,0,0:0:0:0:
285,71,270446,1,0,0:0:0:0:
281,122,270525,1,0,0:0:0:0:
309,163,270603,1,0,0:0:0:0:
354,185,270682,1,0,0:0:0:0:
404,186,270760,1,0,0:0:0:0:
448,160,270839,5,0,0:0:0:0:
402,166,270917,1,0,0:0:0:0:
375,203,270996,1,0,0:0:0:0:
373,249,271075,1,0,0:0:0:0:
407,292,271153,5,0,0:0:0:0:
360,260,271232,1,0,0:0:0:0:
304,252,271310,1,0,0:0:0:0:
248,263,271389,1,0,0:0:0:0:
209,303,271467,1,0,0:0:0:0:
173,346,271546,1,0,0:0:0:0:
118,358,271624,1,0,0:0:0:0:
62,349,271703,1,0,0:0:0:0:
26,306,271781,1,0,0:0:0:0:
16,250,271860,1,0,0:0:0:0:
37,198,271938,1,0,0:0:0:0:
85,169,272017,1,0,0:0:0:0:
140,163,272095,1,0,0:0:0:0:
190,188,272174,1,0,0:0:0:0:
243,204,272253,1,0,0:0:0:0:
298,195,272331,1,0,0:0:0:0:
344,162,272410,6,0,L|368:85,3,51.0000003112793
282,268,272724,5,0,0:0:0:0:
242,278,272802,1,0,0:0:0:0:
202,268,272881,2,0,P|165:255|135:225,1,51.0000003112793
177,94,273038,5,0,0:0:0:0:
210,118,273116,1,0,0:0:0:0:
228,155,273195,2,0,P|241:191|238:233,1,51.0000003112793
301,343,273352,5,0,0:0:0:0:
306,302,273430,1,0,0:0:0:0:
330,269,273509,2,0,P|355:239|394:222,1,51.0000003112793
449,101,273666,5,0,0:0:0:0:
415,77,273745,1,0,0:0:0:0:
374,71,273823,1,0,0:0:0:0:
333,77,273902,1,0,0:0:0:0:
294,101,273980,1,0,0:0:0:0:
270,140,274059,1,0,0:0:0:0:
263,185,274137,1,0,0:0:0:0:
248,228,274216,1,0,0:0:0:0:
214,258,274294,1,0,0:0:0:0:
172,278,274373,1,0,0:0:0:0:
126,281,274451,1,0,0:0:0:0:
81,269,274530,1,0,0:0:0:0:
42,235,274609,1,0,0:0:0:0:
27,186,274687,1,0,0:0:0:0:
32,134,274766,1,0,0:0:0:0:
56,89,274844,1,0,0:0:0:0:
98,60,274923,5,0,0:0:0:0:
143,58,275001,1,0,0:0:0:0:
188,65,275080,1,0,0:0:0:0:
221,96,275158,1,0,0:0:0:0:
246,140,275237,1,0,0:0:0:0:
273,182,275315,1,0,0:0:0:0:
317,207,275394,1,0,0:0:0:0:
367,207,275472,1,0,0:0:0:0:
415,190,275551,1,0,0:0:0:0:
447,151,275629,1,0,0:0:0:0:
454,100,275708,1,0,0:0:0:0:
435,52,275787,1,0,0:0:0:0:
388,20,275865,1,0,0:0:0:0:
331,15,275944,1,0,0:0:0:0:
282,42,276022,1,0,0:0:0:0:
256,92,276101,1,0,0:0:0:0:
268,151,276179,5,0,0:0:0:0:
310,195,276258,1,0,0:0:0:0:
322,254,276336,1,0,0:0:0:0:
310,314,276415,1,0,0:0:0:0:
262,352,276493,1,0,0:0:0:0:
201,361,276572,1,0,0:0:0:0:
142,345,276650,1,0,0:0:0:0:
106,294,276729,1,0,0:0:0:0:
99,232,276808,1,0,0:0:0:0:
121,175,276886,1,0,0:0:0:0:
174,144,276965,1,0,0:0:0:0:
234,142,277043,1,0,0:0:0:0:
291,163,277122,1,0,0:0:0:0:
331,208,277200,1,0,0:0:0:0:
390,224,277279,1,0,0:0:0:0:
448,207,277357,1,0,0:0:0:0:
489,161,277436,6,0,L|488:101,3,51.0000003112793
493,269,277750,5,0,0:0:0:0:
465,282,277828,1,0,0:0:0:0:
435,291,277907,2,0,P|400:296|354:295,1,51.0000003112793
204,190,278064,5,0,0:0:0:0:
244,183,278143,1,0,0:0:0:0:
283,189,278221,2,0,P|310:198|350:220,1,51.0000003112793
213,351,278378,5,0,0:0:0:0:
164,366,278457,1,0,0:0:0:0:
113,372,278535,2,0,P|75:369|37:349,1,51.0000003112793
125,158,278692,5,0,0:0:0:0:
291,274,278901,1,0,0:0:0:0:
368,83,279110,1,0,0:0:0:0:
110,170,279320,5,0,0:0:0:0:
303,282,279529,1,0,0:0:0:0:
369,65,279738,1,0,0:0:0:0:
95,184,279948,5,0,0:0:0:0:
317,289,280157,1,0,0:0:0:0:
369,45,280368,1,0,0:0:0:0:
80,201,280576,5,0,0:0:0:0:
334,294,280787,1,0,0:0:0:0:
367,21,280996,1,0,0:0:0:0:
380,37,281100,1,0,0:0:0:0:
392,52,281205,5,0,0:0:0:0:
256,343,281414,1,0,0:0:0:0:
60,118,281624,1,0,0:0:0:0:
450,115,281833,5,0,0:0:0:0:
229,358,282042,1,0,0:0:0:0:
59,75,282252,1,0,0:0:0:0:
502,162,282461,5,0,0:0:0:0:
215,383,282670,1,0,0:0:0:0:
84,45,282880,1,0,0:0:0:0:
225,346,283090,5,0,0:0:0:0:
454,169,283299,1,0,0:0:0:0:
121,76,283509,1,0,0:0:0:0:
235,301,283719,6,0,P|321:207|227:224,1,288.00000703125
51,151,284661,2,0,B|103:157|150:124|150:124|201:150|201:150|252:112|325:127,1,288.00000703125
407,196,285603,2,0,P|439:145|429:83,1,108.000002636719
397,42,285917,1,0,0:0:0:0:
364,58,285996,1,0,0:0:0:0:
328,63,286075,1,0,0:0:0:0:
292,61,286153,1,0,0:0:0:0:
254,48,286232,1,0,0:0:0:0:
212,37,286310,1,0,0:0:0:0:
164,37,286389,1,0,0:0:0:0:
119,60,286467,1,0,0:0:0:0:
85,112,286546,6,0,P|78:157|96:212,1,82.0000012512207
283,273,286860,2,0,P|290:232|283:192,1,82.0000012512207
49,350,287174,2,0,P|87:356|145:334,1,82.0000012512207
283,192,287488,2,0,P|243:181|203:186,1,82.0000012512207
449,334,287802,6,0,P|460:298|464:262,1,45.9999984558106
512,98,287959,1,0,0:0:0:0:
490,115,288038,1,0,0:0:0:0:
476,139,288116,2,0,P|455:164|434:178,1,45.9999984558106
284,79,288273,1,0,0:0:0:0:
311,69,288352,1,0,0:0:0:0:
339,66,288430,2,0,P|367:68|410:77,1,45.9999984558106
379,243,288587,2,0,P|372:267|352:303,1,45.9999984558106
219,228,288744,2,0,P|209:207|203:185,1,45.9999984558106
104,80,288902,2,0,P|73:100|44:132,1,45.9999984558106
56,272,289059,5,0,0:0:0:0:
77,254,289137,1,0,0:0:0:0:
102,244,289216,2,0,P|127:239|169:243,1,45.9999984558106
309,379,289373,1,0,0:0:0:0:
281,378,289451,1,0,0:0:0:0:
254,371,289530,2,0,P|228:357|204:333,1,45.9999984558106
288,185,289687,1,0,0:0:0:0:
297,210,289765,1,0,0:0:0:0:
297,237,289844,2,0,P|290:262|267:306,1,45.9999984558106
177,108,290001,2,0,P|168:86|163:64,1,45.9999984558106
319,57,290158,2,0,P|339:64|363:80,1,45.9999984558106
433,195,290315,5,0,0:0:0:0:
447,228,290394,1,0,0:0:0:0:
444,264,290472,1,0,0:0:0:0:
427,297,290551,1,0,0:0:0:0:
390,324,290629,1,0,0:0:0:0:
344,333,290708,1,0,0:0:0:0:
299,324,290786,1,0,0:0:0:0:
262,295,290865,1,0,0:0:0:0:
224,254,290943,1,0,0:0:0:0:
172,233,291022,1,0,0:0:0:0:
117,233,291100,1,0,0:0:0:0:
65,252,291179,1,0,0:0:0:0:
25,303,291258,1,0,0:0:0:0:
75,264,291336,1,0,0:0:0:0:
96,203,291415,1,0,0:0:0:0:
90,139,291493,1,0,0:0:0:0:
55,84,291572,5,0,0:0:0:0:
100,121,291650,1,0,0:0:0:0:
160,124,291729,1,0,0:0:0:0:
218,111,291807,1,0,0:0:0:0:
261,69,291886,1,0,0:0:0:0:
317,50,291964,1,0,0:0:0:0:
377,52,292043,1,0,0:0:0:0:
431,76,292121,1,0,0:0:0:0:
468,122,292200,5,0,0:0:0:0:
402,102,292278,1,0,0:0:0:0:
334,118,292357,1,0,0:0:0:0:
287,169,292436,1,0,0:0:0:0:
268,235,292514,1,0,0:0:0:0:
225,290,292593,1,0,0:0:0:0:
164,322,292671,1,0,0:0:0:0:
94,328,292750,1,0,0:0:0:0:
34,294,292828,6,0,B|171:283|100:343|254:362,1,224.000002734375
309,342,293221,1,0,0:0:0:0:
350,325,293299,1,0,0:0:0:0:
394,321,293378,1,0,0:0:0:0:
437,329,293456,2,0,L|411:286,1,37.3333337890625
328,133,293614,1,0,0:0:0:0:
314,141,294085,6,0,B|272:192|214:183|214:183|240:228|250:288|250:288|215:233|163:212|163:212|128:266|56:269|56:269|113:229|121:170|121:170|69:151|47:112|47:112|97:129|145:122|145:122|177:94|177:33|177:33|210:76|203:129|203:129|240:166|274:167|325:127|325:127|340:135|340:135|375:62|441:73|502:112|487:231|395:188|363:213|359:287|407:342|407:342,1,1520
256,192,301624,12,0,304137,0:0:0:0:
