osu file format v14

[General]
AudioFilename: audio.mp3
AudioLeadIn: 0
PreviewTime: 80079
Countdown: 0
SampleSet: Normal
StackLeniency: 0.4
Mode: 0
LetterboxInBreaks: 0
WidescreenStoryboard: 0

[Editor]
Bookmarks: 183195,223403,233455
DistanceSpacing: 1.7
BeatDivisor: 4
GridSize: 16
TimelineZoom: 1.7

[Metadata]
Title:Seijouki no Pierrot ~ The MadPiero Laughs
TitleUnicode:星条旗のピエロ ~ The MadPiero Laughs
Artist:Demetori
ArtistUnicode:Demetori
Creator:jonathanlfj
Version:sahuang's Extra
Source:東方紺珠伝 ~ Legacy of Lunatic Kingdom.
Tags:sahuang Touhou Kanjuden 東方Project Determinism&DestruKction クラウンピース Clownpiece The Pierrot of the Star-Spangled Banner Stage 5 ZUN c92 comiket 92
BeatmapID:1397263
BeatmapSetID:656918

[Difficulty]
HPDrainRate:6.5
CircleSize:4.3
OverallDifficulty:8.5
ApproachRate:9.2
SliderMultiplier:1.7
SliderTickRate:1

[Events]
//Background and Video events
0,0,"clownpiece.jpg",0,0
//Break Periods
//Storyboard Layer 0 (Background)
//Storyboard Layer 1 (Fail)
//Storyboard Layer 2 (Pass)
//Storyboard Layer 3 (Foreground)
//Storyboard Sound Samples

[TimingPoints]
684,314.13612565445,3,1,1,30,1,0
684,-125,3,1,1,30,0,0
1547,-125,3,1,1,5,0,0
1626,-125,3,1,1,35,0,0
4453,314.13612565445,4,1,1,70,1,0
4453,-125,4,1,1,70,0,0
10735,314.13612565445,3,1,1,70,1,0
10735,-111.111111111111,3,1,1,70,0,0
13563,314.13612565445,4,1,1,50,1,0
19845,-111.111111111111,4,1,1,50,0,0
27070,-83.3333333333333,4,1,1,50,0,0
28641,-100,4,1,1,50,0,0
34610,-83.3333333333333,4,1,1,50,0,0
34924,-100,4,1,1,50,0,0
38379,-125,4,1,1,50,0,0
38693,-100,4,1,1,50,0,0
39950,-125,4,1,1,50,0,0
43720,-71.4285714285714,4,1,1,50,0,0
43955,-71.4285714285714,4,1,1,10,0,0
44034,-83.3333333333333,4,1,1,50,0,0
44269,-83.3333333333333,4,1,1,10,0,0
44348,-100,4,1,1,50,0,0
44583,-100,4,1,1,10,0,0
44662,-125,4,1,1,50,0,0
44898,-125,4,1,1,10,0,0
44976,-100,4,1,1,50,0,0
47960,-83.3333333333333,4,1,1,50,0,0
49217,-100,4,1,1,50,0,0
50002,-83.3333333333333,4,1,1,50,0,1
53772,-71.4285714285714,4,1,1,50,0,0
54086,-83.3333333333333,4,1,1,50,0,0
54400,-100,4,1,1,50,0,0
54714,-125,4,1,1,50,0,0
55028,-100,4,1,1,50,0,1
58798,-100,4,1,1,50,0,0
59741,-62.5,4,1,1,50,0,0
60055,-83.3333333333333,4,1,1,50,0,0
64453,-100,4,1,1,50,0,0
65081,-83.3333333333333,4,1,1,50,0,0
70107,-100,4,1,1,50,0,0
80159,-83.3333333333333,4,1,1,50,0,1
95238,-100,4,1,1,50,0,0
99008,-83.3333333333333,4,1,1,50,0,0
100264,-83.3333333333333,4,1,1,50,0,1
115343,-111.111111111111,4,1,1,50,0,0
120369,314.13612565445,3,2,1,30,1,0
120369,-200,3,2,1,30,0,0
127908,-133.333333333333,3,2,1,30,0,0
154295,320.855614973262,3,2,1,30,1,0
154295,-289.8,3,2,1,30,0,0
155257,324.324324324324,3,2,1,30,1,0
156229,327.868852459016,3,2,1,30,1,0
157212,321.71581769437,3,2,1,30,1,0
157935,-300,3,2,1,10,0,0
158065,314.13612565445,4,1,1,45,1,1
158065,-90.9090909090909,4,1,1,45,0,1
161206,-76.9230769230769,4,1,1,45,0,1
163091,314.13612565445,3,1,1,45,1,0
163091,-90.9090909090909,3,1,1,45,0,0
170630,314.13612565445,4,1,1,45,1,0
170630,-90.9090909090909,4,1,1,45,0,0
178169,-90.9090909090909,4,1,1,45,0,1
185708,-90.9090909090909,4,1,1,45,0,0
188221,-83.3333333333333,4,1,1,45,0,1
198273,-100,4,1,1,45,0,0
205813,-83.3333333333333,4,1,1,45,0,0
208326,-83.3333333333333,4,1,1,45,0,1
217122,-71.4285714285714,4,1,1,45,0,1
220892,-100,4,1,1,45,0,1
221677,-125,4,1,1,45,0,1
223404,-125,4,1,1,45,0,0
233457,-166.666666666667,4,1,1,45,0,0
235970,-133.333333333333,4,1,1,45,0,0
238483,-111.111111111111,4,1,1,45,0,0
243509,-83.3333333333333,4,1,1,45,0,1
258588,-100,4,1,1,45,0,0
263614,-83.3333333333333,4,1,1,45,0,1
278692,-111.111111111111,4,1,1,45,0,0
283719,314.13612565445,3,1,1,70,1,0
283719,-400,3,1,1,70,0,0
284582,-400,3,1,1,10,0,0
284661,-400,3,1,1,70,0,0
285525,-400,3,1,1,10,0,0
285603,-400,3,1,1,60,0,0
286546,314.13612565445,4,1,1,70,1,0
286546,-71.4285714285714,4,1,1,70,0,0
286781,-71.4285714285714,4,1,1,10,0,0
286860,-83.3333333333333,4,1,1,70,0,0
287095,-83.3333333333333,4,1,1,10,0,0
287174,-100,4,1,1,70,0,0
287409,-100,4,1,1,10,0,0
287488,-125,4,1,1,70,0,0
287724,-125,4,1,1,10,0,0
287802,-133.333333333333,4,1,1,70,0,0
288744,-111.111111111111,4,1,1,70,0,0
289373,-100,4,1,1,70,0,0
290315,-83.3333333333333,4,1,1,70,0,0
291572,-71.4285714285714,4,1,1,70,0,0
292828,-62.5,4,1,1,70,0,0
304137,-100,4,2,1,40,0,0

[Colours]
Combo1 : 255,208,100
Combo2 : 1,98,243
Combo3 : 254,63,197
Combo4 : 255,51,56

[HitObjects]
265,259,684,6,0,B|337:231|369:319|305:403|197:363|185:283|241:251|283:198|237:142,1,374,2|0,2:0|2:0,0:0:0:0:
161,192,1626,5,4,1:0:0:0:
161,192,1940,1,2,0:0:0:0:
161,192,2254,1,2,0:0:0:0:
358,35,2568,5,4,1:0:0:0:
358,35,2882,1,2,0:0:0:0:
358,35,3197,1,2,0:0:0:0:
359,267,3511,5,4,1:0:0:0:
359,267,3825,1,2,0:0:0:0:
359,267,4139,1,2,0:0:0:0:
270,318,4296,1,0,0:0:0:0:
262,321,4375,1,0,0:0:0:0:
253,320,4453,6,0,L|161:314,1,68,8|0,0:0|2:0,0:0:0:0:
251,187,4767,2,0,L|343:181,1,68,4|0,0:2|2:0,0:0:0:0:
156,232,5081,2,0,L|64:226,1,68,0|0,0:0|2:0,0:0:0:0:
154,99,5395,2,0,L|246:93,1,68,4|0,0:2|2:0,0:0:0:0:
318,182,5709,5,8,0:0:0:0:
346,56,5866,1,0,0:0:0:0:
328,196,6023,1,8,0:0:0:0:
335,41,6180,1,0,0:0:0:0:
344,211,6337,1,8,0:0:0:0:
319,26,6494,1,0,0:0:0:0:
427,151,6651,5,10,0:0:0:0:
252,106,6809,1,10,0:0:0:0:
441,158,6966,2,0,L|523:150,1,68,8|0,0:0|0:0,0:0:0:0:
372,337,7280,5,8,0:0:0:0:
344,211,7437,1,0,0:0:0:0:
362,351,7594,1,8,0:0:0:0:
355,196,7751,1,0,0:0:0:0:
346,366,7908,1,10,0:0:0:0:
371,181,8065,1,10,0:0:0:0:
258,295,8222,5,8,0:0:0:0:
439,260,8379,1,0,0:0:0:0:
452,257,8536,1,8,0:0:0:0:
248,302,8693,2,2,L|155:294,1,68,2|8,0:0|0:0,0:0:0:0:
78,334,9007,1,2,0:0:0:0:
32,235,9165,2,2,P|27:194|37:156,1,68,8|2,0:0|0:0,0:0:0:0:
148,81,9479,5,12,0:2:0:0:
135,91,9636,1,0,0:0:0:0:
279,114,9793,5,12,0:2:0:0:
266,124,9950,1,0,0:0:0:0:
305,241,10108,5,8,0:0:0:0:
344,235,10186,1,8,0:3:0:0:
385,230,10264,1,8,0:3:0:0:
426,225,10343,1,0,0:0:0:0:
449,259,10421,5,0,0:0:0:0:
451,289,10500,1,0,0:0:0:0:
440,318,10578,1,0,0:0:0:0:
419,339,10657,1,0,0:0:0:0:
391,350,10735,6,0,L|342:342,3,38.2499988327027,4|0|0|0,0:0|0:0|0:0|0:0,0:0:0:0:
238,355,11049,1,8,0:0:0:0:
455,222,11363,1,8,0:0:0:0:
238,355,11677,5,0,0:0:0:0:
307,227,11834,1,0,0:0:0:0:
455,222,11991,1,8,0:0:0:0:
238,355,12305,1,8,0:0:0:0:
455,222,12619,6,0,L|445:174,3,38.2499988327027,4|0|0|0,0:0|0:0|0:0|0:0,0:0:0:0:
470,71,12933,1,8,0:0:0:0:
149,131,13248,1,8,0:0:0:0:
268,213,13405,1,0,0:0:0:0:
271,205,13484,1,0,0:0:0:0:
270,196,13562,6,0,L|265:138,3,38.2499988327027,8|8|8|8,0:3|0:3|0:3|0:3,0:0:0:0:
149,131,13877,2,0,L|171:77,3,42.5,0|0|0|0,0:0|0:0|0:0|0:0,0:0:0:0:
71,203,14191,2,0,L|85:248,3,42.5,8|0|0|0,0:3|0:0|0:0|0:0,0:0:0:0:
172,315,14505,1,8,0:3:0:0:
203,298,14583,1,0,0:0:0:0:
231,297,14662,1,8,0:3:0:0:
249,306,14740,1,8,0:3:0:0:
258,314,14819,6,0,L|243:212,1,85,4|0,0:2|0:0,0:0:0:0:
302,134,15055,1,0,0:0:0:0:
302,134,15133,2,0,L|317:32,1,85,0|0,0:0|0:0,0:0:0:0:
439,206,15447,2,0,P|400:231|349:226,1,85,8|0,0:0|0:0,0:0:0:0:
207,190,15761,1,2,0:0:0:0:
193,181,15919,1,2,0:0:0:0:
314,49,16076,6,0,L|302:134,1,85,0|0,0:0|0:0,0:0:0:0:
305,307,16390,1,0,0:0:0:0:
311,323,16547,1,0,0:0:0:0:
193,181,16704,1,8,0:0:0:0:
361,202,16861,1,0,0:0:0:0:
179,160,17018,1,2,0:0:0:0:
375,222,17175,1,2,0:0:0:0:
200,306,17332,6,0,B|159:312|159:312|100:294,1,85,0|0,0:0|0:0,0:0:0:0:
31,193,17646,1,0,0:0:0:0:
32,184,17725,1,0,0:0:0:0:
36,176,17803,2,2,L|23:85,1,85,2|8,0:0|0:0,0:0:0:0:
93,6,18117,1,2,0:0:0:0:
172,86,18275,2,2,P|212:99|260:89,1,85,0|2,0:0|0:0,0:0:0:0:
410,27,18589,5,8,0:0:0:0:
400,16,18746,1,0,0:0:0:0:
348,178,18903,5,8,0:0:0:0:
338,167,19060,1,0,0:0:0:0:
433,307,19217,5,8,0:0:0:0:
398,331,19295,1,8,0:0:0:0:
357,340,19374,1,8,0:0:0:0:
315,333,19452,1,8,0:0:0:0:
280,310,19531,1,8,0:0:0:0:
243,289,19610,1,8,0:0:0:0:
201,282,19688,1,8,0:0:0:0:
160,291,19767,1,8,0:0:0:0:
125,315,19845,5,6,0:0:0:0:
203,375,20002,1,0,0:0:0:0:
280,310,20159,2,2,P|284:269|257:221,1,76.4999976654053,10|0,0:0|2:0,0:0:0:0:
166,160,20473,1,2,0:0:0:0:
201,282,20631,1,0,0:0:0:0:
257,138,20788,2,2,P|238:99|170:65,1,114.749996498108,10|0,0:0|0:0,0:0:0:0:
140,76,21102,5,2,0:0:0:0:
69,146,21259,1,0,0:0:0:0:
88,243,21416,2,0,L|81:321,1,76.4999976654053,8|0,0:0|0:0,0:0:0:0:
199,372,21730,1,0,0:0:0:0:
270,302,21887,1,0,0:0:0:0:
251,205,22044,2,2,L|258:127,1,76.4999976654053,8|2,0:0|2:1,0:0:0:0:
335,24,22358,5,2,0:0:0:0:
381,145,22515,1,0,0:0:0:0:
257,128,22672,1,10,0:2:0:0:
360,26,22830,5,2,2:1:0:0:
374,168,22987,1,0,0:0:0:0:
247,114,23144,1,2,0:2:0:0:
247,114,23301,2,2,P|204:105|160:106,1,76.4999976654053,8|2,0:0|2:1,0:0:0:0:
85,184,23615,6,2,L|96:273,1,76.4999976654053,2|0,0:0|0:0,0:0:0:0:
243,264,23929,2,0,B|195:278|195:278|73:256,1,152.999995330811,8|0,0:0|0:0,0:0:0:0:
193,187,24400,1,0,0:0:0:0:
139,346,24557,2,2,L|49:331,1,76.4999976654053,8|2,0:0|2:1,0:0:0:0:
193,187,24871,5,6,0:0:0:0:
288,138,25028,1,0,0:0:0:0:
379,195,25186,2,2,P|413:208|469:207,1,76.4999976654053,10|0,0:0|0:0,0:0:0:0:
288,138,25500,1,2,0:0:0:0:
285,248,25657,1,0,0:0:0:0:
452,209,25814,2,2,L|444:92,1,114.749996498108,10|0,0:0|0:0,0:0:0:0:
421,63,26128,5,2,0:0:0:0:
314,19,26285,1,0,0:0:0:0:
223,100,26442,2,0,P|257:129|299:138,1,76.4999976654053,8|0,0:0|0:0,0:0:0:0:
421,63,26756,5,0,0:0:0:0:
405,178,26913,1,0,0:0:0:0:
230,296,27070,2,2,P|214:251|230:198,1,101.999996887207,8|2,0:0|0:0,0:0:0:0:
281,369,27384,5,0,0:0:0:0:
134,322,27542,1,0,0:0:0:0:
228,200,27699,2,2,B|337:204|337:204|296:229,1,152.999995330811,10|0,0:0|2:0,0:0:0:0:
230,296,28013,5,0,0:0:0:0:
83,249,28171,1,0,0:0:0:0:
177,127,28328,2,2,B|200:98|183:57|183:57|218:87|267:76,1,152.999995330811,10|0,0:0|2:0,0:0:0:0:
294,57,28641,5,2,0:0:0:0:
299,226,28798,1,0,0:0:0:0:
419,147,28955,1,8,0:0:0:0:
250,152,29112,1,0,0:0:0:0:
428,70,29269,1,8,0:0:0:0:
434,272,29426,1,0,0:0:0:0:
431,280,29505,1,0,0:0:0:0:
425,286,29583,2,0,L|383:294,1,42.5,8|8,0:0|0:3,0:0:0:0:
210,330,29741,2,0,L|252:338,1,42.5,8|0,0:3|0:0,0:0:0:0:
258,236,29898,6,2,L|267:330,1,85,6|0,0:0|0:0,0:0:0:0:
99,220,30212,2,2,L|108:126,1,85,10|0,0:0|2:0,0:0:0:0:
147,71,30447,1,0,0:0:0:0:
147,71,30526,1,2,0:0:0:0:
23,163,30683,1,0,0:0:0:0:
196,183,30840,2,2,P|240:165|284:170,1,85,10|0,0:0|0:0,0:0:0:0:
365,240,31154,5,2,0:0:0:0:
251,254,31311,1,0,0:0:0:0:
343,108,31468,1,8,0:0:0:0:
457,122,31625,1,0,0:0:0:0:
464,126,31704,1,0,2:0:0:0:
469,132,31782,2,0,L|466:225,1,85,0|0,0:0|0:0,0:0:0:0:
338,333,32097,2,2,L|245:330,1,85,8|2,0:0|0:0,0:0:0:0:
161,192,32411,5,2,0:0:0:0:
233,108,32568,1,0,0:0:0:0:
343,108,32725,1,10,0:2:0:0:
173,200,32882,5,2,2:1:0:0:
64,179,33039,1,0,0:0:0:0:
9,84,33196,1,2,0:2:0:0:
173,187,33353,5,8,0:0:0:0:
209,291,33510,1,0,0:0:0:0:
144,380,33667,6,2,L|51:372,1,85,2|0,0:0|0:0,0:0:0:0:
219,282,33981,2,0,L|312:274,1,85,8|0,0:0|0:0,0:0:0:0:
430,264,34217,1,0,0:0:0:0:
430,264,34295,1,0,0:0:0:0:
374,379,34453,1,0,0:0:0:0:
303,274,34610,6,0,B|285:226|285:226|301:125,1,152.999995330811,8|0,0:0|0:0,0:0:0:0:
362,171,34924,6,2,P|331:200|289:205,1,85,6|0,0:0|0:0,0:0:0:0:
93,161,35238,2,2,P|129:134|170:129,1,85,10|0,0:0|0:0,0:0:0:0:
162,212,35473,1,0,0:0:0:0:
162,212,35552,1,2,0:0:0:0:
29,198,35709,1,0,0:0:0:0:
165,43,35866,2,2,L|167:135,1,85,10|0,0:0|0:0,0:0:0:0:
236,230,36180,5,2,0:0:0:0:
222,344,36337,1,0,0:0:0:0:
407,255,36494,1,8,0:0:0:0:
393,141,36651,1,0,0:0:0:0:
389,134,36730,1,0,2:0:0:0:
383,129,36809,2,0,L|290:132,1,85
505,269,37123,2,2,L|412:266,1,85,8|2,0:0|0:0,0:0:0:0:
222,344,37437,5,0,0:0:0:0:
68,270,37594,1,8,0:0:0:0:
51,143,37751,1,2,0:0:0:0:
69,117,37908,1,0,0:0:0:0:
256,114,38065,5,8,0:0:0:0:
239,229,38222,1,0,0:0:0:0:
222,344,38379,2,2,B|254:357|254:357|294:347,1,68,10|0,0:0|0:0,0:0:0:0:
389,315,38615,1,0,0:0:0:0:
389,315,38693,5,10,0:0:0:0:
482,133,38850,1,8,0:0:0:0:
301,40,39008,1,8,0:0:0:0:
207,221,39165,1,8,0:0:0:0:
310,240,39322,5,8,0:3:0:0:
408,210,39479,1,8,0:3:0:0:
378,113,39637,1,0,0:0:0:0:
280,143,39794,1,0,0:0:0:0:
408,210,39950,6,0,L|485:199,1,68,4|8,0:0|0:3,0:0:0:0:
280,143,40264,2,0,L|203:132,1,68,0|8,0:0|0:3,0:0:0:0:
327,335,40578,1,8,0:0:0:0:
333,236,40735,1,8,0:3:0:0:
400,159,40892,1,0,0:0:0:0:
406,60,41049,1,0,0:0:0:0:
205,115,41206,5,8,0:3:0:0:
209,124,41284,1,0,0:0:0:0:
212,133,41363,1,0,0:0:0:0:
302,185,41521,5,8,0:3:0:0:
293,183,41599,1,0,0:0:0:0:
283,182,41678,1,8,0:3:0:0:
152,272,41835,5,8,0:0:0:0:
134,372,41992,1,0,0:0:0:0:
34,354,42149,1,8,0:3:0:0:
52,254,42306,1,0,0:0:0:0:
105,91,42463,5,8,0:3:0:0:
106,97,42541,1,0,0:0:0:0:
107,104,42620,1,8,0:3:0:0:
214,180,42777,5,8,0:3:0:0:
215,173,42856,1,0,0:0:0:0:
216,166,42934,1,8,0:3:0:0:
303,70,43091,5,8,0:0:0:0:
373,179,43248,1,0,0:0:0:0:
360,210,43327,1,0,0:0:0:0:
326,226,43405,1,0,0:0:0:0:
330,259,43484,1,0,0:0:0:0:
297,276,43562,1,0,0:0:0:0:
317,302,43641,1,0,0:0:0:0:
284,340,43720,6,0,B|415:324|415:324|375:360,1,178.499994552612,4|0,0:0|2:0,0:0:0:0:
272,350,44034,6,0,B|403:334|403:334|363:370,1,152.999995330811,4|0,0:2|2:0,0:0:0:0:
262,357,44348,6,0,B|374:343|374:343|340:374,1,127.5,0|0,0:0|2:0,0:0:0:0:
253,363,44662,6,0,B|345:351|345:351|317:377,1,102,4|0,0:2|2:0,0:0:0:0:
143,316,44976,5,8,0:0:0:0:
172,183,45133,1,0,0:0:0:0:
155,332,45290,1,8,0:0:0:0:
159,165,45447,1,0,0:0:0:0:
174,350,45604,1,8,0:0:0:0:
140,147,45761,1,0,0:0:0:0:
273,278,45918,1,10,0:0:0:0:
59,228,46076,1,10,0:0:0:0:
273,278,46233,6,0,B|287:236|287:236|268:175,1,85,8|0,0:0|0:0,0:0:0:0:
199,80,46547,1,8,0:0:0:0:
191,235,46704,1,0,0:0:0:0:
272,90,46861,1,8,0:0:0:0:
131,191,47018,1,0,0:0:0:0:
345,99,47175,1,10,0:0:0:0:
72,148,47332,1,10,0:0:0:0:
191,235,47489,5,8,0:0:0:0:
199,80,47646,1,0,0:0:0:0:
125,264,47803,1,8,0:0:0:0:
388,199,47960,2,2,B|342:203|315:179|315:179|296:190|273:192,1,101.999996887207,2|8,0:0|0:0,0:0:0:0:
372,106,48275,1,2,0:0:0:0:
307,270,48432,1,8,0:0:0:0:
478,243,48589,1,2,0:0:0:0:
307,270,48746,6,0,P|297:294|298:328,3,50.9999984436036,12|0|8|0,0:2|0:0|0:3|0:0,0:0:0:0:
269,257,49060,5,8,0:3:0:0:
259,268,49138,1,0,0:0:0:0:
247,274,49217,2,0,B|225:280|225:280|189:276,1,42.5,10|0,0:0|0:0,0:0:0:0:
30,229,49374,5,0,0:0:0:0:
41,224,49452,1,0,0:0:0:0:
53,221,49531,2,0,B|75:215|75:215|111:219,1,42.5,8|0,0:0|0:0,0:0:0:0:
176,348,49688,5,2,0:0:0:0:
160,304,49767,1,0,0:0:0:0:
170,258,49845,1,10,0:0:0:0:
183,213,49923,1,0,0:0:0:0:
169,169,50002,6,2,P|132:137|77:132,1,101.999996887207,6|8,0:0|0:0,0:0:0:0:
165,43,50316,1,0,0:0:0:0:
190,39,50394,1,0,0:0:0:0:
215,36,50473,1,10,0:0:0:0:
338,121,50631,1,0,0:0:0:0:
312,117,50709,1,0,0:0:0:0:
287,114,50788,1,8,0:0:0:0:
163,193,50945,1,2,0:0:0:0:
189,189,51023,1,0,0:0:0:0:
214,186,51102,1,8,0:0:0:0:
380,284,51259,6,2,L|262:265,1,101.999996887207,2|8,0:0|0:0,0:0:0:0:
129,295,51573,1,0,0:0:0:0:
114,273,51651,1,0,0:0:0:0:
111,248,51730,1,10,0:0:0:0:
180,147,51887,1,0,0:0:0:0:
206,145,51965,1,0,0:0:0:0:
229,155,52044,1,8,0:0:0:0:
279,267,52201,1,2,0:0:0:0:
267,291,52279,1,0,0:0:0:0:
247,306,52358,1,8,0:0:0:0:
194,231,52515,5,2,0:0:0:0:
349,170,52672,1,8,0:0:0:0:
229,155,52830,1,2,0:0:0:0:
254,151,52908,1,0,0:0:0:0:
279,148,52987,1,8,0:0:0:0:
163,63,53144,1,2,0:0:0:0:
188,67,53222,1,0,0:0:0:0:
213,70,53301,1,8,0:0:0:0:
95,150,53458,1,2,0:0:0:0:
120,146,53536,1,0,0:0:0:0:
145,143,53615,1,8,0:0:0:0:
245,212,53772,6,2,B|258:265|258:265|236:328|236:328|251:384,1,178.499994552612,6|0,0:0|2:0,0:0:0:0:
283,366,54086,6,0,B|271:321|271:321|290:265|290:265|279:218,1,152.999995330811,4|0,0:2|0:0,0:0:0:0:
312,225,54400,6,0,B|324:271|324:271|310:304|310:304|320:346,1,127.5,0|0,0:0|2:0,0:0:0:0:
356,330,54714,6,0,B|349:294|349:294|358:274|358:274|349:228,1,102,0|0,0:0|2:0,0:0:0:0:
348,110,55028,5,12,0:0:0:0:
345,88,55106,1,0,0:0:0:0:
338,68,55185,1,0,0:0:0:0:
327,50,55263,1,0,0:0:0:0:
312,35,55342,1,0,0:0:0:0:
294,24,55420,1,0,0:0:0:0:
275,16,55499,1,0,0:0:0:0:
254,13,55577,1,0,0:0:0:0:
232,15,55656,1,8,0:0:0:0:
212,22,55734,1,0,0:0:0:0:
194,33,55813,1,0,0:0:0:0:
179,47,55891,1,0,0:0:0:0:
171,76,55971,5,2,0:0:0:0:
145,61,56049,1,0,0:0:0:0:
116,55,56128,1,2,0:0:0:0:
87,57,56206,1,0,0:0:0:0:
60,70,56285,1,8,0:0:0:0:
38,90,56363,1,0,0:0:0:0:
23,115,56442,1,0,0:0:0:0:
17,143,56520,1,0,0:0:0:0:
19,173,56599,5,0,0:0:0:0:
46,166,56678,1,0,0:0:0:0:
75,169,56756,1,0,0:0:0:0:
100,185,56835,1,0,0:0:0:0:
120,208,56913,1,8,0:0:0:0:
128,235,56992,1,0,0:0:0:0:
126,264,57070,1,0,0:0:0:0:
112,290,57149,1,0,0:0:0:0:
76,285,57227,5,2,0:0:0:0:
114,267,57306,1,0,0:0:0:0:
155,273,57384,1,2,0:0:0:0:
187,301,57463,1,0,0:0:0:0:
199,340,57542,6,0,L|192:404,1,42.5,10|0,0:0|0:0,0:0:0:0:
304,358,57699,2,0,L|356:395,1,42.5,0|0,0:0|0:0,0:0:0:0:
387,288,57856,2,0,L|445:261,1,42.5,8|0,0:0|0:0,0:0:0:0:
347,203,58013,1,2,0:0:0:0:
347,203,58091,1,0,0:0:0:0:
347,203,58170,6,0,L|231:199,1,85,8|2,0:0|0:0,0:0:0:0:
237,222,58405,1,0,0:0:0:0:
204,228,58484,1,10,0:0:0:0:
172,216,58562,1,0,0:0:0:0:
152,190,58641,2,0,L|147:132,1,42.5,8|0,0:3|0:0,0:0:0:0:
203,59,58798,5,14,0:0:0:0:
203,59,59583,1,8,0:3:0:0:
198,74,59662,1,0,0:0:0:0:
209,144,59741,6,0,B|224:209|224:289|224:289|244:215,1,204,12|0,0:0|2:0,0:0:0:0:
208,358,60055,5,6,0:0:0:0:
344,285,60212,1,0,0:0:0:0:
134,253,60369,1,10,0:0:0:0:
344,285,60526,1,0,0:0:0:0:
244,135,60683,2,2,P|229:184|239:234,1,101.999996887207,2|0,0:0|0:0,0:0:0:0:
330,119,60997,2,2,P|290:58|216:50,1,152.999995330811,10|0,0:0|0:0,0:0:0:0:
162,105,61311,5,2,0:0:0:0:
238,232,61468,1,0,0:0:0:0:
162,105,61625,2,0,L|49:115,1,101.999996887207,8|0,0:0|0:0,0:0:0:0:
170,206,61939,1,0,0:0:0:0:
43,282,62096,1,0,0:0:0:0:
170,206,62253,2,2,L|160:93,1,101.999996887207,10|2,0:0|0:0,0:0:0:0:
348,74,62568,5,2,0:0:0:0:
293,153,62725,1,0,0:0:0:0:
238,232,62882,1,10,0:2:0:0:
429,247,63039,5,2,0:0:0:0:
387,160,63196,1,0,0:0:0:0:
346,74,63353,1,2,0:2:0:0:
238,232,63510,5,8,0:0:0:0:
333,240,63667,1,0,0:0:0:0:
429,247,63824,2,2,P|455:323|353:325,1,203.999993774414,2|8,0:0|0:0,0:0:0:0:
333,240,64295,1,0,0:0:0:0:
243,365,64453,6,2,L|233:274,1,85
313,76,64767,2,2,L|303:167,1,85,8|2,0:0|0:0,0:0:0:0:
243,365,65081,5,6,0:0:0:0:
107,292,65238,1,0,0:0:0:0:
314,255,65395,1,10,0:0:0:0:
107,292,65552,1,0,0:0:0:0:
208,140,65709,2,2,P|223:189|213:239,1,101.999996887207,2|0,0:0|0:0,0:0:0:0:
121,126,66023,2,2,P|161:65|235:57,1,152.999995330811,10|0,0:0|0:0,0:0:0:0:
293,107,66337,5,2,0:0:0:0:
399,45,66494,1,0,0:0:0:0:
451,233,66652,2,0,P|405:213|389:167,1,101.999996887207,8|0,0:0|0:0,0:0:0:0:
336,279,66966,1,0,0:0:0:0:
230,341,67123,1,0,0:0:0:0:
177,152,67281,2,2,P|222:171|239:218,1,101.999996887207,10|0,0:0|0:0,0:0:0:0:
131,275,67594,5,6,0:0:0:0:
80,138,67751,1,8,0:0:0:0:
239,218,67908,1,2,0:0:0:0:
26,235,68065,1,0,0:0:0:0:
26,235,68144,1,0,0:0:0:0:
26,235,68222,5,10,0:0:0:0:
163,184,68379,1,0,0:0:0:0:
163,184,68458,1,0,0:0:0:0:
163,184,68536,1,10,0:0:0:0:
83,343,68693,1,0,0:0:0:0:
83,343,68772,1,0,0:0:0:0:
83,343,68850,5,10,0:0:0:0:
121,341,68929,1,0,0:0:0:0:
159,339,69008,1,0,0:0:0:0:
197,337,69086,1,0,0:0:0:0:
235,336,69165,1,8,0:0:0:0:
380,285,69322,1,0,0:0:0:0:
389,282,69400,1,0,0:0:0:0:
397,276,69479,6,0,L|407:209,1,50.9999984436036,8|0,0:0|0:0,0:0:0:0:
363,123,69636,1,0,0:0:0:0:
329,146,69714,1,0,0:0:0:0:
290,158,69793,1,8,0:3:0:0:
250,158,69871,1,0,0:0:0:0:
211,147,69950,2,0,L|227:218,1,50.9999984436036,8|0,0:3|0:0,0:0:0:0:
281,67,70107,6,2,P|311:37|351:25,1,85,6|0,0:0|0:0,0:0:0:0:
297,245,70421,2,2,P|267:275|227:287,1,85,10|0,0:0|0:0,0:0:0:0:
157,253,70657,1,0,0:0:0:0:
157,253,70735,1,2,0:0:0:0:
297,245,70892,1,0,0:0:0:0:
190,355,71049,2,2,P|144:367|100:345,1,85,10|0,0:0|0:0,0:0:0:0:
70,200,71364,5,2,0:0:0:0:
157,253,71521,1,0,0:0:0:0:
66,299,71678,1,8,0:0:0:0:
70,200,71835,1,0,0:0:0:0:
70,187,71913,1,0,0:0:0:0:
72,174,71992,2,0,L|56:86,1,85,0|0,0:0|0:0,0:0:0:0:
199,0,72306,2,2,L|111:16,1,85,10|2,0:0|0:0,0:0:0:0:
190,136,72620,5,2,0:0:0:0:
257,189,72777,1,0,0:0:0:0:
342,192,72934,1,10,0:2:0:0:
468,89,73091,5,2,0:0:0:0:
388,120,73248,1,0,0:0:0:0:
342,192,73405,1,2,0:2:0:0:
369,352,73562,5,8,0:0:0:0:
382,268,73719,1,2,0:0:0:0:
342,192,73877,6,2,L|254:203,1,85,2|0,0:0|0:0,0:0:0:0:
139,208,74191,2,0,P|202:188|210:275,1,170,8|2,0:0|0:0,0:0:0:0:
79,305,74662,1,0,0:0:0:0:
139,208,74819,1,8,0:0:0:0:
159,350,74976,1,2,0:0:0:0:
52,182,75133,6,2,P|75:143|114:120,1,85,4|0,0:0|0:0,0:0:0:0:
311,109,75447,2,2,P|350:132|373:171,1,85,10|0,0:0|0:0,0:0:0:0:
388,239,75683,1,0,0:0:0:0:
388,239,75761,1,2,0:0:0:0:
286,197,75919,1,0,0:0:0:0:
443,185,76076,1,10,0:0:0:0:
311,109,76233,1,0,0:0:0:0:
309,285,76390,6,2,B|259:308|259:308|122:283,1,170,2|8,0:0|0:0,0:0:0:0:
63,208,76861,1,0,0:0:0:0:
57,201,76939,1,0,0:0:0:0:
48,197,77018,2,0,P|54:245|33:288,1,85,0|0,0:0|0:0,0:0:0:0:
33,120,77332,1,10,0:0:0:0:
156,178,77489,1,2,0:0:0:0:
147,42,77646,5,6,0:0:0:0:
147,42,77803,2,0,L|52:40,2,85,8|2|0,0:0|0:0|0:0,0:0:0:0:
269,109,78275,2,2,L|353:110,1,85,8|2,0:0|0:0,0:0:0:0:
466,186,78589,1,10,0:0:0:0:
376,288,78746,1,0,0:0:0:0:
369,293,78824,1,0,0:0:0:0:
361,297,78903,5,8,0:0:0:0:
199,244,79060,1,8,0:0:0:0:
199,74,79217,1,8,0:0:0:0:
361,21,79374,1,8,0:0:0:0:
460,159,79531,5,8,0:3:0:0:
460,244,79688,1,8,0:3:0:0:
379,270,79845,1,8,0:3:0:0:
329,202,80002,1,8,0:3:0:0:
378,133,80159,5,6,0:0:0:0:
199,74,80316,1,0,0:0:0:0:
199,244,80473,1,8,0:0:0:0:
460,244,80631,2,2,B|500:185|500:185|498:114|467:49,1,203.999993774414,2|0,0:0|0:0,0:0:0:0:
276,142,81102,2,2,L|388:131,1,101.999996887207,10|0,0:0|0:0,0:0:0:0:
243,286,81416,6,0,P|218:230|227:177,1,101.999996887207,0|0,0:0|0:0,0:0:0:0:
356,36,81730,2,0,P|381:92|372:145,1,101.999996887207,8|0,0:0|0:0,0:0:0:0:
92,98,82044,2,0,L|305:103,1,203.999993774414,2|8,0:2|0:0,0:0:0:0:
295,102,82515,1,0,0:0:0:0:
357,252,82672,6,2,B|271:309|253:220|152:280,1,203.999993774414,2|8,0:0|0:0,0:0:0:0:
299,179,83144,1,0,0:0:0:0:
380,336,83301,2,0,P|333:354|270:349,1,101.999996887207,0|0,0:0|0:0,0:0:0:0:
299,179,83615,1,8,0:0:0:0:
426,228,83772,1,0,0:0:0:0:
304,77,83929,6,0,L|298:181,1,101.999996887207,2|0,0:2|0:0,0:0:0:0:
103,212,84243,2,2,P|155:236|201:234,1,101.999996887207,10|0,0:0|0:0,0:0:0:0:
483,111,84557,2,2,P|432:110|387:133,1,101.999996887207,2|0,0:0|0:0,0:0:0:0:
339,306,84871,1,10,0:0:0:0:
458,221,85028,1,0,0:0:0:0:
198,234,85186,6,2,B|209:172|181:125|181:125|184:72|254:33,1,203.999993774414,6|8,0:0|0:0,0:0:0:0:
288,185,85657,2,2,L|85:196,1,203.999993774414,2|0,0:0|0:0,0:0:0:0:
224,317,86128,2,2,L|331:311,1,101.999996887207,10|0,0:0|0:0,0:0:0:0:
428,209,86442,6,2,P|440:160|422:107,1,101.999996887207,2|0,0:0|0:0,0:0:0:0:
311,43,86756,1,8,0:0:0:0:
186,212,86913,2,2,P|281:233|350:164,1,203.999993774414,2|0,0:0|0:0,0:0:0:0:
127,155,87384,2,2,P|105:205|118:255,1,101.999996887207,10|0,0:0|0:0,0:0:0:0:
234,133,87699,5,2,0:0:0:0:
114,249,87856,1,0,0:0:0:0:
253,243,88013,1,8,0:0:0:0:
127,155,88170,1,0,0:0:0:0:
192,311,88327,2,0,P|258:335|344:246,1,203.999993774414,0|8,0:0|0:0,0:0:0:0:
343,250,88798,1,0,0:0:0:0:
272,13,88955,6,0,P|258:65|263:134,1,101.999996887207,2|0,0:2|0:0,0:0:0:0:
408,201,89269,1,10,0:0:0:0:
160,173,89426,1,0,0:0:0:0:
388,189,89583,1,2,0:0:0:0:
180,185,89740,1,0,0:0:0:0:
371,182,89898,1,10,0:0:0:0:
198,193,90055,1,0,0:0:0:0:
369,312,90212,6,2,B|429:338|429:338|404:174,1,203.999993774414,6|8,0:0|0:0,0:0:0:0:
199,61,90683,2,2,B|139:35|139:35|164:199,1,203.999993774414,2|0,0:0|0:0,0:0:0:0:
369,312,91154,2,2,L|487:292,1,101.999996887207,10|0,0:0|0:0,0:0:0:0:
324,216,91468,6,0,P|272:270|297:390,1,203.999993774414,0|8,0:0|0:0,0:0:0:0:
369,312,91939,1,0,0:0:0:0:
222,188,92097,2,0,P|189:237|180:290,1,101.999996887207,0|0,0:0|0:0,0:0:0:0:
369,312,92411,1,8,0:0:0:0:
369,312,92568,1,0,0:0:0:0:
363,116,92725,6,2,B|318:95|269:118|269:118|249:92|249:92|230:110|167:115,1,203.999993774414,2|8,0:0|0:0,0:0:0:0:
35,193,93196,1,0,0:0:0:0:
192,196,93353,1,0,0:0:0:0:
112,65,93510,1,0,0:0:0:0:
35,193,93667,2,0,L|46:300,1,101.999996887207,8|0,0:0|0:0,0:0:0:0:
195,358,93981,6,0,P|253:340|303:352,1,101.999996887207,2|0,0:2|0:0,0:0:0:0:
422,253,94295,2,2,P|404:195|416:145,1,101.999996887207,10|0,0:0|0:0,0:0:0:0:
317,26,94610,2,2,P|259:44|209:32,1,101.999996887207,2|0,0:0|0:0,0:0:0:0:
90,131,94924,2,2,P|108:189|96:239,1,101.999996887207,10|0,0:0|0:0,0:0:0:0:
292,347,95238,6,2,L|280:239,1,85,2|0,0:0|0:0,0:0:0:0:
364,281,95473,2,0,P|410:297|454:287,1,85,2|0,2:0|2:0,0:0:0:0:
414,211,95709,1,2,0:0:0:0:
313,96,95866,6,2,L|215:108,1,85,2|0,0:0|0:0,0:0:0:0:
160,70,96102,2,0,L|62:58,1,85,2|0,2:0|2:0,0:0:0:0:
19,110,96337,1,2,0:0:0:0:
73,248,96494,6,2,P|123:255|158:228,1,85,2|0,0:0|0:0,0:0:0:0:
188,197,96730,2,0,L|181:309,1,85,2|0,2:0|2:0,0:0:0:0:
212,328,96966,1,2,0:0:0:0:
323,250,97123,6,2,L|431:262,1,85,2|0,0:0|0:0,0:0:0:0:
443,280,97358,2,0,P|427:234|437:190,1,85,2|0,2:0|2:0,0:0:0:0:
455,162,97594,1,2,0:0:0:0:
334,140,97751,5,2,0:0:0:0:
424,5,97908,1,0,0:0:0:0:
334,140,98065,1,8,0:0:0:0:
424,5,98222,1,0,0:0:0:0:
263,55,98379,1,0,0:0:0:0:
427,118,98536,1,0,0:0:0:0:
237,168,98693,1,8,0:0:0:0:
438,116,98850,1,0,0:0:0:0:
263,55,99008,6,2,B|207:46|207:46|122:71|122:71|58:62,1,203.999993774414,2|8,0:0|0:0,0:0:0:0:
21,188,99479,1,0,0:0:0:0:
33,196,99557,1,0,0:0:0:0:
47,199,99636,5,8,0:0:0:0:
91,178,99714,1,8,0:0:0:0:
133,202,99793,1,8,0:0:0:0:
137,251,99871,1,8,0:0:0:0:
100,282,99950,5,0,0:0:0:0:
125,282,100028,1,0,0:0:0:0:
144,297,100107,1,0,0:0:0:0:
148,322,100185,1,0,0:0:0:0:
136,344,100264,6,0,L|186:360,3,50.9999984436036,6|0|0|0,0:0|0:0|0:0|0:0,0:0:0:0:
276,311,100578,2,0,L|324:295,3,50.9999984436036,8|0|2|0,0:0|0:0|0:0|0:0,0:0:0:0:
439,309,100892,5,0,0:0:0:0:
440,284,100971,1,0,0:0:0:0:
441,258,101049,1,0,0:0:0:0:
442,233,101128,1,0,0:0:0:0:
468,195,101206,5,10,0:0:0:0:
466,169,101285,1,0,0:0:0:0:
465,144,101364,1,0,0:0:0:0:
464,118,101442,1,0,0:0:0:0:
448,78,101521,6,0,L|335:71,1,101.999996887207,0|0,0:0|0:0,0:0:0:0:
184,168,101835,1,8,0:0:0:0:
205,198,101913,1,0,0:0:0:0:
241,208,101992,1,0,0:0:0:0:
276,194,102070,1,0,0:0:0:0:
294,161,102149,2,0,L|309:234,3,50.9999984436036,2|0|0|0,0:2|0:0|0:0|0:0,0:0:0:0:
238,298,102463,2,0,L|223:370,3,50.9999984436036,8|0|0|0,0:0|0:0|0:0|0:0,0:0:0:0:
123,308,102777,5,2,0:0:0:0:
100,277,102855,1,0,0:0:0:0:
92,240,102934,1,0,0:0:0:0:
97,202,103012,1,0,0:0:0:0:
117,169,103091,1,8,0:0:0:0:
136,136,103170,1,0,0:0:0:0:
142,98,103248,1,0,0:0:0:0:
133,61,103327,1,0,0:0:0:0:
111,30,103405,2,0,L|41:36,3,50.9999984436036,0|0|0|0,0:0|0:0|0:0|0:0,0:0:0:0:
136,136,103720,2,0,L|206:142,3,50.9999984436036,8|0|0|0,0:0|0:0|0:0|0:0,0:0:0:0:
285,61,104034,6,0,P|338:52|394:74,1,101.999996887207,0|0,0:0|0:0,0:0:0:0:
331,196,104348,1,10,0:0:0:0:
316,201,104426,1,0,0:0:0:0:
300,198,104505,2,0,B|276:196|267:189|267:189|286:183,1,50.9999984436036,0|0,0:0|0:0,0:0:0:0:
398,256,104662,5,2,0:0:0:0:
414,261,104740,1,0,0:0:0:0:
432,258,104819,2,0,B|458:255|468:248|468:248|455:244,1,50.9999984436036,0|0,0:0|0:0,0:0:0:0:
315,289,104976,5,10,0:0:0:0:
295,295,105054,1,0,0:0:0:0:
274,291,105133,2,0,B|252:291|240:286|240:286|253:276,1,50.9999984436036,0|0,0:0|0:0,0:0:0:0:
347,203,105290,6,2,P|368:364|330:381,1,203.999993774414,6|8,0:0|0:0,0:0:0:0:
179,331,105761,1,2,0:0:0:0:
168,329,105840,1,0,0:0:0:0:
159,323,105919,2,0,L|169:267,3,50.9999984436036,0|0|0|0,0:0|0:0|0:0|0:0,0:0:0:0:
108,196,106233,2,2,B|99:146|99:146|116:83,1,101.999996887207,10|0,0:0|0:0,0:0:0:0:
256,41,106547,5,2,0:0:0:0:
294,37,106625,1,0,0:0:0:0:
332,33,106704,1,0,0:0:0:0:
370,29,106782,1,0,0:0:0:0:
408,25,106861,1,8,0:0:0:0:
385,56,106939,1,0,0:0:0:0:
363,87,107018,1,2,0:0:0:0:
341,118,107096,1,0,0:0:0:0:
319,149,107175,5,0,0:0:0:0:
349,128,107253,1,0,0:0:0:0:
385,135,107332,1,0,0:0:0:0:
404,167,107410,1,0,0:0:0:0:
393,203,107489,2,0,P|416:227|442:236,1,50.9999984436036,10|0,0:0|0:0,0:0:0:0:
418,367,107646,2,0,P|441:344|450:318,1,50.9999984436036,0|0,0:0|0:0,0:0:0:0:
358,292,107803,5,2,0:0:0:0:
327,278,107881,1,0,0:0:0:0:
293,282,107960,1,0,0:0:0:0:
268,304,108038,1,0,0:0:0:0:
240,329,108117,1,8,0:0:0:0:
209,315,108195,1,0,0:0:0:0:
175,319,108274,1,0,0:0:0:0:
149,340,108352,1,0,0:0:0:0:
156,375,108432,5,0,0:0:0:0:
181,349,108510,1,0,0:0:0:0:
193,316,108589,1,0,0:0:0:0:
190,281,108667,1,0,0:0:0:0:
173,250,108746,1,8,0:0:0:0:
145,229,108824,1,0,0:0:0:0:
110,222,108903,1,0,0:0:0:0:
75,230,108981,1,0,0:0:0:0:
48,252,109060,6,0,L|28:128,1,101.999996887207,0|0,0:0|0:0,0:0:0:0:
267,12,109374,2,2,L|246:136,1,101.999996887207,10|0,0:0|0:0,0:0:0:0:
386,219,109688,1,2,0:0:0:0:
376,215,109767,1,0,0:0:0:0:
376,205,109845,1,0,0:0:0:0:
386,202,109924,1,0,0:0:0:0:
391,210,110002,2,0,L|400:303,1,50.9999984436036,10|0,0:0|0:0,0:0:0:0:
311,361,110159,1,0,0:0:0:0:
301,357,110238,1,0,0:0:0:0:
291,353,110316,6,0,L|227:364,3,50.9999984436036,6|0|0|0,0:0|0:0|0:0|0:0,0:0:0:0:
155,307,110631,2,0,P|153:276|180:220,1,50.9999984436036,8|0,0:0|0:0,0:0:0:0:
227,166,110788,1,2,0:0:0:0:
235,160,110866,1,0,0:0:0:0:
245,159,110945,2,0,L|309:167,3,50.9999984436036,0|0|0|0,0:0|0:0|0:0|0:0,0:0:0:0:
256,67,111259,2,0,L|190:69,1,50.9999984436036,10|0,0:0|0:0,0:0:0:0:
103,120,111416,1,0,0:0:0:0:
94,124,111494,1,0,0:0:0:0:
85,130,111573,5,0,0:0:0:0:
88,168,111651,1,0,0:0:0:0:
91,206,111730,1,0,0:0:0:0:
95,244,111808,1,0,0:0:0:0:
98,282,111887,2,0,B|147:300|147:300|203:281,1,101.999996887207,8|0,0:0|0:0,0:0:0:0:
365,225,112201,5,0,0:0:0:0:
327,228,112280,1,0,0:0:0:0:
295,209,112358,1,0,0:0:0:0:
278,175,112437,1,0,0:0:0:0:
283,137,112515,1,8,0:0:0:0:
288,99,112594,1,0,0:0:0:0:
271,65,112672,1,0,0:0:0:0:
239,46,112750,1,0,0:0:0:0:
201,49,112830,5,2,0:0:0:0:
165,61,112908,1,0,0:0:0:0:
137,87,112987,1,0,0:0:0:0:
124,123,113065,1,0,0:0:0:0:
128,160,113144,1,8,0:0:0:0:
148,193,113222,1,0,0:0:0:0:
180,213,113301,1,0,0:0:0:0:
218,217,113379,1,0,0:0:0:0:
254,205,113458,2,0,L|309:213,3,50.9999984436036,0|0|0|0,0:0|0:0|0:0|0:0,0:0:0:0:
315,329,113772,2,0,L|369:321,3,50.9999984436036,8|0|0|0,0:0|0:0|0:0|0:0,0:0:0:0:
447,218,114086,5,0,0:0:0:0:
450,179,114164,1,0,0:0:0:0:
453,141,114243,1,0,0:0:0:0:
457,103,114321,1,0,0:0:0:0:
435,68,114400,5,10,0:0:0:0:
424,79,114479,1,0,0:0:0:0:
408,81,114557,2,0,P|379:66|350:59,1,50.9999984436036,0|0,0:0|0:0,0:0:0:0:
208,152,114714,5,2,0:0:0:0:
219,163,114793,1,0,0:0:0:0:
235,165,114871,2,0,P|264:150|293:143,1,50.9999984436036,0|0,0:0|0:0,0:0:0:0:
361,60,115028,6,0,L|366:134,1,50.9999984436036,10|0,0:0|0:0,0:0:0:0:
368,241,115186,1,0,0:0:0:0:
363,250,115264,1,0,2:0:0:0:
359,256,115343,6,0,P|313:278|253:251,2,101.999996887207,8|0|0,0:0|0:0|0:0,0:0:0:0:
149,249,115971,6,0,P|153:198|206:159,2,101.999996887207,8|0|0,0:0|0:0|0:0,0:0:0:0:
259,70,116599,6,0,P|301:99|308:165,2,101.999996887207,8|0|0,0:0|0:0|0:0,0:0:0:0:
266,264,117227,5,8,0:0:0:0:
266,264,117437,1,0,0:0:0:0:
90,154,117646,1,0,0:0:0:0:
90,154,117751,1,0,0:0:0:0:
90,154,117856,6,0,L|104:39,1,101.999996887207,8|0,0:0|0:0,0:0:0:0:
176,221,118275,1,0,0:0:0:0:
422,154,118484,6,0,L|408:39,1,101.999996887207,8|8,0:0|0:0,0:0:0:0:
336,221,118903,1,8,0:0:0:0:
256,16,119112,5,8,0:0:0:0:
256,368,119322,1,8,0:0:0:0:
256,368,119531,1,8,0:0:0:0:
464,192,119741,5,10,0:0:0:0:
48,192,119951,1,10,0:0:0:0:
48,192,120160,1,10,0:0:0:0:
256,192,120369,5,2,0:0:0:0:
317,258,123196,6,0,P|351:276|402:266,2,85,0|0|0,0:0|0:0|0:0,0:0:0:0:
256,192,124138,5,2,0:0:0:0:
195,126,126965,6,0,P|161:108|110:118,2,85,0|0|0,0:0|0:0|0:0,0:0:0:0:
256,192,127907,5,4,1:0:0:0:
233,278,128222,1,0,0:0:0:0:
168,216,128536,1,0,1:0:0:0:
384,202,128850,5,8,1:0:0:0:
384,112,129164,1,0,0:0:0:0:
306,155,129478,1,0,1:0:0:0:
381,335,129793,5,4,1:0:0:0:
293,352,130107,1,0,0:0:0:0:
205,369,130421,1,0,1:0:0:0:
305,155,130735,6,0,P|350:142|412:205,2,127.500004863739,10|2|4,1:2|0:0|1:2,0:0:0:0:
177,107,131677,5,4,1:0:0:0:
91,84,131992,1,0,0:0:0:0:
153,19,132306,1,0,1:0:0:0:
167,235,132620,5,8,1:0:0:0:
257,235,132934,1,0,0:0:0:0:
214,157,133248,1,0,1:0:0:0:
0,56,133562,6,0,B|13:87|21:118|21:202,1,127.500004863739,4|0,1:0|0:0,0:0:0:0:
47,272,134033,1,0,1:0:0:0:
42,285,134190,1,0,1:0:0:0:
192,280,134505,6,0,P|225:282|264:265,1,63.7500024318696,10|0,1:2|0:0,0:0:0:0:
214,192,134819,2,0,P|243:177|268:143,1,63.7500024318696,10|0,1:2|0:0,0:0:0:0:
191,104,135133,2,0,P|209:76|214:34,1,63.7500024318696,4|0,1:2|0:0,0:0:0:0:
129,170,135447,5,4,1:0:0:0:
291,82,135761,1,0,0:0:0:0:
103,40,136075,1,0,1:0:0:0:
234,241,136389,6,0,P|288:234|268:161,2,127.500004863739,8|0|0,1:0|0:0|1:0,0:0:0:0:
364,146,137332,5,4,1:2:0:0:
392,278,137646,1,0,0:0:0:0:
479,130,137960,1,0,1:0:0:0:
255,48,138274,6,0,L|270:183,2,127.500004863739,10|2|4,1:2|1:2|1:2,0:0:0:0:
228,252,139217,5,4,1:0:0:0:
81,149,139531,1,0,0:0:0:0:
69,327,139845,1,0,1:0:0:0:
228,252,140159,5,8,1:0:0:0:
387,332,140473,1,0,0:0:0:0:
380,153,140787,1,0,1:0:0:0:
228,252,141101,6,0,L|235:109,1,127.500004863739,4|0,1:0|0:0,0:0:0:0:
286,326,141730,1,0,1:0:0:0:
423,135,142044,6,0,B|427:40|427:40|385:70,2,127.500004863739,10|2|4,1:2|1:2|1:2,0:0:0:0:
367,299,142986,6,0,B|352:308|352:308|348:305|348:305|330:315|330:315|323:311|323:311|303:318|303:318|298:312|298:312|278:320|278:320|271:317|271:317|249:319|249:319|242:313|242:313|227:309|227:309|225:279|236:246,1,191.250007295609,4|0,1:0|0:0,0:0:0:0:
295,169,143615,1,0,1:0:0:0:
177,366,143929,1,8,1:0:0:0:
130,190,144243,1,2,0:0:0:0:
324,274,144557,1,2,1:2:0:0:
65,270,144871,6,0,P|31:225|81:101,1,191.250007295609,4|0,1:2|0:0,0:0:0:0:
258,116,145499,1,0,1:0:0:0:
130,190,145814,5,8,1:0:0:0:
135,204,145971,1,4,1:2:0:0:
423,176,146442,1,4,1:2:0:0:
253,332,146756,6,0,B|229:273|229:273|252:201,2,127.500004863739,4|2|0,1:0|0:0|1:0,0:0:0:0:
136,119,147698,2,0,B|199:128|199:128|250:184,2,127.500004863739,8|0|0,1:0|0:0|1:0,0:0:0:0:
378,124,148641,2,0,B|339:174|339:174|265:190,2,127.500004863739,4|0|0,1:2|0:0|1:0,0:0:0:0:
287,89,149426,1,0,1:0:0:0:
459,70,149583,5,12,1:2:0:0:
100,250,149897,1,8,1:0:0:0:
438,331,150211,1,4,1:2:0:0:
333,192,150526,6,0,P|280:196|231:271,1,127.500004863739,4|2,1:0|0:0,0:0:0:0:
317,281,150997,1,0,0:0:0:0:
333,192,151154,2,0,L|333:104,1,63.7500024318696,0|0,1:0|0:0,0:0:0:0:
199,79,151468,6,0,L|199:167,1,63.7500024318696,10|0,1:2|0:0,0:0:0:0:
199,142,151782,2,0,L|199:230,1,63.7500024318696,0|0,0:0|0:0,0:0:0:0:
199,205,152096,2,0,L|199:293,1,63.7500024318696,0|0,1:0|0:0,0:0:0:0:
366,367,152410,6,0,P|412:375|484:323,1,127.500004863739,4|0,1:2|0:0,0:0:0:0:
403,285,153039,1,0,1:0:0:0:
184,332,153353,5,12,1:2:0:0:
164,67,153667,1,2,1:2:0:0:
333,185,153981,1,4,1:2:0:0:
184,332,154295,6,0,B|164:68|164:68|347:49|398:266|256:330,1,665.4,4|0,1:0|0:0,1:0:0:0:
182,330,158065,5,6,0:0:0:0:
179,294,158143,1,0,0:0:0:0:
176,260,158222,1,0,0:0:0:0:
173,226,158300,1,0,0:0:0:0:
170,192,158379,1,0,0:0:0:0:
168,158,158457,1,0,0:0:0:0:
165,124,158536,1,0,0:0:0:0:
163,89,158614,1,0,0:0:0:0:
200,67,158693,6,0,P|224:71|245:81,1,46.7500014266968,10|0,0:0|0:0,0:0:0:0:
363,165,158850,2,0,P|382:152|397:134,1,46.7500014266968,0|0,0:0|0:0,0:0:0:0:
318,45,159007,2,0,P|328:67|328:90,1,46.7500014266968,2|0,0:0|0:0,0:0:0:0:
357,247,159164,2,0,P|308:228|296:209,1,46.7500014266968,0|0,0:0|0:0,0:0:0:0:
189,189,159321,5,10,0:0:0:0:
146,208,159399,1,0,0:0:0:0:
100,207,159478,1,0,0:0:0:0:
59,186,159556,1,0,0:0:0:0:
31,149,159635,1,0,0:0:0:0:
72,170,159714,1,0,0:0:0:0:
95,210,159792,1,0,0:0:0:0:
92,256,159871,1,0,0:0:0:0:
65,293,159949,6,0,L|80:370,1,46.7500014266968,10|0,0:0|0:0,0:0:0:0:
273,298,160106,2,0,L|287:221,1,46.7500014266968,0|0,0:0|0:0,0:0:0:0:
178,321,160263,2,0,L|192:397,1,46.7500014266968,2|0,0:0|0:0,0:0:0:0:
385,325,160420,2,0,L|399:248,1,46.7500014266968,0|0,0:0|0:0,0:0:0:0:
464,123,160578,5,10,0:0:0:0:
418,125,160657,1,0,0:0:0:0:
371,127,160735,1,0,0:0:0:0:
324,129,160814,1,0,0:0:0:0:
278,131,160892,2,0,L|211:118,1,46.7500014266968,10|0,0:0|0:0,0:0:0:0:
120,193,161049,1,0,0:0:0:0:
111,203,161127,1,0,0:0:0:0:
107,216,161206,6,0,P|104:245|111:269,1,55.2499974708558,10|0,0:0|0:0,0:0:0:0:
286,267,161363,1,0,0:0:0:0:
283,283,161441,1,0,0:0:0:0:
273,298,161520,2,0,P|246:325|216:338,1,55.2499974708558,10|0,0:0|0:0,0:0:0:0:
217,177,161677,1,0,0:0:0:0:
213,157,161755,1,0,0:0:0:0:
200,137,161834,6,0,P|165:101|128:88,1,55.2499974708558,10|0,0:0|0:0,0:0:0:0:
301,185,161991,2,0,P|332:174|381:170,1,55.2499974708558,0|0,0:0|0:0,0:0:0:0:
244,62,162148,2,0,P|239:30|227:4,1,55.2499974708558,8|0,0:0|0:0,0:0:0:0:
329,90,162305,2,0,P|346:65|376:47,1,55.2499974708558,8|0,0:0|0:0,0:0:0:0:
409,227,162463,5,8,0:3:0:0:
413,267,162541,1,0,0:0:0:0:
389,300,162620,1,0,0:0:0:0:
349,310,162698,1,0,0:0:0:0:
313,289,162777,1,8,0:3:0:0:
277,270,162856,1,0,0:0:0:0:
237,280,162934,1,8,0:3:0:0:
213,313,163013,1,0,0:0:0:0:
218,354,163091,6,0,L|149:341,3,46.7500014266968,4|0|0|0,0:0|0:0|0:0|0:0,0:0:0:0:
76,320,163405,1,8,0:0:0:0:
371,166,163719,1,8,0:0:0:0:
98,76,164033,6,0,L|103:140,1,46.7500014266968,4|0,0:2|0:0,0:0:0:0:
179,211,164190,2,0,L|174:275,1,46.7500014266968,0|0,0:0|0:0,0:0:0:0:
104,366,164347,1,8,0:0:0:0:
104,366,164661,1,8,0:0:0:0:
357,267,164975,5,4,0:0:0:0:
362,256,165053,1,0,0:0:0:0:
365,245,165132,1,0,0:0:0:0:
367,233,165210,1,0,0:0:0:0:
366,221,165289,1,8,0:0:0:0:
48,114,165604,1,8,0:0:0:0:
181,336,165918,6,0,L|247:328,1,46.7500014266968,4|0,0:2|0:0,0:0:0:0:
357,267,166075,2,0,L|423:275,1,46.7500014266968,0|0,0:0|0:0,0:0:0:0:
509,350,166232,5,8,0:0:0:0:
456,164,166389,1,8,0:0:0:0:
509,350,166546,1,0,0:0:0:0:
456,164,166703,1,8,0:0:0:0:
286,302,166860,5,4,0:0:0:0:
281,291,166938,1,0,0:0:0:0:
278,280,167017,1,0,0:0:0:0:
276,268,167095,1,0,0:0:0:0:
277,256,167174,1,8,0:0:0:0:
44,295,167489,1,8,0:0:0:0:
144,89,167803,6,0,L|207:82,1,46.7500014266968,4|0,0:2|0:0,0:0:0:0:
294,173,167960,2,0,L|357:180,1,46.7500014266968,0|0,0:0|0:0,0:0:0:0:
470,95,168117,1,8,0:0:0:0:
470,95,168431,1,8,0:0:0:0:
222,139,168745,5,4,0:0:0:0:
217,150,168823,1,0,0:0:0:0:
214,161,168902,1,0,0:0:0:0:
212,173,168980,1,0,0:0:0:0:
213,185,169059,1,8,0:0:0:0:
485,257,169373,1,8,0:0:0:0:
269,306,169688,6,0,L|199:313,1,46.7500014266968,10|0,0:2|0:0,0:0:0:0:
134,351,169845,2,0,L|64:344,1,46.7500014266968,8|0,0:0|0:0,0:0:0:0:
242,289,170002,2,0,L|172:296,1,46.7500014266968,10|0,0:2|0:0,0:0:0:0:
107,334,170159,2,0,L|37:327,1,46.7500014266968,8|0,0:0|0:0,0:0:0:0:
215,272,170316,2,0,L|145:279,1,46.7500014266968,10|0,0:2|0:0,0:0:0:0:
80,317,170473,2,0,L|10:310,1,46.7500014266968,8|0,0:0|2:0,0:0:0:0:
96,214,170630,5,4,0:0:0:0:
26,126,170787,1,0,0:0:0:0:
136,109,170944,2,0,L|236:104,1,93.5000028533936,8|0,0:0|0:0,0:0:0:0:
312,179,171258,2,2,L|412:174,1,93.5000028533936,2|0,0:0|0:0,0:0:0:0:
334,59,171572,1,8,0:0:0:0:
328,49,171729,1,2,0:0:0:0:
209,183,171886,6,0,P|227:242|358:270,1,187.000005706787,0|10,0:0|0:0,0:0:0:0:
337,279,172358,1,0,0:0:0:0:
330,100,172515,2,0,B|284:94|284:94|225:116,1,93.5000028533936,0|0,0:0|0:0,0:0:0:0:
123,300,172829,2,2,B|169:306|169:306|228:284,1,93.5000028533936,10|0,0:0|0:0,0:0:0:0:
101,98,173143,6,2,B|77:149|77:149|101:302,1,187.000005706787,2|8,0:0|0:0,0:0:0:0:
182,379,173614,1,0,0:0:0:0:
323,303,173771,1,2,0:0:0:0:
326,268,173849,1,0,0:0:0:0:
314,235,173928,1,0,0:0:0:0:
290,211,174006,1,0,0:0:0:0:
257,199,174085,1,8,0:0:0:0:
289,187,174164,1,0,0:0:0:0:
314,162,174243,1,2,0:0:0:0:
325,129,174321,1,0,0:0:0:0:
322,95,174400,5,2,0:0:0:0:
407,198,174557,1,0,0:0:0:0:
236,111,174714,2,0,P|182:107|146:131,1,93.5000028533936,8|0,0:0|0:0,0:0:0:0:
232,274,175028,2,2,L|339:267,1,93.5000028533936,2|0,0:0|0:0,0:0:0:0:
300,48,175342,2,0,P|253:21|207:25,1,93.5000028533936,8|0,0:0|0:0,0:0:0:0:
69,148,175656,6,2,L|83:251,1,93.5000028533936,2|0,0:0|0:0,0:0:0:0:
88,270,175891,1,0,0:0:0:0:
105,296,175970,1,8,0:0:0:0:
131,314,176048,1,0,0:0:0:0:
161,321,176127,1,2,0:0:0:0:
191,316,176205,1,0,0:0:0:0:
218,301,176284,1,0,0:0:0:0:
313,211,176441,1,0,0:0:0:0:
430,269,176599,2,0,L|412:374,1,93.5000028533936,8|0,0:0|0:0,0:0:0:0:
404,146,176913,6,0,P|380:135|356:133,1,46.7500014266968,8|0,0:0|0:0,0:0:0:0:
313,211,177070,1,0,0:0:0:0:
287,187,177148,1,0,0:0:0:0:
273,155,177227,1,8,0:0:0:0:
271,120,177305,1,8,0:0:0:0:
282,87,177384,1,8,0:0:0:0:
305,61,177462,1,8,0:0:0:0:
285,23,177541,5,8,0:3:0:0:
239,14,177619,1,0,0:0:0:0:
192,16,177698,1,8,0:3:0:0:
147,30,177776,1,0,0:0:0:0:
107,53,177855,1,8,0:3:0:0:
74,86,177933,1,8,0:3:0:0:
49,125,178012,1,8,0:3:0:0:
34,169,178090,1,8,0:3:0:0:
30,216,178169,6,2,P|38:287|63:331,1,93.5000028533936,6|0,0:0|0:0,0:0:0:0:
135,375,178483,1,8,0:0:0:0:
302,252,178640,2,0,P|248:234|104:246,1,187.000005706787,2|0,0:0|0:0,0:0:0:0:
233,145,179112,2,2,P|289:153|331:170,1,93.5000028533936,10|0,0:0|0:0,0:0:0:0:
280,342,179426,6,2,P|288:286|305:244,1,93.5000028533936,2|0,0:0|0:0,0:0:0:0:
364,159,179740,1,8,0:0:0:0:
471,384,179897,2,0,P|470:291|466:198,1,187.000005706787,2|0,0:0|0:0,0:0:0:0:
269,42,180368,2,2,P|267:97|270:147,1,93.5000028533936,10|0,0:0|0:0,0:0:0:0:
178,280,180682,6,2,P|120:290|80:280,1,93.5000028533936,2|0,0:0|0:0,0:0:0:0:
0,206,180996,1,8,0:0:0:0:
205,191,181154,2,0,P|253:228|242:346,1,187.000005706787,2|0,0:0|0:0,0:0:0:0:
86,282,181625,2,2,L|101:157,1,93.5000028533936,10|0,0:0|0:0,0:0:0:0:
238,67,181939,5,2,0:0:0:0:
306,156,182096,2,0,P|351:170|406:163,1,93.5000028533936,0|8,0:0|0:0,0:0:0:0:
485,318,182410,2,0,P|413:337|288:343,1,187.000005706787,2|0,0:0|0:0,0:0:0:0:
69,210,182881,2,2,P|116:194|163:191,1,93.5000028533936,10|0,0:0|0:0,0:0:0:0:
447,231,183195,6,2,P|400:247|353:250,1,93.5000028533936,2|0,0:0|0:0,0:0:0:0:
255,199,183510,1,8,0:0:0:0:
137,335,183667,2,0,P|218:340|197:263,1,187.000005706787,2|0,0:0|0:0,0:0:0:0:
347,339,184138,2,2,L|232:341,1,93.5000028533936,10|0,0:0|0:0,0:0:0:0:
34,237,184452,5,2,0:0:0:0:
130,173,184609,2,0,L|223:171,1,93.5000028533936,0|8,0:0|0:0,0:0:0:0:
482,248,184923,2,0,L|293:252,1,187.000005706787,2|0,0:0|0:0,0:0:0:0:
318,153,185394,2,2,L|411:151,1,93.5000028533936,10|0,0:0|0:0,0:0:0:0:
253,25,185708,5,0,0:0:0:0:
133,49,185866,1,0,0:0:0:0:
19,162,186022,5,8,0:0:0:0:
163,190,186179,1,0,0:0:0:0:
58,84,186336,5,0,0:0:0:0:
86,229,186493,1,0,0:0:0:0:
222,365,186650,5,8,0:0:0:0:
256,193,186808,1,0,0:0:0:0:
256,193,186886,1,0,0:0:0:0:
256,193,186965,5,10,0:2:0:0:
19,162,187122,1,8,0:0:0:0:
165,305,187279,5,10,0:2:0:0:
192,88,187436,1,10,0:2:0:0:
416,324,187593,5,8,0:3:0:0:
336,373,187750,1,0,0:0:0:0:
242,366,187907,1,8,0:3:0:0:
165,305,188064,1,8,0:3:0:0:
397,228,188222,6,2,B|420:270|420:270|415:328,1,101.999996887207,6|2,0:0|0:0,0:0:0:0:
259,192,188536,1,8,0:0:0:0:
352,113,188693,2,2,L|452:97,1,101.999996887207
245,197,189007,1,0,0:0:0:0:
345,99,189164,2,2,L|466:80,1,101.999996887207,10|0,0:0|0:0,0:0:0:0:
235,27,189478,6,2,P|205:65|206:122,1,101.999996887207
287,270,189792,1,8,0:0:0:0:
323,105,189949,1,2,0:0:0:0:
159,201,190106,5,2,0:0:0:0:
133,198,190184,1,0,0:0:0:0:
108,195,190263,1,0,0:0:0:0:
82,192,190341,1,0,0:0:0:0:
34,205,190420,5,8,0:0:0:0:
31,231,190499,1,0,0:0:0:0:
28,256,190577,1,8,0:0:0:0:
25,282,190656,1,0,0:0:0:0:
10,330,190735,6,2,P|79:322|118:342,1,101.999996887207
201,376,191049,1,8,0:0:0:0:
399,313,191206,2,2,P|330:304|291:324,1,101.999996887207
208,358,191520,1,0,0:0:0:0:
102,230,191677,2,2,P|170:221|209:241,1,101.999996887207,10|0,0:0|0:0,0:0:0:0:
364,196,191991,6,2,B|376:147|376:147|347:79,1,101.999996887207
209,37,192305,1,8,0:0:0:0:
336,2,192462,1,2,0:0:0:0:
244,142,192619,5,2,0:0:0:0:
245,167,192697,1,0,0:0:0:0:
247,192,192776,1,0,0:0:0:0:
249,218,192854,1,0,0:0:0:0:
283,240,192933,5,8,0:0:0:0:
281,265,193012,1,0,0:0:0:0:
279,290,193091,1,8,0:0:0:0:
277,316,193169,1,0,0:0:0:0:
248,350,193248,6,2,L|141:347,1,101.999996887207,2|0,0:0|0:0,0:0:0:0:
55,206,193562,1,8,0:0:0:0:
245,167,193719,2,2,L|143:164,1,101.999996887207,2|0,0:0|0:0,0:0:0:0:
71,218,194033,1,0,0:0:0:0:
261,179,194190,2,2,L|159:176,1,101.999996887207,10|0,0:0|0:0,0:0:0:0:
312,97,194504,6,2,P|351:138|359:184,1,101.999996887207,2|0,0:0|0:0,0:0:0:0:
264,306,194818,1,8,0:0:0:0:
261,179,194975,1,2,0:0:0:0:
270,311,195133,1,0,0:0:0:0:
254,173,195290,1,0,0:0:0:0:
277,317,195447,1,10,0:0:0:0:
247,167,195604,1,0,0:0:0:0:
372,262,195761,6,0,L|433:254,3,50.9999984436036,4|0|0|0,0:0|0:0|0:0|0:0,0:0:0:0:
264,306,196075,2,0,L|203:298,3,50.9999984436036,8|0|0|0,0:0|0:0|0:0|0:0,0:0:0:0:
362,129,196389,2,0,L|423:121,3,50.9999984436036,0|0|0|0,0:0|0:0|0:0|0:0,0:0:0:0:
254,173,196703,2,0,L|193:165,3,50.9999984436036,8|0|0|0,0:0|0:0|0:0|0:0,0:0:0:0:
48,207,197017,5,8,0:3:0:0:
37,243,197095,1,0,0:0:0:0:
37,281,197174,1,0,0:0:0:0:
48,318,197252,1,0,0:0:0:0:
89,309,197332,5,0,0:0:0:0:
115,336,197410,1,0,0:0:0:0:
148,355,197489,1,8,0:3:0:0:
185,364,197567,1,0,0:0:0:0:
193,326,197646,5,0,0:0:0:0:
229,316,197724,1,0,0:0:0:0:
262,297,197803,1,0,0:0:0:0:
288,270,197881,1,0,0:0:0:0:
259,246,197960,6,0,P|256:209|255:155,1,50.9999984436036,8|0,0:0|0:0,0:0:0:0:
357,97,198117,2,0,P|360:134|361:188,1,50.9999984436036,8|0,0:0|0:0,0:0:0:0:
351,304,198274,5,6,0:0:0:0:
452,311,198431,1,0,0:0:0:0:
511,228,198588,1,8,0:0:0:0:
464,134,198745,2,2,B|411:127|411:127|360:149|360:149|299:136,1,170,2|0,0:0|0:0,0:0:0:0:
164,85,199216,1,10,0:0:0:0:
164,85,199373,1,0,0:0:0:0:
95,159,199530,6,0,L|103:245,1,85,0|0,0:0|0:0,0:0:0:0:
243,383,199845,2,0,L|251:297,1,85,8|0,0:0|0:0,0:0:0:0:
327,151,200159,6,0,P|356:145|391:152,2,56.6666666666667,0|0|2,0:0|2:0|2:0,0:0:0:0:
210,114,200473,2,0,P|187:94|154:82,2,56.6666666666667,8|0|2,0:0|2:0|2:0,0:0:0:0:
325,256,200787,6,2,L|316:160,1,85,2|0,0:0|0:0,0:0:0:0:
266,54,201101,1,8,0:0:0:0:
38,190,201258,2,2,P|98:203|236:189,1,170,2|0,0:0|0:0,0:0:0:0:
459,330,201729,2,2,P|399:317|352:317,1,85,10|0,0:0|0:0,0:0:0:0:
122,211,202044,6,0,P|182:198|229:198,1,85,0|0,0:0|0:0,0:0:0:0:
297,324,202358,1,8,0:0:0:0:
467,189,202515,2,2,P|407:176|360:176,1,85,2|0,0:0|0:0,0:0:0:0:
292,302,202829,1,0,0:0:0:0:
194,185,202986,2,2,P|189:140|193:82,1,85,10|0,0:0|0:0,0:0:0:0:
380,259,203300,6,2,P|385:214|381:156,1,85,2|0,0:0|0:0,0:0:0:0:
257,32,203614,1,8,0:0:0:0:
167,122,203771,2,2,B|122:139|56:110|56:110|129:56,1,170,2|0,0:0|0:0,0:0:0:0:
313,121,204242,2,2,P|358:138|406:135,1,85,10|0,0:0|0:0,0:0:0:0:
473,259,204557,5,0,0:0:0:0:
388,371,204714,1,0,0:0:0:0:
249,263,204871,2,0,P|294:246|342:249,1,85,8|0,0:0|0:0,0:0:0:0:
330,246,205185,1,0,0:0:0:0:
149,371,205342,2,2,B|138:344|138:344|145:325|145:325|131:304|131:304|148:283|148:283|117:243|133:191,1,170,2|0,0:0|0:0,0:0:0:0:
266,93,205813,6,2,P|323:67|317:176,1,203.999993774414,6|8,0:0|0:0,0:0:0:0:
199,296,206284,2,2,P|142:322|148:213,1,203.999993774414,2|0,0:0|0:0,0:0:0:0:
321,268,206756,1,8,0:0:0:0:
179,109,206913,1,0,0:0:0:0:
200,223,207070,5,0,0:0:0:0:
176,90,207227,1,2,0:0:0:0:
321,268,207384,1,10,0:0:0:0:
343,92,207541,1,2,0:0:0:0:
200,223,207698,5,8,0:3:0:0:
166,237,207777,1,0,0:0:0:0:
132,251,207855,1,8,0:3:0:0:
98,237,207934,1,0,0:0:0:0:
64,223,208012,1,8,0:0:0:0:
132,137,208169,1,8,0:0:0:0:
314,238,208326,5,6,0:0:0:0:
327,273,208404,1,0,0:0:0:0:
329,311,208483,1,0,0:0:0:0:
321,349,208561,1,0,0:0:0:0:
303,382,208640,1,8,0:0:0:0:
151,200,208797,2,2,P|204:170|249:173,1,101.999996887207,2|0,0:0|0:0,0:0:0:0:
327,273,209112,1,2,0:0:0:0:
263,77,209269,2,2,P|315:107|335:148,1,101.999996887207,10|0,0:0|0:0,0:0:0:0:
200,284,209583,5,2,0:0:0:0:
161,284,209661,1,0,0:0:0:0:
123,284,209740,1,0,0:0:0:0:
85,285,209818,1,0,0:0:0:0:
47,285,209897,1,8,0:0:0:0:
231,144,210054,2,2,L|341:142,1,101.999996887207,2|0,0:0|0:0,0:0:0:0:
160,88,210368,1,2,0:0:0:0:
273,237,210525,2,2,L|383:235,1,101.999996887207,10|0,0:0|0:0,0:0:0:0:
136,342,210839,5,6,0:0:0:0:
140,304,210917,1,0,0:0:0:0:
145,266,210996,1,0,0:0:0:0:
150,228,211074,1,0,0:0:0:0:
155,190,211153,1,8,0:0:0:0:
294,39,211311,2,2,L|300:150,1,101.999996887207,2|0,0:0|0:0,0:0:0:0:
345,296,211625,1,2,0:0:0:0:
437,92,211782,2,2,L|443:203,1,101.999996887207,10|0,0:0|0:0,0:0:0:0:
230,209,212096,5,2,0:0:0:0:
198,230,212174,1,0,0:0:0:0:
161,237,212253,1,0,0:0:0:0:
124,228,212331,1,0,0:0:0:0:
94,205,212410,1,8,0:0:0:0:
306,123,212567,2,2,P|344:168|345:219,1,101.999996887207,2|0,0:0|0:0,0:0:0:0:
236,335,212881,1,2,0:0:0:0:
94,205,213038,2,2,P|83:147|108:102,1,101.999996887207,10|0,0:0|0:0,0:0:0:0:
260,254,213352,5,6,0:0:0:0:
297,259,213430,1,0,0:0:0:0:
330,243,213509,1,0,0:0:0:0:
348,210,213587,1,0,0:0:0:0:
343,172,213666,1,8,0:0:0:0:
188,56,213823,6,0,L|129:63,1,50.9999984436036,2|0,0:0|0:0,0:0:0:0:
217,150,213981,2,0,L|276:157,1,50.9999984436036,0|0,0:0|0:0,0:0:0:0:
431,179,214138,1,2,0:0:0:0:
360,359,214295,5,10,0:0:0:0:
322,362,214373,1,0,0:0:0:0:
284,354,214452,1,0,0:0:0:0:
251,335,214530,1,0,0:0:0:0:
226,307,214609,5,2,0:0:0:0:
243,274,214687,1,0,0:0:0:0:
233,238,214766,1,0,0:0:0:0:
201,219,214844,1,0,0:0:0:0:
165,227,214923,1,8,0:0:0:0:
42,352,215080,6,0,L|31:282,1,50.9999984436036,2|0,0:0|0:0,0:0:0:0:
94,192,215237,2,0,L|105:122,1,50.9999984436036,0|0,0:0|0:0,0:0:0:0:
44,19,215394,1,2,0:0:0:0:
219,91,215551,5,10,0:0:0:0:
257,82,215630,1,0,0:0:0:0:
291,100,215708,1,0,0:0:0:0:
329,91,215787,1,0,0:0:0:0:
363,109,215865,5,6,0:0:0:0:
400,141,215943,1,0,0:0:0:0:
402,190,216022,1,0,0:0:0:0:
366,225,216100,1,0,0:0:0:0:
317,222,216179,1,8,0:0:0:0:
154,110,216337,5,2,0:0:0:0:
157,158,216415,1,0,0:0:0:0:
124,194,216494,1,0,0:0:0:0:
74,194,216572,1,0,0:0:0:0:
41,157,216651,1,0,0:0:0:0:
157,158,216808,6,0,L|170:238,1,50.9999984436036,10|0,0:0|0:0,0:0:0:0:
215,351,216965,2,0,L|228:271,1,50.9999984436036
311,185,217122,6,2,B|369:173|369:173|431:185,1,118.999996368408,2|0,0:0|0:0,0:0:0:0:
505,289,217436,1,10,0:0:0:0:
334,327,217593,1,0,0:0:0:0:
334,327,217672,1,0,0:0:0:0:
334,327,217750,5,8,0:0:0:0:
300,287,217828,1,8,0:0:0:0:
291,235,217907,1,8,0:0:0:0:
311,185,217985,1,8,0:0:0:0:
356,156,218064,1,8,0:3:0:0:
375,107,218142,1,8,0:3:0:0:
367,55,218221,1,8,0:3:0:0:
333,19,218299,1,8,0:3:0:0:
278,17,218379,6,2,L|151:29,1,118.999996368408,6|0,0:0|0:0,0:0:0:0:
172,246,218693,2,0,L|290:234,1,118.999996368408,8|0,0:0|0:0,0:0:0:0:
92,127,219007,1,0,0:0:0:0:
27,212,219164,1,8,0:3:0:0:
107,331,219321,1,0,0:0:0:0:
172,246,219478,1,0,0:0:0:0:
364,98,219635,6,0,B|389:151|389:151|373:225,1,118.999996368408,12|2,0:2|0:0,0:0:0:0:
203,384,219949,2,0,B|178:331|178:331|194:257,1,118.999996368408,0|2,0:0|0:0,0:0:0:0:
299,13,220263,1,0,0:0:0:0:
364,98,220421,1,0,0:0:0:0:
284,217,220578,1,2,0:0:0:0:
219,132,220735,1,0,0:0:0:0:
207,131,220813,1,0,0:0:0:0:
195,130,220892,6,2,L|89:126,1,85,6|0,0:0|0:0,0:0:0:0:
281,73,221205,2,0,L|323:68,1,42.5,8|0,0:0|0:0,0:0:0:0:
168,17,221363,1,0,0:0:0:0:
290,200,221520,1,8,0:0:0:0:
164,208,221677,2,0,L|88:204,1,68,0|0,0:0|0:0,0:0:0:0:
357,314,221991,5,8,0:0:0:0:
251,383,222148,1,0,0:0:0:0:
290,200,222305,1,8,0:0:0:0:
119,332,222462,6,0,P|141:329|162:320,2,45.3333333333333,8|0|0,0:3|0:0|0:0,0:0:0:0:
54,259,222777,6,0,P|32:256|12:247,2,45.3333333333333,8|0|0,0:3|0:0|0:0,0:0:0:0:
121,174,223091,6,0,P|143:171|164:162,2,45.3333333333333,0|8|0,0:0|0:3|0:0,0:0:0:0:
290,200,223405,5,4,0:0:0:0:
380,167,225918,5,4,0:0:0:0:
325,227,227489,6,0,P|316:290|374:365,2,136,0|0|0,2:0|2:0|0:0,1:0:0:0:
380,167,228274,1,0,0:0:0:0:
197,59,228431,6,0,B|149:24|149:24|183:190,2,204,4|0|0,0:0|2:0|2:0,0:0:0:0:
315,325,229688,2,0,B|363:360|363:360|329:194,2,204,0|0|0,2:0|2:0|2:0,0:0:0:0:
178,165,230944,5,4,0:0:0:0:
136,218,232515,2,0,P|87:223|13:176,2,136,0|4|0,2:0|2:0|0:0,0:0:0:0:
291,136,233457,6,0,L|349:132,1,50.9999984436036,4|0,0:2|2:0,0:0:0:0:
409,200,233771,2,0,L|467:204,1,50.9999984436036,0|0,0:0|2:0,0:0:0:0:
301,301,234085,2,0,L|243:305,1,50.9999984436036,0|0,0:0|2:0,0:0:0:0:
183,237,234399,2,0,L|125:233,1,50.9999984436036,0|0,0:0|2:0,0:0:0:0:
301,136,234714,6,0,P|314:168|309:201,1,50.9999984436036,0|0,0:0|2:0,0:0:0:0:
207,194,235028,2,0,P|193:225|166:245,1,50.9999984436036,0|0,0:0|2:0,0:0:0:0:
101,166,235342,2,0,P|69:179|36:174,1,50.9999984436036,0|0,0:0|2:0,0:0:0:0:
169,108,235656,1,0,0:0:0:0:
105,262,235813,1,8,0:0:0:0:
106,269,235892,1,0,0:0:0:0:
107,278,235970,6,0,L|116:345,1,63.7500024318696,8|0,0:0|2:0,0:0:0:0:
259,245,236284,2,0,L|268:178,1,63.7500024318696,0|0,0:0|2:0,0:0:0:0:
203,321,236599,2,0,L|212:388,1,63.7500024318696,0|0,0:0|2:0,0:0:0:0:
355,288,236913,2,0,L|364:221,1,63.7500024318696,0|0,0:0|2:0,0:0:0:0:
253,107,237227,6,0,P|220:104|182:109,1,63.7500024318696,0|0,0:0|2:0,0:0:0:0:
291,288,237541,2,0,P|324:291|362:286,1,63.7500024318696,2|0,0:0|0:0,0:0:0:0:
145,209,237855,2,0,P|142:242|147:280,1,63.7500024318696,2|0,0:0|2:0,0:0:0:0:
374,141,238169,2,0,P|377:108|372:70,1,63.7500024318696,2|0,0:0|0:0,0:0:0:0:
103,131,238483,5,8,0:0:0:0:
418,210,238693,1,8,0:3:0:0:
218,310,238902,1,8,0:3:0:0:
214,83,239112,5,8,0:0:0:0:
349,308,239322,1,8,0:3:0:0:
177,251,239531,1,8,0:3:0:0:
320,85,239740,5,8,0:0:0:0:
262,314,239950,1,8,0:3:0:0:
189,168,240159,1,8,0:3:0:0:
384,176,240368,5,8,0:0:0:0:
188,286,240578,1,8,0:3:0:0:
235,147,240787,1,8,0:3:0:0:
235,147,240892,1,0,0:0:0:0:
235,147,240996,5,8,0:0:0:0:
384,176,241206,1,8,0:3:0:0:
188,286,241415,1,8,0:3:0:0:
300,91,241625,5,8,0:0:0:0:
426,277,241835,1,8,0:0:0:0:
148,193,242044,1,8,0:0:0:0:
384,176,242253,5,8,0:0:0:0:
331,371,242463,1,8,0:0:0:0:
192,87,242672,1,8,0:0:0:0:
150,377,242881,5,10,0:0:0:0:
119,353,242960,1,8,0:0:0:0:
94,324,243038,1,8,0:0:0:0:
75,291,243117,1,8,0:0:0:0:
63,255,243195,1,8,0:0:0:0:
58,217,243274,1,8,0:0:0:0:
61,179,243352,1,8,0:0:0:0:
71,142,243431,1,8,0:0:0:0:
88,108,243510,5,6,0:0:0:0:
248,42,243667,1,0,0:0:0:0:
409,103,243824,1,8,0:0:0:0:
457,269,243981,2,2,P|388:288|231:267,1,203.999993774414,2|0,0:0|0:0,0:0:0:0:
88,108,244452,2,2,P|143:103|203:115,1,101.999996887207,10|0,0:0|0:0,0:0:0:0:
356,344,244766,6,0,P|362:260|362:223,1,101.999996887207,0|0,0:0|0:0,0:0:0:0:
188,110,245080,2,0,P|189:160|194:211,1,101.999996887207,8|0,0:0|0:0,0:0:0:0:
500,170,245394,2,0,B|385:172,1,101.999996887207,2|0,0:2|0:0,0:0:0:0:
223,312,245708,1,8,0:0:0:0:
450,250,245866,1,0,0:0:0:0:
210,305,246022,6,2,B|153:219|242:201|182:100,1,203.999993774414,2|8,0:0|0:0,0:0:0:0:
275,245,246493,1,0,0:0:0:0:
106,327,246650,2,0,P|88:280|93:217,1,101.999996887207
275,245,246965,1,8,0:0:0:0:
202,373,247122,1,0,0:0:0:0:
275,245,247279,6,0,P|329:239|384:234,1,101.999996887207,2|0,0:2|0:0,0:0:0:0:
209,13,247593,2,2,P|185:65|187:111,1,101.999996887207,10|0,0:0|0:0,0:0:0:0:
398,330,247907,2,2,P|399:279|376:234,1,101.999996887207,2|0,0:0|0:0,0:0:0:0:
167,261,248221,1,10,0:0:0:0:
270,371,248378,1,0,0:0:0:0:
255,134,248535,6,2,B|317:145|364:117|364:117|417:120|456:190,1,203.999993774414,6|0,0:0|0:0,0:0:0:0:
438,163,249006,1,2,0:0:0:0:
299,32,249164,2,0,P|238:24|173:50,1,101.999996887207
0,202,249478,2,2,P|61:210|126:184,1,101.999996887207,10|0,0:0|0:0,0:0:0:0:
255,134,249792,6,2,P|243:183|261:236,1,101.999996887207,2|0,0:0|0:0,0:0:0:0:
372,300,250106,1,8,0:0:0:0:
497,131,250263,2,2,P|402:110|333:179,1,203.999993774414,2|0,0:0|0:0,0:0:0:0:
500,338,250734,2,2,P|522:288|513:236,1,101.999996887207,10|0,0:0|0:0,0:0:0:0:
332,179,251049,5,2,0:0:0:0:
415,370,251206,1,0,0:0:0:0:
215,322,251363,1,8,0:0:0:0:
336,282,251520,1,0,0:0:0:0:
144,265,251677,2,0,P|125:313|139:371,1,101.999996887207,0|0,0:0|0:0,0:0:0:0:
336,282,251991,1,8,0:0:0:0:
296,161,252148,1,0,0:0:0:0:
279,353,252305,6,0,P|327:372|385:358,1,101.999996887207,2|0,0:2|0:0,0:0:0:0:
452,96,252619,1,10,0:0:0:0:
476,314,252776,1,0,0:0:0:0:
462,113,252933,1,2,0:0:0:0:
465,296,253090,1,0,0:0:0:0:
468,128,253248,1,10,0:0:0:0:
458,280,253405,1,0,0:0:0:0:
452,96,253562,6,2,B|404:109|373:92|373:92|366:118|366:118|307:101|240:117,1,203.999993774414,6|8,0:0|0:0,0:0:0:0:
40,224,254033,2,2,B|88:237|119:220|119:220|126:246|126:246|185:229|252:245,1,203.999993774414,2|0,0:0|0:0,0:0:0:0:
93,53,254504,2,2,P|64:100|82:154,1,101.999996887207,10|0,0:0|0:0,0:0:0:0:
309,384,254818,6,0,B|256:283|339:289|296:188,1,203.999993774414,0|8,0:0|0:0,0:0:0:0:
296,187,255290,1,0,0:0:0:0:
383,326,255447,1,2,0:2:0:0:
383,326,255604,1,0,0:0:0:0:
215,241,255761,2,0,P|170:244|103:255,1,101.999996887207,8|0,0:0|0:0,0:0:0:0:
291,121,256075,6,2,P|349:119|517:127,1,203.999993774414,2|10,0:0|0:0,0:0:0:0:
370,200,256546,1,0,0:0:0:0:
478,49,256703,1,0,0:0:0:0:
470,229,256860,1,0,0:0:0:0:
291,121,257017,2,0,B|239:114|239:114|183:126,1,101.999996887207,8|0,0:0|0:0,0:0:0:0:
254,326,257332,6,0,B|295:361|295:361|295:312,1,101.999996887207,2|0,0:2|0:0,0:0:0:0:
122,190,257646,2,2,B|87:231|87:231|135:231,1,101.999996887207,10|0,0:0|0:0,0:0:0:0:
258,58,257960,2,2,B|217:23|217:23|216:71,1,101.999996887207,2|0,0:0|0:0,0:0:0:0:
390,194,258274,2,2,B|425:153|425:153|376:152,1,101.999996887207,10|0,0:0|0:0,0:0:0:0:
135,231,258588,6,2,L|144:338,1,85,2|0,0:0|0:0,0:0:0:0:
216,349,258824,2,0,P|258:366|317:355,1,85,2|0,2:0|2:0,0:0:0:0:
374,344,259059,1,2,0:0:0:0:
445,211,259216,6,2,L|452:112,1,85,2|0,0:0|0:0,0:0:0:0:
382,118,259452,2,0,L|376:202,1,85,2|0,2:0|2:0,0:0:0:0:
402,266,259688,1,2,0:0:0:0:
237,224,259845,6,2,P|196:212|147:218,1,85,2|0,0:0|0:0,0:0:0:0:
127,248,260080,2,0,P|86:259|44:256,1,85,2|0,2:0|2:0,0:0:0:0:
15,224,260316,1,2,0:0:0:0:
78,80,260473,6,2,L|169:73,1,85,2|0,0:0|0:0,0:0:0:0:
143,89,260708,2,0,L|234:96,1,85,2|0,2:0|2:0,0:0:0:0:
250,83,260944,1,2,0:0:0:0:
228,176,261101,5,2,0:0:0:0:
363,86,261258,1,0,0:0:0:0:
228,176,261415,1,8,0:0:0:0:
363,86,261572,1,0,0:0:0:0:
316,247,261729,1,0,0:0:0:0:
250,83,261886,1,0,0:0:0:0:
200,273,262043,1,8,0:0:0:0:
252,72,262200,1,0,0:0:0:0:
316,247,262358,5,10,0:0:0:0:
344,265,262436,1,0,0:0:0:0:
377,272,262515,1,8,0:0:0:0:
410,266,262593,1,0,0:0:0:0:
439,249,262672,1,8,0:3:0:0:
459,222,262750,1,8,0:3:0:0:
473,190,262829,5,8,0:0:0:0:
439,185,262907,1,0,0:0:0:0:
405,181,262986,1,0,0:0:0:0:
371,177,263064,1,0,0:0:0:0:
338,172,263143,1,8,0:3:0:0:
304,168,263221,1,8,0:3:0:0:
270,166,263300,5,10,0:0:0:0:
241,135,263378,1,8,0:0:0:0:
235,94,263457,1,8,0:0:0:0:
254,57,263535,1,8,0:0:0:0:
292,38,263614,6,0,L|221:43,3,50.9999984436036,6|0|0|0,0:0|0:0|0:0|0:0,0:0:0:0:
138,6,263928,2,0,L|106:69,3,50.9999984436036,8|0|2|0,0:0|0:0|0:0|0:0,0:0:0:0:
35,145,264243,5,0,0:0:0:0:
51,164,264321,1,0,0:0:0:0:
62,187,264400,1,0,0:0:0:0:
65,212,264478,1,0,0:0:0:0:
40,257,264557,5,10,0:0:0:0:
35,281,264635,1,0,0:0:0:0:
38,307,264713,1,0,0:0:0:0:
48,330,264792,1,0,0:0:0:0:
99,335,264871,6,0,P|149:320|200:329,1,101.999996887207,0|0,0:0|0:0,0:0:0:0:
430,290,265185,1,8,0:0:0:0:
406,279,265263,1,0,0:0:0:0:
381,275,265342,1,0,0:0:0:0:
356,276,265420,1,0,0:0:0:0:
331,282,265499,2,0,P|311:290|280:284,3,50.9999984436036,2|0|0|0,0:2|0:0|0:0|0:0,0:0:0:0:
210,208,265813,2,0,P|202:187|208:156,3,50.9999984436036,8|0|0|0,0:0|0:0|0:0|0:0,0:0:0:0:
297,82,266127,6,2,L|443:75,1,101.999996887207,2|0,0:0|0:0,0:0:0:0:
198,19,266441,1,8,0:0:0:0:
160,16,266519,1,0,0:0:0:0:
123,26,266598,1,0,0:0:0:0:
92,48,266676,1,0,0:0:0:0:
71,80,266756,2,0,L|79:141,3,50.9999984436036,0|0|0|0,0:0|0:0|0:0|0:0,0:0:0:0:
178,194,267070,2,0,L|170:254,3,50.9999984436036,8|0|0|0,0:0|0:0|0:0|0:0,0:0:0:0:
67,339,267384,6,0,L|184:327,1,101.999996887207,0|0,0:0|0:0,0:0:0:0:
330,277,267698,1,10,0:0:0:0:
344,278,267777,1,0,0:0:0:0:
360,279,267855,2,0,L|413:288,1,50.9999984436036,0|0,0:0|0:0,0:0:0:0:
299,198,268012,5,2,0:0:0:0:
316,194,268091,1,0,0:0:0:0:
335,191,268169,2,0,L|399:185,1,50.9999984436036,0|0,0:0|0:0,0:0:0:0:
264,124,268326,5,10,0:0:0:0:
282,114,268405,1,0,0:0:0:0:
303,104,268483,2,0,L|376:77,1,50.9999984436036,0|0,0:0|0:0,0:0:0:0:
202,59,268640,6,2,B|175:114|175:114|202:259,1,203.999993774414,6|8,0:0|0:0,0:0:0:0:
399,346,269111,1,2,0:0:0:0:
410,344,269190,1,0,0:0:0:0:
419,338,269268,2,0,L|409:282,3,50.9999984436036
454,190,269582,2,2,B|404:181|404:181|341:198,1,101.999996887207,10|0,0:0|0:0,0:0:0:0:
226,282,269897,5,2,0:0:0:0:
189,278,269975,1,0,0:0:0:0:
152,274,270054,1,0,0:0:0:0:
116,270,270132,1,0,0:0:0:0:
79,267,270211,1,8,0:0:0:0:
41,279,270290,1,0,0:0:0:0:
17,251,270368,1,2,0:0:0:0:
2,218,270447,1,0,0:0:0:0:
0,182,270525,1,0,0:0:0:0:
4,146,270604,1,0,0:0:0:0:
20,114,270682,1,0,0:0:0:0:
46,88,270761,1,0,0:0:0:0:
78,71,270839,6,0,P|102:63|143:61,1,50.9999984436036,10|0,0:0|0:0,0:0:0:0:
248,156,270996,2,0,P|222:153|198:145,1,50.9999984436036,0|0,0:0|0:0,0:0:0:0:
289,59,271154,5,2,0:0:0:0:
325,86,271232,1,0,0:0:0:0:
347,126,271311,1,0,0:0:0:0:
350,171,271389,1,0,0:0:0:0:
333,214,271468,1,8,0:0:0:0:
301,245,271546,1,0,0:0:0:0:
339,222,271624,1,0,0:0:0:0:
384,228,271703,1,0,0:0:0:0:
415,261,271782,5,0,0:0:0:0:
418,306,271860,1,0,0:0:0:0:
393,343,271938,1,0,0:0:0:0:
352,364,272017,1,0,0:0:0:0:
306,357,272096,2,0,L|242:343,3,50.9999984436036,8|0|0|0,0:0|0:0|0:0|0:0,0:0:0:0:
167,280,272410,6,0,P|116:282|49:289,1,101.999996887207,0|0,0:0|0:0,0:0:0:0:
208,46,272724,2,2,P|259:48|326:55,1,101.999996887207,10|0,0:0|0:0,0:0:0:0:
437,202,273038,1,2,0:0:0:0:
426,198,273117,1,0,0:0:0:0:
426,187,273195,1,0,0:0:0:0:
437,184,273274,1,0,0:0:0:0:
442,193,273352,2,0,L|446:276,1,50.9999984436036,10|0,0:0|0:0,0:0:0:0:
309,314,273510,1,0,0:0:0:0:
305,324,273589,1,0,0:0:0:0:
301,334,273667,6,0,L|312:398,3,50.9999984436036,6|0|0|0,0:0|0:0|0:0|0:0,0:0:0:0:
200,345,273981,2,0,P|144:341|106:306,1,101.999996887207,8|2,0:0|0:0,0:0:0:0:
77,157,274295,1,0,0:0:0:0:
103,126,274373,1,0,0:0:0:0:
140,110,274452,1,0,0:0:0:0:
181,113,274530,1,0,0:0:0:0:
216,133,274609,1,10,0:0:0:0:
238,167,274687,1,0,0:0:0:0:
260,200,274766,1,0,0:0:0:0:
295,221,274845,1,0,0:0:0:0:
335,223,274923,5,0,0:0:0:0:
372,208,275002,1,0,0:0:0:0:
399,177,275080,1,0,0:0:0:0:
411,137,275159,1,0,0:0:0:0:
405,96,275237,2,0,P|384:31|341:5,1,101.999996887207,8|0,0:0|0:0,0:0:0:0:
216,133,275551,5,0,0:0:0:0:
219,171,275630,1,0,0:0:0:0:
200,203,275708,1,0,0:0:0:0:
166,220,275787,1,0,0:0:0:0:
128,215,275865,1,8,0:0:0:0:
90,210,275944,1,0,0:0:0:0:
56,227,276022,1,0,0:0:0:0:
37,259,276100,1,0,0:0:0:0:
40,297,276180,5,2,0:0:0:0:
52,333,276258,1,0,0:0:0:0:
78,361,276337,1,0,0:0:0:0:
114,374,276415,1,0,0:0:0:0:
151,370,276494,1,8,0:0:0:0:
184,350,276572,1,0,0:0:0:0:
204,318,276651,1,0,0:0:0:0:
208,280,276729,1,0,0:0:0:0:
196,244,276808,2,0,L|204:189,3,50.9999984436036,0|0|0|0,0:0|0:0|0:0|0:0,0:0:0:0:
320,183,277122,2,0,L|312:129,3,50.9999984436036,8|0|0|0,0:0|0:0|0:0|0:0,0:0:0:0:
229,35,277436,6,0,P|179:43|114:67,1,101.999996887207
331,41,277750,1,10,0:0:0:0:
356,39,277829,1,0,0:0:0:0:
380,45,277907,2,0,L|395:104,1,50.9999984436036,0|0,0:0|0:0,0:0:0:0:
457,276,278064,5,2,0:0:0:0:
431,276,278143,1,0,0:0:0:0:
405,274,278221,2,0,L|386:203,1,50.9999984436036,0|0,0:0|0:0,0:0:0:0:
258,129,278379,5,10,0:0:0:0:
283,127,278458,1,0,0:0:0:0:
307,133,278536,2,0,L|328:217,1,50.9999984436036,0|0,0:0|2:0,0:0:0:0:
260,327,278693,6,0,P|217:349|148:343,1,101.999996887207,8|0,0:0|0:0,0:0:0:0:
68,289,279112,1,0,0:0:0:0:
370,121,279321,6,0,P|411:147|440:210,1,101.999996887207,8|0,0:0|0:0,0:0:0:0:
434,306,279740,1,0,0:0:0:0:
128,157,279949,6,0,P|130:108|170:52,1,101.999996887207,8|0,0:0|0:0,0:0:0:0:
256,9,280368,1,0,0:0:0:0:
256,192,280577,5,8,0:0:0:0:
358,326,280787,1,0,0:0:0:0:
347,331,280891,1,0,0:0:0:0:
336,336,280996,5,8,0:0:0:0:
256,336,281101,1,8,0:0:0:0:
176,336,281206,5,8,0:0:0:0:
368,240,281415,1,0,0:0:0:0:
144,240,281625,1,0,0:0:0:0:
384,224,281834,5,8,0:0:0:0:
96,128,282044,1,8,0:0:0:0:
416,128,282253,1,8,0:0:0:0:
144,320,282462,5,8,0:0:0:0:
213,48,282672,1,8,0:0:0:0:
414,243,282881,1,8,0:0:0:0:
193,185,283091,5,10,0:0:0:0:
274,263,283301,1,10,0:0:0:0:
301,154,283510,1,10,0:0:0:0:
107,108,283719,6,0,P|80:148|87:217,1,116.875,4|0,0:0|2:0,0:0:0:0:
150,280,284661,6,0,B|200:249|209:298|271:272,1,116.875,4|0,0:0|2:0,0:0:0:0:
321,208,285603,6,0,P|338:230|342:241,1,31.875,4|0,0:0|0:0,0:0:0:0:
339,325,285917,1,0,0:0:0:0:
345,323,285995,1,0,0:0:0:0:
352,323,286074,1,0,0:0:0:0:
358,322,286152,1,0,0:0:0:0:
365,322,286231,1,0,0:0:0:0:
372,323,286309,1,0,0:0:0:0:
378,324,286388,1,0,0:0:0:0:
385,326,286466,1,0,0:0:0:0:
391,328,286546,6,0,P|462:320|429:226,1,178.499994552612,8|0,0:0|2:0,0:0:0:0:
344,225,286860,6,0,P|371:163|284:160,1,152.999995330811,4|0,0:2|2:0,0:0:0:0:
231,224,287174,6,0,P|192:181|160:244,1,127.5,0|0,0:2|2:0,0:0:0:0:
183,325,287488,6,0,P|139:350|178:360,1,102,4|0,0:2|2:0,0:0:0:0:
291,343,287802,6,0,L|333:336,1,31.8750012159348,12|0,0:0|0:0,0:0:0:0:
443,288,287959,2,0,L|401:281,1,31.8750012159348,0|0,0:0|0:0,0:0:0:0:
250,260,288116,2,0,L|292:253,1,31.8750012159348,8|0,0:0|0:0,0:0:0:0:
402,205,288273,2,0,L|360:198,1,31.8750012159348,0|0,0:0|0:0,0:0:0:0:
209,177,288430,2,0,L|251:170,1,31.8750012159348,8|0,0:0|0:0,0:0:0:0:
361,122,288587,2,0,L|319:115,1,31.8750012159348,0|0,0:0|0:0,0:0:0:0:
191,33,288744,6,0,P|195:63|196:81,1,38.2499988327027,10|0,0:0|0:0,0:0:0:0:
101,170,288902,2,0,P|102:203|95:222,1,38.2499988327027,10|0,0:0|0:0,0:0:0:0:
271,148,289059,2,0,P|247:166|231:176,1,38.2499988327027,8|0,0:0|0:0,0:0:0:0:
107,138,289217,2,0,P|78:155|58:158,1,38.2499988327027,0|0,0:0|0:0,0:0:0:0:
163,321,289373,6,0,L|224:304,1,42.5,8|0,0:0|0:0,0:0:0:0:
365,225,289530,2,0,L|304:208,1,42.5,0|0,0:0|0:0,0:0:0:0:
161,303,289687,2,0,L|224:302,1,42.5,8|0,0:0|0:0,0:0:0:0:
372,263,289844,2,0,L|317:230,1,42.5,0|0,0:0|0:0,0:0:0:0:
161,282,290001,2,0,L|222:297,1,42.5,10|0,0:0|0:0,0:0:0:0:
366,298,290158,2,0,L|321:252,1,42.5,10|0,0:0|0:0,0:0:0:0:
231,201,290315,6,0,P|206:192|181:188,1,50.9999984436036,8|0,0:0|0:0,0:0:0:0:
337,106,290472,2,0,P|361:97|386:93,1,50.9999984436036,0|0,0:0|0:0,0:0:0:0:
225,202,290629,2,0,P|201:193|175:189,1,50.9999984436036,8|0,0:0|0:0,0:0:0:0:
342,103,290786,2,0,P|365:94|391:90,1,50.9999984436036,0|0,0:0|0:0,0:0:0:0:
220,206,290943,2,0,P|196:196|171:191,1,50.9999984436036,8|0,0:0|0:0,0:0:0:0:
348,100,291100,2,0,P|372:91|397:86,1,50.9999984436036,0|0,0:0|0:0,0:0:0:0:
213,207,291258,2,0,P|188:198|164:193,1,50.9999984436036,10|0,0:0|0:0,0:0:0:0:
354,97,291415,2,0,P|378:88|402:83,1,50.9999984436036,10|0,0:0|0:0,0:0:0:0:
249,130,291572,5,8,0:0:0:0:
238,116,291650,1,0,0:0:0:0:
226,104,291729,1,0,0:0:0:0:
211,96,291807,1,0,0:0:0:0:
195,90,291886,1,8,0:0:0:0:
179,87,291964,1,0,0:0:0:0:
162,88,292043,1,0,0:0:0:0:
145,93,292121,1,0,0:0:0:0:
109,121,292200,5,10,0:0:0:0:
81,164,292278,1,8,0:0:0:0:
70,215,292357,1,10,0:0:0:0:
78,266,292435,1,8,0:0:0:0:
101,311,292514,1,10,0:0:0:0:
140,346,292592,1,8,0:0:0:0:
188,364,292671,1,10,0:0:0:0:
239,366,292749,1,8,0:0:0:0:
289,350,292828,6,2,B|326:350|350:321|350:321|375:347|375:347|400:315|464:311,1,204,6|0,0:0|0:0,0:0:0:0:
492,257,293142,1,8,0:3:0:0:
496,196,293220,1,0,0:0:0:0:
467,141,293299,1,8,0:3:0:0:
412,114,293377,1,8,0:3:0:0:
350,114,293456,6,0,P|316:116|273:114,1,45.3333333333333,8|0,0:0|0:0,0:0:0:0:
140,64,293614,1,0,0:0:0:0:
289,350,294085,5,4,0:0:0:0:
256,192,294163,12,0,304137,0:0:0:0:
