osu file format v14

[General]
AudioFilename: audio.mp3
AudioLeadIn: 0
PreviewTime: 80079
Countdown: 0
SampleSet: Normal
StackLeniency: 0.5
Mode: 0
LetterboxInBreaks: 0
WidescreenStoryboard: 0

[Editor]
Bookmarks: 223403,233455
DistanceSpacing: 0.3
BeatDivisor: 4
GridSize: 4
TimelineZoom: 1.4

[Metadata]
Title:Seijouki no Pierrot ~ The MadPiero Laughs
TitleUnicode:星条旗のピエロ ~ The MadPiero Laughs
Artist:Demetori
ArtistUnicode:Demetori
Creator:jonathanlfj
Version:Lunatic
Source:東方紺珠伝 ~ Legacy of Lunatic Kingdom.
Tags:sahuang Touhou Kanjuden 東方Project Determinism&DestruKction クラウンピース Clownpiece The Pierrot of the Star-Spangled Banner Stage 5 ZUN c92 comiket 92
BeatmapID:1501711
BeatmapSetID:656918

[Difficulty]
HPDrainRate:6
CircleSize:4
OverallDifficulty:8
ApproachRate:9
SliderMultiplier:1.7
SliderTickRate:1

[Events]
//Background and Video events
0,0,"clownpiece.jpg",0,0
//Break Periods
//Storyboard Layer 0 (Background)
//Storyboard Layer 1 (Fail)
//Storyboard Layer 2 (Pass)
//Storyboard Layer 3 (Foreground)
//Storyboard Sound Samples

[TimingPoints]
684,314.13612565445,3,1,1,30,1,0
684,-142.857142857143,3,1,1,30,0,0
1547,-142.857142857143,3,1,1,5,0,0
1626,-142.857142857143,3,2,1,50,0,0
4453,314.13612565445,4,1,1,70,1,0
4453,-83.3333333333333,4,1,1,70,0,0
4767,-100,4,1,1,60,0,0
5081,-125,4,1,1,50,0,0
5395,-166.666666666667,4,1,1,40,0,0
5709,-100,4,1,1,50,0,1
6337,-100,4,1,1,55,0,1
6966,-100,4,1,1,60,0,1
7594,-100,4,1,1,65,0,1
8222,-100,4,1,1,70,0,1
9479,-90.9090909090909,4,1,1,70,0,1
10735,314.13612565445,3,1,1,70,1,0
10735,-90.9090909090909,3,1,1,70,0,0
13563,314.13612565445,4,1,1,50,1,0
14819,-100,4,1,1,50,0,1
15761,-83.3333333333333,4,1,1,55,0,1
16076,-90.9090909090909,4,1,1,60,0,1
17018,-76.9230769230769,4,1,1,65,0,1
17332,-83.3333333333333,4,1,1,70,0,1
19845,-100,4,1,1,60,0,0
28013,-86.9565217391304,4,1,1,60,0,0
28641,-100,4,1,1,60,0,0
38693,-100,4,1,1,70,0,0
39322,-100,4,1,1,65,0,0
39950,-125,4,1,1,60,0,0
43720,-83.3333333333333,4,1,1,75,0,0
43955,-83.3333333333333,4,1,1,5,0,0
44034,-100,4,1,1,65,0,0
44269,-100,4,1,1,5,0,0
44348,-125,4,1,1,55,0,0
44583,-125,4,1,1,5,0,0
44662,-166.666666666667,4,1,1,45,0,0
44898,-166.666666666667,4,1,1,5,0,0
44976,-100,4,1,1,50,0,1
45604,-100,4,1,1,55,0,1
46233,-100,4,1,1,60,0,1
46861,-100,4,1,1,65,0,1
47489,-100,4,1,1,70,0,1
48746,-83.3333333333333,4,1,1,70,0,1
50002,-90.9090909090909,4,1,1,70,0,0
53772,-83.3333333333333,4,1,1,70,0,0
54008,-83.3333333333333,4,1,1,5,0,0
54086,-100,4,1,1,60,0,0
54322,-100,4,1,1,5,0,0
54400,-90.9090909090909,4,1,1,60,0,0
55028,-100,4,1,1,50,0,1
55971,-83.3333333333333,4,1,1,55,0,1
56285,-86.9565217391304,4,1,1,60,0,1
57227,-76.9230769230769,4,1,1,65,0,1
57542,-76.9230769230769,4,1,1,70,0,1
58484,-66.6666666666667,4,1,1,70,0,1
58798,-76.9230769230769,4,1,1,80,0,0
59583,-76.9230769230769,4,1,1,70,0,0
59976,-76.9230769230769,4,1,1,10,0,0
60055,-100,4,1,1,60,0,0
68222,-86.9565217391304,4,1,1,60,0,0
68850,-100,4,1,1,60,0,0
78903,-100,4,1,1,70,0,0
79531,-100,4,1,1,60,0,0
80159,-90.9090909090909,4,1,1,70,0,1
80238,-90.9090909090909,4,1,1,70,0,0
99636,-83.3333333333333,4,1,1,70,0,0
100264,-83.3333333333333,4,1,1,80,0,1
104662,-76.9230769230769,4,1,1,80,0,1
104976,-71.4285714285714,4,1,1,80,0,1
105290,-83.3333333333333,4,1,1,80,0,1
109688,-76.9230769230769,4,1,1,80,0,1
110002,-71.4285714285714,4,1,1,80,0,1
110316,-83.3333333333333,4,1,1,80,0,1
114714,-76.9230769230769,4,1,1,80,0,1
115028,-71.4285714285714,4,1,1,80,0,1
115264,-71.4285714285714,4,1,1,5,0,1
115343,-100,4,1,1,80,0,1
115971,-100,4,1,1,75,0,1
116599,-100,4,1,1,70,0,1
117227,-100,4,1,1,65,0,1
117856,-100,4,1,1,60,0,1
118484,-100,4,1,1,65,0,1
119112,-100,4,1,1,70,0,1
119741,-100,4,1,1,75,0,1
120369,314.13612565445,3,2,1,30,1,0
120369,-181.818181818182,3,2,1,30,0,0
127908,-153.846153846154,3,2,1,40,0,0
154295,320.855614973262,3,1,1,50,1,0
154295,-166.666666666667,3,1,1,50,0,0
155257,324.324324324324,3,1,1,40,1,0
156229,327.868852459016,3,1,1,30,1,0
157212,321.71581769437,3,2,1,20,1,0
158065,314.13612565445,4,1,1,45,1,0
158065,-125,4,1,1,45,0,0
158693,-125,4,1,1,50,0,0
159321,-125,4,1,1,55,0,0
159949,-125,4,1,1,60,0,0
160578,-111.111111111111,4,1,1,62,0,0
160892,-95.2380952380952,4,1,1,64,0,0
161206,-83.3333333333333,4,1,1,66,0,0
161520,-74.0740740740741,4,1,1,68,0,0
161834,-100,4,1,1,70,0,0
162462,-90.9090909090909,4,1,1,75,0,0
163091,314.13612565445,3,1,1,80,1,1
163091,-58.8235294117647,3,1,1,80,0,1
169373,-83.3333333333333,3,1,1,80,0,1
170630,314.13612565445,4,1,1,65,1,0
170630,-90.9090909090909,4,1,1,65,0,0
178169,-86.9565217391304,4,1,1,70,0,0
185708,-83.3333333333333,4,1,1,70,0,0
186965,-83.3333333333333,4,1,1,80,0,0
187593,-83.3333333333333,4,1,1,70,0,0
195761,-83.3333333333333,4,1,1,50,0,0
196075,-83.3333333333333,4,1,1,55,0,0
196389,-83.3333333333333,4,1,1,60,0,0
196703,-83.3333333333333,4,1,1,65,0,0
197017,-83.3333333333333,4,1,1,70,0,0
198274,-90.9090909090909,4,1,1,70,0,0
199216,-125,4,1,1,70,0,0
199845,-90.9090909090909,4,1,1,70,0,0
201729,-125,4,1,1,70,0,0
202358,-90.9090909090909,4,1,1,70,0,0
207698,-83.3333333333333,4,1,1,70,0,0
208326,-100,4,1,1,60,0,1
210839,-90.9090909090909,4,1,1,65,0,1
213352,-83.3333333333333,4,1,1,70,0,1
215866,-76.9230769230769,4,1,1,75,0,1
217750,-71.4285714285714,4,1,1,80,0,1
218378,-90.9090909090909,4,1,1,70,0,0
223405,-200,4,1,1,50,0,0
225133,-200,4,1,1,20,0,0
225918,-200,4,1,1,50,0,0
232515,-200,4,1,1,20,0,0
233457,-142.857142857143,4,1,1,50,0,0
234714,-142.857142857143,4,1,1,55,0,0
235970,-142.857142857143,4,1,1,60,0,0
237227,-142.857142857143,4,1,1,65,0,0
238405,-142.857142857143,4,1,1,5,0,0
238483,-100,4,1,1,70,0,0
239112,-100,4,1,1,65,0,0
239740,-100,4,1,1,60,0,0
240368,-100,4,1,1,55,0,0
240996,-100,4,1,1,60,0,0
241625,-100,4,1,1,65,0,0
242253,-100,4,1,1,70,0,0
242881,-90.9090909090909,4,1,1,75,0,0
243509,-83.3333333333333,4,1,1,75,0,1
243588,-83.3333333333333,4,1,1,75,0,0
263614,-76.9230769230769,4,1,1,85,0,1
268012,-71.4285714285714,4,1,1,85,0,1
268326,-66.6666666666667,4,1,1,85,0,1
268640,-76.9230769230769,4,1,1,85,0,1
273038,-71.4285714285714,4,1,1,85,0,1
273352,-66.6666666666667,4,1,1,85,0,1
273666,-76.9230769230769,4,1,1,85,0,1
278064,-71.4285714285714,4,1,1,85,0,1
278379,-66.6666666666667,4,1,1,85,0,1
278614,-66.6666666666667,4,1,1,5,0,1
278693,-90.9090909090909,4,1,1,80,0,1
279321,-90.9090909090909,4,1,1,75,0,1
279949,-90.9090909090909,4,1,1,70,0,1
280578,-90.9090909090909,4,1,1,65,0,1
281206,-90.9090909090909,4,1,1,60,0,1
281834,-90.9090909090909,4,1,1,65,0,1
282462,-90.9090909090909,4,1,1,70,0,1
283091,-90.9090909090909,4,1,1,75,0,1
283719,314.13612565445,3,1,1,70,1,0
283719,-100,3,1,1,70,0,0
285917,-100,3,1,1,50,0,0
286546,314.13612565445,4,1,1,70,1,0
286546,-83.3333333333333,4,1,1,70,0,0
286781,-83.3333333333333,4,1,1,5,0,0
286860,-100,4,1,1,60,0,0
287095,-100,4,1,1,5,0,0
287174,-125,4,1,1,50,0,0
287409,-125,4,1,1,5,0,0
287488,-166.666666666667,4,1,1,40,0,0
287724,-166.666666666667,4,1,1,5,0,0
287802,-83.3333333333333,4,1,1,60,0,1
288744,-66.6666666666667,4,1,1,65,0,1
289059,-76.9230769230769,4,1,1,70,0,1
290001,-66.6666666666667,4,1,1,75,0,1
290315,-71.4285714285714,4,1,1,80,0,1
291258,-66.6666666666667,4,1,1,80,0,1
291572,-62.5,4,1,1,85,0,1
292828,-100,4,1,1,85,0,0
293142,-66.6666666666667,4,1,1,85,0,0
294085,-83.3333333333333,4,1,1,70,0,0
294163,-100,4,1,1,50,0,0
304137,-100,4,1,1,20,0,0

[Colours]
Combo1 : 255,208,100
Combo2 : 1,98,243
Combo3 : 254,63,197
Combo4 : 255,51,56

[HitObjects]
240,160,684,6,2,B|200:127|201:71|238:43|281:48|309:81|305:124|277:156|277:156|236:204|264:252,1,327.249990013123,2|0,2:0|2:0,0:0:0:0:
312,288,1626,6,0,B|344:304|344:304|448:296,2,118.999996368408,4|2|2,1:0|0:0|0:0,0:0:0:0:
456,156,2568,2,0,L|504:152,2,29.7499990921021,4|0|2,1:0|0:0|0:0,0:0:0:0:
384,96,2882,2,0,L|260:84,1,118.999996368408,2|0,0:0|0:0,0:0:0:0:
168,240,3511,6,0,L|292:248,2,118.999996368408,4|2|2,1:0|0:0|0:0,0:0:0:0:
36,160,4296,1,0,0:0:0:0:
36,160,4375,1,0,0:0:0:0:
36,160,4453,2,0,B|20:40,1,101.999996887207,8|0,0:0|2:0,0:0:0:0:
120,116,4767,6,0,L|132:32,1,85,4|0,0:2|2:0,0:0:0:0:
216,104,5081,6,0,L|240:40,1,68,0|0,0:0|2:0,0:0:0:0:
312,120,5395,6,0,L|348:64,1,50.9999984436036,4|0,0:2|2:0,0:0:0:0:
388,180,5709,6,0,B|400:220|400:220|392:268,1,85,8|0,0:0|0:0,0:0:0:0:
308,376,6023,2,0,B|296:336|296:336|304:288,1,85,8|0,0:0|0:0,0:0:0:0:
228,144,6337,2,0,B|240:184|240:184|232:232,1,85,8|0,0:0|0:0,0:0:0:0:
80,264,6651,1,10,0:0:0:0:
144,192,6809,1,10,0:0:0:0:
132,344,6966,6,0,P|92:356|44:352,1,85,8|0,0:0|0:0,0:0:0:0:
232,226,7280,2,0,P|272:214|320:218,1,85,8|0,0:0|0:0,0:0:0:0:
80,264,7594,2,0,P|24:248|-4:224,1,85,8|0,0:0|0:0,0:0:0:0:
144,192,7908,1,10,0:0:0:0:
132,344,8065,1,10,0:0:0:0:
232,226,8222,5,8,0:0:0:0:
80,264,8379,1,0,0:0:0:0:
232,324,8536,1,8,0:0:0:0:
144,192,8693,2,2,P|136:104|192:44,1,170,2|2,0:0|0:0,0:0:0:0:
316,236,9165,2,2,B|220:224,1,85,8|2,0:0|0:0,0:0:0:0:
376,160,9479,5,12,0:2:0:0:
504,268,9636,1,0,0:0:0:0:
316,236,9793,1,12,0:2:0:0:
472,176,9950,1,0,0:0:0:0:
356,328,10107,6,0,L|360:380,3,46.7500014266968,8|8|8|0,0:0|0:3|0:3|0:0,0:0:0:0:
272,356,10421,2,0,P|250:352|216:352,1,46.7500014266968,0|0,0:0|0:0,0:0:0:0:
288,272,10578,2,0,P|271:259|240:248,1,46.7500014266968,0|0,0:0|0:0,0:0:0:0:
372,240,10734,5,4,0:0:0:0:
364,216,10813,1,0,0:0:0:0:
352,196,10892,1,0,0:0:0:0:
336,180,10970,1,0,0:0:0:0:
316,164,11049,1,8,0:0:0:0:
208,148,11363,5,8,0:0:0:0:
247,249,11677,5,0,0:0:0:0:
316,164,11834,1,0,0:0:0:0:
208,148,11991,1,8,0:0:0:0:
247,249,12305,5,8,0:0:0:0:
316,164,12619,5,4,0:0:0:0:
306,137,12698,1,0,0:0:0:0:
296,114,12776,1,0,0:0:0:0:
286,91,12855,1,0,0:0:0:0:
276,68,12933,1,8,0:0:0:0:
208,148,13248,5,8,0:0:0:0:
316,164,13405,1,0,0:0:0:0:
316,164,13483,1,0,0:0:0:0:
316,164,13563,2,0,L|365:158,3,42.5,8|8|8|8,0:3|0:3|0:3|0:3,0:0:0:0:
420,102,13877,2,0,L|469:96,3,42.5,0|0|0|0,0:0|0:0|0:0|0:0,0:0:0:0:
355,48,14191,2,0,L|306:42,3,42.5,8|0|0|0,0:3|0:0|0:0|0:0,0:0:0:0:
240,72,14505,1,8,0:3:0:0:
215,76,14583,1,0,0:0:0:0:
189,81,14662,1,8,0:3:0:0:
164,87,14741,1,8,0:3:0:0:
139,93,14819,6,0,B|122:132|122:132|127:178,1,85,4|0,0:2|0:0,0:0:0:0:
178,230,15055,1,0,0:0:0:0:
178,230,15133,2,0,L|165:327,1,85,0|0,0:0|0:0,0:0:0:0:
291,374,15447,2,0,L|278:277,1,85,8|0,0:0|0:0,0:0:0:0:
279,289,15683,1,0,0:0:0:0:
279,289,15761,1,2,0:0:0:0:
370,121,15919,1,2,0:0:0:0:
414,204,16076,6,0,P|352:214|312:197,1,93.5000028533936,0|0,0:0|0:0,0:0:0:0:
274,147,16311,1,0,0:0:0:0:
274,147,16390,2,0,L|173:157,1,93.5000028533936,0|0,0:0|0:0,0:0:0:0:
46,234,16704,2,0,L|151:245,1,93.5000028533936,8|0,0:0|0:0,0:0:0:0:
138,243,16939,1,0,0:0:0:0:
138,243,17018,1,2,0:0:0:0:
274,147,17175,1,2,0:0:0:0:
120,76,17332,5,0,0:0:0:0:
235,235,17489,1,0,0:0:0:0:
219,68,17646,1,0,0:0:0:0:
78,166,17803,2,2,B|144:147|144:147|215:165|215:165|274:147,1,203.999993774414
405,20,18275,2,2,B|398:70|398:70|413:121,1,101.999996887207,0|2,0:0|0:0,0:0:0:0:
419,138,18510,1,0,0:0:0:0:
425,157,18589,5,8,0:0:0:0:
339,248,18746,1,0,0:0:0:0:
342,228,18824,1,0,0:0:0:0:
346,208,18903,1,8,0:0:0:0:
267,106,19060,1,0,0:0:0:0:
270,126,19138,1,0,0:0:0:0:
274,146,19217,6,0,L|263:212,3,50.9999984436036,8|8|8|8,0:0|0:0|0:0|0:0,0:0:0:0:
195,239,19531,2,0,P|186:214|185:181,1,50.9999984436036,8|8,0:0|0:0,0:0:0:0:
117,141,19688,2,0,P|107:165|102:194,1,50.9999984436036,8|8,0:0|0:0,0:0:0:0:
184,189,19845,6,2,P|197:139|188:98,1,85,6|0,0:0|0:0,0:0:0:0:
33,284,20159,2,2,P|78:269|122:269,1,85,10|0,0:0|2:0,0:0:0:0:
276,325,20473,1,2,0:0:0:0:
176,353,20631,1,0,0:0:0:0:
283,225,20788,2,2,P|311:155|296:59,1,170,10|2,0:0|0:0,0:0:0:0:
430,167,21259,5,0,0:0:0:0:
430,167,21416,2,0,P|402:237|417:333,1,170,8|0,0:0|0:0,0:0:0:0:
269,381,21887,1,0,0:0:0:0:
197,303,22044,2,2,P|189:257|194:198,1,85,8|2,0:0|2:1,0:0:0:0:
273,148,22358,5,2,0:0:0:0:
292,255,22515,1,0,0:0:0:0:
190,218,22672,1,10,0:2:0:0:
291,158,22830,5,2,2:1:0:0:
273,265,22987,1,0,0:0:0:0:
189,196,23144,1,2,0:2:0:0:
305,175,23301,6,2,L|394:163,1,85,8|2,0:0|2:1,0:0:0:0:
246,21,23615,2,2,P|232:77|237:116,1,85,2|0,0:0|0:0,0:0:0:0:
271,319,23929,2,0,P|259:237|189:196,1,170,8|0,0:0|0:0,0:0:0:0:
176,296,24400,1,0,0:0:0:0:
361,254,24557,2,2,L|462:261,1,85,8|2,0:0|2:1,0:0:0:0:
286,379,24871,6,2,B|270:339|270:339|276:279,1,85,6|0,0:0|0:0,0:0:0:0:
308,119,25186,2,2,B|301:161|301:161|266:210,1,85,10|0,0:0|0:0,0:0:0:0:
101,239,25500,2,2,L|186:244,1,85,2|0,0:0|0:0,0:0:0:0:
393,97,25814,2,2,B|351:66|351:66|214:70,1,170,10|2,0:0|0:0,0:0:0:0:
100,145,26285,5,0,0:0:0:0:
100,145,26442,2,0,B|160:143|160:143|211:164|211:164|270:161,1,170,8|0,0:0|0:0,0:0:0:0:
233,69,26913,1,0,0:0:0:0:
138,237,27070,1,8,0:0:0:0:
265,161,27227,1,2,0:0:0:0:
100,145,27384,5,0,0:0:0:0:
138,237,27542,1,0,0:0:0:0:
177,328,27699,2,2,P|235:308|225:237,1,127.5,10|0,0:0|2:0,0:0:0:0:
236,249,28013,5,0,0:0:0:0:
138,237,28171,1,0,0:0:0:0:
40,223,28327,2,2,P|43:163|122:142,1,146.62500279665,10|0,0:0|2:0,0:0:0:0:
138,237,28641,6,2,L|125:329,1,85,2|0,0:0|0:0,0:0:0:0:
247,164,28955,2,0,L|234:256,1,85,8|0,0:0|0:0,0:0:0:0:
356,91,29269,2,0,L|343:183,1,85,8|0,0:0|0:0,0:0:0:0:
344,175,29505,1,0,0:0:0:0:
344,175,29583,2,0,L|400:170,1,42.5,8|8,0:0|0:3,0:0:0:0:
382,252,29741,2,0,L|437:246,1,42.5,8|0,0:3|0:0,0:0:0:0:
347,331,29898,6,2,B|307:320|307:320|256:326,1,85,6|0,0:0|0:0,0:0:0:0:
94,272,30212,2,2,B|134:283|134:283|185:277,1,85,10|0,0:0|2:0,0:0:0:0:
234,148,30526,1,2,0:0:0:0:
142,185,30683,1,0,0:0:0:0:
272,241,30840,2,2,L|408:229,1,127.5,10|0,0:0|0:0,0:0:0:0:
399,229,31154,6,2,P|409:274|403:317,1,85,2|0,0:0|0:0,0:0:0:0:
338,147,31468,2,0,P|345:80|446:34,1,170,8|0,0:0|0:0,0:0:0:0:
434,130,31939,1,0,0:0:0:0:
277,31,32097,2,2,P|227:27|187:35,1,85,8|2,0:0|0:0,0:0:0:0:
145,179,32411,5,2,0:0:0:0:
239,129,32568,1,0,0:0:0:0:
192,33,32725,1,10,0:2:0:0:
123,174,32882,5,2,2:1:0:0:
239,129,33039,1,0,0:0:0:0:
173,23,33196,1,2,0:2:0:0:
103,171,33353,6,2,L|116:263,1,85,8|2,0:0|2:1,0:0:0:0:
268,340,33667,1,2,0:0:0:0:
268,340,33824,1,0,0:0:0:0:
348,273,33981,2,0,P|363:205|354:128,1,127.5,8|0,0:0|2:0,0:0:0:0:
343,110,34295,2,0,L|437:100,1,85
262,178,34610,2,2,L|176:167,1,85,8|2,0:0|0:0,0:0:0:0:
85,217,34924,5,6,0:0:0:0:
177,167,35081,1,0,0:0:0:0:
77,132,35238,2,2,L|85:217,1,85,10|0,0:0|0:0,0:0:0:0:
163,349,35552,2,2,P|168:298|179:256,1,85,2|0,0:0|0:0,0:0:0:0:
263,117,35866,2,2,P|273:182|304:240,1,127.5,10|0,0:0|0:0,0:0:0:0:
301,236,36180,6,2,P|349:230|392:232,1,85,2|0,0:0|0:0,0:0:0:0:
496,342,36494,2,0,P|403:369|350:329,1,170,8|0,0:0|0:0,0:0:0:0:
385,231,36966,1,0,0:0:0:0:
247,342,37123,2,2,P|194:350|146:346,1,85,8|2,0:0|0:0,0:0:0:0:
102,225,37437,5,4,0:0:0:0:
200,255,37594,1,8,0:0:0:0:
297,218,37751,2,2,P|280:176|224:164,1,85,2|0,0:0|0:0,0:0:0:0:
200,255,38065,5,8,0:0:0:0:
297,218,38222,1,0,0:0:0:0:
352,132,38379,2,2,P|319:91|260:119,1,127.5,10|0,0:0|0:0,0:0:0:0:
259,119,38693,5,10,0:0:0:0:
297,218,38850,1,8,0:0:0:0:
399,245,39008,1,8,0:0:0:0:
477,175,39165,1,8,0:0:0:0:
399,245,39322,6,0,P|388:299|388:330,1,85,8|8,0:3|0:3,0:0:0:0:
290,356,39636,2,0,P|256:318|221:294,1,85,0|0,0:0|0:0,0:0:0:0:
297,218,39950,5,4,0:0:0:0:
127,324,40107,2,0,P|71:326|-2:276,1,136,8|8,0:3|0:3,0:0:0:0:
83,116,40578,2,0,P|96:160|100:198,1,68,8|8,0:0|0:3,0:0:0:0:
199,173,40892,2,0,P|189:220|173:255,1,68,0|0,0:0|0:0,0:0:0:0:
297,218,41206,6,0,P|331:210|372:209,1,68,8|0,0:3|0:0,0:0:0:0:
398,219,41442,1,0,0:0:0:0:
398,219,41521,2,0,L|387:292,1,68,8|8,0:3|0:3,0:0:0:0:
484,171,41835,2,0,L|473:102,1,68,8|0,0:0|0:0,0:0:0:0:
369,113,42149,2,0,L|341:32,1,68,8|0,0:3|0:0,0:0:0:0:
290,176,42463,5,8,0:3:0:0:
287,189,42542,1,0,0:0:0:0:
284,202,42620,1,8,0:3:0:0:
186,212,42777,1,8,0:3:0:0:
189,225,42856,1,0,0:0:0:0:
192,238,42934,1,8,0:3:0:0:
270,300,43091,2,0,P|305:290|342:290,1,68,8|0,0:0|0:0,0:0:0:0:
364,297,43327,1,0,0:0:0:0:
387,314,43405,2,0,L|395:280,3,34,0|0|0|0,0:0|0:0|0:0|0:0,0:0:0:0:
354,212,43720,6,0,P|339:139|393:146,1,152.999995330811,4|0,0:0|2:0,0:0:0:0:
354,212,44034,6,0,P|346:147|393:146,1,127.5,4|0,0:2|2:0,0:0:0:0:
354,212,44348,6,0,P|355:156|393:146,1,102,0|0,0:0|2:0,0:0:0:0:
354,212,44662,6,0,L|399:133,1,76.4999976654053,4|0,0:2|2:0,0:0:0:0:
436,72,44976,6,0,B|396:56|396:56|340:72,1,85,8|0,0:0|0:0,0:0:0:0:
192,160,45290,2,0,B|232:176|232:176|288:160,1,85,8|0,0:0|0:0,0:0:0:0:
472,236,45604,2,0,B|432:220|432:220|376:236,1,85,8|0,0:0|0:0,0:0:0:0:
276,324,45919,1,10,0:0:0:0:
428,312,46076,1,10,0:0:0:0:
304,240,46233,6,0,P|292:192|292:140,1,85,8|0,0:0|0:0,0:0:0:0:
148,296,46547,2,0,P|172:252|184:204,1,85,8|0,0:0|0:0,0:0:0:0:
364,334,46861,2,0,P|333:304|312:268,1,85,8|0,0:0|0:0,0:0:0:0:
148,296,47175,1,10,0:0:0:0:
192,176,47332,1,10,0:0:0:0:
312,268,47489,5,8,0:0:0:0:
248,108,47646,1,0,0:0:0:0:
224,256,47803,1,8,0:0:0:0:
376,208,47960,2,2,B|408:180|408:180|420:112|368:64,1,170
163,118,48432,2,2,L|259:106,1,85,8|2,0:0|0:0,0:0:0:0:
376,208,48746,5,12,0:2:0:0:
355,207,48824,1,0,0:0:0:0:
334,206,48903,1,8,0:3:0:0:
313,205,48981,1,0,0:0:0:0:
292,204,49060,2,0,L|225:214,2,50.9999984436036,8|0|10,0:3|0:0|0:0,0:0:0:0:
369,324,49374,2,0,L|436:334,2,50.9999984436036,0|0|8,0:0|0:0|0:0,0:0:0:0:
224,357,49688,2,0,L|157:367,1,50.9999984436036,2|0,0:0|0:0,0:0:0:0:
191,280,49845,2,0,L|124:290,1,50.9999984436036,10|0,0:0|0:0,0:0:0:0:
90,355,50002,5,6,0:0:0:0:
276,289,50159,1,8,0:0:0:0:
110,208,50316,2,0,L|89:152,2,46.7500014266968,0|0|10,0:0|0:0|0:0,0:0:0:0:
202,119,50631,1,0,0:0:0:0:
197,137,50709,1,0,0:0:0:0:
193,155,50788,1,8,0:0:0:0:
300,100,50945,2,0,L|279:44,2,46.7500014266968,2|0|8,0:0|0:0|0:0,0:0:0:0:
426,195,51259,5,2,0:0:0:0:
382,47,51416,1,8,0:0:0:0:
327,195,51573,2,0,L|309:246,2,46.7500014266968,0|0|10,0:0|0:0|0:0,0:0:0:0:
447,225,51887,1,0,0:0:0:0:
437,210,51965,1,0,0:0:0:0:
426,195,52044,1,8,0:0:0:0:
463,104,52201,2,0,L|511:106,2,46.7500014266968,2|0|8,0:0|0:0|0:0,0:0:0:0:
300,100,52515,5,2,0:0:0:0:
426,195,52672,1,8,0:0:0:0:
249,218,52830,2,0,L|193:222,2,46.7500014266968,2|0|8,0:0|0:0|0:0,0:0:0:0:
357,282,53144,1,2,0:0:0:0:
375,283,53222,1,0,0:0:0:0:
393,284,53301,1,8,0:0:0:0:
263,344,53458,2,0,L|207:348,2,46.7500014266968,2|0|8,0:0|0:0|0:0,0:0:0:0:
450,353,53772,6,2,P|483:286|454:217,1,152.999995330811,6|0,0:0|2:0,0:0:0:0:
423,201,54086,2,0,P|469:151|453:87,1,127.5,4|0,0:2|0:0,0:0:0:0:
437,71,54400,2,0,L|385:77,3,46.7500014266968,0|0|2|0,0:0|2:0|2:0|2:0,0:0:0:0:
322,38,54714,2,0,L|259:32,3,46.7500014266968,0|0|2|0,0:0|2:0|2:0|2:0,0:0:0:0:
210,76,55028,6,0,B|198:114|198:114|204:165,1,85,12|0,0:0|0:0,0:0:0:0:
203,158,55264,1,0,0:0:0:0:
203,158,55343,1,0,0:0:0:0:
294,126,55500,1,0,0:0:0:0:
138,18,55657,2,0,B|96:15|96:15|36:36,1,85,8|0,0:0|0:0,0:0:0:0:
19,96,55892,1,0,0:0:0:0:
19,96,55971,6,0,L|27:160,1,50.9999984436036,2|0,0:0|0:0,0:0:0:0:
90,187,56128,2,0,L|83:237,1,50.9999984436036,2|0,0:0|0:0,0:0:0:0:
33,294,56285,6,0,P|80:289|137:302,1,97.7500018644333,8|0,0:0|0:0,0:0:0:0:
129,298,56521,1,0,0:0:0:0:
129,298,56599,1,0,0:0:0:0:
299,235,56756,1,0,0:0:0:0:
209,187,56913,2,0,L|216:295,1,97.7500018644333,8|0,0:0|0:0,0:0:0:0:
265,342,57149,1,0,0:0:0:0:
265,342,57227,6,0,P|295:337|328:338,1,55.2499974708558,2|0,0:0|0:0,0:0:0:0:
381,291,57384,2,0,P|410:295|436:296,1,55.2499974708558,2|0,0:0|0:0,0:0:0:0:
489,352,57542,5,10,0:0:0:0:
299,235,57699,2,0,L|293:172,2,55.2499974708558,0|0|8,0:0|0:0|0:0,0:0:0:0:
494,168,58013,2,0,L|500:105,2,55.2499974708558,2|0|8,0:0|0:0|0:0,0:0:0:0:
285,97,58327,2,0,L|279:28,1,55.2499974708558,2|0,0:0|0:0,0:0:0:0:
348,6,58484,1,10,0:0:0:0:
368,20,58562,1,0,0:0:0:0:
392,27,58641,1,8,0:3:0:0:
417,29,58720,1,0,0:0:0:0:
438,24,58798,6,0,B|441:60,1,36.8333316472372,14|8,0:0|0:0,0:0:0:0:
438,24,59583,2,0,B|460:39|460:39|442:60,1,55.2499974708558,8|0,0:3|0:0,0:0:0:0:
364,53,59741,2,0,B|321:45|281:58|281:58|243:72|199:61,1,165.749992412568,12|0,0:0|2:0,0:0:0:0:
134,20,60055,5,6,0:0:0:0:
200,139,60212,1,0,0:0:0:0:
63,55,60369,1,10,0:0:0:0:
200,61,60526,1,0,0:0:0:0:
132,182,60683,2,2,P|122:141|129:99,1,85,2|0,0:0|0:0,0:0:0:0:
269,181,60997,2,2,P|275:222|265:263,1,85,10|0,0:0|0:0,0:0:0:0:
91,314,61311,6,2,L|212:301,1,85,2|0,0:0|0:0,0:0:0:0:
410,297,61625,2,0,P|348:247|253:274,1,170,8|0,0:0|0:0,0:0:0:0:
324,340,62097,1,0,0:0:0:0:
465,218,62254,2,2,P|470:159|463:127,1,85,10|2,0:0|0:0,0:0:0:0:
340,56,62568,5,2,0:0:0:0:
352,176,62725,1,0,0:0:0:0:
452,108,62882,1,10,0:2:0:0:
319,78,63039,5,2,0:0:0:0:
381,182,63196,1,0,0:0:0:0:
443,78,63353,1,2,0:2:0:0:
300,100,63510,6,2,P|232:104|192:96,1,85,8|2,0:0|0:0,0:0:0:0:
56,20,63824,2,2,P|93:76|106:115,1,85,2|0,0:0|0:0,0:0:0:0:
104,264,64138,2,0,P|144:204|244:212,1,170,8|2,0:0|0:0,0:0:0:0:
234,205,64610,1,2,0:0:0:0:
99,92,64767,2,2,P|88:48|88:0,1,85,8|2,0:0|0:0,0:0:0:0:
268,52,65081,5,6,0:0:0:0:
196,116,65238,1,0,0:0:0:0:
360,88,65395,1,10,0:0:0:0:
268,52,65552,1,0,0:0:0:0:
372,184,65709,2,2,L|464:176,1,85,2|0,0:0|0:0,0:0:0:0:
283,229,66023,2,2,B|272:188|272:188|279:146,1,85,10|0,0:0|0:0,0:0:0:0:
368,284,66337,5,2,0:0:0:0:
368,284,66494,1,0,0:0:0:0:
283,229,66652,2,0,L|103:221,1,170,8|0,0:0|0:0,0:0:0:0:
28,280,67123,1,0,0:0:0:0:
100,137,67280,2,2,P|110:178|113:221,1,85,10|2,0:0|0:0,0:0:0:0:
8,96,67594,5,6,0:0:0:0:
100,137,67751,1,8,0:0:0:0:
148,48,67908,2,2,P|108:40|48:48,1,85,2|0,0:0|0:0,0:0:0:0:
8,96,68144,1,0,0:0:0:0:
8,96,68222,5,10,0:0:0:0:
200,120,68379,1,0,0:0:0:0:
192,88,68458,1,0,0:0:0:0:
172,64,68536,1,10,0:0:0:0:
64,232,68693,1,0,0:0:0:0:
95,241,68772,1,0,0:0:0:0:
126,237,68850,6,0,P|152:234|184:238,3,42.5,10|0|0|0,0:0|0:0|0:0|0:0,0:0:0:0:
232,190,69165,2,0,P|253:190|274:187,3,42.5,8|0|0|0,0:0|0:0|0:0|0:0,0:0:0:0:
336,232,69479,1,8,0:0:0:0:
352,228,69557,1,0,0:0:0:0:
368,228,69636,1,0,0:0:0:0:
384,232,69714,1,0,0:0:0:0:
400,240,69793,2,0,L|416:328,1,85,8|8,0:3|0:3,0:0:0:0:
492,200,70107,5,6,0:0:0:0:
360,148,70264,1,0,0:0:0:0:
452,108,70421,1,10,0:0:0:0:
400,240,70578,1,0,0:0:0:0:
275,153,70735,2,2,P|319:145|367:149,1,85,2|0,0:0|0:0,0:0:0:0:
484,20,71049,2,2,P|452:28|396:28,1,85,10|0,0:0|0:0,0:0:0:0:
172,4,71364,6,2,L|180:116,1,85,2|0,0:0|0:0,0:0:0:0:
308,184,71678,2,0,B|268:168|268:168|136:196,1,170,8|0,0:0|0:0,0:0:0:0:
260,268,72149,1,0,0:0:0:0:
360,100,72306,2,2,L|352:-4,1,85,10|2,0:0|0:0,0:0:0:0:
308,184,72620,5,2,0:0:0:0:
408,188,72777,1,0,0:0:0:0:
508,192,72934,1,10,0:2:0:0:
309,202,73091,5,2,0:0:0:0:
408,188,73248,1,0,0:0:0:0:
507,175,73405,1,2,0:2:0:0:
308,164,73562,6,2,L|216:160,1,85,8|2,0:0|0:0,0:0:0:0:
380,92,73877,1,2,0:0:0:0:
380,92,74034,1,0,0:0:0:0:
408,188,74191,2,0,P|416:248|396:320,1,127.5,8|0,0:0|2:0,0:0:0:0:
376,336,74505,2,2,L|284:332,1,85,2|0,0:0|0:0,0:0:0:0:
120,264,74819,2,2,L|212:260,1,85,8|2,0:0|0:0,0:0:0:0:
313,140,75133,5,4,0:0:0:0:
156,176,75290,1,0,0:0:0:0:
305,239,75447,1,10,0:0:0:0:
220,102,75604,1,0,0:0:0:0:
204,260,75761,2,2,P|210:321|222:358,1,85,2|0,0:0|0:0,0:0:0:0:
398,288,76076,2,2,P|405:227|402:198,1,85,10|0,0:0|0:0,0:0:0:0:
228,139,76390,6,2,L|321:140,1,85,2|0,0:0|0:0,0:0:0:0:
153,74,76704,2,0,P|128:131|181:226,1,170,8|0,0:0|0:0,0:0:0:0:
228,139,77175,1,0,0:0:0:0:
62,230,77332,2,2,P|53:272|56:326,1,85,10|2,0:0|0:0,0:0:0:0:
196,381,77646,5,6,0:0:0:0:
294,329,77803,1,8,0:0:0:0:
196,381,77960,2,2,L|190:296,1,85,2|0,0:0|0:0,0:0:0:0:
392,277,78275,5,8,0:0:0:0:
294,329,78432,1,2,0:0:0:0:
392,277,78589,2,2,L|383:136,1,127.5,10|0,0:0|0:0,0:0:0:0:
380,112,78903,5,8,0:0:0:0:
284,172,79060,1,8,0:0:0:0:
176,136,79217,1,8,0:0:0:0:
84,204,79374,1,8,0:0:0:0:
176,136,79531,6,0,P|184:88|184:40,1,85,8|8,0:3|0:3,0:0:0:0:
284,172,79845,2,0,P|304:224|312:264,1,85,8|8,0:3|0:3,0:0:0:0:
380,112,80159,6,2,P|288:60|196:92,1,187.000005706787,6|8,0:0|0:0,0:0:0:0:
80,168,80631,2,2,B|140:164|140:164|200:188|200:188|264:180,1,187.000005706787,2|0,0:0|0:0,0:0:0:0:
453,247,81102,2,2,B|409:235|409:235|357:243,1,93.5000028533936,10|0,0:0|0:0,0:0:0:0:
241,315,81416,6,0,B|193:322|193:322|149:310,2,93.5000028533936,0|0|8,0:0|0:0|0:0,0:0:0:0:
333,259,81887,1,0,0:0:0:0:
260,180,82044,2,0,B|212:157|212:157|79:167,1,187.000005706787,2|8,0:2|0:0,0:0:0:0:
79,167,82515,1,0,0:0:0:0:
200,48,82672,6,0,P|300:36|376:80,1,187.000005706787,2|8,0:0|0:0,0:0:0:0:
420,176,83144,1,0,0:0:0:0:
332,244,83301,2,0,P|276:256|228:252,1,93.5000028533936,0|0,0:0|0:0,0:0:0:0:
420,176,83615,2,0,P|440:236|436:280,1,93.5000028533936,8|0,0:0|0:0,0:0:0:0:
225,346,83929,6,0,L|241:242,1,93.5000028533936,2|0,0:2|0:0,0:0:0:0:
176,68,84243,2,2,P|188:120|204:168,1,93.5000028533936,10|0,0:0|0:0,0:0:0:0:
96,336,84557,2,2,P|116:284|144:248,1,93.5000028533936,2|0,0:0|0:0,0:0:0:0:
8,136,84871,2,2,P|64:160|104:160,1,93.5000028533936,10|0,0:0|0:0,0:0:0:0:
345,135,85186,6,2,P|266:98|200:159,1,187.000005706787,6|8,0:0|0:0,0:0:0:0:
388,236,85657,2,2,P|440:188|432:68,1,187.000005706787,2|0,0:0|0:0,0:0:0:0:
268,8,86128,2,2,P|256:68|268:120,1,93.5000028533936,10|0,0:0|0:0,0:0:0:0:
124,200,86442,6,2,B|166:176|214:192|214:192|262:208|306:196,1,187.000005706787,2|8,0:0|0:0,0:0:0:0:
68,292,86913,2,2,P|16:212|52:120,1,187.000005706787,2|0,0:0|0:0,0:0:0:0:
176,292,87384,2,2,P|184:329|180:384,1,93.5000028533936,8|0,0:0|0:0,0:0:0:0:
276,260,87699,6,2,P|348:240|468:252,2,187.000005706787,2|8|0,0:0|0:0|0:0,0:0:0:0:
180,204,88484,1,0,0:0:0:0:
232,108,88641,2,0,P|280:92|328:88,1,93.5000028533936,8|0,0:0|0:0,0:0:0:0:
180,204,88955,6,0,L|80:192,1,93.5000028533936,2|0,0:2|0:0,0:0:0:0:
276,260,89269,2,2,B|321:247|321:247|380:248,1,93.5000028533936,10|0,0:0|0:0,0:0:0:0:
161,327,89583,2,2,B|117:316|117:316|56:324,1,93.5000028533936,2|0,0:0|0:0,0:0:0:0:
307,367,89898,2,2,B|352:351|352:351|420:368,1,93.5000028533936,10|0,0:0|0:0,0:0:0:0:
255,272,90212,6,2,B|247:214|247:214|268:154|268:154|256:90,1,187.000005706787,6|8,0:0|0:0,0:0:0:0:
347,225,90683,2,2,L|156:212,1,187.000005706787,2|0,0:0|0:0,0:0:0:0:
11,133,91154,2,2,P|59:121|115:126,1,93.5000028533936,10|0,0:0|0:0,0:0:0:0:
256,90,91468,6,0,P|300:103|347:104,2,93.5000028533936,0|0|8,0:0|0:0|0:0,0:0:0:0:
183,10,91939,1,0,0:0:0:0:
194,176,92097,2,0,P|151:217|29:199,1,187.000005706787,0|8,0:0|0:0,0:0:0:0:
224,277,92568,1,0,0:0:0:0:
288,124,92725,6,2,P|336:112|392:116,1,93.5000028533936,2|0,0:0|0:0,0:0:0:0:
296,357,93039,2,0,P|208:380|130:333,1,187.000005706787,8|0,0:0|0:0,0:0:0:0:
224,277,93510,1,0,0:0:0:0:
27,358,93667,2,0,P|33:295|52:259,1,93.5000028533936,8|0,0:0|0:0,0:0:0:0:
213,184,93981,6,0,L|225:290,1,93.5000028533936,2|0,0:2|0:0,0:0:0:0:
335,125,94295,2,2,P|323:180|318:224,1,93.5000028533936,10|0,0:0|0:0,0:0:0:0:
185,95,94610,2,2,P|206:144|213:188,1,93.5000028533936,2|0,0:0|0:0,0:0:0:0:
368,40,94924,2,2,P|343:80|334:126,1,93.5000028533936,10|0,0:0|0:0,0:0:0:0:
441,254,95238,6,0,P|462:177|444:111,2,140.25000428009,2|2|2,0:0|2:0|0:0,0:0:0:0:
333,322,95866,2,0,P|265:320|203:361,2,140.25000428009,2|2|2,0:0|2:0|0:0,0:0:0:0:
330,197,96494,6,2,B|303:181|303:181|281:134|288:68,1,140.25000428009,2|2,0:0|2:0,0:0:0:0:
305,46,96809,2,0,P|362:54|402:52,1,93.5000028533936,8|0,0:0|0:0,0:0:0:0:
440,207,97123,2,2,B|413:223|413:223|391:270|398:336,1,140.25000428009,2|2,0:0|2:0,0:0:0:0:
415,358,97438,2,0,P|472:350|512:352,1,93.5000028533936,8|0,0:0|0:0,0:0:0:0:
289,305,97751,6,2,P|241:301|192:309,1,93.5000028533936,2|0,0:0|0:0,0:0:0:0:
360,223,98065,2,0,P|353:157|252:97,1,187.000005706787,8|0,0:0|0:0,0:0:0:0:
153,131,98536,1,0,0:0:0:0:
332,17,98693,2,0,P|386:10|444:14,1,93.5000028533936,8|0,0:0|0:0,0:0:0:0:
257,96,99008,5,2,0:0:0:0:
257,96,99165,1,0,0:0:0:0:
174,27,99322,2,0,L|66:22,1,93.5000028533936,8|0,0:0|0:0,0:0:0:0:
23,72,99557,1,0,0:0:0:0:
23,72,99636,2,0,L|35:130,3,50.9999984436036,8|8|8|8,0:0|0:0|0:0|0:0,0:0:0:0:
107,147,99950,1,0,0:0:0:0:
102,168,100028,1,0,0:0:0:0:
96,189,100107,1,0,0:0:0:0:
91,210,100186,1,0,0:0:0:0:
85,231,100264,6,2,L|108:332,1,101.999996887207,6|0,0:0|0:0,0:0:0:0:
203,279,100578,1,8,0:0:0:0:
298,327,100735,1,2,0:0:0:0:
296,342,100814,1,0,0:0:0:0:
294,357,100892,1,0,0:0:0:0:
388,272,101049,1,0,0:0:0:0:
292,220,101206,2,2,B|276:168|276:168|280:112,1,101.999996887207,10|0,0:0|0:0,0:0:0:0:
324,60,101442,1,0,0:0:0:0:
324,60,101521,6,0,L|432:68,1,101.999996887207,0|0,0:0|0:0,0:0:0:0:
496,148,101835,1,8,0:0:0:0:
412,216,101992,1,0,0:0:0:0:
412,216,102070,1,0,0:0:0:0:
412,216,102149,2,0,L|400:320,1,101.999996887207,2|0,0:2|0:0,0:0:0:0:
300,356,102463,1,8,0:0:0:0:
284,352,102542,1,0,0:0:0:0:
268,348,102620,1,0,0:0:0:0:
252,344,102699,1,0,0:0:0:0:
236,340,102777,6,2,B|188:360|188:360|120:348,1,101.999996887207,2|0,0:0|0:0,0:0:0:0:
76,236,103091,2,0,B|124:216|124:216|192:228,1,101.999996887207,8|0,0:0|0:0,0:0:0:0:
173,224,103327,1,0,0:0:0:0:
173,224,103405,2,0,L|160:116,1,101.999996887207,0|0,0:0|0:0,0:0:0:0:
228,40,103720,1,8,0:0:0:0:
368,148,103877,1,0,0:0:0:0:
368,148,103955,1,0,0:0:0:0:
368,148,104034,2,0,L|256:136,1,101.999996887207,0|0,0:0|0:0,0:0:0:0:
384,244,104348,6,0,L|440:216,3,50.9999984436036,10|0|0|0,0:0|0:0|0:0|0:0,0:0:0:0:
461,153,104662,2,0,L|447:91,3,55.2499974708558,2|0|0|0,0:0|0:0|0:0|0:0,0:0:0:0:
388,56,104976,2,0,L|304:64,3,59.4999981842042,10|0|0|0,0:0|0:0|0:0|0:0,0:0:0:0:
280,116,105290,6,2,B|232:128|232:128|176:112,1,101.999996887207,6|0,0:0|0:0,0:0:0:0:
84,72,105604,1,8,0:0:0:0:
140,212,105761,1,2,0:0:0:0:
140,212,105840,1,0,0:0:0:0:
140,212,105919,1,0,0:0:0:0:
44,164,106076,1,0,0:0:0:0:
181,113,106233,2,2,B|229:101|229:101|285:117,1,101.999996887207,10|0,0:0|0:0,0:0:0:0:
372,280,106547,6,2,L|364:172,1,101.999996887207,2|0,0:0|0:0,0:0:0:0:
448,116,106861,1,8,0:0:0:0:
308,16,107018,1,2,0:0:0:0:
308,16,107097,1,0,0:0:0:0:
308,16,107175,1,0,0:0:0:0:
416,20,107332,1,0,0:0:0:0:
280,116,107489,2,2,B|232:128|232:128|176:112,1,101.999996887207,10|0,0:0|0:0,0:0:0:0:
20,221,107803,6,2,L|132:209,1,101.999996887207,2|0,0:0|0:0,0:0:0:0:
236,240,108117,1,8,0:0:0:0:
254,244,108196,1,0,0:0:0:0:
272,248,108275,1,0,0:0:0:0:
290,252,108353,1,0,0:0:0:0:
308,256,108432,2,0,L|424:244,1,101.999996887207,0|0,0:0|0:0,0:0:0:0:
492,352,108746,1,8,0:0:0:0:
472,356,108825,1,0,0:0:0:0:
452,360,108904,1,0,0:0:0:0:
432,364,108982,1,0,0:0:0:0:
412,368,109061,2,0,L|310:357,1,101.999996887207,0|0,0:0|0:0,0:0:0:0:
157,344,109374,6,0,B|129:342|129:342|101:356,3,50.9999984436036,10|0|0|0,0:0|0:0|0:0|0:0,0:0:0:0:
213,282,109688,2,0,B|241:280|241:280|271:295,3,55.2499974708558,2|0|0|0,0:0|0:0|0:0|0:0,0:0:0:0:
141,239,110002,2,0,B|111:237|111:237|81:250,3,59.4999981842042,10|0|0|0,0:0|0:0|0:0|0:0,0:0:0:0:
205,176,110316,6,2,B|210:123|210:123|190:65,1,101.999996887207,6|0,0:0|0:0,0:0:0:0:
95,34,110631,1,8,0:0:0:0:
3,157,110788,1,2,0:0:0:0:
3,157,110866,1,0,0:0:0:0:
3,157,110945,2,0,L|122:136,1,101.999996887207
294,94,111259,2,2,L|175:73,1,101.999996887207,10|0,0:0|0:0,0:0:0:0:
193,76,111494,1,0,0:0:0:0:
193,76,111573,6,0,L|312:55,1,101.999996887207,0|0,0:0|0:0,0:0:0:0:
386,112,111887,1,8,0:0:0:0:
292,193,112044,1,0,0:0:0:0:
292,178,112122,1,0,0:0:0:0:
292,163,112201,1,0,0:0:0:0:
385,248,112358,1,0,0:0:0:0:
289,294,112515,2,0,L|292:181,1,101.999996887207,8|0,0:0|0:0,0:0:0:0:
292,178,112751,1,0,0:0:0:0:
292,163,112830,6,2,B|243:174|243:174|184:155,1,101.999996887207,2|0,0:0|0:0,0:0:0:0:
17,227,113144,2,0,B|66:216|66:216|125:235,1,101.999996887207,8|0,0:0|0:0,0:0:0:0:
182,267,113379,1,0,0:0:0:0:
182,267,113458,2,0,L|173:371,1,101.999996887207,0|0,0:0|0:0,0:0:0:0:
292,224,113772,2,0,L|303:330,1,101.999996887207,8|0,0:0|0:0,0:0:0:0:
370,364,114008,1,0,0:0:0:0:
370,364,114086,2,0,B|419:379|419:379|468:368,1,101.999996887207,0|0,0:0|0:0,0:0:0:0:
512,192,114400,6,0,L|446:184,3,50.9999984436036,10|0|0|0,0:0|0:0|0:0|0:0,0:0:0:0:
421,259,114714,2,0,L|348:267,3,55.2499974708558,2|0|0|0,0:0|0:0|0:0|0:0,0:0:0:0:
292,224,115028,2,2,B|273:207|273:207|267:52,1,178.499994552612,10|0,0:0|2:0,0:0:0:0:
267,54,115343,5,8,0:0:0:0:
367,266,115552,1,0,0:0:0:0:
132,248,115761,1,0,0:0:0:0:
337,104,115971,5,8,0:0:0:0:
291,307,116180,1,0,0:0:0:0:
135,165,116390,1,0,0:0:0:0:
357,183,116599,5,8,0:0:0:0:
212,285,116808,1,0,0:0:0:0:
195,107,117018,1,0,0:0:0:0:
315,248,117227,5,8,0:0:0:0:
176,216,117436,1,0,0:0:0:0:
273,111,117646,1,0,0:0:0:0:
273,111,117751,1,0,0:0:0:0:
273,111,117856,5,8,0:0:0:0:
176,216,118065,1,0,0:0:0:0:
315,248,118274,1,0,0:0:0:0:
195,107,118483,5,8,0:0:0:0:
212,285,118693,1,8,0:0:0:0:
357,183,118902,1,8,0:0:0:0:
135,165,119111,5,8,0:0:0:0:
291,307,119321,1,8,0:0:0:0:
337,104,119530,1,8,0:0:0:0:
132,248,119740,5,10,0:0:0:0:
367,266,119949,1,10,0:0:0:0:
267,54,120158,1,10,0:0:0:0:
256,192,120369,6,0,P|304:188|360:160,2,93.5000028533936,2|0|0,0:0|0:0|0:0,0:0:0:0:
260,301,121311,2,0,P|312:309|356:333,2,93.5000028533936,0|0|0,0:0|0:0|0:0,0:0:0:0:
152,328,122253,2,0,P|166:277|159:225,2,93.5000028533936,0|0|0,0:0|0:0|0:0,0:0:0:0:
59,272,123196,1,0,0:0:0:0:
67,164,123510,1,0,0:0:0:0:
167,120,123824,1,0,0:0:0:0:
255,184,124138,6,0,P|299:196|355:192,2,93.5000028533936,2|0|0,0:0|0:0|0:0,0:0:0:0:
311,91,125081,2,0,P|372:79|410:84,2,93.5000028533936,0|0|0,0:0|0:0|0:0,0:0:0:0:
203,89,126023,2,0,L|93:83,2,93.5000028533936,0|0|0,0:0|0:0|0:0,0:0:0:0:
255,184,126965,1,0,0:0:0:0:
184,266,127279,1,0,0:0:0:0:
280,318,127594,1,0,0:0:0:0:
189,378,127908,6,0,P|126:358|65:355,1,110.499994941712,4|0,1:0|0:0,0:0:0:0:
18,268,128536,1,0,1:0:0:0:
116,216,128850,2,0,P|131:163|129:108,1,110.499994941712,8|0,1:0|0:0,0:0:0:0:
57,24,129478,1,0,1:0:0:0:
23,129,129793,6,0,P|78:129|129:108,1,110.499994941712,4|0,1:0|0:0,0:0:0:0:
195,24,130421,1,0,1:0:0:0:
292,167,130735,1,10,1:2:0:0:
129,107,131049,1,2,0:0:0:0:
295,64,131363,1,4,1:2:0:0:
186,198,131677,6,0,L|196:315,1,110.499994941712,4|0,1:0|0:0,0:0:0:0:
405,360,132306,1,0,1:0:0:0:
300,333,132620,2,0,L|291:217,1,110.499994941712,8|0,1:0|0:0,0:0:0:0:
470,103,133248,1,0,1:0:0:0:
384,168,133562,6,0,L|394:285,1,110.499994941712,4|0,1:0|0:0,0:0:0:0:
292,224,134033,2,0,P|262:217|227:214,1,55.2499974708558,0|0,1:0|1:0,0:0:0:0:
59,353,134505,1,10,1:2:0:0:
247,310,134819,1,10,1:2:0:0:
16,208,135133,1,4,1:2:0:0:
267,111,135447,6,0,P|271:51|256:4,1,110.499994941712,4|0,1:0|0:0,0:0:0:0:
186,179,136075,1,0,1:0:0:0:
285,212,136389,2,0,P|331:215|397:196,1,110.499994941712,8|0,1:0|0:0,0:0:0:0:
186,179,137018,1,0,1:0:0:0:
107,251,137332,6,0,L|95:369,2,110.499994941712,4|0|0,1:2|0:0|1:0,0:0:0:0:
186,179,138274,1,10,1:2:0:0:
272,295,138588,1,2,1:2:0:0:
366,151,138902,1,4,1:2:0:0:
484,300,139217,6,0,B|432:316|432:316|363:308,1,110.499994941712,4|0,1:0|0:0,0:0:0:0:
272,295,139846,1,0,1:0:0:0:
368,108,140160,2,0,B|360:164|360:164|328:216,1,110.499994941712,8|0,1:0|0:0,0:0:0:0:
272,295,140788,1,0,1:0:0:0:
137,134,141102,6,0,B|187:159|187:159|220:204,1,110.499994941712,4|0,1:0|0:0,0:0:0:0:
272,295,141730,1,0,1:0:0:0:
114,242,142044,1,10,1:2:0:0:
333,174,142358,1,2,1:2:0:0:
99,101,142672,1,4,1:2:0:0:
317,67,142986,6,0,B|337:68|354:79|354:79|375:77|390:65|390:65|459:97|456:184,1,220.999989883423,4|0,1:0|1:0,0:0:0:0:
405,272,143929,1,8,1:0:0:0:
312,217,144243,2,0,P|280:210|251:207,1,55.2499974708558,2|0,0:0|0:0,0:0:0:0:
272,316,144557,2,0,P|242:315|212:318,1,55.2499974708558,2|0,1:2|0:0,0:0:0:0:
405,272,144871,6,0,P|432:268|464:269,1,55.2499974708558,4|0,1:2|0:0,0:0:0:0:
325,121,145185,2,0,P|264:106|200:114,1,110.499994941712,2|0,0:0|1:0,0:0:0:0:
103,287,145814,1,8,1:0:0:0:
103,287,145971,2,0,B|159:305|159:305|270:271,1,165.749992412568,4|4,1:2|1:2,0:0:0:0:
181,108,146756,6,0,P|170:154|170:177,1,55.2499974708558,4|0,1:0|0:0,0:0:0:0:
251,36,147070,2,0,P|201:15|125:19,1,110.499994941712,2|0,0:0|1:0,0:0:0:0:
322,142,147698,2,0,P|372:136|431:103,1,110.499994941712,8|0,1:0|0:0,0:0:0:0:
491,171,148170,2,0,P|479:217|479:233,2,55.2499974708558,2|0|0,0:0|1:0|0:0,0:0:0:0:
402,276,148641,6,0,P|339:259|281:259,1,110.499994941712,4|0,1:2|0:0,0:0:0:0:
111,350,149269,1,0,1:0:0:0:
168,286,149426,1,0,1:0:0:0:
83,271,149583,1,12,1:2:0:0:
330,364,149897,1,8,1:0:0:0:
288,105,150211,1,4,1:2:0:0:
83,271,150526,5,4,1:0:0:0:
214,296,150840,2,0,L|283:285,1,55.2499974708558,2|0,0:0|0:0,0:0:0:0:
268,287,151075,1,0,0:0:0:0:
268,287,151154,1,0,1:0:0:0:
468,200,151468,2,0,B|353:216,1,110.499994941712,10|0,1:2|0:0,0:0:0:0:
214,296,152096,1,0,1:0:0:0:
300,100,152410,1,4,1:2:0:0:
146,205,152725,6,0,L|256:192,1,110.499994941712,0|0,0:0|1:0,0:0:0:0:
84,116,153353,1,12,1:2:0:0:
208,296,153667,1,2,1:2:0:0:
36,220,153981,1,4,1:2:0:0:
256,192,154295,5,4,1:0:0:0:
256,192,154375,12,0,157212,0:0:0:0:
236,118,158065,6,0,P|240:146|248:162,7,34,6|0|0|0|0|0|0|0,0:0|0:0|0:0|0:0|0:0|0:0|0:0|0:0,0:0:0:0:
312,122,158693,1,10,0:0:0:0:
328,118,158771,1,0,0:0:0:0:
344,118,158850,1,0,0:0:0:0:
360,122,158928,1,0,0:0:0:0:
376,130,159007,1,2,0:0:0:0:
392,134,159085,1,0,0:0:0:0:
408,134,159164,1,0,0:0:0:0:
424,130,159243,1,0,0:0:0:0:
440,122,159321,6,0,P|464:118|496:122,7,34,10|0|0|0|0|0|0|0,0:0|0:0|0:0|0:0|0:0|0:0|0:0|0:0,0:0:0:0:
464,194,159949,1,10,0:0:0:0:
472,210,160028,1,0,0:0:0:0:
474,226,160106,1,0,0:0:0:0:
472,243,160185,1,0,0:0:0:0:
465,258,160263,1,2,0:0:0:0:
462,274,160342,1,0,0:0:0:0:
464,290,160421,1,0,0:0:0:0:
469,305,160499,1,0,0:0:0:0:
480,320,160578,6,0,L|427:331,3,38.2499988327027,10|0|0|0,0:0|0:0|0:0|0:0,0:0:0:0:
381,282,160892,2,0,L|326:276,3,44.6249986381531,10|0|0|0,0:0|0:0|0:0|0:0,0:0:0:0:
302,357,161206,2,0,L|246:370,3,50.9999984436036,10|0|0|0,0:0|0:0|0:0|0:0,0:0:0:0:
202,290,161520,2,0,L|143:283,3,57.3750002188683,10|0|0|0,0:0|0:0|0:0|0:0,0:0:0:0:
66,332,161834,5,10,0:0:0:0:
44,332,161913,1,0,0:0:0:0:
24,323,161991,1,0,0:0:0:0:
11,305,162070,1,0,0:0:0:0:
7,284,162148,1,8,0:0:0:0:
11,263,162227,1,0,0:0:0:0:
25,247,162305,1,8,0:0:0:0:
44,237,162384,1,0,0:0:0:0:
65,237,162462,2,0,L|56:183,3,46.7500014266968,8|0|0|0,0:3|0:0|0:0|0:0,0:0:0:0:
109,132,162777,2,0,L|118:65,3,46.7500014266968,8|0|8|0,0:3|0:0|0:3|0:0,0:0:0:0:
67,21,163091,6,0,P|104:31|141:31,1,72.2500013780594,4|0,0:0|0:0,0:0:0:0:
207,94,163248,2,0,P|239:86|287:85,1,72.2500013780594,0|0,0:0|0:0,0:0:0:0:
346,19,163405,1,8,0:0:0:0:
346,19,163719,1,8,0:0:0:0:
346,19,164033,5,4,0:2:0:0:
252,173,164190,1,0,0:0:0:0:
428,216,164347,1,8,0:0:0:0:
428,216,164661,1,8,0:0:0:0:
428,216,164975,6,0,P|415:254|410:301,1,72.2500013780594,4|0,0:0|0:0,0:0:0:0:
319,340,165132,2,0,P|313:301|299:256,1,72.2500013780594,0|0,0:0|0:0,0:0:0:0:
252,173,165289,1,8,0:0:0:0:
252,173,165604,1,8,0:0:0:0:
252,173,165918,5,4,0:2:0:0:
208,327,166075,1,0,0:0:0:0:
150,225,166232,5,8,0:0:0:0:
304,269,166389,1,8,0:0:0:0:
208,327,166546,5,0,0:0:0:0:
252,173,166703,1,8,0:0:0:0:
78,216,166860,6,0,P|113:223|149:224,1,72.2500013780594,4|0,0:0|0:0,0:0:0:0:
252,173,167017,2,0,P|292:164|342:165,1,72.2500013780594,0|0,0:0|0:0,0:0:0:0:
425,214,167174,1,8,0:0:0:0:
425,214,167488,1,8,0:0:0:0:
425,214,167803,5,4,0:2:0:0:
374,44,167960,1,0,0:0:0:0:
252,173,168117,1,8,0:0:0:0:
252,173,168431,2,0,P|215:179|171:177,1,72.2500013780594,8|0,0:0|2:0,0:0:0:0:
100,127,168588,1,2,2:0:0:0:
100,127,168666,1,0,2:0:0:0:
100,127,168745,6,0,L|92:46,1,72.2500013780594,4|0,0:0|0:0,0:0:0:0:
180,178,168902,2,0,L|171:263,1,72.2500013780594,0|0,0:0|0:0,0:0:0:0:
36,200,169059,1,8,0:0:0:0:
36,200,169373,2,0,P|87:173|180:178,1,152.999995330811,8|0,0:0|0:0,0:0:0:0:
208,197,169687,5,10,0:2:0:0:
130,325,169844,1,8,0:0:0:0:
336,374,170001,5,10,0:2:0:0:
204,281,170159,1,8,0:0:0:0:
373,167,170316,5,10,0:2:0:0:
289,302,170473,1,8,0:0:0:0:
243,119,170630,6,0,L|250:17,1,93.5000028533936,4|0,0:0|0:0,0:0:0:0:
373,167,170944,2,0,B|384:212|384:212|360:271,1,93.5000028533936,8|0,0:0|0:0,0:0:0:0:
229,335,171258,2,2,B|295:327|295:327|349:354|349:354|411:347,1,187.000005706787,2|8,0:0|0:0,0:0:0:0:
285,210,171729,6,2,P|262:148|357:78,1,187.000005706787,2|0,0:0|0:0,0:0:0:0:
465,161,172200,2,2,L|372:166,1,93.5000028533936,10|0,0:0|0:0,0:0:0:0:
497,62,172514,2,0,P|457:43|409:14,1,93.5000028533936
249,84,172828,2,2,P|296:84|341:75,1,93.5000028533936,10|0,0:0|0:0,0:0:0:0:
175,13,173143,6,2,P|149:61|174:157,1,140.25000428009,2|0,0:0|0:0,0:0:0:0:
178,158,173457,1,8,0:0:0:0:
352,254,173614,1,2,0:2:0:0:
260,294,173771,2,2,P|256:239|272:192,1,93.5000028533936,2|0,0:0|0:0,0:0:0:0:
426,118,174085,2,2,P|380:148|331:158,1,93.5000028533936,8|2,0:0|0:0,0:0:0:0:
117,117,174399,6,2,B|130:100|136:78|136:78|180:55|241:77|264:112,1,187.000005706787,2|8,0:0|0:0,0:0:0:0:
172,208,174870,1,0,0:0:0:0:
25,170,175027,2,2,P|15:123|25:60,1,93.5000028533936,2|0,0:0|0:0,0:0:0:0:
81,260,175342,2,0,P|76:306|57:359,1,93.5000028533936,8|0,0:0|0:0,0:0:0:0:
172,208,175656,6,2,P|222:200|275:209,1,93.5000028533936,2|0,0:0|0:0,0:0:0:0:
264,205,175891,1,0,0:0:0:0:
264,205,175970,1,8,0:0:0:0:
220,300,176127,2,2,P|210:199|227:116,1,187.000005706787,2|0,0:0|0:0,0:0:0:0:
284,63,176520,1,0,0:0:0:0:
284,63,176598,2,0,P|343:65|393:54,1,93.5000028533936,8|0,0:0|0:0,0:0:0:0:
376,172,176912,2,0,P|423:160|472:128,1,93.5000028533936,8|0,0:0|0:0,0:0:0:0:
361,283,177226,5,8,0:0:0:0:
345,272,177305,1,8,0:0:0:0:
327,266,177383,1,8,0:0:0:0:
308,264,177462,1,8,0:0:0:0:
289,266,177540,1,8,0:3:0:0:
271,273,177619,1,0,0:0:0:0:
252,275,177698,1,8,0:3:0:0:
233,273,177776,1,0,0:0:0:0:
215,265,177855,2,0,P|190:250|175:229,3,46.7500014266968,8|8|8|8,0:3|0:3|0:3|0:3,0:0:0:0:
252,188,178169,6,2,P|256:124|251:76,1,97.7500018644333,6|0,0:0|0:0,0:0:0:0:
181,16,178483,1,8,0:0:0:0:
353,143,178640,2,2,P|423:148|477:44,1,195.500003728867,2|0,0:0|0:0,0:0:0:0:
253,90,179111,2,2,P|249:154|254:202,1,97.7500018644333,10|0,0:0|0:0,0:0:0:0:
356,344,179425,6,2,P|358:291|345:234,1,97.7500018644333,2|0,0:0|0:0,0:0:0:0:
251,187,179739,1,8,0:0:0:0:
91,270,179897,2,2,P|151:331|253:303,1,195.500003728867,2|0,0:0|0:0,0:0:0:0:
129,165,180368,2,2,P|62:165|13:182,1,97.7500018644333,10|0,0:0|0:0,0:0:0:0:
227,112,180682,6,2,P|277:127|337:129,1,97.7500018644333,2|0,0:0|0:0,0:0:0:0:
420,75,180996,1,8,0:0:0:0:
213,7,181153,2,2,P|125:30|20:22,1,195.500003728867,2|0,0:0|0:0,0:0:0:0:
227,112,181624,2,2,P|282:94|336:95,1,97.7500018644333,10|0,0:0|0:0,0:0:0:0:
504,216,181938,6,2,P|443:203|397:205,1,97.7500018644333,2|0,0:0|0:0,0:0:0:0:
306,253,182253,1,8,0:0:0:0:
415,93,182410,2,2,P|327:105|222:73,1,195.500003728867,2|0,0:0|0:0,0:0:0:0:
73,189,182881,2,2,P|139:179|182:181,1,97.7500018644333,10|0,0:0|0:0,0:0:0:0:
317,350,183195,6,2,L|304:242,1,97.7500018644333,2|0,0:0|0:0,0:0:0:0:
356,153,183509,1,8,0:0:0:0:
206,318,183666,2,2,P|164:326|96:328,2,97.7500018644333,2|2|0,0:0|0:0|0:0,0:0:0:0:
335,237,184137,2,2,P|398:242|443:252,1,97.7500018644333,10|0,0:0|0:0,0:0:0:0:
257,138,184451,6,2,P|208:134|154:140,1,97.7500018644333,2|0,0:0|0:0,0:0:0:0:
67,204,184766,1,8,0:0:0:0:
204,37,184923,2,2,P|262:30|304:34,2,97.7500018644333,2|2|0,0:0|0:0|0:0,0:0:0:0:
213,244,185394,2,2,P|270:246|326:235,1,97.7500018644333,10|0,0:0|0:0,0:0:0:0:
425,136,185708,6,0,B|408:183|408:183|419:245,1,101.999996887207,0|0,0:0|0:0,0:0:0:0:
302,337,186022,2,0,B|319:290|319:290|309:238,1,101.999996887207,8|0,0:0|0:0,0:0:0:0:
218,71,186336,2,0,B|201:118|201:118|212:180,1,101.999996887207,0|0,0:0|0:0,0:0:0:0:
124,354,186650,2,0,B|141:307|141:307|131:255,1,101.999996887207,8|0,0:0|0:0,0:0:0:0:
114,180,186886,1,0,0:0:0:0:
114,180,186965,5,10,0:2:0:0:
308,239,187122,1,8,0:0:0:0:
185,77,187279,1,10,0:2:0:0:
188,280,187436,1,10,0:2:0:0:
306,114,187593,5,8,0:3:0:0:
185,77,187750,1,0,0:0:0:0:
114,180,187907,1,8,0:3:0:0:
188,280,188064,1,8,0:3:0:0:
308,239,188221,5,6,0:0:0:0:
408,256,188378,2,2,L|302:237,1,101.999996887207,2|8,0:0|0:0,0:0:0:0:
188,280,188692,1,2,0:0:0:0:
122,358,188849,2,2,L|191:275,1,101.999996887207,2|0,0:0|0:0,0:0:0:0:
180,64,189164,2,2,L|216:165,1,101.999996887207,10|0,0:0|0:0,0:0:0:0:
307,238,189478,5,2,0:0:0:0:
408,256,189635,2,2,L|302:237,1,101.999996887207,2|8,0:0|0:0,0:0:0:0:
187,279,189949,1,2,0:0:0:0:
214,160,190106,2,0,L|192:96,3,50.9999984436036,2|0|0|0,0:0|0:0|0:0|0:0,0:0:0:0:
224,40,190420,1,8,0:0:0:0:
244,32,190499,1,0,0:0:0:0:
264,32,190577,1,8,0:0:0:0:
284,40,190656,1,0,0:0:0:0:
300,52,190734,5,2,0:0:0:0:
398,44,190891,2,2,P|336:38|284:62,1,101.999996887207,2|8,0:0|0:0,0:0:0:0:
456,124,191205,1,2,0:0:0:0:
413,212,191362,2,2,P|449:161|454:104,1,101.999996887207,2|0,0:0|0:0,0:0:0:0:
256,140,191677,2,2,P|281:196|328:229,1,101.999996887207,10|0,0:0|0:0,0:0:0:0:
300,52,191991,5,2,0:0:0:0:
398,44,192148,2,2,P|336:38|284:62,1,101.999996887207,2|8,0:0|0:0,0:0:0:0:
256,140,192462,1,2,0:0:0:0:
311,221,192619,2,0,P|368:228|383:225,3,50.9999984436036,2|0|0|0,0:0|0:0|0:0|0:0,0:0:0:0:
428,200,192933,1,8,0:0:0:0:
436,220,193012,1,0,0:0:0:0:
444,240,193090,1,8,0:0:0:0:
452,260,193169,1,0,0:0:0:0:
460,280,193247,5,2,0:0:0:0:
356,336,193404,2,2,P|312:320|248:320,1,101.999996887207,0|8,0:0|0:0,0:0:0:0:
104,228,193719,2,2,P|160:216|216:220,1,101.999996887207,2|0,0:0|0:0,0:0:0:0:
352,156,194033,1,0,0:0:0:0:
152,108,194190,2,2,P|207:111|259:99,1,101.999996887207,10|0,0:0|0:0,0:0:0:0:
299,250,194504,6,2,P|253:226|204:217,1,101.999996887207,2|0,0:0|0:0,0:0:0:0:
24,276,194818,1,8,0:0:0:0:
116,340,194975,2,2,P|164:340|224:324,1,101.999996887207,2|0,0:0|0:0,0:0:0:0:
352,156,195289,1,0,0:0:0:0:
399,253,195446,2,2,P|348:260|298:249,1,101.999996887207,10|0,0:0|0:0,0:0:0:0:
152,120,195760,6,0,P|180:112|208:108,3,50.9999984436036,4|0|0|0,0:0|0:0|0:0|0:0,0:0:0:0:
252,44,196075,2,0,P|268:68|280:93,3,50.9999984436036,8|0|0|0,0:0|0:0|0:0|0:0,0:0:0:0:
352,120,196389,2,0,P|334:142|314:161,3,50.9999984436036,0|0|0|0,0:0|0:0|0:0|0:0,0:0:0:0:
312,240,196703,2,0,P|284:229|260:216,3,50.9999984436036,8|0|0|0,0:0|0:0|0:0|0:0,0:0:0:0:
188,240,197017,5,8,0:3:0:0:
184,220,197095,1,0,0:0:0:0:
187,199,197174,1,0,0:0:0:0:
194,180,197253,1,0,0:0:0:0:
206,163,197331,1,0,0:0:0:0:
222,150,197410,1,0,0:0:0:0:
240,142,197488,2,0,P|273:138|306:149,1,50.9999984436036,8|0,0:3|0:0,0:0:0:0:
343,197,197645,6,0,P|346:223|337:258,3,50.9999984436036,0|0|0|0,0:0|0:0|0:0|0:0,0:0:0:0:
287,298,197959,2,0,P|258:300|220:290,1,50.9999984436036,8|0,0:0|0:0,0:0:0:0:
188,240,198116,2,0,P|184:219|190:188,1,50.9999984436036,8|0,0:0|0:0,0:0:0:0:
247,141,198273,6,2,B|211:174|211:174|134:186|77:110,1,203.999993774414,6|8,0:0|0:0,0:0:0:0:
280,46,198745,2,2,P|346:38|458:96,1,187.000005706787,2|0,0:0|0:0,0:0:0:0:
295,219,199216,6,2,P|353:135|344:238,1,272,10|8,0:0|0:0,0:0:0:0:
201,223,200001,5,0,0:0:0:0:
215,101,200158,2,0,P|240:71|269:55,2,62.3333352355958,0|0|2,0:0|2:0|2:0,0:0:0:0:
104,150,200472,2,0,P|70:147|33:155,2,62.3333352355958,8|0|2,0:0|2:0|2:0,0:0:0:0:
201,223,200787,6,2,B|214:268|214:268|180:335|98:336,1,187.000005706787,2|8,0:0|0:0,0:0:0:0:
311,325,201258,2,2,B|355:304|405:321|405:321|450:337|493:315,1,187.000005706787,2|0,0:0|0:0,0:0:0:0:
335,226,201729,6,2,P|389:129|438:229,1,272,10|8,0:0|0:0,0:0:0:0:
335,226,202514,6,2,P|281:218|226:223,1,93.5000028533936,2|0,0:0|0:0,0:0:0:0:
102,156,202828,1,0,0:0:0:0:
172,77,202986,2,2,P|225:63|270:64,1,93.5000028533936,10|0,0:0|0:0,0:0:0:0:
385,129,203300,6,2,P|443:136|488:132,2,93.5000028533936,2|0|8,0:0|0:0|0:0,0:0:0:0:
335,226,203771,2,2,P|243:221|146:246,1,187.000005706787,2|0,0:0|0:0,0:0:0:0:
62,104,204242,2,2,P|135:119|249:109,1,187.000005706787,10|0,0:0|0:0,0:0:0:0:
246,109,204713,5,0,0:0:0:0:
417,190,204870,2,0,P|363:192|317:180,1,93.5000028533936,8|0,0:0|0:0,0:0:0:0:
151,243,205184,1,0,0:0:0:0:
241,307,205342,2,2,P|296:293|428:315,1,187.000005706787,2|0,0:0|0:0,0:0:0:0:
417,190,205813,6,2,L|435:89,1,93.5000028533936,6|0,0:0|0:0,0:0:0:0:
297,28,206127,2,0,L|314:147,1,93.5000028533936,8|2,0:0|0:0,0:0:0:0:
192,240,206441,2,0,P|162:190|178:101,1,140.25000428009
191,92,206755,2,0,P|139:99|89:97,1,93.5000028533936,8|0,0:0|0:0,0:0:0:0:
270,163,207069,5,0,0:0:0:0:
82,221,207226,1,2,0:0:0:0:
204,332,207383,2,2,L|191:234,1,93.5000028533936,10|2,0:0|0:0,0:0:0:0:
282,113,207698,2,0,P|272:142|270:178,1,50.9999984436036,8|0,0:3|0:0,0:0:0:0:
372,212,207855,2,0,P|364:179|362:147,1,50.9999984436036,8|0,0:3|0:0,0:0:0:0:
415,85,208012,1,8,0:0:0:0:
287,258,208169,1,8,0:0:0:0:
468,242,208326,6,0,L|524:247,2,42.5,6|0|0,0:0|0:0|0:0,0:0:0:0:
384,312,208640,1,8,0:0:0:0:
287,258,208797,1,2,0:0:0:0:
285,245,208876,1,0,0:0:0:0:
283,232,208954,1,0,0:0:0:0:
384,312,209111,1,2,0:0:0:0:
294,363,209268,1,10,0:0:0:0:
281,361,209347,1,0,0:0:0:0:
268,359,209425,1,0,0:0:0:0:
184,295,209582,6,0,L|115:302,2,42.5,2|0|0,0:0|0:0|0:0,0:0:0:0:
287,258,209897,1,8,0:0:0:0:
390,223,210054,2,0,L|459:230,2,42.5,2|0|0,0:0|0:0|0:0,0:0:0:0:
306,150,210368,1,2,0:0:0:0:
379,70,210525,1,10,0:0:0:0:
391,68,210603,1,0,0:0:0:0:
403,66,210682,1,0,0:0:0:0:
415,64,210760,1,0,0:0:0:0:
429,62,210839,6,0,L|490:69,2,46.7500014266968,6|0|0,0:0|0:0|0:0,0:0:0:0:
440,174,211153,1,8,0:0:0:0:
338,221,211310,1,2,0:0:0:0:
323,219,211389,1,0,0:0:0:0:
309,217,211467,1,0,0:0:0:0:
440,174,211624,1,2,0:0:0:0:
431,286,211781,1,10,0:0:0:0:
434,299,211860,1,0,0:0:0:0:
436,312,211938,1,0,0:0:0:0:
324,323,212095,6,0,L|319:374,2,46.7500014266968,2|0|0,0:0|0:0|0:0,0:0:0:0:
218,285,212410,1,8,0:0:0:0:
114,243,212567,2,0,L|119:192,2,46.7500014266968,2|0|0,0:0|0:0|0:0,0:0:0:0:
129,354,212881,1,2,0:0:0:0:
218,285,213038,1,10,0:0:0:0:
220,271,213116,1,0,0:0:0:0:
222,257,213195,1,0,0:0:0:0:
224,243,213273,1,0,0:0:0:0:
227,228,213352,6,0,L|292:219,2,50.9999984436036,6|0|0,0:0|0:0|0:0,0:0:0:0:
121,177,213666,1,8,0:0:0:0:
221,115,213823,1,2,0:0:0:0:
236,113,213902,1,0,0:0:0:0:
251,112,213980,1,0,0:0:0:0:
121,177,214137,1,2,0:0:0:0:
32,101,214294,1,10,0:0:0:0:
30,85,214373,1,0,0:0:0:0:
28,69,214451,1,0,0:0:0:0:
121,177,214609,6,0,L|112:240,2,50.9999984436036,2|0|0,0:0|0:0|0:0,0:0:0:0:
221,115,214923,1,8,0:0:0:0:
320,178,215080,2,0,L|329:241,2,50.9999984436036,2|0|0,0:0|0:0|0:0,0:0:0:0:
221,115,215394,1,2,0:0:0:0:
326,62,215551,1,10,0:0:0:0:
341,63,215629,1,0,0:0:0:0:
356,65,215708,1,0,0:0:0:0:
371,67,215787,1,0,0:0:0:0:
385,69,215865,6,0,L|449:57,2,50.9999984436036,6|0|0,0:0|0:0|0:0,0:0:0:0:
320,178,216179,1,8,0:0:0:0:
425,249,216336,1,2,0:0:0:0:
441,246,216415,1,0,0:0:0:0:
457,243,216493,1,0,0:0:0:0:
320,178,216650,1,0,0:0:0:0:
251,286,216808,1,10,0:0:0:0:
253,302,216886,1,0,0:0:0:0:
254,318,216965,1,0,0:0:0:0:
156,195,217122,6,0,L|162:128,3,55.2499974708558,2|0|0|0,0:0|0:0|0:0|0:0,0:0:0:0:
73,158,217436,2,0,L|70:95,3,55.2499974708558,10|0|0|0,0:0|0:0|0:0|0:0,0:0:0:0:
147,55,217750,1,8,0:0:0:0:
164,54,217828,1,8,0:0:0:0:
181,57,217907,1,8,0:0:0:0:
197,62,217986,1,8,0:0:0:0:
212,70,218064,1,8,0:3:0:0:
229,72,218143,1,8,0:3:0:0:
246,70,218221,1,8,0:3:0:0:
263,65,218300,1,8,0:3:0:0:
277,55,218378,6,2,P|277:103|290:159,1,93.5000028533936,6|0,0:0|0:0,0:0:0:0:
477,102,218692,2,0,P|403:93|373:93,1,93.5000028533936,8|0,0:0|0:0,0:0:0:0:
198,211,219006,1,0,0:0:0:0:
292,293,219164,2,0,P|381:276|422:196,1,187.000005706787,8|0,0:3|0:0,0:0:0:0:
286,147,219635,5,12,0:2:0:0:
105,221,219792,2,2,P|168:218|212:206,1,93.5000028533936,2|0,0:0|0:0,0:0:0:0:
387,274,220106,2,2,P|322:257|284:254,1,93.5000028533936,2|0,0:0|0:0,0:0:0:0:
207,314,220420,1,0,0:0:0:0:
286,147,220577,2,2,P|294:93|288:39,1,93.5000028533936,2|0,0:0|0:0,0:0:0:0:
230,8,220813,1,0,0:0:0:0:
230,8,220891,6,2,L|130:18,1,93.5000028533936,6|0,0:0|0:0,0:0:0:0:
365,152,221205,2,0,B|377:104|377:104|368:56,1,93.5000028533936,8|0,0:0|0:0,0:0:0:0:
196,197,221520,2,0,B|184:149|184:149|193:101,1,93.5000028533936,8|0,0:0|0:0,0:0:0:0:
298,238,221834,1,0,0:0:0:0:
365,152,221991,6,0,B|377:104|377:104|368:56,1,93.5000028533936,8|0,0:0|0:0,0:0:0:0:
298,238,222305,1,8,0:0:0:0:
196,197,222462,2,0,B|164:195|164:195|129:206,2,62.3333352355958,8|0|0,0:3|0:0|0:0,0:0:0:0:
211,306,222776,2,0,B|225:334|225:334|252:359,2,62.3333352355958,8|0|8,0:3|0:0|0:3,0:0:0:0:
298,238,223090,2,0,B|315:211|315:211|323:175,2,62.3333352355958,0|8|8,0:0|0:3|0:3,0:0:0:0:
196,197,223404,5,4,0:0:0:0:
196,197,225132,2,0,L|192:229,2,21.25,0|0|6,2:0|2:0|2:0,0:0:0:0:
400,80,225917,5,4,0:0:0:0:
400,80,228116,1,0,0:0:0:0:
384,176,228273,1,0,0:0:0:0:
368,272,228431,5,4,0:0:0:0:
88,128,230944,5,4,0:0:0:0:
88,128,232514,2,0,L|84:88,4,21.25,0|0|0|0|4,2:0|2:0|2:0|2:0|2:0,0:0:0:0:
96,220,233457,6,0,L|80:284,1,59.4999981842042,4|0,0:2|2:0,0:0:0:0:
192,192,233771,2,0,L|188:260,1,59.4999981842042,0|0,0:0|2:0,0:0:0:0:
280,148,234085,2,0,L|288:220,1,59.4999981842042,0|0,0:0|2:0,0:0:0:0:
352,80,234399,2,0,L|376:144,1,59.4999981842042,0|0,0:0|2:0,0:0:0:0:
444,276,234713,6,0,P|405:261|384:245,1,59.4999981842042,0|0,0:0|2:0,0:0:0:0:
344,335,235027,2,0,P|313:308|298:285,1,59.4999981842042,0|0,0:0|2:0,0:0:0:0:
229,359,235342,2,0,P|209:323|203:297,1,59.4999981842042,0|0,0:0|2:0,0:0:0:0:
113,340,235656,2,0,P|106:299|109:273,1,59.4999981842042,0|8,0:0|0:0,0:0:0:0:
119,254,235891,1,0,0:0:0:0:
119,254,235970,6,0,L|52:261,1,59.4999981842042,8|0,0:0|2:0,0:0:0:0:
177,180,236284,2,0,L|113:158,1,59.4999981842042,0|0,0:0|2:0,0:0:0:0:
262,138,236598,2,0,L|213:91,1,59.4999981842042,0|0,0:0|2:0,0:0:0:0:
355,134,236912,2,0,L|330:71,1,59.4999981842042,0|0,0:0|2:0,0:0:0:0:
442,165,237226,2,0,L|445:97,1,59.4999981842042,0|0,0:0|2:0,0:0:0:0:
373,225,237540,6,2,P|320:219|246:242,1,118.999996368408
156,128,238012,1,0,2:0:0:0:
156,128,238090,1,0,2:0:0:0:
156,128,238169,2,2,P|219:132|263:119,1,89.2499972763062,2|0,0:0|2:0,0:0:0:0:
244,126,238483,5,8,0:0:0:0:
269,345,238692,1,8,0:3:0:0:
269,345,238902,1,8,0:3:0:0:
175,183,239111,5,8,0:0:0:0:
340,292,239320,1,8,0:3:0:0:
340,292,239530,1,8,0:3:0:0:
171,262,239739,5,8,0:0:0:0:
341,211,239948,1,8,0:3:0:0:
341,211,240158,1,8,0:3:0:0:
229,305,240368,5,8,0:0:0:0:
292,158,240577,1,8,0:3:0:0:
229,305,240787,1,8,0:3:0:0:
229,305,240891,1,0,0:0:0:0:
229,305,240996,5,8,0:0:0:0:
101,194,241205,1,8,0:3:0:0:
235,89,241415,1,8,0:3:0:0:
229,305,241624,5,8,0:0:0:0:
96,165,241834,1,8,0:0:0:0:
271,95,242043,1,8,0:0:0:0:
229,305,242253,5,8,0:0:0:0:
91,137,242462,1,8,0:0:0:0:
305,100,242671,1,8,0:0:0:0:
209,181,242881,5,8,0:0:0:0:
196,163,242959,1,8,0:0:0:0:
187,144,243038,1,8,0:0:0:0:
181,124,243116,1,8,0:0:0:0:
178,103,243195,1,8,0:0:0:0:
179,82,243273,1,8,0:0:0:0:
184,61,243352,1,8,0:0:0:0:
192,41,243430,1,8,0:0:0:0:
203,23,243509,6,2,B|256:56|256:56|396:40,1,203.999993774414,6|8,0:0|0:0,0:0:0:0:
209,181,243980,2,2,P|148:144|20:160,1,203.999993774414,2|0,0:0|0:0,0:0:0:0:
192,312,244451,2,2,L|308:308,1,101.999996887207,10|0,0:0|0:0,0:0:0:0:
488,216,244766,6,0,P|460:276|448:320,1,101.999996887207,0|0,0:0|0:0,0:0:0:0:
356,192,245080,2,0,P|336:132|312:92,1,101.999996887207,8|0,0:0|0:0,0:0:0:0:
76,180,245394,2,0,B|92:224|92:224|176:252|236:192,1,203.999993774414,2|8,0:2|0:0,0:0:0:0:
316,98,245865,1,0,0:0:0:0:
212,32,246022,6,2,P|144:60|0:40,1,203.999993774414,2|8,0:0|0:0,0:0:0:0:
16,47,246493,1,0,0:0:0:0:
84,148,246650,2,0,P|92:212|88:252,2,101.999996887207,0|0|8,0:0|0:0|0:0,0:0:0:0:
8,332,247122,1,0,0:0:0:0:
188,304,247279,6,0,P|248:296|300:296,1,101.999996887207,2|0,0:2|0:0,0:0:0:0:
464,360,247593,2,2,P|427:312|401:267,1,101.999996887207,10|0,0:0|0:0,0:0:0:0:
372,92,247907,2,2,P|348:147|322:192,1,101.999996887207,2|0,0:0|0:0,0:0:0:0:
188,304,248221,2,2,P|248:296|300:296,1,101.999996887207,10|0,0:0|0:0,0:0:0:0:
452,160,248535,6,2,P|328:184|244:140,1,203.999993774414,6|8,0:0|0:0,0:0:0:0:
164,4,249006,2,2,B|168:72|168:72|140:132|140:132|144:204,1,203.999993774414,2|0,0:0|0:0,0:0:0:0:
387,306,249478,2,2,B|341:289|341:289|273:297,1,101.999996887207,10|0,0:0|0:0,0:0:0:0:
36,200,249792,6,2,P|92:296|176:304,1,203.999993774414,2|8,0:0|0:0,0:0:0:0:
342,207,250263,2,2,B|296:188|248:204|248:204|200:220|143:201,1,203.999993774414,2|0,0:0|0:0,0:0:0:0:
188,8,250734,2,2,P|200:68|204:120,1,101.999996887207,10|0,0:0|0:0,0:0:0:0:
288,295,251048,6,2,P|288:200|320:96,2,203.999993774414,2|8|0,0:0|0:0|0:0,0:0:0:0:
384,372,251834,1,0,0:0:0:0:
484,304,251991,2,0,P|484:248|472:192,1,101.999996887207,8|0,0:0|0:0,0:0:0:0:
319,96,252305,6,0,L|431:108,1,101.999996887207,2|0,0:2|0:0,0:0:0:0:
208,136,252619,2,2,L|162:33,1,101.999996887207,10|0,0:0|0:0,0:0:0:0:
300,212,252933,2,2,L|233:302,1,101.999996887207,2|0,0:0|0:0,0:0:0:0:
319,96,253247,2,2,L|431:108,1,101.999996887207,10|0,0:0|0:0,0:0:0:0:
208,136,253561,6,2,P|152:104|16:156,1,203.999993774414,6|8,0:0|0:0,0:0:0:0:
160,236,254033,2,2,B|212:248|212:248|368:216,1,203.999993774414,2|0,0:0|0:0,0:0:0:0:
489,323,254504,2,2,B|439:312|439:312|389:323,1,101.999996887207,10|0,0:0|0:0,0:0:0:0:
494,181,254818,6,0,L|511:70,1,101.999996887207,0|0,0:0|0:0,0:0:0:0:
365,6,255132,2,0,L|381:118,1,101.999996887207,8|0,0:0|0:0,0:0:0:0:
270,248,255446,2,0,P|233:117|281:73,1,203.999993774414,2|8,0:2|0:0,0:0:0:0:
379,106,255917,1,0,0:0:0:0:
180,16,256075,6,2,P|127:10|57:17,1,101.999996887207,2|0,0:0|0:0,0:0:0:0:
180,187,256389,2,2,P|258:152|373:206,1,203.999993774414,10|0,0:0|0:0,0:0:0:0:
373,301,256860,1,0,0:0:0:0:
268,348,257017,6,0,P|262:281|271:242,1,101.999996887207,8|0,0:0|0:0,0:0:0:0:
496,153,257331,2,0,P|461:210|431:236,1,101.999996887207,2|0,0:2|0:0,0:0:0:0:
195,176,257645,2,2,P|256:149|296:146,1,101.999996887207,10|0,0:0|0:0,0:0:0:0:
453,333,257959,2,2,P|387:318|353:297,1,101.999996887207,2|0,0:0|0:0,0:0:0:0:
334,53,258273,2,2,P|378:103|393:140,1,101.999996887207,10|0,0:0|0:0,0:0:0:0:
269,247,258588,6,0,P|202:275|173:357,2,152.999995330811,2|2|2,0:0|2:0|0:0,0:0:0:0:
254,134,259216,2,0,P|183:96|113:107,2,152.999995330811,2|2|2,0:0|2:0|0:0,0:0:0:0:
334,53,259844,6,2,B|351:67|361:88|361:88|407:61|467:63,1,152.999995330811,2|2,0:0|2:0,0:0:0:0:
496,72,260158,2,0,P|486:141|490:190,1,101.999996887207,8|2,0:0|0:0,0:0:0:0:
507,332,260472,2,2,B|490:318|480:297|480:297|434:324|374:322,1,152.999995330811,2|2,0:0|2:0,0:0:0:0:
345,313,260786,2,0,P|355:244|351:195,1,101.999996887207,8|2,0:0|0:0,0:0:0:0:
188,110,261101,6,2,P|241:125|305:126,1,101.999996887207,2|0,0:0|0:0,0:0:0:0:
221,249,261415,2,0,P|127:243|21:295,1,203.999993774414,8|0,0:0|0:0,0:0:0:0:
29,287,261886,1,0,0:0:0:0:
57,156,262043,2,0,P|60:106|50:50,1,101.999996887207,8|0,0:0|0:0,0:0:0:0:
178,23,262357,5,10,0:0:0:0:
176,38,262436,1,0,0:0:0:0:
174,53,262514,1,8,0:0:0:0:
255,129,262671,1,8,0:3:0:0:
338,53,262828,1,8,0:0:0:0:
336,38,262906,1,0,0:0:0:0:
334,23,262985,1,0,0:0:0:0:
255,129,263143,1,8,0:3:0:0:
354,182,263300,6,0,L|362:245,1,50.9999984436036,10|8,0:0|0:0,0:0:0:0:
256,272,263457,2,0,L|256:207,1,50.9999984436036,8|8,0:0|0:0,0:0:0:0:
158,182,263614,6,2,L|144:294,1,110.499994941712,6|0,0:0|0:0,0:0:0:0:
46,221,263928,1,8,0:0:0:0:
158,182,264085,1,2,0:0:0:0:
155,165,264164,1,0,0:0:0:0:
153,148,264242,1,0,0:0:0:0:
247,71,264399,1,0,0:0:0:0:
328,161,264556,2,2,B|381:172|381:172|441:156,1,110.499994941712,10|0,0:0|0:0,0:0:0:0:
485,90,264792,1,0,0:0:0:0:
485,90,264870,6,0,B|432:79|432:79|377:93,1,110.499994941712,0|0,0:0|0:0,0:0:0:0:
274,227,265184,1,8,0:0:0:0:
277,243,265263,1,0,0:0:0:0:
281,259,265342,1,0,0:0:0:0:
285,274,265420,1,0,0:0:0:0:
289,290,265499,2,0,B|342:270|342:270|405:275,1,110.499994941712,2|0,0:2|0:0,0:0:0:0:
196,347,265813,2,0,L|169:227,1,110.499994941712,8|0,0:0|0:0,0:0:0:0:
171,239,266048,1,0,0:0:0:0:
171,239,266127,6,2,B|118:255|118:255|54:247,1,110.499994941712,2|0,0:0|0:0,0:0:0:0:
178,116,266441,1,8,0:0:0:0:
280,181,266598,1,0,0:0:0:0:
281,197,266677,1,0,0:0:0:0:
282,213,266755,1,0,0:0:0:0:
178,116,266912,1,0,0:0:0:0:
285,59,267069,1,8,0:0:0:0:
301,57,267148,1,0,0:0:0:0:
317,56,267226,1,0,0:0:0:0:
333,55,267305,1,0,0:0:0:0:
349,54,267383,2,0,B|392:94|392:94|413:154,1,110.499994941712,0|0,0:0|0:0,0:0:0:0:
300,274,267698,6,0,B|272:276|272:276|235:265,3,55.2499974708558,10|0|0|0,0:0|0:0|0:0|0:0,0:0:0:0:
281,197,268012,2,0,B|293:171|293:171|321:145,3,59.4999981842042,2|0|0|0,0:0|0:0|0:0|0:0,0:0:0:0:
357,219,268326,2,0,B|375:246|375:246|379:279,3,63.7500024318696,10|0|0|0,0:0|0:0|0:0|0:0,0:0:0:0:
300,274,268640,6,2,B|246:268|246:268|200:222,1,110.499994941712,6|0,0:0|0:0,0:0:0:0:
195,94,268954,1,8,0:0:0:0:
281,197,269111,1,2,0:0:0:0:
281,197,269190,1,0,0:0:0:0:
281,197,269268,1,0,0:0:0:0:
150,164,269425,1,0,0:0:0:0:
276,116,269582,2,2,L|389:108,1,110.499994941712,10|0,0:0|0:0,0:0:0:0:
426,306,269897,6,2,B|390:267|390:267|381:211,1,110.499994941712,2|0,0:0|0:0,0:0:0:0:
480,227,270211,1,8,0:0:0:0:
281,197,270368,1,2,0:0:0:0:
281,197,270446,1,0,0:0:0:0:
281,197,270525,1,0,0:0:0:0:
457,149,270682,1,0,0:0:0:0:
300,274,270839,2,2,B|246:268|246:268|200:222,1,110.499994941712,10|0,0:0|0:0,0:0:0:0:
213,14,271153,6,2,L|204:129,1,110.499994941712,2|0,0:0|0:0,0:0:0:0:
85,243,271467,1,8,0:0:0:0:
79,225,271546,1,0,0:0:0:0:
71,208,271624,1,0,0:0:0:0:
64,190,271703,1,0,0:0:0:0:
57,172,271781,2,0,L|62:58,1,110.499994941712,0|0,0:0|0:0,0:0:0:0:
204,124,272095,1,8,0:0:0:0:
224,114,272174,1,0,0:0:0:0:
243,103,272253,1,0,0:0:0:0:
262,93,272331,1,0,0:0:0:0:
282,84,272410,2,0,L|397:95,1,110.499994941712,0|0,0:0|0:0,0:0:0:0:
438,221,272724,6,0,L|493:207,3,55.2499974708558,10|0|0|0,0:0|0:0|0:0|0:0,0:0:0:0:
370,273,273038,2,0,L|311:258,3,59.4999981842042,2|0|0|0,0:0|0:0|0:0|0:0,0:0:0:0:
448,306,273352,2,0,L|510:290,3,63.7500024318696,10|0|0|0,0:0|0:0|0:0|0:0,0:0:0:0:
379,358,273666,6,2,B|326:347|326:347|249:362,1,110.499994941712,6|0,0:0|0:0,0:0:0:0:
166,296,273980,1,8,0:0:0:0:
245,204,274137,1,2,0:0:0:0:
242,187,274216,1,0,0:0:0:0:
239,170,274294,1,0,0:0:0:0:
344,269,274451,1,0,0:0:0:0:
166,296,274609,2,2,B|111:302|111:302|50:286,1,110.499994941712,10|0,0:0|0:0,0:0:0:0:
11,227,274844,1,0,0:0:0:0:
11,227,274923,6,0,L|3:113,1,110.499994941712,0|0,0:0|0:0,0:0:0:0:
131,12,275237,1,8,0:0:0:0:
129,28,275315,1,0,0:0:0:0:
126,44,275394,1,0,0:0:0:0:
123,60,275472,1,0,0:0:0:0:
120,76,275551,2,0,L|128:193,1,110.499994941712,0|0,0:0|0:0,0:0:0:0:
234,244,275865,1,8,0:0:0:0:
319,157,276022,1,0,0:0:0:0:
319,157,276101,1,0,0:0:0:0:
319,157,276179,6,2,B|378:158|378:158|426:177,1,110.499994941712,2|0,0:0|0:0,0:0:0:0:
352,273,276493,1,8,0:0:0:0:
234,244,276650,1,0,0:0:0:0:
217,240,276729,1,0,0:0:0:0:
200,236,276808,1,0,0:0:0:0:
319,157,276965,1,0,0:0:0:0:
352,273,277122,1,8,0:0:0:0:
356,288,277200,1,0,0:0:0:0:
360,304,277279,1,0,0:0:0:0:
364,319,277357,1,0,0:0:0:0:
367,335,277436,2,0,B|419:358|419:358|488:353,1,110.499994941712,0|0,0:0|0:0,0:0:0:0:
488,207,277750,6,0,L|473:144,3,55.2499974708558,10|0|0|0,0:0|0:0|0:0|0:0,0:0:0:0:
381,162,278064,2,0,L|396:97,3,59.4999981842042,2|0|0|0,0:0|0:0|0:0|0:0,0:0:0:0:
479,64,278378,2,2,B|425:89|425:89|306:73,1,178.499994552612,10|0,0:0|2:0,0:0:0:0:
274,69,278692,5,8,0:0:0:0:
238,315,278902,1,0,0:0:0:0:
300,89,279111,5,0,0:0:0:0:
212,295,279321,1,8,0:0:0:0:
312,120,279530,5,0,0:0:0:0:
200,264,279739,1,0,0:0:0:0:
308,153,279950,5,8,0:0:0:0:
204,231,280158,1,0,0:0:0:0:
287,180,280368,5,0,0:0:0:0:
225,204,280577,1,8,0:0:0:0:
256,192,280787,6,0,P|251:161|253:125,1,62.3333352355958,0|0,0:0|0:0,0:0:0:0:
256,192,280996,2,0,P|261:223|259:259,1,62.3333352355958,8|8,0:0|0:0,0:0:0:0:
222,187,281205,5,8,0:0:0:0:
290,197,281415,1,0,0:0:0:0:
196,166,281624,5,0,0:0:0:0:
316,218,281834,1,8,0:0:0:0:
184,135,282043,5,8,0:0:0:0:
328,249,282253,1,8,0:0:0:0:
189,102,282462,5,8,0:0:0:0:
323,282,282671,1,8,0:0:0:0:
210,76,282881,5,8,0:0:0:0:
302,308,283090,1,10,0:0:0:0:
242,64,283300,5,10,0:0:0:0:
270,320,283509,1,10,0:0:0:0:
359,115,283719,5,4,0:0:0:0:
138,140,284661,5,4,0:0:0:0:
270,320,285603,5,4,0:0:0:0:
340,235,285917,1,0,0:0:0:0:
326,224,285996,1,0,0:0:0:0:
310,217,286075,1,0,0:0:0:0:
293,212,286153,1,0,0:0:0:0:
276,209,286232,2,0,P|255:211|221:222,3,42.5,0|0|0|0,0:0|0:0|0:0|0:0,0:0:0:0:
178,272,286546,6,0,P|117:248|160:196,1,152.999995330811,8|0,0:0|2:0,0:0:0:0:
178,272,286860,6,0,P|127:238|160:196,1,127.5,4|0,0:2|2:0,0:0:0:0:
177,271,287174,6,0,P|140:240|159:196,1,102,0|0,0:2|2:0,0:0:0:0:
177,271,287488,6,0,L|157:192,1,76.4999976654053,4|0,0:2|2:0,0:0:0:0:
195,128,287802,6,0,B|244:138|244:138|298:118,1,101.999996887207,12|0,0:0|0:0,0:0:0:0:
292,119,288038,1,0,0:0:0:0:
292,119,288116,1,8,0:0:0:0:
232,37,288273,1,0,0:0:0:0:
301,226,288430,2,0,L|406:237,1,101.999996887207,8|0,0:0|0:0,0:0:0:0:
466,196,288666,1,0,0:0:0:0:
466,196,288744,6,0,P|456:166|452:132,1,63.7500024318696,10|0,0:0|0:0,0:0:0:0:
378,113,288902,2,0,P|386:84|393:38,1,63.7500024318696,10|0,0:0|0:0,0:0:0:0:
463,17,289059,5,8,0:0:0:0:
305,64,289216,1,0,0:0:0:0:
305,64,289294,1,0,0:0:0:0:
305,64,289373,2,0,P|294:129|316:174,1,110.499994941712,8|0,0:0|0:0,0:0:0:0:
511,267,289687,2,0,P|430:247|387:259,1,110.499994941712,8|0,0:0|0:0,0:0:0:0:
336,296,289922,1,0,0:0:0:0:
336,296,290001,6,0,L|325:365,1,63.7500024318696,10|0,0:0|0:0,0:0:0:0:
250,313,290158,2,0,L|242:249,1,63.7500024318696,10|0,0:0|0:0,0:0:0:0:
162,293,290315,5,8,0:0:0:0:
328,269,290472,1,0,0:0:0:0:
328,269,290551,1,0,0:0:0:0:
328,269,290629,1,8,0:0:0:0:
164,200,290786,1,0,0:0:0:0:
338,133,290943,2,0,L|215:121,1,118.999996368408,8|0,0:0|0:0,0:0:0:0:
164,200,291179,1,0,0:0:0:0:
164,200,291258,6,0,B|132:207|132:207|90:205,1,63.7500024318696,10|0,0:0|0:0,0:0:0:0:
59,118,291415,2,0,B|91:111|91:111|133:113,1,63.7500024318696,10|0,0:0|0:0,0:0:0:0:
185,193,291572,5,8,0:0:0:0:
8,198,291729,1,0,0:0:0:0:
8,198,291807,1,0,0:0:0:0:
8,198,291886,1,8,0:0:0:0:
146,296,292043,1,0,0:0:0:0:
146,296,292122,1,0,0:0:0:0:
146,296,292200,6,0,P|188:286|221:285,1,68,10|8,0:0|0:0,0:0:0:0:
363,267,292357,2,0,P|327:261|282:243,1,68,10|8,0:0|0:0,0:0:0:0:
164,200,292514,2,0,P|206:190|239:189,1,68,10|8,0:0|0:0,0:0:0:0:
348,131,292671,2,0,P|312:125|267:107,1,68,10|8,0:0|0:0,0:0:0:0:
256,28,292828,6,2,B|248:64|248:64|264:100|264:100|248:140|256:192,1,170,6|8,0:0|0:3,0:0:0:0:
264,216,293221,1,0,0:0:0:0:
267,241,293299,1,8,0:3:0:0:
262,266,293378,1,8,0:3:0:0:
256,289,293456,6,0,B|238:312|238:343|256:367|256:367|272:346|269:327,1,127.500004863739,8|0,0:0|0:0,0:0:0:0:
256,192,294085,5,4,0:0:0:0:
256,192,294163,12,2,304137,2:0:0:0:
