osu file format v14

[General]
AudioFilename: audio.mp3
AudioLeadIn: 0
PreviewTime: 208364
Countdown: 0
SampleSet: Normal
StackLeniency: 0.7
Mode: 0
LetterboxInBreaks: 0
WidescreenStoryboard: 0

[Editor]
DistanceSpacing: 1.2
BeatDivisor: 4
GridSize: 4
TimelineZoom: 1.5

[Metadata]
Title:Seijouki no Piero ~ The MadPiero Laughs
TitleUnicode:星条旗のピエロ ~ The MadPiero Laughs
Artist:Demetori
ArtistUnicode:Demetori
Creator:Akinari
Version:5th Stage
Source:東方紺珠伝 ~ Legacy of Lunatic Kingdom
Tags:東方project, touhou, zun, Determinism & DestruKction, C92, clownpiece, pierrot of the star spangled banner, Touhou15, C92
BeatmapID:1457199
BeatmapSetID:680634

[Difficulty]
HPDrainRate:6
CircleSize:4.2
OverallDifficulty:8.5
ApproachRate:9.5
SliderMultiplier:1.4
SliderTickRate:1

[Events]
//Background and Video events
0,0,"BGAki.jpg",0,0
//Break Periods
2,120468,127491
//Storyboard Layer 0 (Background)
//Storyboard Layer 1 (Fail)
//Storyboard Layer 2 (Pass)
//Storyboard Layer 3 (Foreground)
//Storyboard Sound Samples

[TimingPoints]
1734,314.13612565445,4,1,0,60,1,0
4804,-100,4,1,0,60,0,0
5118,-66.6666666666667,4,1,0,60,0,0
26236,-100,4,1,0,60,0,0
27807,-66.6666666666667,4,1,0,60,0,0
43757,-133.333333333333,4,1,0,60,0,0
44071,-100,4,1,0,60,0,0
44385,-66.6666666666667,4,1,0,60,0,0
53809,-133.333333333333,4,1,0,60,0,0
54123,-100,4,1,0,60,0,0
54437,-66.6666666666667,4,1,0,60,0,0
66446,-100,4,1,0,60,0,0
67388,-66.6666666666667,4,1,0,60,0,0
104621,-66.6666666666667,4,1,0,5,0,0
104699,-66.6666666666667,4,1,0,60,0,0
104935,-66.6666666666667,4,1,0,5,0,0
105013,-66.6666666666667,4,1,0,60,0,0
105249,-66.6666666666667,4,1,0,5,0,0
105327,-66.6666666666667,4,1,0,60,0,0
114437,-133.333333333333,4,1,0,60,0,0
114752,-100,4,1,0,60,0,0
115066,-66.6666666666667,4,1,0,60,0,0
128016,-200,4,1,0,60,0,0
133671,-100,4,1,0,60,0,0
135555,-200,4,1,0,60,0,0
149621,-100,4,1,0,60,0,0
157945,-100,4,1,0,5,0,0
158102,-66.6666666666667,4,1,0,60,0,0
208435,-66.6666666666667,4,1,0,60,0,1
223435,-200,4,1,0,60,0,0
233495,-66.6666666666667,4,1,0,60,0,0
278416,-100,4,1,0,60,0,0
283757,-133.333333333333,4,1,0,60,0,0
285956,-66.6666666666667,4,1,0,60,0,0

[HitObjects]
72,232,1734,6,0,P|136:272|208:264,1,140
236,136,2362,1,0,0:0:0:0:
372,268,2676,2,0,P|344:200|364:136,1,140
420,68,3304,1,0,0:0:0:0:
260,40,3618,2,0,P|256:104|284:180,1,140
468,236,4247,1,0,0:0:0:0:
328,300,4404,1,0,0:0:0:0:
340,272,4482,1,0,0:0:0:0:
348,240,4561,2,0,L|336:168,1,70
116,132,4875,6,0,P|144:184|120:252,1,105
224,240,5189,6,0,P|224:176|188:84,1,157.500006008148
276,72,5503,1,0,0:0:0:0:
336,340,5817,5,0,0:0:0:0:
352,176,5974,1,0,0:0:0:0:
344,260,6131,1,0,0:0:0:0:
360,96,6288,1,0,0:0:0:0:
452,264,6446,5,0,0:0:0:0:
240,256,6603,1,0,0:0:0:0:
344,260,6760,1,0,0:0:0:0:
140,248,6917,1,0,0:0:0:0:
180,116,7074,5,0,0:0:0:0:
72,52,7231,1,0,0:0:0:0:
68,176,7388,1,0,0:0:0:0:
132,68,7545,1,0,0:0:0:0:
12,112,7702,1,0,0:0:0:0:
112,192,7859,1,0,0:0:0:0:
256,220,8016,5,0,0:0:0:0:
176,56,8173,1,0,0:0:0:0:
84,180,8330,1,0,0:0:0:0:
256,148,8487,1,0,0:0:0:0:
136,272,8644,1,0,0:0:0:0:
96,88,8802,1,0,0:0:0:0:
248,200,8959,1,0,0:0:0:0:
40,228,9116,1,0,0:0:0:0:
200,328,9273,6,0,P|256:288|308:288,1,105.000004005432
468,316,9587,1,0,0:0:0:0:
356,148,9744,1,0,0:0:0:0:
476,208,9901,1,0,0:0:0:0:
288,224,10058,1,0,0:0:0:0:
356,80,10215,1,0,0:0:0:0:
392,88,10294,1,0,0:0:0:0:
424,104,10372,1,0,0:0:0:0:
452,128,10451,1,0,0:0:0:0:
472,160,10529,2,0,P|492:228|488:264,1,105.000004005432
168,324,10843,5,0,0:0:0:0:
184,308,10922,1,0,0:0:0:0:
196,292,11001,1,0,0:0:0:0:
204,272,11079,1,0,0:0:0:0:
208,252,11158,1,0,0:0:0:0:
44,136,11472,1,0,0:0:0:0:
240,120,11786,1,0,0:0:0:0:
380,60,11943,1,0,0:0:0:0:
296,32,12100,2,0,P|312:96|360:144,1,105.000004005432
476,188,12414,1,0,0:0:0:0:
384,328,12728,5,0,0:0:0:0:
372,320,12807,1,0,0:0:0:0:
360,308,12885,2,0,L|336:256,1,52.5000020027161
364,108,13042,1,0,0:0:0:0:
208,268,13357,1,0,0:0:0:0:
336,236,13514,2,0,L|276:200,1,52.5000020027161
224,192,13671,5,0,0:0:0:0:
198,180,13749,1,0,0:0:0:0:
178,160,13828,1,0,0:0:0:0:
166,134,13906,1,0,0:0:0:0:
164,106,13985,1,0,0:0:0:0:
171,79,14063,1,0,0:0:0:0:
187,56,14142,1,0,0:0:0:0:
210,40,14220,1,0,0:0:0:0:
238,33,14299,5,0,0:0:0:0:
266,36,14377,1,0,0:0:0:0:
291,48,14456,1,0,0:0:0:0:
311,68,14535,1,0,0:0:0:0:
322,93,14613,1,0,0:0:0:0:
325,121,14692,1,0,0:0:0:0:
320,148,14770,2,0,L|340:212,1,52.5000020027161
332,328,14927,5,0,0:0:0:0:
232,156,15084,1,0,0:0:0:0:
140,336,15241,1,0,0:0:0:0:
332,236,15398,1,0,0:0:0:0:
144,240,15555,1,0,0:0:0:0:
248,348,15713,1,0,0:0:0:0:
268,88,15870,5,0,0:0:0:0:
252,204,16027,1,0,0:0:0:0:
336,36,16184,1,0,0:0:0:0:
172,164,16341,1,0,0:0:0:0:
376,128,16498,1,0,0:0:0:0:
216,40,16655,1,0,0:0:0:0:
288,228,16812,5,0,0:0:0:0:
104,304,16969,1,0,0:0:0:0:
204,276,17126,1,0,0:0:0:0:
52,192,17283,1,0,0:0:0:0:
148,340,17440,5,0,0:0:0:0:
108,356,17519,1,0,0:0:0:0:
68,352,17597,1,0,0:0:0:0:
44,320,17676,1,0,0:0:0:0:
48,280,17754,2,0,P|100:252|164:248,1,105.000004005432
272,304,18069,6,0,P|316:260|316:188,1,105.000004005432
268,76,18383,5,0,0:0:0:0:
360,180,18540,1,0,0:0:0:0:
200,152,18697,1,0,0:0:0:0:
128,264,18854,1,0,0:0:0:0:
256,272,19011,1,0,0:0:0:0:
132,88,19168,1,0,0:0:0:0:
456,52,19325,5,0,0:0:0:0:
448,84,19404,1,0,0:0:0:0:
448,116,19482,1,0,0:0:0:0:
452,148,19561,1,0,0:0:0:0:
448,180,19639,1,0,0:0:0:0:
436,208,19718,1,0,0:0:0:0:
424,236,19796,2,0,L|364:268,1,52.5000020027161
164,308,19953,5,0,0:0:0:0:
300,260,20110,1,0,0:0:0:0:
100,208,20268,1,0,0:0:0:0:
328,136,20425,1,0,0:0:0:0:
208,40,20582,2,0,P|188:112|196:152,1,105.000004005432
344,72,20896,2,0,P|424:92|456:140,1,105.000004005432
424,256,21210,2,0,B|352:320|280:224|212:296,1,210.000008010865
208,180,21838,6,0,P|128:152|100:112,1,105.000004005432
332,148,22152,1,0,0:0:0:0:
232,40,22309,1,0,0:0:0:0:
132,272,22466,5,0,0:0:0:0:
152,160,22624,1,0,0:0:0:0:
264,208,22781,2,0,P|316:232|372:224,1,105.000004005432
328,120,23095,1,0,0:0:0:0:
260,328,23252,1,0,0:0:0:0:
392,236,23409,1,0,0:0:0:0:
148,296,23566,1,0,0:0:0:0:
224,116,23723,2,0,P|248:196|288:224,1,105.000004005432
336,228,24037,1,0,0:0:0:0:
80,36,24351,5,0,0:0:0:0:
160,256,24508,1,0,0:0:0:0:
8,176,24665,2,0,P|88:184|136:152,1,105.000004005432
212,72,24980,5,0,0:0:0:0:
276,224,25137,1,0,0:0:0:0:
416,144,25294,2,0,P|396:80|344:28,1,105.000004005432
376,276,25608,1,0,0:0:0:0:
212,344,25765,1,0,0:0:0:0:
192,212,25922,2,0,P|264:176|328:184,1,105.000004005432
168,92,26236,6,0,P|264:36|484:128,1,350
304,152,27179,5,0,0:0:0:0:
260,272,27336,1,0,0:0:0:0:
176,120,27493,1,0,0:0:0:0:
336,220,27650,1,0,0:0:0:0:
144,284,27807,2,0,P|220:320|280:312,1,105.000004005432
68,176,28121,1,0,0:0:0:0:
224,48,28278,1,0,0:0:0:0:
208,224,28435,2,0,P|260:172|312:152,1,105.000004005432
104,52,28749,5,0,0:0:0:0:
100,60,28828,1,0,0:0:0:0:
96,68,28906,1,0,0:0:0:0:
92,76,28985,1,0,0:0:0:0:
88,88,29063,1,0,0:0:0:0:
84,100,29142,1,0,0:0:0:0:
80,112,29220,2,0,L|96:164,1,52.5000020027161
188,212,29377,5,0,0:0:0:0:
284,40,29535,1,0,0:0:0:0:
404,192,29692,1,0,0:0:0:0:
192,188,29849,1,0,0:0:0:0:
320,32,30006,5,0,0:0:0:0:
388,216,30163,1,0,0:0:0:0:
184,88,30320,2,0,P|180:176|216:212,1,105.000004005432
156,204,30555,1,0,0:0:0:0:
128,228,30634,1,0,0:0:0:0:
244,272,30791,1,0,0:0:0:0:
28,352,30948,2,0,P|96:296|144:288,1,105.000004005432
348,328,31262,2,0,B|336:276|316:264|256:232,1,105.000004005432
232,192,31576,1,0,0:0:0:0:
472,180,31891,5,0,0:0:0:0:
348,40,32048,1,0,0:0:0:0:
256,176,32205,2,0,P|320:184|376:228,1,105.000004005432
172,328,32519,1,0,0:0:0:0:
248,220,32676,1,0,0:0:0:0:
388,288,32833,1,0,0:0:0:0:
488,176,32990,1,0,0:0:0:0:
336,212,33147,1,0,0:0:0:0:
256,320,33304,1,0,0:0:0:0:
452,300,33461,1,0,0:0:0:0:
392,124,33618,1,0,0:0:0:0:
312,284,33775,6,0,P|272:244|264:192,1,105.000004005432
116,92,34090,1,0,0:0:0:0:
8,272,34404,1,0,0:0:0:0:
204,316,34561,1,0,0:0:0:0:
280,132,34718,2,0,P|360:152|392:196,1,105.000004005432
48,252,35032,5,0,0:0:0:0:
68,256,35110,1,0,0:0:0:0:
88,264,35189,1,0,0:0:0:0:
104,280,35268,1,0,0:0:0:0:
120,292,35346,2,0,P|192:304|232:296,1,105.000004005432
424,312,35660,5,0,0:0:0:0:
400,292,35739,1,0,0:0:0:0:
380,268,35817,1,0,0:0:0:0:
368,240,35896,1,0,0:0:0:0:
364,208,35974,2,0,P|392:144|360:84,1,105.000004005432
292,48,36288,2,0,B|220:24|220:24|152:68|92:24|48:64|48:64|16:132|32:272|32:272|92:308|168:264,1,577.500022029878
200,244,37231,5,0,0:0:0:0:
320,300,37388,1,0,0:0:0:0:
456,272,37545,2,0,P|416:208|356:192,1,105.000004005432
200,244,37859,1,0,0:0:0:0:
40,40,38173,2,0,P|112:68|176:56,1,105.000004005432
160,192,38487,2,0,P|216:168|248:104,1,105.000004005432
56,280,38802,5,0,0:0:0:0:
88,300,38880,1,0,0:0:0:0:
124,308,38959,1,0,0:0:0:0:
160,308,39037,1,0,0:0:0:0:
196,300,39116,1,0,0:0:0:0:
224,276,39194,1,0,0:0:0:0:
240,244,39273,1,0,0:0:0:0:
244,208,39351,1,0,0:0:0:0:
240,172,39430,5,0,0:0:0:0:
218,199,39508,1,0,0:0:0:0:
189,218,39587,1,0,0:0:0:0:
155,228,39665,1,0,0:0:0:0:
121,227,39744,1,0,0:0:0:0:
88,215,39823,1,0,0:0:0:0:
60,196,39901,2,0,L|20:136,1,52.5000020027161
68,64,40058,5,0,0:0:0:0:
200,44,40215,1,0,0:0:0:0:
288,152,40372,2,0,P|224:164|168:144,1,105.000004005432
80,156,40686,2,0,P|100:220|156:256,1,105.000004005432
260,252,41001,1,0,0:0:0:0:
200,132,41158,1,0,0:0:0:0:
368,216,41315,5,0,0:0:0:0:
328,128,41472,1,0,0:0:0:0:
164,224,41629,2,0,P|184:292|232:332,1,105.000004005432
64,268,41943,1,0,0:0:0:0:
272,248,42100,1,0,0:0:0:0:
180,104,42257,1,0,0:0:0:0:
128,312,42414,1,0,0:0:0:0:
464,176,42571,5,0,0:0:0:0:
452,204,42650,1,0,0:0:0:0:
432,228,42728,1,0,0:0:0:0:
340,132,42885,1,0,0:0:0:0:
360,108,42964,1,0,0:0:0:0:
384,88,43042,1,0,0:0:0:0:
220,56,43199,5,0,0:0:0:0:
104,120,43357,1,0,0:0:0:0:
128,140,43435,1,0,0:0:0:0:
160,148,43514,2,0,P|224:180|256:212,1,105.000004005432
472,180,43828,6,0,P|424:132|420:100,1,78.7500030040742
352,148,44142,6,0,P|388:224|432:248,1,105
340,292,44456,6,0,P|280:208|272:120,1,157.500006008148
248,132,44770,1,0,0:0:0:0:
80,168,45084,5,0,0:0:0:0:
400,268,45241,1,0,0:0:0:0:
276,48,45398,1,0,0:0:0:0:
136,300,45555,1,0,0:0:0:0:
432,200,45713,1,0,0:0:0:0:
224,100,45870,1,0,0:0:0:0:
340,328,46027,1,0,0:0:0:0:
368,68,46184,1,0,0:0:0:0:
244,228,46341,5,0,0:0:0:0:
192,88,46498,1,0,0:0:0:0:
28,160,46655,1,0,0:0:0:0:
96,296,46812,1,0,0:0:0:0:
264,262,46969,1,0,0:0:0:0:
191,127,47126,1,0,0:0:0:0:
176,345,47283,1,0,0:0:0:0:
343,180,47440,1,0,0:0:0:0:
105,214,47597,2,0,P|169:184|225:186,1,105.000004005432
312,172,47912,5,0,0:0:0:0:
204,344,48069,1,0,0:0:0:0:
448,328,48226,1,0,0:0:0:0:
360,144,48383,1,0,0:0:0:0:
220,312,48540,1,0,0:0:0:0:
472,360,48697,1,0,0:0:0:0:
312,172,48854,5,0,0:0:0:0:
324,188,48932,1,0,0:0:0:0:
340,200,49011,1,0,0:0:0:0:
360,204,49090,1,0,0:0:0:0:
384,200,49168,1,0,0:0:0:0:
408,184,49247,1,0,0:0:0:0:
420,156,49325,1,0,0:0:0:0:
420,124,49404,1,0,0:0:0:0:
404,92,49482,1,0,0:0:0:0:
376,68,49561,1,0,0:0:0:0:
336,64,49639,2,0,L|280:56,1,52.5000020027161
164,16,49796,1,0,0:0:0:0:
12,176,49953,1,0,0:0:0:0:
24,136,50032,1,0,0:0:0:0:
52,104,50110,2,0,P|136:88|176:104,1,105.000004005432
128,352,50425,5,0,0:0:0:0:
236,272,50582,1,0,0:0:0:0:
368,328,50739,2,0,P|320:368|256:372,1,105.000004005432
236,172,51053,1,0,0:0:0:0:
264,184,51131,1,0,0:0:0:0:
296,188,51210,1,0,0:0:0:0:
328,180,51288,1,0,0:0:0:0:
356,164,51367,2,0,P|424:156|484:176,1,105.000004005432
508,268,51681,5,0,0:0:0:0:
420,76,51838,1,0,0:0:0:0:
320,244,51995,1,0,0:0:0:0:
508,152,52152,1,0,0:0:0:0:
352,4,52309,2,0,P|316:60|324:124,1,105.000004005432
212,148,52624,2,0,P|252:192|316:208,1,105.000004005432
116,92,52938,2,0,P|180:56|228:56,1,105.000004005432
164,196,53252,2,0,P|96:184|44:156,1,105.000004005432
0,292,53566,1,0,0:0:0:0:
28,308,53644,1,0,0:0:0:0:
60,316,53723,1,0,0:0:0:0:
120,68,53880,6,0,P|172:96|212:84,1,78.7500030040742
248,160,54194,6,0,P|156:168|124:156,1,105
96,232,54508,6,0,P|188:256|280:224,1,157.500006008148
280,248,54823,1,0,0:0:0:0:
360,24,55137,5,0,0:0:0:0:
388,36,55215,1,0,0:0:0:0:
416,52,55294,1,0,0:0:0:0:
440,72,55372,1,0,0:0:0:0:
460,96,55451,1,0,0:0:0:0:
476,124,55529,1,0,0:0:0:0:
484,156,55608,1,0,0:0:0:0:
480,188,55686,1,0,0:0:0:0:
460,212,55765,5,0,0:0:0:0:
453,247,55843,1,0,0:0:0:0:
454,284,55922,1,0,0:0:0:0:
443,318,56001,1,0,0:0:0:0:
418,342,56079,1,0,0:0:0:0:
387,356,56158,1,0,0:0:0:0:
349,361,56236,1,0,0:0:0:0:
313,358,56315,1,0,0:0:0:0:
276,336,56393,5,0,0:0:0:0:
300,300,56472,1,0,0:0:0:0:
296,260,56550,1,0,0:0:0:0:
272,224,56629,1,0,0:0:0:0:
240,200,56707,1,0,0:0:0:0:
216,168,56786,1,0,0:0:0:0:
256,156,56864,1,0,0:0:0:0:
292,136,56943,1,0,0:0:0:0:
324,108,57021,5,0,0:0:0:0:
344,120,57100,1,0,0:0:0:0:
364,124,57179,1,0,0:0:0:0:
384,124,57257,1,0,0:0:0:0:
404,120,57336,1,0,0:0:0:0:
420,108,57414,1,0,0:0:0:0:
432,92,57493,1,0,0:0:0:0:
440,72,57571,1,0,0:0:0:0:
452,56,57650,6,0,L|516:108,1,52.5000020027161
480,216,57807,2,0,L|412:172,1,52.5000020027161
348,84,57964,2,0,L|316:140,1,52.5000020027161
304,256,58121,2,0,L|340:212,1,52.5000020027161
168,96,58278,6,0,P|100:116|28:212,1,157.500006008148
24,216,58592,1,0,0:0:0:0:
47,263,58671,1,0,0:0:0:0:
87,296,58749,1,0,0:0:0:0:
137,312,58828,1,0,0:0:0:0:
192,317,58906,6,0,P|244:285|296:285,1,105.000004005432
504,344,59220,2,0,P|436:284|400:272,1,105.000004005432
344,192,59535,2,0,P|393:145|449:134,1,105.000004005432
458,136,59770,1,0,0:0:0:0:
489,131,59849,2,0,P|492:88|444:12,1,105.000004005432
12,56,60163,5,0,0:0:0:0:
276,184,60320,1,0,0:0:0:0:
236,8,60477,1,0,0:0:0:0:
140,268,60634,1,0,0:0:0:0:
8,108,60791,1,0,0:0:0:0:
280,48,60948,1,0,0:0:0:0:
192,276,61105,2,0,P|224:332|280:352,1,105.000004005432
332,244,61419,2,0,B|372:272|380:308|380:308|412:360|492:368|500:316|500:316|464:244|488:188|488:188|440:100|504:64|440:24,1,525.000020027161
364,48,62362,5,0,0:0:0:0:
196,104,62519,1,0,0:0:0:0:
272,144,62676,2,0,P|208:212|176:212,1,105.000004005432
368,292,62990,1,0,0:0:0:0:
348,208,63147,2,0,P|304:248|296:312,1,105.000004005432
132,260,63461,1,0,0:0:0:0:
216,348,63618,1,0,0:0:0:0:
196,136,63775,1,0,0:0:0:0:
16,228,63932,2,0,B|0:168|32:128|32:128|0:36|116:20|116:20|168:16|192:56,1,315.000012016297
440,28,64561,5,0,0:0:0:0:
444,60,64639,1,0,0:0:0:0:
444,92,64718,1,0,0:0:0:0:
440,124,64796,1,0,0:0:0:0:
432,156,64875,2,0,P|408:228|428:296,1,105.000004005432
296,364,65189,5,0,0:0:0:0:
276,340,65268,1,0,0:0:0:0:
252,320,65346,1,0,0:0:0:0:
100,304,65503,1,0,0:0:0:0:
116,276,65582,1,0,0:0:0:0:
136,252,65660,1,0,0:0:0:0:
192,132,65817,1,0,0:0:0:0:
164,120,65896,1,0,0:0:0:0:
132,120,65974,1,0,0:0:0:0:
100,128,66053,1,0,0:0:0:0:
72,144,66131,2,0,P|8:196|16:288,1,157.500006008148
48,340,66446,2,0,P|144:368|416:276,1,385
456,216,67388,6,0,L|380:184,1,52.5000020027161
308,112,67545,2,0,L|388:120,1,52.5000020027161
484,112,67702,2,0,P|456:52|392:32,1,105.000004005432
348,200,68016,1,0,0:0:0:0:
284,24,68173,1,0,0:0:0:0:
204,128,68330,2,0,P|296:128|340:96,1,105.000004005432
120,48,68644,2,0,P|76:112|80:160,1,105.000004005432
292,8,68959,5,0,0:0:0:0:
320,40,69037,1,0,0:0:0:0:
356,64,69116,1,0,0:0:0:0:
392,88,69194,1,0,0:0:0:0:
412,124,69273,1,0,0:0:0:0:
424,164,69351,1,0,0:0:0:0:
416,204,69430,1,0,0:0:0:0:
392,236,69508,1,0,0:0:0:0:
356,260,69587,1,0,0:0:0:0:
316,260,69665,1,0,0:0:0:0:
276,244,69744,6,0,L|224:172,1,52.5000020027161
112,108,69901,1,0,0:0:0:0:
260,16,70058,1,0,0:0:0:0:
232,204,70215,1,0,0:0:0:0:
200,212,70294,1,0,0:0:0:0:
172,228,70372,1,0,0:0:0:0:
148,248,70451,1,0,0:0:0:0:
128,272,70529,2,0,P|52:308|-4:288,1,105.000004005432
304,360,70843,5,0,0:0:0:0:
332,344,70922,1,0,0:0:0:0:
364,336,71001,1,0,0:0:0:0:
392,320,71079,1,0,0:0:0:0:
416,300,71158,2,0,P|476:232|480:176,1,105.000004005432
312,172,71472,5,0,0:0:0:0:
400,8,71629,1,0,0:0:0:0:
508,112,71786,1,0,0:0:0:0:
304,48,71943,1,0,0:0:0:0:
472,216,72100,2,0,P|392:232|360:220,1,105.000004005432
152,356,72414,5,0,0:0:0:0:
196,172,72571,1,0,0:0:0:0:
232,260,72728,1,0,0:0:0:0:
12,204,72885,1,0,0:0:0:0:
80,372,73042,1,0,0:0:0:0:
152,112,73199,1,0,0:0:0:0:
280,268,73357,1,0,0:0:0:0:
104,320,73514,1,0,0:0:0:0:
16,176,73671,5,0,0:0:0:0:
40,156,73749,1,0,0:0:0:0:
56,128,73828,1,0,0:0:0:0:
72,100,73906,1,0,0:0:0:0:
92,76,73985,2,0,P|156:44|224:32,1,105.000004005432
164,160,74299,2,0,P|240:120|276:84,1,105.000004005432
392,8,74613,5,0,0:0:0:0:
328,200,74770,1,0,0:0:0:0:
496,120,74927,1,0,0:0:0:0:
320,48,75084,1,0,0:0:0:0:
440,216,75241,1,0,0:0:0:0:
448,248,75320,1,0,0:0:0:0:
460,276,75398,1,0,0:0:0:0:
460,308,75477,1,0,0:0:0:0:
452,336,75555,2,0,P|396:360|340:348,1,105.000004005432
180,316,75870,5,0,0:0:0:0:
204,296,75948,1,0,0:0:0:0:
232,284,76027,1,0,0:0:0:0:
264,276,76105,1,0,0:0:0:0:
292,264,76184,2,0,P|352:216|364:184,1,105.000004005432
216,140,76498,5,0,0:0:0:0:
116,8,76655,1,0,0:0:0:0:
104,180,76812,1,0,0:0:0:0:
4,80,76969,1,0,0:0:0:0:
232,16,77126,2,0,P|288:32|328:80,1,105.000004005432
240,148,77440,5,0,0:0:0:0:
356,200,77597,1,0,0:0:0:0:
440,92,77754,1,0,0:0:0:0:
488,264,77912,1,0,0:0:0:0:
356,304,78069,2,0,P|300:276|284:228,1,105.000004005432
488,192,78383,5,0,0:0:0:0:
356,304,78540,1,0,0:0:0:0:
356,164,78697,2,0,P|408:112|472:96,1,105.000004005432
240,120,79011,2,0,L|280:56,2,52.5000020027161
88,168,79325,1,0,0:0:0:0:
228,240,79482,1,0,0:0:0:0:
12,296,79639,1,0,0:0:0:0:
144,364,79796,1,0,0:0:0:0:
304,316,79953,2,0,P|324:256|316:208,1,105.000004005432
488,100,80268,5,0,0:0:0:0:
384,124,80425,1,0,0:0:0:0:
284,108,80582,1,0,0:0:0:0:
180,136,80739,1,0,0:0:0:0:
116,216,80896,5,0,0:0:0:0:
180,136,81053,1,0,0:0:0:0:
272,76,81210,1,0,0:0:0:0:
376,44,81367,1,0,0:0:0:0:
420,292,81524,5,0,0:0:0:0:
344,200,81681,1,0,0:0:0:0:
296,296,81838,2,0,P|256:248|240:192,1,105.000004005432
88,24,82152,5,0,0:0:0:0:
152,108,82309,1,0,0:0:0:0:
240,36,82466,2,0,P|260:96|248:160,1,105.000004005432
8,248,82781,5,0,0:0:0:0:
64,340,82938,1,0,0:0:0:0:
80,176,83095,1,0,0:0:0:0:
160,372,83252,1,0,0:0:0:0:
8,248,83409,1,0,0:0:0:0:
196,296,83566,1,0,0:0:0:0:
152,208,83723,2,0,P|236:192|276:208,1,105.000004005432
320,284,84037,1,0,0:0:0:0:
268,112,84194,1,0,0:0:0:0:
388,176,84351,5,0,0:0:0:0:
404,148,84430,1,0,0:0:0:0:
408,116,84508,1,0,0:0:0:0:
400,84,84587,1,0,0:0:0:0:
384,56,84665,2,0,P|336:24|248:24,1,105.000004005432
212,136,84980,5,0,0:0:0:0:
152,24,85137,1,0,0:0:0:0:
12,64,85294,2,0,P|44:124|24:192,1,105.000004005432
168,224,85608,1,0,0:0:0:0:
12,304,85765,1,0,0:0:0:0:
104,376,85922,1,0,0:0:0:0:
68,176,86079,1,0,0:0:0:0:
252,236,86236,2,0,P|240:180|200:144,1,105.000004005432
104,280,86550,5,0,0:0:0:0:
240,340,86707,1,0,0:0:0:0:
380,296,86864,2,0,P|436:280|488:224,1,105.000004005432
288,116,87179,5,0,0:0:0:0:
392,28,87336,1,0,0:0:0:0:
496,100,87493,2,0,P|452:148|376:164,1,105.000004005432
296,16,87807,1,0,0:0:0:0:
256,192,87885,12,4,89377,0:0:0:0:
24,268,89692,6,0,P|56:324|120:336,1,105.000004005432
180,256,90006,2,0,P|224:296|240:352,1,105.000004005432
152,148,90320,1,0,0:0:0:0:
4,184,90477,1,0,0:0:0:0:
28,44,90634,2,0,P|104:36|164:0,1,105.000004005432
304,184,90948,5,0,0:0:0:0:
152,148,91105,1,0,0:0:0:0:
224,20,91262,2,0,P|304:36|336:60,1,105.000004005432
152,148,91576,5,0,0:0:0:0:
272,176,91733,1,0,0:0:0:0:
368,244,91891,1,0,0:0:0:0:
456,172,92048,1,0,0:0:0:0:
444,60,92205,1,0,0:0:0:0:
320,12,92362,1,0,0:0:0:0:
352,140,92519,2,0,P|272:108|248:64,1,105.000004005432
208,224,92833,5,0,0:0:0:0:
60,200,92990,1,0,0:0:0:0:
72,332,93147,2,0,P|136:324|172:296,1,105.000004005432
100,112,93461,5,0,0:0:0:0:
240,144,93618,1,0,0:0:0:0:
296,32,93775,2,0,P|232:12|184:16,1,105.000004005432
196,260,94090,5,0,0:0:0:0:
296,32,94247,1,0,0:0:0:0:
424,224,94404,1,0,0:0:0:0:
184,104,94561,1,0,0:0:0:0:
428,88,94718,1,0,0:0:0:0:
316,272,94875,1,0,0:0:0:0:
264,36,95032,2,0,P|328:16|400:24,1,105.000004005432
496,200,95346,5,0,0:0:0:0:
436,272,95503,2,0,P|412:208|416:152,1,105.000004005432
260,144,95817,1,0,0:0:0:0:
344,124,95974,2,0,P|332:184|300:228,1,105.000004005432
232,352,96288,5,0,0:0:0:0:
184,212,96446,1,0,0:0:0:0:
96,336,96603,1,0,0:0:0:0:
256,324,96760,1,0,0:0:0:0:
176,184,96917,1,0,0:0:0:0:
76,332,97074,1,0,0:0:0:0:
12,192,97231,6,0,P|40:140|80:112,1,105.000004005432
136,20,97545,2,0,P|184:64|196:120,1,105.000004005432
288,184,97859,1,0,0:0:0:0:
316,172,97938,1,0,0:0:0:0:
348,168,98016,1,0,0:0:0:0:
380,176,98095,1,0,0:0:0:0:
404,196,98173,1,0,0:0:0:0:
420,224,98252,1,0,0:0:0:0:
424,256,98330,1,0,0:0:0:0:
416,288,98409,1,0,0:0:0:0:
396,312,98487,1,0,0:0:0:0:
364,320,98566,1,0,0:0:0:0:
328,308,98644,1,0,0:0:0:0:
316,272,98723,1,0,0:0:0:0:
288,248,98802,6,0,L|204:216,1,52.5000020027161
116,228,98959,1,0,0:0:0:0:
184,68,99116,1,0,0:0:0:0:
312,168,99273,1,0,0:0:0:0:
56,144,99430,5,0,0:0:0:0:
36,180,99508,1,0,0:0:0:0:
28,220,99587,1,0,0:0:0:0:
32,260,99665,1,0,0:0:0:0:
60,292,99744,5,0,0:0:0:0:
88,276,99823,1,0,0:0:0:0:
116,264,99901,1,0,0:0:0:0:
148,260,99980,1,0,0:0:0:0:
180,260,100058,2,0,P|248:272|276:304,1,105.000004005432
96,96,100372,5,0,0:0:0:0:
116,132,100451,1,0,0:0:0:0:
148,160,100529,1,0,0:0:0:0:
188,172,100608,1,0,0:0:0:0:
228,168,100686,1,0,0:0:0:0:
268,156,100765,1,0,0:0:0:0:
300,128,100843,1,0,0:0:0:0:
320,92,100922,1,0,0:0:0:0:
316,48,101001,1,0,0:0:0:0:
288,16,101079,1,0,0:0:0:0:
248,4,101158,1,0,0:0:0:0:
212,24,101236,1,0,0:0:0:0:
188,60,101315,1,0,0:0:0:0:
192,100,101393,1,0,0:0:0:0:
216,132,101472,1,0,0:0:0:0:
252,152,101550,1,0,0:0:0:0:
280,184,101629,5,0,0:0:0:0:
280,198,101707,1,0,0:0:0:0:
279,213,101786,1,0,0:0:0:0:
276,228,101864,1,0,0:0:0:0:
272,243,101943,1,0,0:0:0:0:
267,257,102021,1,0,0:0:0:0:
260,270,102100,1,0,0:0:0:0:
253,283,102179,1,0,0:0:0:0:
280,316,102257,5,0,0:0:0:0:
304,344,102336,1,0,0:0:0:0:
340,364,102414,1,0,0:0:0:0:
388,368,102493,1,0,0:0:0:0:
432,352,102571,1,0,0:0:0:0:
460,312,102650,1,0,0:0:0:0:
456,264,102728,1,0,0:0:0:0:
416,236,102807,1,0,0:0:0:0:
368,244,102885,5,0,0:0:0:0:
324,224,102964,1,0,0:0:0:0:
304,180,103042,1,0,0:0:0:0:
328,136,103121,1,0,0:0:0:0:
372,120,103199,1,0,0:0:0:0:
420,148,103278,1,0,0:0:0:0:
440,204,103357,1,0,0:0:0:0:
404,248,103435,1,0,0:0:0:0:
348,244,103514,5,0,0:0:0:0:
300,216,103592,1,0,0:0:0:0:
260,172,103671,1,0,0:0:0:0:
212,140,103749,1,0,0:0:0:0:
156,124,103828,5,0,0:0:0:0:
120,136,103906,1,0,0:0:0:0:
100,168,103985,1,0,0:0:0:0:
100,204,104063,1,0,0:0:0:0:
124,232,104142,1,0,0:0:0:0:
132,268,104220,1,0,0:0:0:0:
120,304,104299,1,0,0:0:0:0:
336,360,104456,6,0,P|420:268|460:248,1,157.500006008148
432,80,104770,2,0,P|320:88|264:64,1,157.500006008148
240,296,105084,2,0,P|232:204|188:148,1,157.500006008148
160,144,105398,5,0,0:0:0:0:
124,168,105477,1,0,0:0:0:0:
104,204,105555,1,0,0:0:0:0:
100,248,105634,1,0,0:0:0:0:
112,288,105713,1,0,0:0:0:0:
144,312,105791,1,0,0:0:0:0:
188,316,105870,1,0,0:0:0:0:
224,292,105948,1,0,0:0:0:0:
264,284,106027,5,0,0:0:0:0:
264,284,106105,1,0,0:0:0:0:
264,284,106184,1,0,0:0:0:0:
264,284,106262,1,0,0:0:0:0:
272,288,106341,5,0,0:0:0:0:
296,296,106419,1,0,0:0:0:0:
324,292,106498,1,0,0:0:0:0:
344,276,106576,1,0,0:0:0:0:
356,252,106655,1,0,0:0:0:0:
352,228,106733,1,0,0:0:0:0:
336,208,106812,1,0,0:0:0:0:
312,196,106891,1,0,0:0:0:0:
288,192,106969,5,0,0:0:0:0:
237,201,107048,1,0,0:0:0:0:
189,224,107126,1,0,0:0:0:0:
138,219,107205,1,0,0:0:0:0:
108,179,107283,1,0,0:0:0:0:
117,129,107362,1,0,0:0:0:0:
161,101,107440,1,0,0:0:0:0:
212,106,107519,1,0,0:0:0:0:
252,138,107597,5,0,0:0:0:0:
284,176,107676,1,0,0:0:0:0:
324,160,107754,1,0,0:0:0:0:
352,128,107833,1,0,0:0:0:0:
360,88,107912,1,0,0:0:0:0:
348,48,107990,1,0,0:0:0:0:
316,24,108069,1,0,0:0:0:0:
276,20,108147,1,0,0:0:0:0:
256,44,108226,5,0,0:0:0:0:
288,72,108304,1,0,0:0:0:0:
288,120,108383,1,0,0:0:0:0:
248,152,108461,1,0,0:0:0:0:
192,136,108540,1,0,0:0:0:0:
188,72,108618,1,0,0:0:0:0:
132,32,108697,1,0,0:0:0:0:
68,56,108775,1,0,0:0:0:0:
52,124,108854,5,0,0:0:0:0:
104,176,108932,1,0,0:0:0:0:
176,196,109011,1,0,0:0:0:0:
220,256,109090,1,0,0:0:0:0:
200,328,109168,1,0,0:0:0:0:
132,356,109247,1,0,0:0:0:0:
68,320,109325,1,0,0:0:0:0:
84,248,109404,1,0,0:0:0:0:
144,208,109482,6,0,P|224:156|248:64,1,157.500006008148
300,348,109796,2,0,P|392:236|432:208,1,157.500006008148
344,56,110110,1,0,0:0:0:0:
236,160,110425,5,0,0:0:0:0:
200,168,110503,1,0,0:0:0:0:
168,188,110582,1,0,0:0:0:0:
148,216,110660,1,0,0:0:0:0:
112,228,110739,1,0,0:0:0:0:
76,216,110817,1,0,0:0:0:0:
64,180,110896,1,0,0:0:0:0:
40,152,110974,1,0,0:0:0:0:
16,124,111053,5,0,0:0:0:0:
64,120,111131,1,0,0:0:0:0:
104,92,111210,1,0,0:0:0:0:
152,88,111288,1,0,0:0:0:0:
196,104,111367,5,0,0:0:0:0:
211,79,111446,1,0,0:0:0:0:
231,59,111524,1,0,0:0:0:0:
254,42,111603,1,0,0:0:0:0:
280,30,111681,1,0,0:0:0:0:
308,23,111760,1,0,0:0:0:0:
336,21,111838,1,0,0:0:0:0:
364,25,111917,1,0,0:0:0:0:
392,33,111995,5,0,0:0:0:0:
417,47,112074,1,0,0:0:0:0:
439,65,112152,1,0,0:0:0:0:
457,87,112231,1,0,0:0:0:0:
476,120,112309,5,0,0:0:0:0:
464,132,112388,1,0,0:0:0:0:
456,144,112466,1,0,0:0:0:0:
452,160,112545,1,0,0:0:0:0:
452,176,112624,1,0,0:0:0:0:
456,192,112702,1,0,0:0:0:0:
464,208,112781,1,0,0:0:0:0:
472,220,112859,1,0,0:0:0:0:
476,240,112938,5,0,0:0:0:0:
464,256,113016,1,0,0:0:0:0:
444,272,113095,1,0,0:0:0:0:
420,280,113173,1,0,0:0:0:0:
388,280,113252,1,0,0:0:0:0:
356,264,113330,1,0,0:0:0:0:
344,224,113409,1,0,0:0:0:0:
360,184,113487,1,0,0:0:0:0:
388,152,113566,5,0,0:0:0:0:
400,108,113644,1,0,0:0:0:0:
376,60,113723,1,0,0:0:0:0:
324,48,113802,1,0,0:0:0:0:
276,72,113880,1,0,0:0:0:0:
264,124,113959,1,0,0:0:0:0:
240,172,114037,1,0,0:0:0:0:
188,188,114116,1,0,0:0:0:0:
144,160,114194,5,0,0:0:0:0:
152,108,114273,1,0,0:0:0:0:
200,84,114351,1,0,0:0:0:0:
244,112,114430,1,0,0:0:0:0:
260,160,114508,6,0,P|280:200|288:240,1,78.7500030040742
216,268,114823,2,0,P|204:220|176:168,1,105
104,180,115137,2,0,P|128:232|148:336,1,157.500006008148
188,328,115451,5,0,0:0:0:0:
360,376,115660,1,0,0:0:0:0:
272,328,115870,2,0,P|292:264|216:184,1,140.000005340576
488,292,116288,1,0,0:0:0:0:
500,208,116498,2,0,P|440:216|400:296,1,140.000005340576
376,164,116917,5,0,0:0:0:0:
484,112,117126,1,0,0:0:0:0:
400,16,117336,1,0,0:0:0:0:
440,192,117545,1,0,0:0:0:0:
288,76,117754,1,0,0:0:0:0:
496,64,117964,6,0,P|512:140|488:208,1,140.000005340576
328,88,118383,1,0,0:0:0:0:
292,280,118592,1,0,0:0:0:0:
120,136,118802,1,0,0:0:0:0:
344,128,119011,1,0,0:0:0:0:
308,340,119220,2,0,P|220:360|152:340,1,140.000005340576
12,268,119639,1,0,0:0:0:0:
164,208,119849,2,0,P|104:164|28:160,1,140.000005340576
120,28,120268,1,0,0:0:0:0:
240,356,128016,6,0,P|168:300|128:300,1,122.5
96,304,128644,1,0,0:0:0:0:
340,144,128959,2,0,P|424:180|460:164,1,122.5
472,136,129587,1,0,0:0:0:0:
376,292,129901,2,0,P|336:216|304:204,1,122.5
272,220,130529,1,0,0:0:0:0:
128,356,130843,5,0,0:0:0:0:
176,56,131158,1,0,0:0:0:0:
484,168,131472,1,0,0:0:0:0:
336,260,131786,6,0,P|404:292|456:276,1,122.5
468,244,132414,1,0,0:0:0:0:
320,40,132728,2,0,P|240:24|196:40,1,122.5
176,56,133357,1,0,0:0:0:0:
296,312,133671,2,0,P|288:232|196:288,1,210
184,292,134220,1,0,0:0:0:0:
160,304,134299,6,0,L|68:284,1,70
72,144,134613,1,0,0:0:0:0:
304,364,134927,1,0,0:0:0:0:
412,96,135241,1,0,0:0:0:0:
208,172,135555,6,0,P|128:112|120:84,1,122.5
132,52,136184,1,0,0:0:0:0:
332,192,136498,2,0,L|452:240,1,122.5
468,268,137126,1,0,0:0:0:0:
240,332,137440,2,0,P|216:288|268:240,1,122.5
292,268,138069,1,0,0:0:0:0:
160,72,138383,5,0,0:0:0:0:
388,176,138697,1,0,0:0:0:0:
224,360,139011,1,0,0:0:0:0:
244,176,139325,6,0,P|212:232|148:264,1,122.5
136,256,139953,1,0,0:0:0:0:
132,12,140268,2,0,P|204:56|256:60,1,122.5
264,44,140896,1,0,0:0:0:0:
496,200,141210,2,0,P|432:232|420:280,1,122.5
408,296,141838,1,0,0:0:0:0:
172,284,142152,5,0,0:0:0:0:
244,20,142466,1,0,0:0:0:0:
400,232,142781,1,0,0:0:0:0:
236,180,143095,2,0,P|312:148|360:156,1,122.5
372,168,143723,1,0,0:0:0:0:
228,12,144037,2,0,P|180:24|100:16,1,122.5
80,12,144665,1,0,0:0:0:0:
24,240,144980,2,0,P|28:160|64:128,1,122.5
84,128,145608,1,0,0:0:0:0:
248,292,145922,5,0,0:0:0:0:
328,280,146079,2,0,P|304:232|276:216,1,87.5
248,212,146550,1,0,0:0:0:0:
424,120,146864,2,0,P|452:180|488:224,1,122.5
504,248,147493,1,0,0:0:0:0:
256,156,147807,2,0,P|284:88|268:32,1,122.5
256,24,148435,1,0,0:0:0:0:
152,196,148749,2,0,P|236:228|276:224,1,122.5
292,216,149377,1,0,0:0:0:0:
376,92,149535,1,0,0:0:0:0:
504,152,149692,6,0,P|476:200|472:248,1,105
480,276,150006,1,0,0:0:0:0:
308,376,150320,1,0,0:0:0:0:
216,248,150634,2,0,P|288:248|328:272,1,105
340,280,150948,1,0,0:0:0:0:
288,92,151262,1,0,0:0:0:0:
164,184,151576,2,0,P|136:108|152:64,1,105
156,64,151891,1,0,0:0:0:0:
0,180,152205,1,0,0:0:0:0:
172,224,152519,6,0,P|128:256|116:328,1,105
116,332,152833,1,0,0:0:0:0:
444,324,153147,2,0,P|388:264|392:216,1,105
440,188,153461,2,0,P|400:172|328:196,1,105
320,204,153775,1,0,0:0:0:0:
240,56,154090,1,0,0:0:0:0:
100,188,154404,1,0,0:0:0:0:
256,192,154482,12,0,158095,0:0:0:0:
492,92,158173,5,0,0:0:0:0:
452,104,158252,1,0,0:0:0:0:
420,132,158330,1,0,0:0:0:0:
400,172,158409,1,0,0:0:0:0:
368,196,158487,1,0,0:0:0:0:
328,208,158566,1,0,0:0:0:0:
288,204,158644,1,0,0:0:0:0:
248,188,158723,1,0,0:0:0:0:
212,156,158802,5,0,0:0:0:0:
184,192,158880,1,0,0:0:0:0:
176,240,158959,1,0,0:0:0:0:
196,284,159037,1,0,0:0:0:0:
236,308,159116,1,0,0:0:0:0:
284,304,159194,1,0,0:0:0:0:
320,272,159273,1,0,0:0:0:0:
332,228,159351,1,0,0:0:0:0:
316,184,159430,5,0,0:0:0:0:
272,168,159508,1,0,0:0:0:0:
228,188,159587,1,0,0:0:0:0:
180,188,159665,1,0,0:0:0:0:
140,164,159744,1,0,0:0:0:0:
136,116,159823,1,0,0:0:0:0:
164,76,159901,1,0,0:0:0:0:
212,68,159980,1,0,0:0:0:0:
252,88,160058,5,0,0:0:0:0:
296,100,160137,1,0,0:0:0:0:
344,96,160215,1,0,0:0:0:0:
388,80,160294,1,0,0:0:0:0:
436,84,160372,1,0,0:0:0:0:
468,116,160451,1,0,0:0:0:0:
464,164,160529,1,0,0:0:0:0:
428,192,160608,1,0,0:0:0:0:
384,180,160686,5,0,0:0:0:0:
340,168,160765,1,0,0:0:0:0:
296,184,160843,1,0,0:0:0:0:
264,220,160922,1,0,0:0:0:0:
216,228,161001,1,0,0:0:0:0:
172,216,161079,1,0,0:0:0:0:
132,240,161158,1,0,0:0:0:0:
112,284,161236,1,0,0:0:0:0:
140,324,161315,5,0,0:0:0:0:
140,324,161393,1,0,0:0:0:0:
140,324,161472,2,0,L|208:368,1,52.5000020027161
308,368,161629,5,0,0:0:0:0:
308,368,161707,1,0,0:0:0:0:
308,368,161786,2,0,L|240:316,1,52.5000020027161
368,268,161943,5,0,0:0:0:0:
408,292,162021,1,0,0:0:0:0:
456,296,162100,1,0,0:0:0:0:
488,260,162179,1,0,0:0:0:0:
500,216,162257,1,0,0:0:0:0:
500,168,162336,1,0,0:0:0:0:
472,132,162414,1,0,0:0:0:0:
428,112,162493,1,0,0:0:0:0:
384,124,162571,5,0,0:0:0:0:
380,144,162650,1,0,0:0:0:0:
368,160,162728,1,0,0:0:0:0:
348,172,162807,1,0,0:0:0:0:
328,176,162885,1,0,0:0:0:0:
308,172,162964,1,0,0:0:0:0:
292,160,163042,2,0,L|216:200,1,52.5000020027161
108,340,163199,5,0,0:0:0:0:
120,316,163278,1,0,0:0:0:0:
136,296,163357,2,0,L|204:276,1,52.5000020027161
332,324,163514,1,0,0:0:0:0:
140,144,163828,2,0,P|184:104|284:104,1,157.500006008148
296,120,164142,1,0,0:0:0:0:
412,256,164299,1,0,0:0:0:0:
512,116,164456,2,0,P|444:68|376:48,1,105.000004005432
336,200,164770,1,0,0:0:0:0:
64,24,165084,5,0,0:0:0:0:
84,40,165163,1,0,0:0:0:0:
96,64,165241,1,0,0:0:0:0:
100,88,165320,1,0,0:0:0:0:
96,112,165398,2,0,P|72:184|76:220,1,105.000004005432
180,332,165713,1,0,0:0:0:0:
496,280,166027,6,0,P|412:296|372:272,1,105.000004005432
256,168,166341,1,0,0:0:0:0:
484,128,166498,1,0,0:0:0:0:
224,128,166655,1,0,0:0:0:0:
496,80,166812,1,0,0:0:0:0:
160,56,166969,1,0,0:0:0:0:
176,76,167048,1,0,0:0:0:0:
196,96,167126,1,0,0:0:0:0:
220,108,167205,1,0,0:0:0:0:
244,112,167283,2,0,P|304:100|360:116,1,105.000004005432
432,184,167597,1,0,0:0:0:0:
144,356,167912,5,0,0:0:0:0:
244,228,168069,1,0,0:0:0:0:
356,312,168226,2,0,P|296:328|220:324,1,105.000004005432
112,228,168540,1,0,0:0:0:0:
360,312,168854,5,0,0:0:0:0:
384,292,168932,1,0,0:0:0:0:
400,264,169011,1,0,0:0:0:0:
412,232,169090,1,0,0:0:0:0:
416,204,169168,2,0,P|400:132|360:96,1,105.000004005432
276,200,169482,1,0,0:0:0:0:
100,20,169796,5,0,0:0:0:0:
12,212,169953,1,0,0:0:0:0:
228,144,170110,1,0,0:0:0:0:
0,64,170268,1,0,0:0:0:0:
136,280,170425,1,0,0:0:0:0:
224,24,170582,1,0,0:0:0:0:
344,168,170739,5,0,0:0:0:0:
500,100,170896,1,0,0:0:0:0:
392,0,171053,2,0,P|308:52|300:88,1,105.000004005432
480,192,171367,2,0,P|408:156|348:160,1,105.000004005432
224,24,171681,1,0,0:0:0:0:
120,156,171838,1,0,0:0:0:0:
296,204,171995,2,0,P|316:108|288:64,1,105.000004005432
176,240,172309,2,0,P|104:216|72:172,1,105.000004005432
272,360,172624,5,0,0:0:0:0:
360,224,172781,1,0,0:0:0:0:
500,304,172938,2,0,P|440:336|384:332,1,105.000004005432
360,224,173252,2,0,P|424:208|468:172,1,105.000004005432
164,168,173566,5,0,0:0:0:0:
312,104,173723,1,0,0:0:0:0:
120,160,173880,1,0,0:0:0:0:
236,4,174037,1,0,0:0:0:0:
320,208,174194,1,0,0:0:0:0:
120,52,174351,1,0,0:0:0:0:
384,88,174508,2,0,P|448:128|476:176,1,105.000004005432
312,376,174823,5,0,0:0:0:0:
252,220,174980,1,0,0:0:0:0:
308,288,175137,2,0,P|248:308|192:288,1,105.000004005432
508,208,175451,1,0,0:0:0:0:
348,144,175608,1,0,0:0:0:0:
416,204,175765,2,0,P|432:152|420:72,1,105.000004005432
228,252,176079,5,0,0:0:0:0:
4,136,176236,1,0,0:0:0:0:
240,184,176393,1,0,0:0:0:0:
0,196,176550,1,0,0:0:0:0:
248,116,176707,1,0,0:0:0:0:
16,256,176864,1,0,0:0:0:0:
116,360,177021,2,0,P|200:372|252:344,1,105.000004005432
376,360,177336,5,0,0:0:0:0:
368,352,177414,1,0,0:0:0:0:
360,344,177493,1,0,0:0:0:0:
352,336,177571,1,0,0:0:0:0:
344,324,177650,1,0,0:0:0:0:
336,304,177728,1,0,0:0:0:0:
332,280,177807,1,0,0:0:0:0:
340,248,177885,1,0,0:0:0:0:
364,228,177964,1,0,0:0:0:0:
396,228,178042,1,0,0:0:0:0:
428,220,178121,2,0,L|488:184,1,52.5000020027161
488,64,178278,5,0,0:0:0:0:
344,8,178435,1,0,0:0:0:0:
500,188,178592,1,0,0:0:0:0:
452,4,178749,1,0,0:0:0:0:
264,100,178906,1,0,0:0:0:0:
400,88,179063,1,0,0:0:0:0:
200,8,179220,2,0,P|152:64|160:104,1,105.000004005432
256,196,179535,5,0,0:0:0:0:
84,76,179692,1,0,0:0:0:0:
176,224,179849,1,0,0:0:0:0:
132,16,180006,1,0,0:0:0:0:
4,156,180163,1,0,0:0:0:0:
212,120,180320,1,0,0:0:0:0:
156,312,180477,2,0,P|68:280|48:236,1,105.000004005432
132,112,180791,5,0,0:0:0:0:
160,312,180948,1,0,0:0:0:0:
248,232,181105,1,0,0:0:0:0:
48,144,181262,1,0,0:0:0:0:
200,8,181419,1,0,0:0:0:0:
240,164,181576,1,0,0:0:0:0:
372,12,181733,2,0,P|376:80|344:120,1,105.000004005432
496,180,182048,5,0,0:0:0:0:
352,112,182205,1,0,0:0:0:0:
448,12,182362,1,0,0:0:0:0:
404,212,182519,1,0,0:0:0:0:
512,96,182676,1,0,0:0:0:0:
320,16,182833,1,0,0:0:0:0:
284,184,182990,2,0,P|360:152|416:152,1,105.000004005432
308,336,183304,5,0,0:0:0:0:
184,176,183461,1,0,0:0:0:0:
140,360,183618,1,0,0:0:0:0:
292,240,183775,1,0,0:0:0:0:
104,264,183932,2,0,P|96:200|140:108,1,157.500006008148
160,100,184247,1,0,0:0:0:0:
504,232,184561,5,0,0:0:0:0:
368,376,184718,1,0,0:0:0:0:
276,156,184875,1,0,0:0:0:0:
432,304,185032,1,0,0:0:0:0:
412,184,185189,2,0,P|352:224|288:312,1,157.500006008148
276,312,185503,1,0,0:0:0:0:
136,260,185817,5,0,0:0:0:0:
184,88,185974,1,0,0:0:0:0:
352,264,186131,1,0,0:0:0:0:
316,88,186288,1,0,0:0:0:0:
168,292,186446,1,0,0:0:0:0:
216,72,186603,1,0,0:0:0:0:
384,264,186760,1,0,0:0:0:0:
344,68,186917,1,0,0:0:0:0:
256,192,187074,5,0,0:0:0:0:
216,184,187152,1,0,0:0:0:0:
180,164,187231,1,0,0:0:0:0:
136,20,187388,1,0,0:0:0:0:
4,132,187545,1,0,0:0:0:0:
192,124,187702,2,0,P|256:120|300:144,1,105.000004005432
128,216,188016,2,0,P|64:236|12:224,1,105.000004005432
224,312,188330,5,0,0:0:0:0:
236,296,188409,1,0,0:0:0:0:
252,284,188487,1,0,0:0:0:0:
432,320,188644,1,0,0:0:0:0:
420,300,188723,1,0,0:0:0:0:
416,280,188802,2,0,P|432:208|480:176,1,105.000004005432
372,16,189273,5,0,0:0:0:0:
280,212,189430,1,0,0:0:0:0:
420,100,189587,1,0,0:0:0:0:
192,152,189744,1,0,0:0:0:0:
248,16,189901,2,0,P|176:8|100:44,1,157.500006008148
4,120,190215,5,0,0:0:0:0:
12,124,190294,1,0,0:0:0:0:
20,128,190372,1,0,0:0:0:0:
28,132,190451,1,0,0:0:0:0:
40,144,190529,1,0,0:0:0:0:
52,160,190608,1,0,0:0:0:0:
64,184,190686,2,0,L|124:216,1,52.5000020027161
244,116,190843,5,0,0:0:0:0:
252,136,190922,1,0,0:0:0:0:
256,156,191001,1,0,0:0:0:0:
360,252,191158,1,0,0:0:0:0:
224,276,191315,1,0,0:0:0:0:
208,288,191393,1,0,0:0:0:0:
188,296,191472,2,0,P|100:292|68:260,1,105.000004005432
12,176,191786,5,0,0:0:0:0:
108,16,191943,1,0,0:0:0:0:
200,144,192100,2,0,P|136:112|64:116,1,105.000004005432
264,48,192414,1,0,0:0:0:0:
320,220,192571,1,0,0:0:0:0:
468,128,192728,5,0,0:0:0:0:
460,152,192807,1,0,0:0:0:0:
456,176,192885,1,0,0:0:0:0:
452,204,192964,1,0,0:0:0:0:
444,228,193042,1,0,0:0:0:0:
428,252,193121,1,0,0:0:0:0:
408,268,193199,2,0,P|340:280|332:280,1,52.5000020027161
260,188,193357,5,0,0:0:0:0:
396,108,193514,1,0,0:0:0:0:
272,4,193671,1,0,0:0:0:0:
280,184,193828,1,0,0:0:0:0:
428,68,193985,1,0,0:0:0:0:
256,8,194142,1,0,0:0:0:0:
372,136,194299,2,0,P|384:200|360:244,1,105.000004005432
248,360,194613,5,0,0:0:0:0:
172,188,194770,1,0,0:0:0:0:
80,344,194927,1,0,0:0:0:0:
272,336,195084,1,0,0:0:0:0:
192,168,195241,1,0,0:0:0:0:
112,360,195398,1,0,0:0:0:0:
264,244,195555,2,0,P|196:264|136:248,1,105.000004005432
56,188,195870,5,0,0:0:0:0:
80,200,195948,1,0,0:0:0:0:
108,200,196027,1,0,0:0:0:0:
132,196,196105,1,0,0:0:0:0:
156,184,196184,1,0,0:0:0:0:
180,172,196262,1,0,0:0:0:0:
204,164,196341,1,0,0:0:0:0:
232,164,196419,1,0,0:0:0:0:
258,178,196498,5,0,0:0:0:0:
282,182,196576,1,0,0:0:0:0:
314,174,196655,1,0,0:0:0:0:
346,170,196733,1,0,0:0:0:0:
382,170,196812,1,0,0:0:0:0:
418,162,196891,1,0,0:0:0:0:
450,146,196969,1,0,0:0:0:0:
474,110,197048,1,0,0:0:0:0:
474,70,197126,5,0,0:0:0:0:
450,34,197205,1,0,0:0:0:0:
406,18,197283,1,0,0:0:0:0:
358,22,197362,1,0,0:0:0:0:
330,58,197440,1,0,0:0:0:0:
322,110,197519,1,0,0:0:0:0:
334,162,197597,1,0,0:0:0:0:
358,210,197676,1,0,0:0:0:0:
354,266,197754,1,0,0:0:0:0:
318,310,197833,1,0,0:0:0:0:
262,326,197912,6,0,L|198:318,1,52.5000020027161
92,232,198069,1,0,0:0:0:0:
236,164,198226,1,0,0:0:0:0:
176,16,198383,2,0,P|120:56|108:104,1,105.000004005432
180,224,198697,1,0,0:0:0:0:
328,80,198854,1,0,0:0:0:0:
240,140,199011,2,0,P|288:172|304:236,1,105.000004005432
420,28,199325,2,0,B|508:88|488:176|488:176|452:204|452:204|476:308|376:356,1,367.500014019013
384,336,199953,5,0,0:0:0:0:
212,256,200110,1,0,0:0:0:0:
316,268,200268,1,0,0:0:0:0:
300,296,200346,1,0,0:0:0:0:
276,320,200425,1,0,0:0:0:0:
248,332,200503,1,0,0:0:0:0:
216,336,200582,2,0,P|136:328|108:296,1,105.000004005432
104,116,200896,5,0,0:0:0:0:
280,204,201053,1,0,0:0:0:0:
264,24,201210,1,0,0:0:0:0:
184,220,201367,1,0,0:0:0:0:
116,24,201524,2,0,P|64:44|24:96,1,105.000004005432
108,252,201838,2,0,B|120:324|192:364|192:364|256:328|256:328|308:356|448:340,1,367.500014019013
424,332,202466,5,0,0:0:0:0:
488,220,202624,1,0,0:0:0:0:
360,168,202781,2,0,P|408:120|472:104,1,105.000004005432
428,244,203095,1,0,0:0:0:0:
340,72,203252,1,0,0:0:0:0:
284,200,203409,1,0,0:0:0:0:
480,128,203566,1,0,0:0:0:0:
384,12,203723,1,0,0:0:0:0:
352,172,203880,1,0,0:0:0:0:
224,60,204037,1,0,0:0:0:0:
404,92,204194,1,0,0:0:0:0:
240,168,204351,6,0,P|272:228|328:264,1,105.000004005432
480,196,204665,2,0,P|436:256|376:288,1,105.000004005432
292,196,204980,1,0,0:0:0:0:
328,360,205137,1,0,0:0:0:0:
184,280,205294,2,0,P|108:336|56:332,1,105.000004005432
12,208,205608,5,0,0:0:0:0:
184,240,205765,1,0,0:0:0:0:
156,88,205922,1,0,0:0:0:0:
88,276,206079,1,0,0:0:0:0:
0,128,206236,2,0,P|32:80|96:32,1,105.000004005432
176,176,206550,6,0,P|212:120|220:56,1,105.000004005432
352,44,206864,1,0,0:0:0:0:
472,152,207021,1,0,0:0:0:0:
500,28,207179,1,0,0:0:0:0:
336,152,207336,1,0,0:0:0:0:
492,256,207493,2,0,P|456:312|460:364,1,105.000004005432
320,264,207807,5,0,0:0:0:0:
300,280,207885,1,0,0:0:0:0:
280,296,207964,1,0,0:0:0:0:
260,312,208042,1,0,0:0:0:0:
236,328,208121,2,0,P|176:344|132:344,1,105.000004005432
16,248,208435,5,0,0:0:0:0:
36,224,208514,1,0,0:0:0:0:
60,204,208592,1,0,0:0:0:0:
88,192,208671,1,0,0:0:0:0:
120,192,208749,1,0,0:0:0:0:
148,204,208828,1,0,0:0:0:0:
176,220,208906,1,0,0:0:0:0:
208,228,208985,1,0,0:0:0:0:
244,220,209063,5,0,0:0:0:0:
276,192,209142,1,0,0:0:0:0:
288,148,209220,1,0,0:0:0:0:
272,104,209299,1,0,0:0:0:0:
240,68,209377,1,0,0:0:0:0:
196,56,209456,1,0,0:0:0:0:
148,68,209535,1,0,0:0:0:0:
120,104,209613,1,0,0:0:0:0:
124,152,209692,5,0,0:0:0:0:
140,168,209770,1,0,0:0:0:0:
160,176,209849,1,0,0:0:0:0:
180,180,209927,1,0,0:0:0:0:
200,180,210006,1,0,0:0:0:0:
220,176,210084,1,0,0:0:0:0:
240,168,210163,1,0,0:0:0:0:
256,156,210241,1,0,0:0:0:0:
272,140,210320,5,0,0:0:0:0:
304,124,210398,1,0,0:0:0:0:
340,128,210477,1,0,0:0:0:0:
376,148,210555,1,0,0:0:0:0:
408,184,210634,1,0,0:0:0:0:
420,232,210713,1,0,0:0:0:0:
416,280,210791,1,0,0:0:0:0:
400,324,210870,1,0,0:0:0:0:
360,348,210948,5,0,0:0:0:0:
308,352,211027,1,0,0:0:0:0:
260,324,211105,1,0,0:0:0:0:
208,288,211184,1,0,0:0:0:0:
144,284,211262,1,0,0:0:0:0:
84,260,211341,1,0,0:0:0:0:
52,204,211419,1,0,0:0:0:0:
60,140,211498,1,0,0:0:0:0:
104,96,211576,5,0,0:0:0:0:
168,96,211655,1,0,0:0:0:0:
216,136,211733,1,0,0:0:0:0:
232,196,211812,1,0,0:0:0:0:
272,248,211891,1,0,0:0:0:0:
332,264,211969,1,0,0:0:0:0:
392,248,212048,1,0,0:0:0:0:
428,196,212126,1,0,0:0:0:0:
428,132,212205,5,0,0:0:0:0:
388,180,212283,1,0,0:0:0:0:
328,196,212362,1,0,0:0:0:0:
272,168,212440,1,0,0:0:0:0:
244,112,212519,1,0,0:0:0:0:
208,60,212597,1,0,0:0:0:0:
152,32,212676,1,0,0:0:0:0:
92,40,212754,1,0,0:0:0:0:
44,80,212833,5,0,0:0:0:0:
28,140,212912,1,0,0:0:0:0:
52,200,212990,1,0,0:0:0:0:
112,216,213069,1,0,0:0:0:0:
172,196,213147,1,0,0:0:0:0:
236,192,213226,1,0,0:0:0:0:
296,212,213304,1,0,0:0:0:0:
340,256,213383,1,0,0:0:0:0:
356,316,213461,5,0,0:0:0:0:
372,312,213540,1,0,0:0:0:0:
388,304,213618,1,0,0:0:0:0:
400,292,213697,1,0,0:0:0:0:
408,280,213775,1,0,0:0:0:0:
412,264,213854,1,0,0:0:0:0:
412,248,213932,1,0,0:0:0:0:
408,232,214011,1,0,0:0:0:0:
400,220,214090,5,0,0:0:0:0:
388,212,214168,1,0,0:0:0:0:
372,204,214247,1,0,0:0:0:0:
356,204,214325,1,0,0:0:0:0:
340,208,214404,1,0,0:0:0:0:
328,216,214482,1,0,0:0:0:0:
320,232,214561,1,0,0:0:0:0:
316,248,214639,1,0,0:0:0:0:
316,264,214718,5,0,0:0:0:0:
300,296,214796,1,0,0:0:0:0:
268,316,214875,1,0,0:0:0:0:
232,320,214953,1,0,0:0:0:0:
196,312,215032,1,0,0:0:0:0:
164,292,215110,1,0,0:0:0:0:
144,260,215189,1,0,0:0:0:0:
112,240,215268,1,0,0:0:0:0:
76,236,215346,5,0,0:0:0:0:
40,224,215425,1,0,0:0:0:0:
16,196,215503,1,0,0:0:0:0:
16,160,215582,1,0,0:0:0:0:
36,128,215660,1,0,0:0:0:0:
72,116,215739,1,0,0:0:0:0:
108,124,215817,1,0,0:0:0:0:
136,148,215896,1,0,0:0:0:0:
168,164,215974,5,0,0:0:0:0:
215,169,216053,1,0,0:0:0:0:
263,170,216131,1,0,0:0:0:0:
309,161,216210,1,0,0:0:0:0:
340,127,216288,1,0,0:0:0:0:
321,85,216367,1,0,0:0:0:0:
277,80,216446,1,0,0:0:0:0:
255,121,216524,1,0,0:0:0:0:
251,169,216603,5,0,0:0:0:0:
264,216,216681,1,0,0:0:0:0:
248,260,216760,1,0,0:0:0:0:
216,296,216838,1,0,0:0:0:0:
216,344,216917,1,0,0:0:0:0:
252,376,216995,1,0,0:0:0:0:
300,372,217074,1,0,0:0:0:0:
336,340,217152,1,0,0:0:0:0:
344,292,217231,5,0,0:0:0:0:
383,232,217309,1,0,0:0:0:0:
442,188,217388,1,0,0:0:0:0:
482,128,217466,1,0,0:0:0:0:
474,57,217545,1,0,0:0:0:0:
412,24,217624,1,0,0:0:0:0:
344,28,217702,2,0,L|280:72,1,52.5000020027161
215,112,217859,1,0,0:0:0:0:
167,205,217938,1,0,0:0:0:0:
242,280,218016,1,0,0:0:0:0:
335,232,218095,1,0,0:0:0:0:
319,128,218173,1,0,0:0:0:0:
356,108,218252,1,0,0:0:0:0:
396,116,218330,2,0,P|432:120|460:148,1,52.5000020027161
512,196,218487,2,0,P|472:268|472:316,1,105.000004005432
264,352,218802,5,0,0:0:0:0:
208,232,218959,1,0,0:0:0:0:
344,264,219116,2,0,P|304:332|256:352,1,105.000004005432
256,360,219351,1,0,0:0:0:0:
228,372,219430,2,0,P|168:364|96:384,1,105.000004005432
4,244,219744,5,0,0:0:0:0:
152,272,219901,1,0,0:0:0:0:
100,148,220058,1,0,0:0:0:0:
60,312,220215,1,0,0:0:0:0:
216,220,220372,1,0,0:0:0:0:
16,120,220529,1,0,0:0:0:0:
116,16,220686,2,0,P|168:68|228:80,1,105.000004005432
228,72,220922,1,0,0:0:0:0:
256,56,221001,6,0,P|316:32|404:36,1,105.000004005432
500,104,221315,1,0,0:0:0:0:
252,192,221472,1,0,0:0:0:0:
392,212,221629,1,0,0:0:0:0:
96,324,221786,1,0,0:0:0:0:
252,296,221943,2,0,P|196:252|144:244,1,105.000004005432
8,280,222257,1,0,0:0:0:0:
92,128,222414,1,0,0:0:0:0:
152,220,222571,2,0,P|60:208|24:192,1,105.000004005432
176,28,222885,6,0,P|196:80|188:128,1,70.0000026702882
280,128,223121,2,0,P|280:48|260:12,1,70.0000026702882
380,36,223278,2,0,P|384:116|376:148,1,70.0000026702882
492,232,223514,6,0,B|412:204|332:240|332:240|372:296|312:344|312:344|236:332|236:292|236:264|236:264|184:232|104:240,1,542.5
32,156,226027,2,0,B|148:136|144:80|140:48|104:44|48:76|44:116|162:136|224:128,1,332.5
320,60,227597,2,0,L|324:104,1,35
432,128,227912,2,0,L|448:88,1,35
324,188,228226,1,0,0:0:0:0:
400,216,228383,1,0,0:0:0:0:
352,96,228540,2,0,B|288:60|288:60|228:116|152:136|80:112|76:28|136:-8|216:-24|272:12|248:176|224:200,1,542.5
264,268,231053,2,0,B|224:280|164:260|144:204|144:204|152:168|152:168|88:160|48:200|44:256|44:256|68:300|100:320|180:352|228:344,1,542.5
328,344,233566,5,0,0:0:0:0:
352,240,233723,1,0,0:0:0:0:
440,312,233880,2,0,P|492:276|504:220,1,105.000004005432
500,132,234194,2,0,P|436:168|404:216,1,105.000004005432
360,276,234508,2,0,P|320:224|320:144,1,105.000004005432
500,132,234823,5,0,0:0:0:0:
412,12,234980,1,0,0:0:0:0:
380,152,235137,1,0,0:0:0:0:
508,48,235294,1,0,0:0:0:0:
324,80,235451,2,0,P|284:20|224:4,1,105.000004005432
296,172,235765,2,0,P|224:184|168:160,1,105.000004005432
164,180,236001,1,0,0:0:0:0:
136,196,236079,6,0,P|152:252|196:288,1,105.000004005432
48,304,236393,2,0,P|24:252|20:188,1,105.000004005432
24,56,236707,1,0,0:0:0:0:
128,116,236864,1,0,0:0:0:0:
236,20,237021,1,0,0:0:0:0:
292,148,237179,1,0,0:0:0:0:
136,16,237336,2,0,P|96:56|12:96,1,105.000004005432
16,220,237650,6,0,P|88:196|172:224,1,157.500006008148
184,120,237964,2,0,P|96:156|100:232,1,157.500006008148
184,216,238278,2,0,P|160:284|72:308,1,157.500006008148
248,332,238592,6,0,B|276:272|324:256|368:252,1,140.000005340576
376,368,238985,1,0,0:0:0:0:
500,320,239220,2,0,P|476:248|432:204,1,140.000005340576
328,248,239613,1,0,0:0:0:0:
436,176,239849,2,0,P|460:100|512:64,1,140.000005340576
352,80,240241,1,0,0:0:0:0:
256,24,240477,1,0,0:0:0:0:
244,128,240713,1,0,0:0:0:0:
352,80,240870,1,0,0:0:0:0:
256,24,241105,6,0,P|180:8|112:20,1,140.000005340576
180,120,241498,1,0,0:0:0:0:
24,92,241733,2,0,P|64:164|56:244,1,140.000005340576
180,120,242126,1,0,0:0:0:0:
240,216,242362,2,0,P|304:152|312:92,1,140.000005340576
180,120,242754,1,0,0:0:0:0:
340,16,242990,5,0,0:0:0:0:
364,44,243069,1,0,0:0:0:0:
372,80,243147,1,0,0:0:0:0:
360,116,243226,1,0,0:0:0:0:
360,152,243304,1,0,0:0:0:0:
380,184,243383,1,0,0:0:0:0:
396,216,243461,2,0,L|380:272,1,52.5000020027161
256,368,243618,5,0,0:0:0:0:
424,324,243775,1,0,0:0:0:0:
352,344,243932,1,0,0:0:0:0:
492,240,244090,1,0,0:0:0:0:
432,288,244247,1,0,0:0:0:0:
496,140,244404,1,0,0:0:0:0:
504,216,244561,2,0,P|432:204|396:168,1,105.000004005432
392,16,244875,5,0,0:0:0:0:
432,140,245032,1,0,0:0:0:0:
512,64,245189,2,0,P|440:64|368:92,1,105.000004005432
368,200,245503,1,0,0:0:0:0:
240,132,245660,1,0,0:0:0:0:
344,72,245817,2,0,P|328:132|296:176,1,105.000004005432
204,352,246131,5,0,0:0:0:0:
192,220,246288,1,0,0:0:0:0:
312,348,246446,1,0,0:0:0:0:
296,232,246603,1,0,0:0:0:0:
128,300,246760,2,0,P|72:352|28:368,1,105.000004005432
8,276,247074,2,0,P|68:236|112:216,1,105.000004005432
168,368,247388,5,0,0:0:0:0:
244,264,247545,1,0,0:0:0:0:
280,368,247702,2,0,P|224:328|156:304,1,105.000004005432
244,200,248016,2,0,P|148:208|128:224,1,105.000004005432
96,308,248330,2,0,P|28:272|8:228,1,105.000004005432
128,144,248644,5,0,0:0:0:0:
8,88,248802,1,0,0:0:0:0:
104,8,248959,1,0,0:0:0:0:
48,160,249116,1,0,0:0:0:0:
188,84,249273,1,0,0:0:0:0:
48,44,249430,1,0,0:0:0:0:
132,140,249587,2,0,P|120:80|148:20,1,105.000004005432
228,0,249901,2,0,P|248:68|232:136,1,105.000004005432
144,60,250215,5,0,0:0:0:0:
216,168,250372,1,0,0:0:0:0:
320,80,250529,2,0,P|272:36|220:24,1,105.000004005432
384,16,250843,1,0,0:0:0:0:
504,104,251001,1,0,0:0:0:0:
496,16,251158,2,0,P|444:56|420:112,1,105.000004005432
344,176,251472,5,0,0:0:0:0:
504,212,251629,1,0,0:0:0:0:
396,256,251786,1,0,0:0:0:0:
504,140,251943,1,0,0:0:0:0:
512,280,252100,1,0,0:0:0:0:
400,144,252257,1,0,0:0:0:0:
388,256,252414,2,0,P|448:224|480:188,1,105.000004005432
320,356,252728,6,0,P|296:288|296:228,1,105.000004005432
216,356,253042,2,0,P|208:280|216:228,1,105.000004005432
320,184,253357,2,0,P|232:168|180:180,1,105.000004005432
144,252,253671,1,0,0:0:0:0:
24,228,253828,1,0,0:0:0:0:
56,332,253985,2,0,P|80:280|88:188,1,105.000004005432
220,200,254299,1,0,0:0:0:0:
180,88,254456,1,0,0:0:0:0:
112,192,254613,2,0,P|168:156|232:144,1,105.000004005432
284,260,254927,5,0,0:0:0:0:
352,132,255084,1,0,0:0:0:0:
408,272,255241,1,0,0:0:0:0:
384,132,255398,1,0,0:0:0:0:
340,316,255555,1,0,0:0:0:0:
432,96,255713,1,0,0:0:0:0:
496,204,255870,2,0,P|432:224|360:228,1,105.000004005432
336,136,256184,5,0,0:0:0:0:
404,16,256341,1,0,0:0:0:0:
496,96,256498,2,0,P|432:104|372:72,1,105.000004005432
276,176,256812,1,0,0:0:0:0:
176,92,256969,1,0,0:0:0:0:
188,172,257126,2,0,P|248:108|304:88,1,105.000004005432
364,172,257440,5,0,0:0:0:0:
400,64,257597,1,0,0:0:0:0:
296,12,257754,1,0,0:0:0:0:
320,152,257912,1,0,0:0:0:0:
448,108,258069,1,0,0:0:0:0:
372,12,258226,1,0,0:0:0:0:
408,196,258383,2,0,P|352:228|272:232,1,105.000004005432
248,88,258697,5,0,0:0:0:0:
204,196,258854,2,0,P|128:156|116:104,1,105.000004005432
196,52,259168,1,0,0:0:0:0:
76,8,259325,2,0,P|24:56|16:100,1,105.000004005432
116,176,259639,1,0,0:0:0:0:
4,220,259796,2,0,P|36:156|72:116,1,105.000004005432
184,200,260110,1,0,0:0:0:0:
144,312,260268,6,0,P|84:360|24:368,1,105.000004005432
0,260,260582,1,0,0:0:0:0:
180,380,260739,1,0,0:0:0:0:
120,236,260896,1,0,0:0:0:0:
72,344,261053,1,0,0:0:0:0:
260,272,261210,2,0,P|284:324|328:364,1,105.000004005432
496,368,261524,5,0,0:0:0:0:
388,284,261681,1,0,0:0:0:0:
500,216,261838,1,0,0:0:0:0:
416,356,261995,1,0,0:0:0:0:
292,312,262152,2,0,P|312:224|344:196,1,105.000004005432
452,168,262466,5,0,0:0:0:0:
420,148,262545,1,0,0:0:0:0:
396,120,262624,1,0,0:0:0:0:
392,84,262702,1,0,0:0:0:0:
364,28,262781,5,0,0:0:0:0:
348,44,262859,1,0,0:0:0:0:
332,60,262938,1,0,0:0:0:0:
316,76,263016,1,0,0:0:0:0:
304,92,263095,1,0,0:0:0:0:
292,108,263173,1,0,0:0:0:0:
280,124,263252,2,0,L|200:156,1,52.5000020027161
108,100,263409,5,0,0:0:0:0:
96,116,263487,1,0,0:0:0:0:
88,136,263566,2,0,P|84:172|100:208,1,52.5000020027161
180,192,263723,5,0,0:0:0:0:
172,156,263802,1,0,0:0:0:0:
176,120,263880,1,0,0:0:0:0:
196,88,263959,1,0,0:0:0:0:
224,64,264037,1,0,0:0:0:0:
260,64,264116,1,0,0:0:0:0:
296,76,264194,1,0,0:0:0:0:
320,104,264273,1,0,0:0:0:0:
340,136,264351,5,0,0:0:0:0:
364,164,264430,1,0,0:0:0:0:
400,172,264508,1,0,0:0:0:0:
436,160,264587,1,0,0:0:0:0:
464,136,264665,1,0,0:0:0:0:
468,88,264744,1,0,0:0:0:0:
444,48,264823,1,0,0:0:0:0:
400,28,264901,1,0,0:0:0:0:
352,32,264980,5,0,0:0:0:0:
312,60,265058,1,0,0:0:0:0:
268,76,265137,1,0,0:0:0:0:
220,72,265215,1,0,0:0:0:0:
176,52,265294,1,0,0:0:0:0:
128,60,265372,1,0,0:0:0:0:
100,96,265451,1,0,0:0:0:0:
100,144,265529,1,0,0:0:0:0:
132,180,265608,5,0,0:0:0:0:
168,188,265686,1,0,0:0:0:0:
200,208,265765,1,0,0:0:0:0:
220,240,265843,1,0,0:0:0:0:
224,276,265922,1,0,0:0:0:0:
208,308,266001,1,0,0:0:0:0:
176,328,266079,1,0,0:0:0:0:
140,320,266158,1,0,0:0:0:0:
120,292,266236,5,0,0:0:0:0:
132,256,266315,1,0,0:0:0:0:
164,240,266393,1,0,0:0:0:0:
200,248,266472,1,0,0:0:0:0:
240,264,266550,1,0,0:0:0:0:
284,264,266629,1,0,0:0:0:0:
324,252,266707,1,0,0:0:0:0:
352,220,266786,1,0,0:0:0:0:
360,180,266864,5,0,0:0:0:0:
352,140,266943,1,0,0:0:0:0:
328,108,267021,1,0,0:0:0:0:
288,92,267100,1,0,0:0:0:0:
244,92,267179,1,0,0:0:0:0:
204,88,267257,1,0,0:0:0:0:
168,68,267336,1,0,0:0:0:0:
136,40,267414,1,0,0:0:0:0:
96,36,267493,2,0,P|32:72|20:124,1,105.000004005432
136,376,267807,1,0,0:0:0:0:
136,376,267885,1,0,0:0:0:0:
136,376,267964,2,0,L|168:320,1,52.5000020027161
300,296,268121,5,0,0:0:0:0:
300,296,268199,1,0,0:0:0:0:
300,296,268278,2,0,L|256:260,1,52.5000020027161
136,192,268435,5,0,0:0:0:0:
168,176,268514,1,0,0:0:0:0:
204,172,268592,1,0,0:0:0:0:
240,176,268671,1,0,0:0:0:0:
276,184,268749,1,0,0:0:0:0:
308,200,268828,1,0,0:0:0:0:
344,204,268906,1,0,0:0:0:0:
380,196,268985,1,0,0:0:0:0:
412,176,269063,5,0,0:0:0:0:
424,140,269142,1,0,0:0:0:0:
412,104,269220,1,0,0:0:0:0:
384,80,269299,1,0,0:0:0:0:
348,80,269377,1,0,0:0:0:0:
320,104,269456,1,0,0:0:0:0:
316,140,269535,1,0,0:0:0:0:
336,172,269613,1,0,0:0:0:0:
372,192,269692,5,0,0:0:0:0:
400,224,269770,1,0,0:0:0:0:
412,264,269849,1,0,0:0:0:0:
400,304,269927,1,0,0:0:0:0:
372,336,270006,1,0,0:0:0:0:
332,344,270084,1,0,0:0:0:0:
292,328,270163,1,0,0:0:0:0:
272,292,270241,1,0,0:0:0:0:
240,264,270320,5,0,0:0:0:0:
196,252,270398,1,0,0:0:0:0:
148,240,270477,1,0,0:0:0:0:
104,228,270555,1,0,0:0:0:0:
60,216,270634,1,0,0:0:0:0:
44,172,270713,1,0,0:0:0:0:
56,128,270791,1,0,0:0:0:0:
100,112,270870,1,0,0:0:0:0:
144,128,270948,5,0,0:0:0:0:
180,132,271027,1,0,0:0:0:0:
212,112,271105,1,0,0:0:0:0:
248,108,271184,1,0,0:0:0:0:
280,120,271262,1,0,0:0:0:0:
308,144,271341,1,0,0:0:0:0:
328,176,271419,1,0,0:0:0:0:
332,212,271498,1,0,0:0:0:0:
344,248,271576,5,0,0:0:0:0:
364,264,271655,1,0,0:0:0:0:
388,268,271733,1,0,0:0:0:0:
412,264,271812,1,0,0:0:0:0:
432,244,271891,1,0,0:0:0:0:
436,220,271969,1,0,0:0:0:0:
428,196,272048,1,0,0:0:0:0:
408,180,272126,1,0,0:0:0:0:
380,176,272205,5,0,0:0:0:0:
348,180,272283,1,0,0:0:0:0:
316,196,272362,1,0,0:0:0:0:
296,224,272440,1,0,0:0:0:0:
292,260,272519,2,0,P|272:328|240:360,1,105.000004005432
156,256,272833,5,0,0:0:0:0:
156,256,272912,1,0,0:0:0:0:
156,256,272990,2,0,L|192:208,1,52.5000020027161
276,148,273147,5,0,0:0:0:0:
276,148,273226,1,0,0:0:0:0:
276,148,273304,2,0,L|324:188,1,52.5000020027161
132,92,273461,5,0,0:0:0:0:
96,100,273540,1,0,0:0:0:0:
68,124,273618,1,0,0:0:0:0:
48,156,273697,1,0,0:0:0:0:
44,192,273775,1,0,0:0:0:0:
48,228,273854,1,0,0:0:0:0:
64,260,273932,1,0,0:0:0:0:
96,280,274011,1,0,0:0:0:0:
132,284,274090,5,0,0:0:0:0:
168,268,274168,1,0,0:0:0:0:
200,240,274247,1,0,0:0:0:0:
236,224,274325,1,0,0:0:0:0:
280,224,274404,1,0,0:0:0:0:
320,232,274482,1,0,0:0:0:0:
356,252,274561,1,0,0:0:0:0:
396,268,274639,1,0,0:0:0:0:
440,268,274718,5,0,0:0:0:0:
464,248,274796,1,0,0:0:0:0:
468,216,274875,1,0,0:0:0:0:
456,188,274953,1,0,0:0:0:0:
432,168,275032,1,0,0:0:0:0:
420,140,275110,1,0,0:0:0:0:
432,108,275189,1,0,0:0:0:0:
460,92,275268,1,0,0:0:0:0:
480,68,275346,5,0,0:0:0:0:
476,32,275425,1,0,0:0:0:0:
448,8,275503,1,0,0:0:0:0:
408,16,275582,1,0,0:0:0:0:
376,44,275660,1,0,0:0:0:0:
360,84,275739,1,0,0:0:0:0:
328,108,275817,1,0,0:0:0:0:
288,116,275896,1,0,0:0:0:0:
248,104,275974,5,0,0:0:0:0:
204,76,276053,1,0,0:0:0:0:
152,80,276131,1,0,0:0:0:0:
116,120,276210,1,0,0:0:0:0:
132,168,276288,1,0,0:0:0:0:
184,180,276367,1,0,0:0:0:0:
224,216,276446,1,0,0:0:0:0:
232,268,276524,1,0,0:0:0:0:
212,316,276603,5,0,0:0:0:0:
176,336,276681,1,0,0:0:0:0:
132,336,276760,1,0,0:0:0:0:
100,312,276838,1,0,0:0:0:0:
92,272,276917,1,0,0:0:0:0:
108,236,276995,1,0,0:0:0:0:
144,216,277074,1,0,0:0:0:0:
184,224,277152,1,0,0:0:0:0:
224,236,277231,5,0,0:0:0:0:
264,240,277309,1,0,0:0:0:0:
304,236,277388,1,0,0:0:0:0:
344,220,277466,1,0,0:0:0:0:
380,196,277545,1,0,0:0:0:0:
408,164,277624,1,0,0:0:0:0:
420,124,277702,2,0,L|400:52,1,52.5000020027161
284,8,277859,5,0,0:0:0:0:
284,8,277938,1,0,0:0:0:0:
284,8,278016,2,0,L|300:60,1,52.5000020027161
208,144,278173,5,0,0:0:0:0:
208,144,278252,1,0,0:0:0:0:
208,144,278330,2,0,L|184:72,1,52.5000020027161
4,136,278487,6,0,P|72:160|92:160,1,70
96,156,278723,1,0,0:0:0:0:
124,160,278802,2,0,P|132:224|104:256,1,93.3333333333333
44,288,279194,1,0,0:0:0:0:
136,372,279430,2,0,P|160:324|200:292,1,93.3333333333333
304,340,279823,1,0,0:0:0:0:
260,212,280058,1,0,0:0:0:0:
384,260,280294,1,0,0:0:0:0:
212,304,280451,1,0,0:0:0:0:
296,168,280686,2,0,P|376:156|416:168,1,93.3333333333333
500,232,281079,5,0,0:0:0:0:
388,308,281315,2,0,P|440:364|480:368,1,93.3333333333333
268,320,281707,1,0,0:0:0:0:
320,224,281943,1,0,0:0:0:0:
424,200,282179,1,0,0:0:0:0:
504,132,282336,1,0,0:0:0:0:
440,48,282571,2,0,P|384:32|352:8,1,93.3333333333333
356,136,282964,1,0,0:0:0:0:
224,112,283199,2,0,P|276:44|284:12,1,93.3333333333333
164,16,283592,1,0,0:0:0:0:
4,180,283828,6,0,B|40:264|84:192|156:264|152:200|216:240|260:296,1,288.750011014939
344,320,284770,2,0,B|332:260|324:216|296:136|388:120|408:200|396:240|272:184,1,288.750011014939
244,120,285713,2,0,P|208:152|192:188,1,78.7500030040742
212,260,286027,5,0,0:0:0:0:
196,268,286105,1,0,0:0:0:0:
180,272,286184,1,0,0:0:0:0:
164,272,286262,1,0,0:0:0:0:
144,268,286341,1,0,0:0:0:0:
128,256,286419,1,0,0:0:0:0:
116,232,286498,1,0,0:0:0:0:
116,204,286576,1,0,0:0:0:0:
132,176,286655,2,0,L|192:160,1,52.5000020027161
312,220,286969,6,0,P|340:164|304:40,1,157.500006008148
256,108,287283,2,0,P|216:172|232:256,1,157.500006008148
312,304,287597,2,0,P|400:268|464:288,1,157.500006008148
384,352,287912,5,0,0:0:0:0:
392,312,287990,1,0,0:0:0:0:
408,272,288069,1,0,0:0:0:0:
432,240,288147,1,0,0:0:0:0:
464,212,288226,1,0,0:0:0:0:
484,176,288304,1,0,0:0:0:0:
480,132,288383,1,0,0:0:0:0:
456,96,288461,1,0,0:0:0:0:
416,84,288540,5,0,0:0:0:0:
376,92,288618,1,0,0:0:0:0:
344,120,288697,1,0,0:0:0:0:
332,160,288775,1,0,0:0:0:0:
304,188,288854,1,0,0:0:0:0:
264,188,288932,1,0,0:0:0:0:
224,172,289011,1,0,0:0:0:0:
196,140,289090,1,0,0:0:0:0:
184,100,289168,5,0,0:0:0:0:
160,64,289247,1,0,0:0:0:0:
124,48,289325,1,0,0:0:0:0:
80,52,289404,1,0,0:0:0:0:
44,80,289482,1,0,0:0:0:0:
32,128,289561,1,0,0:0:0:0:
52,172,289639,1,0,0:0:0:0:
92,196,289718,1,0,0:0:0:0:
112,236,289796,5,0,0:0:0:0:
116,276,289875,1,0,0:0:0:0:
96,312,289953,1,0,0:0:0:0:
56,324,290032,1,0,0:0:0:0:
20,304,290110,1,0,0:0:0:0:
16,260,290189,1,0,0:0:0:0:
44,228,290268,1,0,0:0:0:0:
84,236,290346,1,0,0:0:0:0:
108,268,290425,5,0,0:0:0:0:
136,292,290503,1,0,0:0:0:0:
172,304,290582,1,0,0:0:0:0:
208,308,290660,1,0,0:0:0:0:
244,304,290739,1,0,0:0:0:0:
276,288,290817,1,0,0:0:0:0:
300,260,290896,1,0,0:0:0:0:
332,240,290974,1,0,0:0:0:0:
368,240,291053,5,0,0:0:0:0:
400,256,291131,1,0,0:0:0:0:
436,260,291210,1,0,0:0:0:0:
468,248,291288,1,0,0:0:0:0:
492,220,291367,1,0,0:0:0:0:
496,184,291446,1,0,0:0:0:0:
488,148,291524,1,0,0:0:0:0:
464,120,291603,1,0,0:0:0:0:
428,116,291681,5,0,0:0:0:0:
392,140,291760,1,0,0:0:0:0:
356,160,291838,1,0,0:0:0:0:
316,168,291917,1,0,0:0:0:0:
276,156,291995,1,0,0:0:0:0:
240,132,292074,1,0,0:0:0:0:
200,132,292152,2,0,L|108:176,1,52.5000020027161
24,204,292309,5,0,0:0:0:0:
24,204,292388,1,0,0:0:0:0:
24,204,292466,2,0,L|48:144,1,52.5000020027161
92,24,292624,5,0,0:0:0:0:
108,36,292702,1,0,0:0:0:0:
128,44,292781,1,0,0:0:0:0:
148,44,292859,1,0,0:0:0:0:
168,36,292938,2,0,P|244:8|268:12,1,105.000004005432
492,64,293252,5,0,0:0:0:0:
456,104,293330,1,0,0:0:0:0:
440,156,293409,1,0,0:0:0:0:
448,208,293487,1,0,0:0:0:0:
440,260,293566,2,0,L|392:300,1,52.5000020027161
280,260,293723,1,0,0:0:0:0:
156,44,294194,5,0,0:0:0:0:
