osu file format v14

[General]
AudioFilename: audio.mp3
AudioLeadIn: 0
PreviewTime: 262149
Countdown: 0
SampleSet: Drum
StackLeniency: 0.7
Mode: 0
LetterboxInBreaks: 0
WidescreenStoryboard: 0

[Editor]
Bookmarks: 30915,57662,92722,103565,110162,111878,114860,115945,132571,143234,171155,212450,232691,255824,257270,284739,307872,327570
DistanceSpacing: 2.3
BeatDivisor: 8
GridSize: 32
TimelineZoom: 3.499999

[Metadata]
Title:Rigid Paradise ~ Dawn of the Dead
TitleUnicode:リジッドパラダイス ~ Dawn of the Dead
Artist:Demetori
ArtistUnicode:Demetori
Creator:Toumei Dragon
Version:Stage 3
Source:東方神霊廟 ~ Ten Desires.
Tags:BEGIERDE DES ZAUBERER リジッドパラダイス Rigid Paradise Stage 3 Theme Touhou C81 DECD-0007 th13 東方神霊廟 ~ Ten Desires Yoshika Miyako 宮古 芳香 zun 2hu gensokyo Shinreibyou rock instrumental metal
BeatmapID:2275674
BeatmapSetID:1088336

[Difficulty]
HPDrainRate:5
CircleSize:4.2
OverallDifficulty:9.2
ApproachRate:9.5
SliderMultiplier:1.62
SliderTickRate:1

[Events]
//Background and Video events
0,0,"touhou-halloween-picture-in-picture-miyako-yoshika-wallpaper-198038ed41da7d3b16f7188fe061864d.jpg",0,0
//Break Periods
//Storyboard Layer 0 (Background)
//Storyboard Layer 1 (Fail)
//Storyboard Layer 2 (Pass)
//Storyboard Layer 3 (Foreground)
//Storyboard Layer 4 (Overlay)
//Storyboard Sound Samples

[TimingPoints]
854,340.909090909091,4,3,1,80,1,0
8354,-100,4,3,2,80,0,0
8524,-100,4,3,1,80,0,0
10399,348.837209302326,6,3,1,100,1,0
10399,-83.3333333333333,6,3,1,100,0,0
12492,361.44578313253,4,3,1,100,1,0
20805,-83.3333333333333,4,3,1,100,0,0
21166,-100,4,3,1,100,0,0
26588,-83.3333333333333,4,3,1,100,0,0
26949,-100,4,3,1,100,0,0
34178,-100,4,3,5,100,0,0
34540,-76.9230769230769,4,3,5,100,0,0
37070,-100,4,3,1,100,0,0
45745,361.44578313253,6,3,1,85,1,0
46287,-100,6,3,2,85,0,0
46829,-100,6,3,4,85,0,0
47371,-100,6,3,5,85,0,0
47913,361.44578313253,4,3,1,85,1,0
47913,-80,4,3,1,85,0,0
70684,-80,4,3,4,85,0,0
71045,-80,4,3,1,85,0,0
72491,-71.4285714285714,4,3,2,85,0,1
72672,-71.4285714285714,4,3,1,85,0,1
78274,-71.4285714285714,4,3,2,85,0,1
78455,-71.4285714285714,4,3,1,85,0,1
84057,-71.4285714285714,4,3,2,85,0,1
84238,-71.4285714285714,4,3,1,85,0,1
89840,-71.4285714285714,4,3,2,85,0,1
90021,-71.4285714285714,4,3,1,85,0,1
92732,-66.6666666666667,4,3,1,85,0,1
93093,-66.6666666666667,4,3,2,85,0,1
93455,-66.6666666666667,4,3,4,85,0,1
93816,-66.6666666666667,4,3,5,85,0,1
95623,-71.4285714285714,4,3,5,85,0,0
96166,-100,4,3,1,85,0,0
104298,-100,4,3,2,85,0,0
104479,-100,4,3,1,85,0,0
105925,422.535211267606,4,3,1,100,1,0
106558,361.44578313253,3,3,1,85,1,0
107642,361.44578313253,4,3,1,100,1,0
107642,-80,4,3,1,100,0,0
130774,-71.4285714285714,4,3,2,100,0,1
130955,-71.4285714285714,4,3,1,100,0,1
136557,-71.4285714285714,4,3,2,100,0,1
136738,-71.4285714285714,4,3,1,100,0,1
139449,-71.4285714285714,4,3,2,100,0,1
139629,-71.4285714285714,4,3,1,100,0,1
142340,-71.4285714285714,4,3,2,100,0,1
142521,-71.4285714285714,4,3,1,100,0,1
148123,-71.4285714285714,4,3,2,100,0,1
148304,-71.4285714285714,4,3,1,100,0,1
151015,-71.4285714285714,4,3,2,100,0,1
151196,-71.4285714285714,4,3,1,100,0,1
153907,-71.4285714285714,4,3,1,100,0,0
159148,-133.333333333333,4,3,1,100,0,0
159690,-80,4,3,1,100,0,0
162581,361.44578313253,6,3,1,85,1,0
164568,-66.6666666666667,6,3,1,85,0,0
164750,361.44578313253,4,3,1,70,1,0
164750,-71.4285714285714,4,3,1,70,0,1
169629,-71.4285714285714,4,3,1,70,0,1
170533,-100,4,3,4,70,0,0
171256,-100,4,3,1,70,0,0
171617,-100,4,3,4,70,0,0
172701,-100,4,3,1,70,0,0
173063,-100,4,3,2,70,0,0
173424,-100,4,3,4,70,0,0
174509,-100,4,3,2,70,0,0
174870,-83.3333333333333,4,3,1,70,0,0
176316,-71.4285714285714,4,3,1,70,0,1
181015,-71.4285714285714,4,3,4,70,0,1
181195,-71.4285714285714,4,3,1,70,0,1
182099,-100,4,3,4,70,0,0
183183,-100,4,3,1,70,0,0
183545,-100,4,3,4,70,0,0
184268,-100,4,3,1,70,0,0
184629,-100,4,3,2,70,0,0
184990,-100,4,3,4,70,0,0
186075,-100,4,3,2,70,0,0
186436,-83.3333333333333,4,3,1,70,0,0
188605,-76.9230769230769,4,3,1,70,0,0
189328,-83.3333333333333,4,3,1,70,0,0
190051,-76.9230769230769,4,3,1,70,0,0
190774,-83.3333333333333,4,3,2,70,0,0
190954,-83.3333333333333,4,3,1,70,0,0
191496,-76.9230769230769,4,3,1,70,0,0
192219,-83.3333333333333,4,3,1,70,0,0
193665,-71.4285714285714,4,3,1,70,0,0
195111,-66.6666666666667,4,3,1,70,0,0
196557,-62.5,4,3,1,70,0,0
197460,-62.5,4,3,5,70,0,0
197822,-62.5,4,3,1,70,0,0
198545,-62.5,4,3,2,70,0,0
199087,-62.5,4,3,1,70,0,0
199629,-62.5,4,3,2,70,0,0
200171,-100,4,3,1,70,0,0
200894,-100,4,3,1,70,0,0
206677,-80,4,3,1,70,0,0
212099,-80,4,3,2,70,0,0
212460,-71.4285714285714,4,3,1,70,0,1
217882,-71.4285714285714,4,3,2,70,0,1
218243,-71.4285714285714,4,3,1,70,0,1
220412,-71.4285714285714,4,3,5,70,0,1
222581,-83.3333333333333,4,3,2,70,0,0
222762,-83.3333333333333,4,3,1,70,0,0
228364,-71.4285714285714,4,3,5,70,0,0
228545,-71.4285714285714,4,3,1,70,0,0
232701,-100,4,3,1,70,0,0
237039,-66.6666666666667,4,3,1,70,0,0
238484,-80,4,3,1,70,0,0
250051,-100,4,3,3,70,0,0
255834,-80,4,3,3,70,0,0
258725,-62.5,4,3,1,70,0,0
259268,-62.5,4,3,2,70,0,0
259810,-55.5555555555556,4,3,1,70,0,0
260533,-55.5555555555556,4,3,2,70,0,0
261256,-55.5555555555556,4,3,1,70,0,0
263063,-55.5555555555556,4,3,1,70,0,1
263153,-55.5555555555556,4,3,1,70,0,0
263424,-55.5555555555556,4,3,1,70,0,1
263515,-55.5555555555556,4,3,1,70,0,0
263786,-55.5555555555556,4,3,1,70,0,1
263876,-55.5555555555556,4,3,1,70,0,0
264147,-55.5555555555556,4,3,1,70,0,1
264418,-55.5555555555556,4,3,1,70,0,0
264509,-62.5,4,3,2,70,0,1
264689,-62.5,4,3,1,70,0,1
267400,-62.5,4,3,2,70,0,1
267581,-62.5,4,3,1,70,0,1
270292,-62.5,4,3,2,70,0,1
270472,-62.5,4,3,1,70,0,1
273183,-62.5,4,3,2,70,0,1
273364,-62.5,4,3,1,70,0,1
278966,-62.5,4,3,2,70,0,1
279147,-62.5,4,3,1,70,0,1
281858,-62.5,4,3,2,70,0,1
282039,-62.5,4,3,1,70,0,1
284749,-62.5,4,3,2,70,0,1
284930,-62.5,4,3,1,70,0,1
290533,-62.5,4,3,2,70,0,1
290713,-62.5,4,3,1,70,0,1
293424,-62.5,4,3,2,70,0,1
293605,-62.5,4,3,1,70,0,1
296316,-62.5,4,3,2,70,0,1
296496,-62.5,4,3,1,70,0,1
301557,-55.5555555555556,4,3,5,70,0,1
302099,-62.5,4,3,2,70,0,1
302280,-62.5,4,3,1,70,0,1
304990,-62.5,4,3,2,70,0,1
305171,-62.5,4,3,1,70,0,1
307882,-62.5,4,3,1,70,0,0
313304,-62.5,4,3,1,5,0,0
313665,-100,4,3,1,70,0,0
318906,-133.333333333333,4,3,1,70,0,0
319448,361.44578313253,7,3,1,100,1,0
319448,-100,7,3,1,100,0,0
324508,-83.3333333333333,7,3,1,100,0,0
329568,-71.4285714285714,7,3,1,100,0,0
332098,-62.5,7,3,1,100,0,0
334628,-55.5555555555556,7,3,1,100,0,0
337158,-50,7,3,1,100,0,0
339688,-45.4545454545455,7,3,3,100,0,1
342219,-41.6666666666667,7,3,3,100,0,1
347279,-100,7,3,3,100,0,0

[Colours]
Combo1 : 115,57,68
Combo2 : 242,155,48
Combo3 : 242,76,61

[HitObjects]
124,270,854,5,8,0:0:0:0:
148,300,939,1,8,0:0:0:0:
184,322,1024,1,8,0:0:0:0:
222,330,1109,1,8,0:0:0:0:
262,328,1194,1,8,0:0:0:0:
107,185,1365,6,0,P|55:213|44:244,1,81,0|0,0:0|0:0,0:0:0:0:
190,213,1706,2,0,P|191:153|170:128,1,81,0|0,0:0|0:0,0:0:0:0:
124,270,2047,1,0,0:0:0:0:
124,270,2217,2,0,P|174:301|206:295,1,81,0|0,0:0|0:0,0:0:0:0:
338,222,2558,2,0,P|298:225|268:251,1,81,0|0,0:0|0:0,0:0:0:0:
233,366,2899,1,0,0:0:0:0:
350,338,3069,1,0,0:0:0:0:
268,251,3240,1,0,0:0:0:0:
233,366,3410,1,0,0:0:0:0:
369,227,3581,5,8,0:0:0:0:
373,185,3666,1,8,0:0:0:0:
379,145,3751,1,8,0:0:0:0:
385,105,3836,1,8,0:0:0:0:
391,65,3921,1,8,0:0:0:0:
228,108,4092,6,0,L|298:161,1,81,0|0,0:0|0:0,0:0:0:0:
401,45,4433,2,0,L|320:79,1,81,0|0,0:0|0:0,0:0:0:0:
369,227,4774,1,0,0:0:0:0:
369,226,4944,2,0,L|379:138,1,81,0|0,0:0|0:0,0:0:0:0:
215,201,5285,2,0,L|225:281,1,81,0|0,0:0|0:0,0:0:0:0:
404,317,5626,5,8,0:0:0:0:
401,296,5711,1,8,0:0:0:0:
398,276,5796,1,0,0:0:0:0:
396,256,5881,1,0,0:0:0:0:
369,226,5967,1,8,0:0:0:0:
371,205,6052,1,0,0:0:0:0:
374,185,6137,1,0,0:0:0:0:
376,165,6222,1,0,0:0:0:0:
401,133,6308,6,0,L|409:81,1,40.5,8|0,0:0|0:0,0:0:0:0:
330,91,6479,2,0,L|338:39,1,40.5,0|8,0:0|0:0,0:0:0:0:
259,50,6649,1,0,0:0:0:0:
485,90,6819,6,0,L|472:170,1,81,6|0,0:0|0:0,0:0:0:0:
381,306,7160,2,0,L|368:225,1,81,0|2,0:0|0:0,0:0:0:0:
192,187,7501,1,0,0:0:0:0:
192,187,7672,2,0,L|272:174,1,81,0|0,0:0|0:0,0:0:0:0:
368,226,8013,1,2,0:0:0:0:
159,317,8183,5,0,0:0:0:0:
146,314,8240,1,0,0:0:0:0:
133,312,8297,1,0,0:0:0:0:
120,310,8354,5,14,0:0:0:0:
0,237,8524,1,0,0:0:0:0:
192,187,8694,1,8,0:0:0:0:
120,310,8865,1,0,0:0:0:0:
69,115,9035,5,8,0:0:0:0:
108,107,9120,1,8,0:0:0:0:
148,100,9205,1,0,0:0:0:0:
187,92,9290,1,0,0:0:0:0:
228,86,9376,2,0,L|301:96,1,40.5,8|0,0:0|0:0,0:0:0:0:
361,30,9547,1,0,0:0:0:0:
356,34,9632,1,0,0:0:0:0:
351,38,9717,6,0,P|347:66|346:83,2,27,8|0|0,0:0|0:0|0:0,0:0:0:0:
408,130,9944,5,8,0:0:0:0:
450,188,10057,5,0,0:0:0:0:
444,260,10171,5,8,0:0:0:0:
392,310,10284,5,0,0:0:0:0:
320,314,10399,6,0,P|276:314|230:329,1,64.799998022461,14|0,0:0|0:0,0:0:0:0:
173,249,10631,2,0,P|141:280|119:323,1,64.799998022461,10|0,0:0|0:0,0:0:0:0:
23,306,10864,2,0,P|23:349|38:396,1,64.799998022461,8|0,0:0|0:0,0:0:0:0:
267,215,11096,6,0,P|267:171|252:125,1,64.799998022461,8|0,0:0|0:0,0:0:0:0:
321,26,11328,2,0,P|282:47|250:83,1,64.799998022461,8|0,0:0|0:0,0:0:0:0:
130,73,11561,2,0,P|168:95|215:105,1,64.799998022461,0|0,0:0|0:0,0:0:0:0:
369,132,11794,6,0,P|416:123|441:108,2,64.799998022461,8|0|0,0:0|0:0|0:0,0:0:0:0:
165,193,12143,2,0,P|138:232|131:260,2,64.799998022461,8|0|0,0:0|0:0|0:0,0:0:0:0:
335,342,12492,6,0,P|347:304|344:264,1,81,14|0,0:0|0:0,0:0:0:0:
318,191,12763,1,0,0:0:0:0:
316,187,12853,1,10,0:0:0:0:
162,353,13034,2,0,B|53:363,1,81,0|10,0:0|0:0,0:0:0:0:
294,104,13395,2,0,B|374:111,1,81,0|10,0:0|0:0,0:0:0:0:
133,211,13757,1,0,0:0:0:0:
360,300,13937,6,0,P|416:313|458:304,1,81,10|0,0:0|0:0,0:0:0:0:
505,283,14208,1,0,0:0:0:0:
508,281,14299,1,10,0:0:0:0:
306,139,14479,1,0,0:0:0:0:
302,140,14570,1,0,0:0:0:0:
298,142,14660,1,10,0:0:0:0:
284,375,14841,1,0,0:0:0:0:
284,378,14932,1,0,0:0:0:0:
284,381,15022,1,10,0:0:0:0:
475,157,15202,1,0,0:0:0:0:
477,153,15293,1,0,0:0:0:0:
479,150,15383,6,0,P|475:104|460:50,1,81,10|0,0:0|0:0,0:0:0:0:
433,9,15654,1,0,0:0:0:0:
431,5,15745,1,10,0:0:0:0:
222,112,15925,2,0,L|128:126,1,81,0|10,0:0|0:0,0:0:0:0:
386,281,16287,2,0,L|480:295,1,81,0|10,0:0|0:0,0:0:0:0:
340,140,16648,1,0,0:0:0:0:
171,329,16829,5,10,0:0:0:0:
144,326,16919,1,0,0:0:0:0:
120,314,17009,1,0,0:0:0:0:
103,293,17100,1,0,0:0:0:0:
108,251,17190,5,10,0:0:0:0:
120,213,17280,1,0,0:0:0:0:
107,175,17370,1,0,0:0:0:0:
74,153,17461,1,0,0:0:0:0:
47,122,17552,5,10,0:0:0:0:
41,95,17642,1,0,0:0:0:0:
49,70,17732,1,0,0:0:0:0:
70,53,17823,1,0,0:0:0:0:
106,28,17913,5,8,0:0:0:0:
150,34,18003,1,8,0:0:0:0:
195,40,18094,1,8,0:0:0:0:
240,46,18184,1,8,0:0:0:0:
284,53,18275,6,0,L|395:75,1,81,6|0,0:0|0:0,0:0:0:0:
436,80,18546,1,0,0:0:0:0:
439,81,18636,1,10,0:0:0:0:
296,238,18817,2,0,P|246:231|216:204,1,81,0|10,0:0|0:0,0:0:0:0:
376,25,19178,2,0,P|409:2|449:0,1,81,0|10,0:0|0:0,0:0:0:0:
482,235,19540,1,0,0:0:0:0:
272,96,19720,6,0,P|226:80|166:82,1,81,10|0,0:0|0:0,0:0:0:0:
122,93,19991,1,0,0:0:0:0:
118,94,20082,1,10,0:0:0:0:
297,207,20263,1,0,0:0:0:0:
316,203,20353,1,0,0:0:0:0:
336,199,20443,2,0,L|434:180,1,81,10|0,0:0|0:0,0:0:0:0:
466,124,20714,1,0,0:0:0:0:
470,122,20805,1,10,0:0:0:0:
292,345,20985,1,0,0:0:0:0:
288,347,21076,1,0,0:0:0:0:
285,348,21166,6,0,P|213:354|177:351,1,81,10|0,0:0|0:0,0:0:0:0:
130,336,21437,1,0,0:0:0:0:
126,335,21528,1,10,0:0:0:0:
310,163,21708,2,0,P|326:95|322:50,1,81,0|10,0:0|0:0,0:0:0:0:
80,208,22070,2,0,P|64:276|68:321,1,81,0|10,0:0|0:0,0:0:0:0:
241,109,22431,1,0,0:0:0:0:
341,341,22612,5,12,0:0:0:0:
353,337,22702,1,8,0:0:0:0:
365,334,22793,2,0,P|387:299|390:278,1,40.5,2|2,0:0|0:0,0:0:0:0:
198,283,22973,1,8,0:0:0:0:
183,277,23063,1,8,0:0:0:0:
167,273,23154,2,0,P|139:227|135:208,1,40.5,2|2,0:0|0:0,0:0:0:0:
372,194,23335,1,8,0:0:0:0:
392,186,23425,1,8,0:0:0:0:
413,181,23516,2,0,P|438:152|444:124,1,40.5,2|2,0:0|0:0,0:0:0:0:
189,44,23696,5,8,0:0:0:0:
196,83,23786,1,8,0:0:0:0:
203,123,23876,1,10,0:0:0:0:
210,163,23967,1,8,0:0:0:0:
217,203,24058,5,6,0:0:0:0:
362,62,24238,1,10,0:0:0:0:
129,141,24419,1,0,0:0:0:0:
125,141,24510,1,0,0:0:0:0:
121,142,24600,2,0,P|75:153|38:152,1,81,10|0,0:0|0:0,0:0:0:0:
345,173,24961,2,0,P|373:201|393:236,1,81,10|0,0:0|0:0,0:0:0:0:
232,81,25323,1,10,0:0:0:0:
300,306,25504,6,0,P|306:349|284:398,1,81,0|10,0:0|0:0,0:0:0:0:
119,193,25865,1,0,0:0:0:0:
98,196,25956,1,0,0:0:0:0:
77,199,26046,1,10,0:0:0:0:
182,332,26227,1,0,0:0:0:0:
203,335,26317,1,0,0:0:0:0:
224,338,26408,1,10,0:0:0:0:
0,233,26588,2,0,P|-6:189|24:138,1,97.1999970336915,0|8,0:0|0:0,0:0:0:0:
254,51,26949,5,0,0:0:0:0:
177,238,27130,1,10,0:0:0:0:
399,129,27311,1,0,0:0:0:0:
402,128,27401,1,0,0:0:0:0:
406,127,27491,2,0,P|453:113|488:113,1,81,10|0,0:0|0:0,0:0:0:0:
302,352,27853,2,0,P|261:350|223:337,1,81,10|0,0:0|0:0,0:0:0:0:
459,261,28214,1,10,0:0:0:0:
229,153,28395,5,6,0:0:0:0:
209,156,28485,1,0,0:0:0:0:
189,160,28575,1,8,0:0:0:0:
169,164,28666,1,0,0:0:0:0:
127,151,28757,5,2,0:0:0:0:
144,186,28847,1,0,0:0:0:0:
141,226,28937,1,10,0:0:0:0:
117,258,29028,1,0,0:0:0:0:
75,279,29118,5,2,0:0:0:0:
96,281,29208,1,0,0:0:0:0:
115,286,29298,1,8,0:0:0:0:
134,293,29389,1,0,0:0:0:0:
162,324,29479,6,0,P|194:325|228:309,1,40.5,2|0,0:0|0:0,0:0:0:0:
295,231,29660,2,0,P|327:230|361:246,1,40.5,10|0,0:0|0:0,0:0:0:0:
440,330,29841,5,6,0:0:0:0:
407,128,30022,1,10,0:0:0:0:
267,349,30202,1,0,0:0:0:0:
263,350,30293,1,0,0:0:0:0:
259,351,30383,2,0,L|170:338,1,81,10|0,0:0|0:0,0:0:0:0:
432,223,30745,2,0,L|512:211,1,81,10|0,0:0|0:0,0:0:0:0:
288,102,31106,1,10,0:0:0:0:
148,265,31287,6,0,P|110:286|65:282,1,81,0|10,0:0|0:0,0:0:0:0:
265,151,31648,1,0,0:0:0:0:
268,131,31739,1,0,0:0:0:0:
272,109,31829,1,10,0:0:0:0:
86,165,32009,1,0,0:0:0:0:
89,185,32100,1,0,0:0:0:0:
91,205,32190,1,10,0:0:0:0:
325,48,32371,2,0,P|291:28|251:28,1,81,0|10,0:0|0:0,0:0:0:0:
150,271,32732,5,0,0:0:0:0:
335,188,32913,1,10,0:0:0:0:
136,64,33094,1,0,0:0:0:0:
132,62,33184,1,0,0:0:0:0:
128,59,33275,2,0,P|84:61|42:85,1,81,10|0,0:0|0:0,0:0:0:0:
2,134,33546,1,0,0:0:0:0:
0,137,33636,1,10,0:0:0:0:
213,227,33818,1,0,0:0:0:0:
218,205,33908,1,0,0:0:0:0:
223,184,33998,1,10,0:0:0:0:
26,245,34178,5,0,0:0:0:0:
39,304,34269,1,0,0:0:0:0:
52,363,34359,1,4,0:0:0:0:
284,256,34540,2,0,L|305:136,1,105.299995179749,12|0,3:0|0:0,0:0:0:0:
279,132,34810,1,0,0:0:0:0:
274,112,34901,1,4,0:0:0:0:
479,260,35082,6,0,B|439:237|439:237|376:263,1,105.299995179749,12|0,0:0|0:0,0:0:0:0:
378,277,35353,1,0,0:0:0:0:
372,297,35443,1,4,0:0:0:0:
206,193,35624,2,0,L|88:173,1,105.299995179749,12|0,0:0|0:0,0:0:0:0:
89,152,35895,1,0,0:0:0:0:
80,132,35985,1,4,0:0:0:0:
299,89,36166,1,12,0:0:0:0:
135,0,36347,5,0,0:0:0:0:
148,59,36438,1,0,0:0:0:0:
161,118,36528,1,0,0:0:0:0:
356,31,36708,1,8,0:0:0:0:
63,59,36889,1,8,0:0:0:0:
359,271,37070,6,0,P|401:294|448:299,1,81,6|10,0:0|0:0,0:0:0:0:
231,172,37431,1,0,0:0:0:0:
210,178,37521,1,0,0:0:0:0:
189,185,37611,1,10,0:0:0:0:
425,213,37793,1,0,0:0:0:0:
268,337,37973,1,10,0:0:0:0:
275,358,38063,1,0,0:0:0:0:
341,204,38245,1,0,0:0:0:0:
348,183,38335,1,10,0:0:0:0:
251,23,38516,6,0,L|271:131,1,81,0|10,0:0|0:0,0:0:0:0:
176,255,38876,1,0,0:0:0:0:
175,258,38967,1,0,0:0:0:0:
174,261,39057,1,10,0:0:0:0:
346,345,39238,1,0,0:0:0:0:
367,339,39328,1,0,0:0:0:0:
388,334,39418,1,10,0:0:0:0:
267,200,39600,1,0,0:0:0:0:
246,195,39690,1,0,0:0:0:0:
225,189,39780,1,10,0:0:0:0:
188,384,39961,6,0,L|300:358,1,81,0|10,0:0|0:0,0:0:0:0:
96,235,40323,1,0,0:0:0:0:
75,230,40413,1,0,0:0:0:0:
54,224,40503,1,10,0:0:0:0:
255,97,40684,1,0,0:0:0:0:
96,40,40865,1,10,0:0:0:0:
90,19,40955,1,0,0:0:0:0:
183,163,41136,1,0,0:0:0:0:
177,184,41226,1,10,0:0:0:0:
326,38,41407,6,0,P|373:34|411:53,1,81,0|10,0:0|0:0,0:0:0:0:
357,150,41769,1,0,0:0:0:0:
355,129,41860,1,0,0:0:0:0:
357,109,41950,1,10,0:0:0:0:
490,267,42130,1,2,0:0:0:0:
471,302,42220,1,8,0:0:0:0:
437,323,42310,1,8,0:0:0:0:
397,324,42401,1,8,0:0:0:0:
363,303,42491,1,8,0:0:0:0:
338,287,42581,1,8,0:0:0:0:
308,283,42671,1,0,0:0:0:0:
279,292,42762,1,0,0:0:0:0:
258,313,42853,6,0,P|212:334|147:330,1,81,14|0,0:0|0:0,0:0:0:0:
77,142,43214,2,0,P|117:148|153:167,1,81,10|0,0:0|0:0,0:0:0:0:
0,303,43576,5,10,0:0:0:0:
2,283,43666,1,0,0:0:0:0:
4,262,43757,2,0,L|10:211,1,40.5
153,167,43937,1,10,0:0:0:0:
155,188,44027,1,0,0:0:0:0:
157,208,44118,2,0,L|162:248,1,40.5,0|0,0:0|0:0,0:0:0:0:
8,107,44299,5,10,0:0:0:0:
6,87,44389,1,0,0:0:0:0:
4,66,44479,1,0,0:0:0:0:
2,45,44570,1,0,0:0:0:0:
0,24,44660,2,0,L|92:43,1,81,8|0,0:0|0:0,0:0:0:0:
137,93,44931,1,0,0:0:0:0:
140,91,45022,6,0,L|186:100,3,40.5,8|8|0|0,0:0|0:0|0:0|0:0,0:0:0:0:
368,187,45383,2,0,L|328:194,3,40.5,8|8|0|0,0:0|0:0|0:0|0:0,0:0:0:0:
239,287,45745,5,14,0:0:0:0:
243,246,45835,1,0,0:0:0:0:
247,206,45925,1,0,0:0:0:0:
251,166,46016,1,0,0:0:0:0:
255,125,46106,1,0,0:0:0:0:
132,267,46287,5,14,0:0:0:0:
87,265,46377,1,0,0:0:0:0:
50,243,46467,1,0,0:0:0:0:
28,205,46558,1,0,0:0:0:0:
28,161,46648,1,0,0:0:0:0:
255,302,46829,5,14,0:0:0:0:
304,299,46919,1,0,0:0:0:0:
345,275,47009,1,0,0:0:0:0:
369,233,47100,1,0,0:0:0:0:
369,185,47190,1,0,0:0:0:0:
126,33,47371,5,14,0:0:0:0:
131,86,47461,1,0,0:0:0:0:
136,138,47552,1,0,0:0:0:0:
141,190,47642,1,0,0:0:0:0:
147,244,47732,1,0,0:0:0:0:
239,49,47913,6,0,L|322:66,3,50.625,8|8|0|0,0:0|0:0|0:0|0:0,0:0:0:0:
346,195,48274,2,0,L|429:212,1,50.625,8|8,0:0|0:0,0:0:0:0:
196,299,48455,6,0,L|113:282,3,50.625,8|8|8|0,0:0|0:0|0:0|0:0,0:0:0:0:
89,153,48816,2,0,L|6:136,1,50.625,8|0,0:0|0:0,0:0:0:0:
235,59,48997,1,8,0:0:0:0:
237,54,49087,1,0,0:0:0:0:
239,49,49178,6,0,B|309:68|309:68|437:38,1,202.5,6|0,0:0|0:0,0:0:0:0:
507,18,49629,1,0,0:0:0:0:
512,17,49720,1,10,0:0:0:0:
346,195,49900,1,0,0:0:0:0:
321,189,49991,1,0,0:0:0:0:
296,183,50081,1,2,0:0:0:0:
496,109,50262,1,0,0:0:0:0:
383,306,50443,2,0,B|390:252|390:252|369:201,1,101.25,10|0,0:0|0:0,0:0:0:0:
324,147,50714,1,0,0:0:0:0:
311,125,50804,6,0,B|304:71|304:71|325:20,1,101.25,2|0,0:0|0:0,0:0:0:0:
398,0,51075,1,0,0:0:0:0:
402,1,51166,1,10,0:0:0:0:
198,114,51346,1,0,0:0:0:0:
421,230,51527,2,0,P|485:221|520:188,1,101.25,2|0,0:0|0:0,0:0:0:0:
217,33,51888,2,0,P|167:35|125:64,1,101.25,10|0,0:0|0:0,0:0:0:0:
285,275,52250,6,0,P|296:214|307:106,1,151.875,2|0,0:0|0:0,0:0:0:0:
290,52,52611,1,10,0:0:0:0:
122,220,52792,2,0,P|58:238|13:240,1,101.25,0|2,0:0|0:0,0:0:0:0:
280,131,53153,1,0,0:0:0:0:
304,137,53244,1,0,0:0:0:0:
328,143,53334,1,10,0:0:0:0:
125,38,53515,1,0,0:0:0:0:
101,44,53605,1,0,0:0:0:0:
75,51,53696,6,0,L|99:155,1,101.25,2|0,0:0|0:0,0:0:0:0:
122,220,53967,1,0,0:0:0:0:
124,224,54057,1,10,0:0:0:0:
251,32,54238,1,0,0:0:0:0:
287,285,54419,2,0,P|306:236|308:174,1,101.25,2|0,0:0|0:0,0:0:0:0:
289,117,54690,1,0,0:0:0:0:
286,112,54780,1,10,0:0:0:0:
406,342,54961,1,0,0:0:0:0:
409,345,55051,1,0,0:0:0:0:
412,348,55141,6,0,B|364:361|336:348|336:348|302:370|302:370|259:352|211:360,1,202.5,6|10,0:0|0:0,0:0:0:0:
46,205,55684,1,0,0:0:0:0:
256,43,55864,2,0,L|234:186,1,101.25,2|0,0:0|0:0,0:0:0:0:
227,213,56135,1,0,0:0:0:0:
227,218,56226,1,10,0:0:0:0:
87,0,56406,1,0,0:0:0:0:
87,4,56497,1,0,0:0:0:0:
88,8,56587,6,0,L|112:167,1,151.875,2|0,0:0|0:0,0:0:0:0:
127,229,56949,1,10,0:0:0:0:
325,110,57129,1,0,0:0:0:0:
223,334,57310,2,0,P|171:318|110:316,1,101.25,2|0,0:0|0:0,0:0:0:0:
382,191,57672,2,0,P|434:175|495:173,1,101.25,10|0,0:0|0:0,0:0:0:0:
241,53,58033,6,0,L|280:244,1,151.875,2|0,0:0|0:0,0:0:0:0:
293,275,58394,1,10,0:0:0:0:
96,128,58575,1,0,0:0:0:0:
331,115,58756,1,2,0:0:0:0:
354,107,58846,1,0,0:0:0:0:
378,100,58936,1,0,0:0:0:0:
137,211,59117,2,0,P|112:259|116:319,1,101.25,10|0,0:0|0:0,0:0:0:0:
144,372,59388,1,0,0:0:0:0:
169,368,59479,6,0,L|350:349,1,151.875,2|0,0:0|0:0,0:0:0:0:
396,342,59840,1,10,0:0:0:0:
168,230,60021,1,0,0:0:0:0:
392,247,60202,1,2,0:0:0:0:
413,225,60292,1,0,0:0:0:0:
422,196,60383,1,0,0:0:0:0:
418,166,60473,1,0,0:0:0:0:
394,133,60564,1,8,0:0:0:0:
378,95,60654,1,8,0:0:0:0:
386,55,60744,1,0,0:0:0:0:
414,26,60834,1,8,0:0:0:0:
452,12,60925,6,0,P|346:33|278:39,1,151.875,6|0,0:0|0:0,0:0:0:0:
228,27,61286,1,10,0:0:0:0:
388,144,61467,1,0,0:0:0:0:
383,120,61557,1,0,0:0:0:0:
378,95,61647,1,2,0:0:0:0:
221,194,61829,1,0,0:0:0:0:
216,219,61919,1,0,0:0:0:0:
211,243,62009,1,10,0:0:0:0:
461,106,62190,1,0,0:0:0:0:
459,101,62280,1,0,0:0:0:0:
458,96,62370,6,0,P|448:56|344:23,1,151.875,2|0,0:0|0:0,0:0:0:0:
287,54,62732,1,10,0:0:0:0:
434,227,62912,1,0,0:0:0:0:
201,108,63093,2,0,P|145:100|102:116,1,101.25,2|0,0:0|0:0,0:0:0:0:
394,303,63455,2,0,P|450:311|493:295,1,101.25,10|0,0:0|0:0,0:0:0:0:
257,209,63816,5,2,0:0:0:0:
458,96,63997,1,0,0:0:0:0:
454,121,64087,1,0,0:0:0:0:
451,146,64177,1,10,0:0:0:0:
278,16,64358,2,0,P|199:17|159:57,1,101.25,0|2,0:0|0:0,0:0:0:0:
133,82,64629,1,0,0:0:0:0:
130,86,64720,1,0,0:0:0:0:
308,276,64900,2,0,P|338:224|329:165,1,101.25,10|0,0:0|0:0,0:0:0:0:
293,122,65172,1,0,0:0:0:0:
270,133,65262,6,0,B|226:156|226:156|111:128,1,151.875,2|0,0:0|0:0,0:0:0:0:
57,104,65623,1,10,0:0:0:0:
179,297,65804,1,0,0:0:0:0:
3,196,65985,1,2,0:0:0:0:
26,188,66075,1,0,0:0:0:0:
50,180,66165,1,0,0:0:0:0:
116,353,66346,1,10,0:0:0:0:
92,345,66436,1,0,0:0:0:0:
69,337,66526,1,0,0:0:0:0:
224,74,66708,6,0,P|197:187|189:252,1,151.875,6|0,0:0|0:0,0:0:0:0:
179,297,67069,1,10,0:0:0:0:
81,113,67250,1,0,0:0:0:0:
277,214,67431,2,0,P|308:225|329:226,1,50.625,2|0,0:0|0:0,0:0:0:0:
421,154,67611,2,0,P|395:156|372:166,1,50.625,0|0,0:0|0:0,0:0:0:0:
406,332,67792,2,0,P|415:260|413:220,1,101.25,10|0,0:0|0:0,0:0:0:0:
421,154,68063,1,0,0:0:0:0:
437,135,68153,6,0,P|428:74|343:62,1,151.875,2|0,0:0|0:0,0:0:0:0:
286,104,68515,1,10,0:0:0:0:
449,266,68696,1,0,0:0:0:0:
190,310,68876,2,0,P|208:257|216:200,1,101.25,2|0,0:0|0:0,0:0:0:0:
206,142,69147,1,0,0:0:0:0:
205,136,69238,1,10,0:0:0:0:
347,353,69419,1,0,0:0:0:0:
348,348,69509,1,0,0:0:0:0:
349,343,69599,6,0,L|376:159,1,151.875,6|0,0:0|0:0,0:0:0:0:
381,119,69961,1,10,0:0:0:0:
189,257,70141,2,0,P|108:273|65:243,1,101.25,0|2,0:0|0:0,0:0:0:0:
43,117,70503,1,0,0:0:0:0:
47,141,70593,1,0,0:0:0:0:
38,165,70684,6,0,P|92:143|143:143,1,101.25,14|0,0:0|0:0,0:0:0:0:
201,179,70955,1,0,0:0:0:0:
205,176,71045,6,0,P|246:187|278:184,1,50.625,8|0,0:0|0:0,0:0:0:0:
293,62,71226,2,0,P|281:20|262:-5,1,50.625,8|0,3:0|3:0,3:0:0:0:
151,43,71406,6,0,P|141:67|137:90,2,33.75,8|8|8,0:0|0:0|0:0,0:0:0:0:
106,99,71587,6,0,P|130:137|147:152,1,50.625,8|0,0:0|0:0,0:0:0:0:
253,187,71768,5,8,0:0:0:0:
204,180,71858,1,8,0:0:0:0:
163,208,71948,1,8,0:0:0:0:
152,256,72039,1,8,0:0:0:0:
176,300,72129,2,0,P|229:303|252:289,1,50.625,8|0,0:0|0:0,0:0:0:0:
304,253,72310,2,0,P|333:207|333:180,1,50.625
164,314,72491,5,6,0:0:0:0:
421,365,72672,2,0,P|434:274|441:247,1,113.399996539307,10|0,0:0|0:0,0:0:0:0:
363,73,73033,2,0,P|315:95|240:99,1,113.399996539307,10|0,0:0|0:0,0:0:0:0:
78,13,73394,2,0,P|134:17|185:40,1,113.399996539307,10|0,0:0|0:0,0:0:0:0:
160,274,73756,1,10,0:0:0:0:
255,100,73937,6,0,P|267:170|247:221,1,113.399996539307,0|10,0:0|0:0,0:0:0:0:
59,330,74298,2,0,P|45:275|58:220,1,113.399996539307,0|10,0:0|0:0,0:0:0:0:
273,285,74659,2,0,L|135:272,1,113.399996539307,0|10,0:0|0:0,0:0:0:0:
35,146,75021,2,0,L|147:126,1,113.399996539307,0|10,0:0|0:0,0:0:0:0:
267,0,75382,5,0,0:0:0:0:
351,220,75563,1,10,0:0:0:0:
458,23,75744,1,0,0:0:0:0:
452,50,75834,1,0,0:0:0:0:
446,78,75925,1,10,0:0:0:0:
271,182,76105,6,0,L|259:119,1,56.6999982696534,0|0,0:0|0:0,0:0:0:0:
188,164,76286,2,0,L|176:101,1,56.6999982696534,10|0,0:0|0:0,0:0:0:0:
106,147,76467,1,0,0:0:0:0:
291,258,76647,1,10,0:0:0:0:
318,263,76737,1,0,0:0:0:0:
347,269,76828,5,0,0:0:0:0:
446,78,77009,1,10,0:0:0:0:
271,182,77190,1,0,0:0:0:0:
244,187,77281,1,0,0:0:0:0:
217,192,77371,1,10,0:0:0:0:
142,42,77551,6,0,L|198:48,1,56.6999982696534
138,208,77732,2,0,L|82:220,1,56.6999982696534,10|0,0:0|0:0,0:0:0:0:
303,108,77912,1,0,0:0:0:0:
338,130,78002,1,2,0:0:0:0:
355,168,78092,1,10,0:0:0:0:
349,210,78183,1,2,0:0:0:0:
320,241,78274,5,6,0:0:0:0:
499,73,78455,2,0,P|475:134|462:199,1,113.399996539307,10|0,0:0|0:0,0:0:0:0:
342,318,78816,2,0,P|279:313|235:257,1,113.399996539307,10|0,0:0|0:0,0:0:0:0:
66,185,79178,2,0,P|117:208|171:197,1,113.399996539307,10|0,0:0|0:0,0:0:0:0:
322,72,79539,1,10,0:0:0:0:
171,196,79720,6,0,P|157:250|170:305,1,113.399996539307,0|10,0:0|0:0,0:0:0:0:
367,185,80081,2,0,P|379:130|365:75,1,113.399996539307,0|10,0:0|0:0,0:0:0:0:
151,121,80443,2,0,L|40:101,1,113.399996539307,0|10,0:0|0:0,0:0:0:0:
278,280,80804,2,0,L|390:260,1,113.399996539307,0|10,0:0|0:0,0:0:0:0:
488,92,81166,5,0,0:0:0:0:
464,303,81346,1,10,0:0:0:0:
318,101,81527,1,0,0:0:0:0:
324,128,81618,1,0,0:0:0:0:
330,157,81708,1,10,0:0:0:0:
152,269,81888,6,0,L|165:208,1,56.6999982696534,0|0,0:0|0:0,0:0:0:0:
85,216,82069,2,0,L|98:155,1,56.6999982696534,10|0,0:0|0:0,0:0:0:0:
18,163,82250,1,0,0:0:0:0:
235,246,82431,2,0,L|248:185,1,56.6999982696534,10|0,0:0|0:0,0:0:0:0:
241,94,82611,5,0,0:0:0:0:
213,102,82703,1,0,0:0:0:0:
186,110,82793,1,10,0:0:0:0:
374,209,82973,1,0,0:0:0:0:
402,200,83063,1,0,0:0:0:0:
429,192,83153,1,10,0:0:0:0:
210,331,83334,5,0,0:0:0:0:
311,90,83515,1,14,0:0:0:0:
64,229,83696,1,0,0:0:0:0:
326,277,83876,1,14,0:0:0:0:
48,341,84057,5,6,0:0:0:0:
190,135,84238,2,0,L|172:270,1,113.399996539307,10|0,0:0|0:0,0:0:0:0:
345,54,84599,2,0,P|396:36|468:39,1,113.399996539307,10|0,0:0|0:0,0:0:0:0:
175,247,84961,2,0,P|118:247|65:229,1,113.399996539307,10|0,0:0|0:0,0:0:0:0:
308,153,85322,1,10,0:0:0:0:
124,14,85503,6,0,L|143:164,1,113.399996539307,0|10,0:0|0:0,0:0:0:0:
318,242,85864,2,0,L|332:129,1,113.399996539307,0|10,0:0|0:0,0:0:0:0:
107,208,86226,2,0,L|121:320,1,113.399996539307,0|10,0:0|0:0,0:0:0:0:
332,129,86587,2,0,L|346:16,1,113.399996539307,0|10,0:0|0:0,0:0:0:0:
122,120,86949,5,0,0:0:0:0:
318,242,87129,1,10,0:0:0:0:
133,316,87310,1,0,0:0:0:0:
127,318,87400,1,0,0:0:0:0:
121,320,87491,2,0,L|107:208,1,113.399996539307,10|0,0:0|0:0,0:0:0:0:
407,203,87852,2,0,L|393:315,1,113.399996539307,10|0,0:0|0:0,0:0:0:0:
198,161,88214,1,10,0:0:0:0:
363,128,88394,5,0,0:0:0:0:
390,122,88484,1,0,0:0:0:0:
418,117,88574,1,10,0:0:0:0:
254,7,88756,1,0,0:0:0:0:
259,34,88846,1,0,0:0:0:0:
264,62,88936,1,10,0:0:0:0:
144,179,89117,6,0,P|172:173|198:161,1,56.6999982696534,0|0,0:0|0:0,0:0:0:0:
53,33,89298,2,0,P|27:20|0:14,1,56.6999982696534,10|0,0:0|0:0,0:0:0:0:
76,255,89479,1,0,0:0:0:0:
118,261,89569,1,0,0:0:0:0:
160,267,89659,1,10,0:0:0:0:
202,273,89750,1,0,0:0:0:0:
244,279,89840,5,6,0:0:0:0:
409,94,90021,2,0,L|387:227,1,113.399996539307,10|0,0:0|0:0,0:0:0:0:
201,0,90382,2,0,L|219:111,1,113.399996539307,10|0,0:0|0:0,0:0:0:0:
390,205,90744,2,0,L|283:165,1,113.399996539307,10|0,0:0|0:0,0:0:0:0:
423,17,91105,1,10,0:0:0:0:
473,240,91286,6,0,P|468:308|438:352,1,113.399996539307,0|10,0:0|0:0,0:0:0:0:
255,270,91647,2,0,P|260:202|290:158,1,113.399996539307,0|10,0:0|0:0,0:0:0:0:
440,27,92009,1,0,0:0:0:0:
383,34,92099,1,8,0:0:0:0:
327,41,92189,1,8,0:0:0:0:
271,48,92280,1,8,0:0:0:0:
214,55,92370,5,8,0:0:0:0:
249,77,92460,1,0,0:0:0:0:
285,100,92550,1,8,0:0:0:0:
321,123,92641,1,0,0:0:0:0:
357,146,92732,5,14,0:0:0:0:
357,146,92822,1,0,0:0:0:0:
357,146,92912,2,0,P|368:188|357:225,1,60.7500023174287,0|0,0:0|0:0,0:0:0:0:
147,224,93093,1,14,0:0:0:0:
130,249,93184,1,0,0:0:0:0:
129,279,93274,2,0,P|174:289|199:289,1,60.7500023174287,0|0,0:0|0:0,0:0:0:0:
388,349,93455,1,14,0:0:0:0:
404,309,93545,1,0,0:0:0:0:
398,266,93635,2,0,P|381:225|355:204,1,60.7500023174287,0|0,0:0|0:0,0:0:0:0:
227,167,93816,1,14,0:0:0:0:
212,114,93906,1,0,0:0:0:0:
232,63,93996,2,0,P|270:49|327:51,1,60.7500023174287,0|0,0:0|0:0,0:0:0:0:
422,133,94178,5,6,0:0:0:0:
399,197,94268,1,8,0:0:0:0:
339,232,94358,1,8,0:0:0:0:
271,219,94448,1,8,0:0:0:0:
227,167,94539,1,8,0:0:0:0:
182,114,94630,1,8,0:0:0:0:
114,101,94720,1,8,0:0:0:0:
54,136,94810,1,8,0:0:0:0:
32,201,94900,6,0,L|45:287,2,60.7500023174287,8|0|0,0:0|0:0|0:0,0:0:0:0:
323,140,95172,2,0,L|332:79,2,60.7500023174287,0|0|0,0:0|0:0|0:0,0:0:0:0:
113,291,95443,2,0,L|122:351,1,60.7500023174287,0|0,0:0|0:0,0:0:0:0:
395,177,95623,6,0,L|413:57,1,113.399996539307,14|14,0:0|0:0,0:0:0:0:
187,61,95985,2,0,L|171:159,1,56.6999982696534,0|0,0:0|0:0,0:0:0:0:
248,139,96166,2,0,L|261:46,1,81,14|0,0:0|0:0,0:0:0:0:
54,136,96527,2,0,L|66:216,1,81,10|0,0:0|0:0,0:0:0:0:
187,61,96888,1,10,0:0:0:0:
292,245,97069,6,0,P|344:260|402:254,1,81,0|10,0:0|0:0,0:0:0:0:
434,228,97340,1,0,0:0:0:0:
437,226,97431,1,0,0:0:0:0:
286,380,97611,1,10,0:0:0:0:
282,381,97702,1,0,0:0:0:0:
278,382,97792,1,0,0:0:0:0:
220,174,97973,1,10,0:0:0:0:
221,170,98064,1,0,0:0:0:0:
222,166,98154,1,0,0:0:0:0:
424,337,98334,1,10,0:0:0:0:
206,263,98515,6,0,L|91:288,1,81,0|10,0:0|0:0,0:0:0:0:
372,102,98876,2,0,L|426:112,1,40.5,0|0,0:0|0:0,0:0:0:0:
418,181,99057,2,0,L|338:165,1,81,10|0,0:0|0:0,0:0:0:0:
172,58,99419,2,0,L|251:42,1,81,10|0,0:0|0:0,0:0:0:0:
372,102,99780,1,10,0:0:0:0:
80,6,99961,5,4,0:0:0:0:
83,30,100051,1,0,0:0:0:0:
88,56,100141,1,10,0:0:0:0:
93,82,100232,1,0,0:0:0:0:
125,109,100322,5,0,0:0:0:0:
148,141,100412,1,0,0:0:0:0:
143,180,100502,1,10,0:0:0:0:
113,205,100593,1,0,0:0:0:0:
89,240,100684,5,0,0:0:0:0:
96,268,100774,1,0,0:0:0:0:
111,290,100864,1,10,0:0:0:0:
133,305,100955,1,0,0:0:0:0:
174,297,101045,5,0,0:0:0:0:
195,309,101135,1,0,0:0:0:0:
218,314,101225,1,10,0:0:0:0:
242,312,101316,1,0,0:0:0:0:
276,286,101406,6,0,P|333:302|381:327,1,81,6|10,0:0|0:0,0:0:0:0:
465,154,101768,2,0,P|445:158|426:166,1,40.5,0|0,0:0|0:0,0:0:0:0:
427,244,101949,2,0,P|464:228|503:219,1,81,10|0,0:0|0:0,0:0:0:0:
338,48,102310,2,0,P|298:57|261:72,1,81,10|0,0:0|0:0,0:0:0:0:
465,154,102672,1,10,0:0:0:0:
276,286,102852,5,0,0:0:0:0:
316,142,103033,1,10,0:0:0:0:
311,163,103124,1,0,0:0:0:0:
307,184,103214,1,0,0:0:0:0:
202,63,103395,1,10,0:0:0:0:
391,150,103575,1,0,0:0:0:0:
387,129,103665,1,0,0:0:0:0:
382,108,103756,1,10,0:0:0:0:
216,248,103937,2,0,L|236:142,1,81,0|10,0:0|0:0,0:0:0:0:
375,30,104298,6,0,P|421:32|448:56,1,81,4|10,0:0|0:0,0:0:0:0:
215,95,104659,2,0,L|234:29,1,40.5,0|0,0:0|0:0,0:0:0:0:
231,169,104840,2,0,P|185:167|158:143,1,81,10|0,0:0|0:0,0:0:0:0:
95,13,105111,1,0,0:0:0:0:
99,8,105202,2,0,P|120:49|112:85,1,81,10|0,0:0|0:0,0:0:0:0:
31,199,105473,1,0,0:0:0:0:
26,202,105563,2,0,P|50:164|85:152,1,81,10|0,0:0|0:0,0:0:0:0:
231,169,105925,5,8,0:0:0:0:
113,81,106065,5,8,0:0:0:0:
248,22,106206,5,8,0:0:0:0:
325,129,106558,5,8,0:0:0:0:
319,156,106648,1,8,0:0:0:0:
314,184,106738,1,0,0:0:0:0:
308,212,106829,1,0,0:0:0:0:
322,240,106919,5,0,0:0:0:0:
315,273,107009,1,0,0:0:0:0:
309,307,107099,1,0,0:0:0:0:
303,340,107190,1,0,0:0:0:0:
279,362,107280,5,8,0:0:0:0:
242,328,107370,1,8,0:0:0:0:
240,279,107460,1,8,0:0:0:0:
273,242,107551,1,8,0:0:0:0:
322,240,107642,6,0,B|380:262|380:262|474:230,1,151.875,6|0,0:0|0:0,0:0:0:0:
512,174,108003,1,10,0:0:0:0:
386,352,108184,1,0,0:0:0:0:
384,186,108364,1,2,0:0:0:0:
385,160,108454,1,0,0:0:0:0:
387,135,108544,1,0,0:0:0:0:
240,279,108726,2,0,P|173:300|121:272,1,101.25,10|0,0:0|0:0,0:0:0:0:
74,323,108997,1,0,0:0:0:0:
54,339,109087,6,0,P|74:264|76:224,1,101.25,2|0,0:0|0:0,0:0:0:0:
49,172,109358,1,0,0:0:0:0:
47,167,109449,1,10,0:0:0:0:
259,202,109629,1,0,0:0:0:0:
184,1,109810,2,0,L|165:104,1,101.25,2|0,0:0|0:0,0:0:0:0:
360,242,110172,2,0,L|341:142,1,101.25,10|0,0:0|0:0,0:0:0:0:
128,177,110533,6,0,P|91:242|111:328,1,151.875,2|0,0:0|0:0,0:0:0:0:
156,370,110895,1,10,0:0:0:0:
22,219,111075,1,0,0:0:0:0:
220,306,111256,1,2,0:0:0:0:
244,310,111346,1,0,0:0:0:0:
269,308,111436,1,0,0:0:0:0:
89,173,111617,2,0,P|37:139|-18:151,1,101.25,10|0,0:0|0:0,0:0:0:0:
22,219,111888,1,0,0:0:0:0:
32,242,111979,6,0,P|47:280|53:352,1,101.25,2|0,0:0|0:0,0:0:0:0:
122,380,112250,1,0,0:0:0:0:
124,384,112340,1,10,0:0:0:0:
190,146,112521,1,0,0:0:0:0:
304,334,112702,2,0,P|361:352|418:320,1,101.25,2|0,0:0|0:0,0:0:0:0:
240,82,113063,2,0,P|183:64|126:96,1,101.25,10|0,0:0|0:0,0:0:0:0:
53,339,113425,6,0,P|133:310|192:302,1,101.25,6|0,0:0|0:0,0:0:0:0:
222,308,113696,1,0,0:0:0:0:
226,309,113786,1,10,0:0:0:0:
13,219,113967,1,0,0:0:0:0:
257,145,114148,1,2,0:0:0:0:
250,169,114238,1,0,0:0:0:0:
244,194,114328,1,0,0:0:0:0:
412,26,114509,2,0,L|439:159,1,101.25,10|0,0:0|0:0,0:0:0:0:
453,198,114780,1,0,0:0:0:0:
477,190,114870,6,0,L|448:348,1,151.875,2|0,0:0|0:0,0:0:0:0:
387,384,115232,1,10,0:0:0:0:
197,253,115413,1,0,0:0:0:0:
385,135,115593,2,0,L|364:245,1,101.25,2|0,0:0|0:0,0:0:0:0:
123,316,115955,2,0,B|125:316|117:289|102:206,1,101.25,10|0,0:0|0:0,0:0:0:0:
324,46,116316,6,0,L|295:204,1,151.875,2|0,0:0|0:0,0:0:0:0:
278,270,116678,1,10,0:0:0:0:
86,144,116858,1,0,0:0:0:0:
313,195,117039,1,2,0:0:0:0:
337,198,117129,1,0,0:0:0:0:
363,196,117219,1,0,0:0:0:0:
180,29,117401,2,0,B|178:29|185:55|201:139,1,101.25,10|0,0:0|0:0,0:0:0:0:
219,204,117672,1,0,0:0:0:0:
225,228,117762,6,0,B|191:267|191:267|83:251,1,151.875,2|0,0:0|0:0,0:0:0:0:
17,236,118123,1,10,0:0:0:0:
212,360,118304,1,0,0:0:0:0:
198,128,118485,1,2,0:0:0:0:
176,141,118575,1,0,0:0:0:0:
151,146,118666,2,0,P|134:146|99:134,1,50.625,0|0,0:0|0:0,0:0:0:0:
303,294,118846,5,8,0:0:0:0:
341,309,118936,1,8,0:0:0:0:
382,305,119026,1,8,0:0:0:0:
417,283,119117,1,0,0:0:0:0:
438,247,119208,6,0,P|437:185|460:89,1,151.875,6|0,0:0|0:0,0:0:0:0:
492,33,119569,1,10,0:0:0:0:
360,216,119750,1,0,0:0:0:0:
337,55,119931,1,2,0:0:0:0:
319,37,120021,1,0,0:0:0:0:
297,25,120112,1,0,0:0:0:0:
273,19,120202,1,0,0:0:0:0:
248,20,120292,1,10,0:0:0:0:
56,152,120473,1,0,0:0:0:0:
60,154,120563,1,0,0:0:0:0:
64,156,120654,6,0,B|119:177|119:177|206:135,1,151.875,2|0,0:0|0:0,0:0:0:0:
267,96,121015,1,10,0:0:0:0:
42,60,121196,1,0,0:0:0:0:
333,162,121376,2,0,L|357:56,1,101.25,2|0,0:0|0:0,0:0:0:0:
79,238,121738,2,0,L|103:344,1,101.25,10|0,0:0|0:0,0:0:0:0:
362,324,122099,6,0,P|382:265|378:216,1,101.25,2|0,0:0|0:0,0:0:0:0:
337,166,122370,1,0,0:0:0:0:
333,162,122461,1,10,0:0:0:0:
480,303,122642,1,0,0:0:0:0:
264,214,122822,1,2,0:0:0:0:
239,221,122912,1,0,0:0:0:0:
215,229,123002,1,0,0:0:0:0:
379,45,123184,2,0,L|356:175,1,101.25,10|0,0:0|0:0,0:0:0:0:
391,213,123455,1,0,0:0:0:0:
402,235,123545,6,0,P|418:276|405:338,1,101.25,2|0,0:0|0:0,0:0:0:0:
353,382,123816,1,0,0:0:0:0:
348,383,123907,1,10,0:0:0:0:
270,170,124087,1,0,0:0:0:0:
408,331,124268,2,0,L|508:350,1,101.25,2|0,0:0|0:0,0:0:0:0:
218,245,124629,2,0,L|118:265,1,101.25,10|0,0:0|0:0,0:0:0:0:
287,6,124991,6,0,P|340:57|342:131,1,151.875,6|0,0:0|0:0,0:0:0:0:
270,170,125352,1,10,0:0:0:0:
456,37,125533,1,0,0:0:0:0:
410,235,125714,1,2,0:0:0:0:
405,210,125804,1,0,0:0:0:0:
401,185,125894,1,0,0:0:0:0:
397,160,125985,1,0,0:0:0:0:
393,135,126075,1,10,0:0:0:0:
254,290,126256,1,0,0:0:0:0:
251,294,126346,1,0,0:0:0:0:
247,297,126437,6,0,P|207:322|118:304,1,101.25,2|0,0:0|0:0,0:0:0:0:
84,293,126708,1,0,0:0:0:0:
79,290,126798,1,10,0:0:0:0:
278,199,126979,1,0,0:0:0:0:
6,253,127160,2,0,P|-4:314|21:353,1,101.25,2|0,0:0|0:0,0:0:0:0:
350,238,127521,2,0,P|360:177|335:138,1,101.25,10|0,0:0|0:0,0:0:0:0:
138,23,127882,6,0,L|166:199,1,151.875,6|0,0:0|0:0,0:0:0:0:
179,245,128244,1,10,0:0:0:0:
1,127,128425,1,0,0:0:0:0:
247,166,128605,1,2,0:0:0:0:
271,170,128695,1,0,0:0:0:0:
296,174,128785,1,0,0:0:0:0:
321,178,128876,1,0,0:0:0:0:
346,182,128966,1,10,0:0:0:0:
103,310,129148,1,0,0:0:0:0:
98,312,129238,1,0,0:0:0:0:
94,315,129328,5,8,0:0:0:0:
296,49,129599,1,8,0:0:0:0:
425,356,129870,1,8,0:0:0:0:
425,356,130774,5,6,0:0:0:0:
164,196,130955,1,10,0:0:0:0:
419,105,131135,1,0,0:0:0:0:
419,110,131226,1,0,0:0:0:0:
417,115,131316,2,0,L|375:260,1,113.399996539307,10|0,0:0|0:0,0:0:0:0:
124,300,131678,2,0,L|233:269,1,113.399996539307,10|0,0:0|0:0,0:0:0:0:
305,243,131949,1,0,0:0:0:0:
310,241,132039,1,10,0:0:0:0:
78,191,132220,5,0,0:0:0:0:
294,318,132401,1,10,0:0:0:0:
198,89,132581,1,0,0:0:0:0:
192,116,132671,1,0,0:0:0:0:
187,144,132761,1,10,0:0:0:0:
390,219,132943,1,0,0:0:0:0:
385,191,133033,1,0,0:0:0:0:
379,164,133123,1,10,0:0:0:0:
191,236,133304,1,0,0:0:0:0:
185,263,133394,1,0,0:0:0:0:
180,291,133484,1,10,0:0:0:0:
175,319,133575,1,0,0:0:0:0:
171,346,133666,6,0,L|290:316,1,113.399996539307,0|10,0:0|0:0,0:0:0:0:
61,179,134027,1,0,0:0:0:0:
66,206,134117,1,0,0:0:0:0:
71,234,134207,1,10,0:0:0:0:
268,166,134388,6,0,L|258:105,1,56.6999982696534,0|0,0:0|0:0,0:0:0:0:
187,144,134569,2,0,L|177:83,1,56.6999982696534,10|0,0:0|0:0,0:0:0:0:
106,122,134750,1,0,0:0:0:0:
368,51,134931,1,10,0:0:0:0:
362,77,135021,1,0,0:0:0:0:
358,105,135111,1,0,0:0:0:0:
354,133,135202,1,0,0:0:0:0:
348,161,135292,1,10,0:0:0:0:
209,273,135473,1,0,0:0:0:0:
203,245,135563,1,0,0:0:0:0:
199,217,135654,1,10,0:0:0:0:
355,338,135834,6,0,L|416:357,1,56.6999982696534,0|0,0:0|0:0,0:0:0:0:
457,207,136015,2,0,L|511:225,1,56.6999982696534,10|0,0:0|0:0,0:0:0:0:
250,343,136196,1,0,0:0:0:0:
210,329,136286,1,2,0:0:0:0:
184,296,136376,1,10,0:0:0:0:
180,254,136467,1,2,0:0:0:0:
199,217,136557,5,6,0:0:0:0:
479,342,136738,1,10,0:0:0:0:
325,116,136919,1,0,0:0:0:0:
325,121,137009,1,0,0:0:0:0:
325,126,137099,2,0,L|341:263,1,113.399996539307,10|0,0:0|0:0,0:0:0:0:
81,351,137461,2,0,L|94:238,1,113.399996539307,10|0,0:0|0:0,0:0:0:0:
102,161,137732,1,0,0:0:0:0:
103,155,137822,1,10,0:0:0:0:
291,301,138003,5,0,0:0:0:0:
50,232,138184,1,10,0:0:0:0:
254,90,138364,1,0,0:0:0:0:
248,118,138454,1,0,0:0:0:0:
243,146,138544,1,10,0:0:0:0:
64,84,138726,1,0,0:0:0:0:
58,56,138816,1,0,0:0:0:0:
53,28,138906,1,10,0:0:0:0:
179,203,139087,1,0,0:0:0:0:
173,231,139177,1,0,0:0:0:0:
168,259,139267,1,10,0:0:0:0:
163,287,139358,1,0,0:0:0:0:
158,315,139449,6,0,L|31:293,1,113.399996539307,6|10,0:0|0:0,0:0:0:0:
268,166,139810,1,0,0:0:0:0:
296,160,139900,1,0,0:0:0:0:
324,155,139990,1,10,0:0:0:0:
443,326,140172,6,0,L|427:252,1,56.6999982696534,0|0,0:0|0:0,0:0:0:0:
361,305,140352,2,0,L|345:231,1,56.6999982696534,10|0,0:0|0:0,0:0:0:0:
281,284,140533,1,0,0:0:0:0:
480,183,140714,1,10,0:0:0:0:
309,28,140895,5,0,0:0:0:0:
299,23,140985,1,0,0:0:0:0:
288,22,141075,5,8,0:0:0:0:
233,34,141165,1,8,0:0:0:0:
193,73,141255,1,8,0:0:0:0:
179,127,141346,1,8,0:0:0:0:
195,181,141436,1,8,0:0:0:0:
236,218,141526,1,8,0:0:0:0:
291,228,141617,6,0,L|354:214,1,56.6999982696534,8|8,0:0|0:0,0:0:0:0:
491,174,141798,2,0,L|435:161,1,56.6999982696534,8|8,0:0|0:0,0:0:0:0:
288,22,141979,6,0,L|351:36,1,56.6999982696534,8|8,0:0|0:0,0:0:0:0:
428,242,142160,2,0,L|372:254,1,56.6999982696534,8|8,0:0|0:0,0:0:0:0:
236,90,142340,5,6,0:0:0:0:
193,73,142430,1,0,0:0:0:0:
147,80,142520,1,10,0:0:0:0:
111,110,142611,1,0,0:0:0:0:
95,154,142702,2,0,L|108:216,1,56.6999982696534,0|0,0:0|0:0,0:0:0:0:
44,307,142882,1,10,0:0:0:0:
102,310,142973,1,0,0:0:0:0:
152,337,143063,2,0,L|164:273,1,56.6999982696534,0|0,0:0|0:0,0:0:0:0:
236,217,143244,1,10,0:0:0:0:
287,214,143335,1,0,0:0:0:0:
330,189,143425,2,0,L|342:253,1,56.6999982696534,0|0,0:0|0:0,0:0:0:0:
261,361,143605,2,0,L|251:306,1,56.6999982696534,10|0,0:0|0:0,0:0:0:0:
361,113,143786,5,0,0:0:0:0:
406,91,143876,1,0,0:0:0:0:
458,96,143967,2,0,P|498:104|529:117,1,56.6999982696534,10|0,0:0|0:0,0:0:0:0:
415,196,144148,1,0,0:0:0:0:
456,213,144238,1,0,0:0:0:0:
485,248,144329,2,0,P|504:278|515:305,1,56.6999982696534,10|0,0:0|0:0,0:0:0:0:
340,244,144509,1,0,0:0:0:0:
355,281,144599,1,0,0:0:0:0:
352,321,144690,2,0,P|345:356|333:383,1,56.6999982696534,10|0,0:0|0:0,0:0:0:0:
202,286,144870,1,0,0:0:0:0:
161,302,144960,1,0,0:0:0:0:
116,299,145051,2,0,P|77:291|46:278,1,56.6999982696534,10|0,0:0|0:0,0:0:0:0:
250,103,145232,5,0,0:0:0:0:
293,86,145322,1,0,0:0:0:0:
339,93,145412,1,10,0:0:0:0:
375,123,145503,1,0,0:0:0:0:
391,167,145594,2,0,L|373:231,1,56.6999982696534,0|0,0:0|0:0,0:0:0:0:
368,334,145774,1,10,0:0:0:0:
319,304,145864,1,0,0:0:0:0:
262,311,145955,2,0,P|233:328|199:337,1,56.6999982696534,0|0,0:0|0:0,0:0:0:0:
113,373,146135,1,10,0:0:0:0:
86,329,146225,1,0,0:0:0:0:
92,278,146316,2,0,P|106:256|116:225,1,56.6999982696534,0|0,0:0|0:0,0:0:0:0:
249,207,146497,2,0,P|235:182|226:155,1,56.6999982696534,10|0,0:0|0:0,0:0:0:0:
163,33,146678,5,0,0:0:0:0:
109,17,146768,1,0,0:0:0:0:
59,40,146858,1,10,0:0:0:0:
36,90,146949,1,0,0:0:0:0:
51,142,147039,1,0,0:0:0:0:
98,173,147129,1,0,0:0:0:0:
144,202,147220,1,10,0:0:0:0:
160,255,147310,1,0,0:0:0:0:
137,306,147401,1,0,0:0:0:0:
86,329,147491,1,0,0:0:0:0:
33,313,147581,6,0,L|68:240,1,56.6999982696534,14|0,0:0|0:0,0:0:0:0:
282,199,147762,2,0,L|201:205,1,56.6999982696534
59,40,147943,2,0,L|104:106,1,56.6999982696534,14|0,0:0|0:0,0:0:0:0:
157,282,148123,5,6,0:0:0:0:
203,286,148213,1,0,0:0:0:0:
249,293,148303,1,10,0:0:0:0:
295,304,148394,1,0,0:0:0:0:
339,319,148485,2,0,P|384:331|412:336,1,56.6999982696534,0|0,0:0|0:0,0:0:0:0:
494,146,148666,1,10,0:0:0:0:
437,152,148756,1,0,0:0:0:0:
398,193,148846,2,0,P|386:226|389:266,1,56.6999982696534,0|0,0:0|0:0,0:0:0:0:
218,60,149027,1,10,0:0:0:0:
267,74,149117,1,0,0:0:0:0:
298,115,149208,2,0,P|309:150|308:190,1,56.6999982696534,0|0,0:0|0:0,0:0:0:0:
166,240,149388,2,0,P|155:275|156:315,1,56.6999982696534,10|0,0:0|0:0,0:0:0:0:
34,115,149569,5,0,0:0:0:0:
25,64,149660,1,0,0:0:0:0:
46,17,149750,2,0,P|83:29|109:56,1,56.6999982696534,10|0,0:0|0:0,0:0:0:0:
166,240,149931,1,0,0:0:0:0:
154,283,150021,1,0,0:0:0:0:
173,323,150111,2,0,P|202:313|223:291,1,56.6999982696534,10|0,0:0|0:0,0:0:0:0:
298,115,150293,1,0,0:0:0:0:
287,76,150383,1,0,0:0:0:0:
302,39,150473,2,0,P|331:48|352:70,1,56.6999982696534,10|0,0:0|0:0,0:0:0:0:
400,179,150654,1,0,0:0:0:0:
412,222,150744,1,0,0:0:0:0:
393,262,150834,2,0,P|363:252|342:230,1,56.6999982696534,10|0,0:0|0:0,0:0:0:0:
115,243,151015,5,4,0:0:0:0:
91,296,151105,1,0,0:0:0:0:
106,350,151196,1,10,0:0:0:0:
152,383,151286,1,0,0:0:0:0:
209,378,151376,1,0,0:0:0:0:
249,337,151467,1,0,0:0:0:0:
253,282,151557,5,10,0:0:0:0:
226,224,151648,1,0,0:0:0:0:
243,165,151739,1,0,0:0:0:0:
293,128,151829,1,0,0:0:0:0:
356,134,151919,1,10,0:0:0:0:
400,179,152009,1,0,0:0:0:0:
404,240,152099,6,0,L|326:227,1,56.6999982696534
187,174,152280,2,0,L|265:161,1,56.6999982696534,10|0,0:0|0:0,0:0:0:0:
368,44,152461,5,6,0:0:0:0:
302,7,152552,1,8,0:0:0:0:
228,7,152642,1,8,0:0:0:0:
162,39,152732,1,8,0:0:0:0:
120,100,152823,1,8,0:0:0:0:
110,172,152913,1,8,0:0:0:0:
135,243,153003,1,8,0:0:0:0:
189,292,153094,1,0,0:0:0:0:
260,310,153184,6,0,P|307:308|340:295,1,56.6999982696534,8|8,0:0|0:0,0:0:0:0:
423,336,153364,2,0,P|454:301|468:268,1,56.6999982696534,0|0,0:0|0:0,0:0:0:0:
368,44,153545,6,0,P|346:85|340:120,1,56.6999982696534,8|8,0:0|0:0,0:0:0:0:
263,172,153725,2,0,P|277:216|298:245,1,56.6999982696534,0|0,0:0|0:0,0:0:0:0:
486,116,153907,6,8,P|440:105|404:109,1,56.6999982696534,8|8,0:0|0:0,0:0:0:0:
263,172,154087,2,0,P|277:216|298:245,1,56.6999982696534,8|8,0:0|0:0,0:0:0:0:
423,336,154268,2,0,P|454:301|468:268,1,56.6999982696534,8|8,0:0|0:0,0:0:0:0:
396,206,154449,5,8,0:0:0:0:
26,116,156798,6,8,P|72:105|108:109,1,56.6999982696534,8|8,0:0|0:0,0:0:0:0:
249,172,156978,2,0,P|235:216|214:245,1,56.6999982696534,8|8,0:0|0:0,0:0:0:0:
89,336,157159,2,0,P|58:301|44:268,1,56.6999982696534,8|8,0:0|0:0,0:0:0:0:
116,206,157340,5,8,0:0:0:0:
389,210,159148,5,0,0:0:0:0:
388,220,159238,1,0,0:0:0:0:
352,250,159328,2,0,P|358:205|358:158,1,91.125003476143,0|0,0:0|0:0,0:0:0:0:
329,85,159690,5,14,0:0:0:0:
295,90,159780,1,0,0:0:0:0:
262,95,159870,1,0,0:0:0:0:
229,100,159961,1,0,0:0:0:0:
201,113,160051,1,10,0:0:0:0:
167,108,160141,1,0,0:0:0:0:
134,103,160232,6,0,P|149:168|158:241,1,101.25,0|8,0:0|0:0,0:0:0:0:
179,276,160503,1,0,0:0:0:0:
190,287,160593,1,0,0:0:0:0:
190,317,160684,1,0,0:0:0:0:
177,344,160774,2,0,B|230:332|230:332|354:368,1,151.875,10|0,0:0|0:0,0:0:0:0:
405,378,161135,5,10,0:0:0:0:
433,360,161225,1,0,0:0:0:0:
450,330,161315,1,0,0:0:0:0:
451,297,161406,1,0,0:0:0:0:
437,266,161497,2,0,B|415:208|415:208|439:116,1,151.875,10|0,0:0|0:0,0:0:0:0:
456,44,161858,5,8,0:0:0:0:
458,39,161949,1,8,0:0:0:0:
460,34,162039,2,0,L|377:51,1,50.625,0|0,0:0|0:0,0:0:0:0:
271,199,162220,1,8,0:0:0:0:
269,204,162311,1,8,0:0:0:0:
267,209,162401,2,0,L|350:192,1,50.625,0|0,0:0|0:0,0:0:0:0:
120,63,162581,5,8,0:0:0:0:
105,100,162671,1,8,0:0:0:0:
110,139,162761,1,8,0:0:0:0:
97,177,162852,1,8,0:0:0:0:
102,216,162942,1,8,0:0:0:0:
109,47,163123,5,8,0:0:0:0:
90,91,163213,1,8,0:0:0:0:
97,138,163303,1,8,0:0:0:0:
81,183,163394,1,8,0:0:0:0:
87,230,163484,1,8,0:0:0:0:
98,30,163665,5,8,0:0:0:0:
75,81,163755,1,8,0:0:0:0:
83,137,163845,1,0,0:0:0:0:
65,190,163936,1,8,0:0:0:0:
72,245,164026,1,8,0:0:0:0:
86,10,164207,5,8,0:0:0:0:
57,70,164297,1,8,0:0:0:0:
68,138,164387,1,0,0:0:0:0:
46,202,164478,1,0,0:0:0:0:
54,268,164568,2,0,L|44:348,1,60.7500023174287,0|0,0:0|0:0,0:0:0:0:
227,384,164750,5,14,0:0:0:0:
259,361,164839,1,0,0:0:0:0:
274,324,164929,1,0,0:0:0:0:
265,284,165020,1,0,0:0:0:0:
235,257,165110,1,10,0:0:0:0:
189,233,165201,1,0,0:0:0:0:
166,186,165292,1,0,0:0:0:0:
175,136,165382,1,0,0:0:0:0:
213,102,165472,6,0,L|269:107,1,56.6999982696534,10|0,0:0|0:0,0:0:0:0:
401,123,165653,1,0,0:0:0:0:
401,123,165743,1,0,0:0:0:0:
401,123,165834,2,0,L|341:117,1,56.6999982696534,10|0,0:0|0:0,0:0:0:0:
223,26,166015,2,0,L|279:31,1,56.6999982696534
440,234,166195,5,10,0:0:0:0:
384,242,166285,1,0,0:0:0:0:
327,249,166376,1,0,0:0:0:0:
271,256,166466,1,0,0:0:0:0:
214,264,166557,2,0,L|134:278,1,56.6999982696534,10|0,0:0|0:0,0:0:0:0:
144,73,166737,1,0,0:0:0:0:
93,66,166827,1,0,0:0:0:0:
49,94,166918,1,10,0:0:0:0:
37,143,167008,1,0,0:0:0:0:
61,187,167099,2,0,L|113:248,1,56.6999982696534,0|0,0:0|0:0,0:0:0:0:
156,352,167280,1,10,0:0:0:0:
202,354,167370,1,0,0:0:0:0:
249,358,167461,1,0,0:0:0:0:
295,364,167551,1,0,0:0:0:0:
341,372,167641,5,10,0:0:0:0:
373,348,167731,1,0,0:0:0:0:
391,313,167821,1,0,0:0:0:0:
390,273,167912,1,0,0:0:0:0:
368,239,168003,1,10,0:0:0:0:
321,259,168093,1,0,0:0:0:0:
270,251,168183,1,0,0:0:0:0:
233,215,168274,1,0,0:0:0:0:
226,163,168364,6,0,P|221:129|229:100,1,56.6999982696534,10|0,0:0|0:0,0:0:0:0:
248,2,168545,1,0,0:0:0:0:
248,2,168635,1,0,0:0:0:0:
248,2,168725,2,0,P|221:23|191:30,1,56.6999982696534,10|0,0:0|0:0,0:0:0:0:
98,64,168906,2,0,P|129:76|151:98,1,56.6999982696534
373,127,169087,5,10,0:0:0:0:
427,119,169177,1,0,0:0:0:0:
472,151,169267,1,0,0:0:0:0:
481,206,169358,1,0,0:0:0:0:
450,252,169448,2,0,P|440:289|433:328,1,56.6999982696534,10|0,0:0|0:0,0:0:0:0:
253,384,169629,1,0,0:0:0:0:
210,354,169719,1,0,0:0:0:0:
188,307,169810,1,10,0:0:0:0:
191,256,169900,1,0,0:0:0:0:
221,215,169990,2,0,P|233:181|236:142,1,56.6999982696534,0|0,0:0|0:0,0:0:0:0:
108,46,170171,5,8,0:0:0:0:
39,58,170261,1,8,0:0:0:0:
2,116,170351,1,8,0:0:0:0:
18,183,170442,1,8,0:0:0:0:
79,217,170533,5,6,0:0:0:0:
110,211,170623,1,0,0:0:0:0:
142,205,170713,2,0,P|156:171|159:149,1,40.5,0|0,0:0|0:0,0:0:0:0:
206,91,170894,1,6,0:0:0:0:
240,78,170984,1,0,0:0:0:0:
275,87,171074,1,0,0:0:0:0:
296,116,171165,1,8,0:0:0:0:
296,152,171256,2,0,P|288:187|287:204,1,40.5,6|0,0:0|0:0,0:0:0:0:
392,94,171436,1,0,0:0:0:0:
387,134,171527,1,0,0:0:0:0:
382,174,171617,1,14,0:0:0:0:
375,215,171707,1,0,0:0:0:0:
369,256,171798,2,0,L|360:317,1,40.5,0|0,0:0|0:0,0:0:0:0:
288,358,171978,5,6,0:0:0:0:
254,378,172069,1,0,0:0:0:0:
215,377,172158,1,0,0:0:0:0:
181,357,172249,1,0,0:0:0:0:
163,321,172340,2,0,P|137:294|123:288,1,40.5,6|0,0:0|0:0,0:0:0:0:
127,196,172521,1,0,0:0:0:0:
89,181,172611,1,8,0:0:0:0:
50,187,172701,1,6,0:0:0:0:
19,212,172792,1,0,0:0:0:0:
5,250,172882,2,0,L|12:310,1,40.5,0|0,0:0|0:0,0:0:0:0:
49,379,173063,1,14,0:0:0:0:
52,381,173153,1,0,0:0:0:0:
55,383,173243,2,0,L|106:376,1,40.5,0|0,0:0|0:0,0:0:0:0:
201,214,173424,5,14,0:0:0:0:
233,219,173515,1,0,0:0:0:0:
264,224,173605,2,0,P|285:192|283:166,1,40.5,0|0,0:0|0:0,0:0:0:0:
360,93,173786,1,6,0:0:0:0:
394,102,173876,1,2,0:0:0:0:
418,129,173966,1,0,0:0:0:0:
423,164,174057,1,8,0:0:0:0:
408,197,174147,2,0,P|386:194|362:185,1,40.5,6|0,0:0|0:0,0:0:0:0:
480,276,174328,1,0,0:0:0:0:
440,284,174418,1,0,0:0:0:0:
400,292,174508,1,14,0:0:0:0:
361,301,174599,1,0,0:0:0:0:
321,309,174689,2,0,L|277:319,1,40.5,0|0,0:0|0:0,0:0:0:0:
183,229,174870,6,0,L|195:189,2,24.2999992584229,8|0|0,0:0|0:0|0:0,0:0:0:0:
131,237,175051,5,8,0:0:0:0:
83,245,175141,1,8,0:0:0:0:
35,255,175231,1,8,0:0:0:0:
45,215,175321,1,8,0:0:0:0:
56,175,175411,1,0,0:0:0:0:
66,135,175502,1,0,0:0:0:0:
77,95,175592,5,8,0:0:0:0:
100,100,175683,1,8,0:0:0:0:
124,105,175773,1,0,0:0:0:0:
148,110,175864,1,0,0:0:0:0:
175,104,175954,1,8,0:0:0:0:
198,109,176045,1,8,0:0:0:0:
222,114,176135,2,0,L|278:127,1,48.5999985168458,0|0,0:0|0:0,0:0:0:0:
388,52,176316,5,6,0:0:0:0:
425,83,176407,1,0,0:0:0:0:
437,130,176497,1,8,0:0:0:0:
418,174,176587,1,0,0:0:0:0:
376,197,176677,1,2,0:0:0:0:
325,223,176767,1,0,0:0:0:0:
307,276,176857,1,8,0:0:0:0:
324,329,176947,1,0,0:0:0:0:
371,361,177039,2,0,L|446:344,1,56.6999982696534,2|0,0:0|0:0,0:0:0:0:
488,222,177219,1,8,0:0:0:0:
432,210,177310,1,0,0:0:0:0:
376,197,177400,2,0,L|320:184,1,56.6999982696534,2|0,0:0|0:0,0:0:0:0:
282,44,177581,2,0,L|338:31,1,56.6999982696534,8|0,0:0|0:0,0:0:0:0:
132,166,177762,6,0,P|115:188|105:214,1,56.6999982696534,0|2,0:0|0:0,0:0:0:0:
253,329,177942,1,8,0:0:0:0:
256,333,178033,1,0,0:0:0:0:
260,336,178123,2,0,P|249:309|232:287,1,56.6999982696534,0|0,0:0|0:0,0:0:0:0:
23,208,178304,2,0,P|27:237|39:262,1,56.6999982696534,8|2,0:0|0:0,0:0:0:0:
199,72,178484,1,0,0:0:0:0:
203,68,178575,1,0,0:0:0:0:
206,63,178665,2,0,P|197:22|175:-9,1,56.6999982696534,8|0,0:0|0:0,0:0:0:0:
334,219,178846,1,2,0:0:0:0:
385,240,178936,1,0,0:0:0:0:
439,226,179027,1,8,0:0:0:0:
474,184,179117,1,0,0:0:0:0:
476,129,179207,5,6,0:0:0:0:
429,141,179297,1,0,0:0:0:0:
382,145,179388,1,10,0:0:0:0:
336,130,179478,1,0,0:0:0:0:
299,97,179568,1,0,0:0:0:0:
255,57,179659,1,0,0:0:0:0:
199,39,179750,1,10,0:0:0:0:
143,44,179840,1,0,0:0:0:0:
86,59,179930,6,0,L|101:127,1,56.6999982696534
175,212,180111,1,10,0:0:0:0:
177,268,180201,1,0,0:0:0:0:
147,317,180292,2,0,P|137:343|132:385,1,56.6999982696534,0|0,0:0|0:0,0:0:0:0:
265,220,180472,2,0,P|260:192|250:165,1,56.6999982696534,10|0,0:0|0:0,0:0:0:0:
76,271,180653,6,0,P|23:264|-1:251,1,56.6999982696534,2|2,0:0|0:0,0:0:0:0:
201,104,180834,1,14,0:0:0:0:
205,101,180924,1,0,0:0:0:0:
207,95,181015,2,0,P|234:87|262:86,1,56.6999982696534,14|0,0:0|0:0,0:0:0:0:
39,192,181195,2,0,P|36:166|27:136,1,56.6999982696534,0|2,0:0|0:0,0:0:0:0:
250,314,181376,1,8,0:0:0:0:
290,338,181466,1,8,0:0:0:0:
338,342,181556,1,0,0:0:0:0:
383,321,181647,1,0,0:0:0:0:
414,285,181737,5,8,0:0:0:0:
435,266,181828,1,8,0:0:0:0:
462,259,181917,1,8,0:0:0:0:
490,264,182008,1,8,0:0:0:0:
512,280,182098,5,6,0:0:0:0:
507,247,182189,1,0,0:0:0:0:
503,214,182280,2,0,L|493:147,1,40.5,0|0,0:0|0:0,0:0:0:0:
446,87,182460,1,6,0:0:0:0:
414,82,182551,1,0,0:0:0:0:
383,92,182640,1,0,0:0:0:0:
362,117,182731,1,8,0:0:0:0:
359,149,182822,2,0,P|370:187|370:223,1,40.5,6|0,0:0|0:0,0:0:0:0:
276,66,183003,1,0,0:0:0:0:
273,106,183093,1,0,0:0:0:0:
271,146,183183,1,14,0:0:0:0:
268,187,183274,1,0,0:0:0:0:
266,227,183364,2,0,L|262:285,1,40.5,0|0,0:0|0:0,0:0:0:0:
188,332,183545,5,6,0:0:0:0:
152,312,183635,1,0,0:0:0:0:
132,278,183725,1,0,0:0:0:0:
132,238,183816,1,0,0:0:0:0:
152,203,183906,2,0,P|168:178|175:152,1,40.5,6|0,0:0|0:0,0:0:0:0:
155,72,184087,1,0,0:0:0:0:
118,56,184177,1,8,0:0:0:0:
79,63,184267,1,6,0:0:0:0:
50,91,184358,1,0,0:0:0:0:
43,130,184448,2,0,L|59:206,1,40.5,0|0,0:0|0:0,0:0:0:0:
40,266,184629,1,14,0:0:0:0:
38,269,184719,1,0,0:0:0:0:
36,272,184810,2,0,L|104:263,1,40.5,0|0,0:0|0:0,0:0:0:0:
242,168,184990,5,6,0:0:0:0:
274,172,185081,1,0,0:0:0:0:
305,176,185171,2,0,L|294:243,1,40.5,0|0,0:0|0:0,0:0:0:0:
359,318,185352,1,6,0:0:0:0:
387,339,185442,1,0,0:0:0:0:
423,341,185532,1,0,0:0:0:0:
454,324,185623,1,8,0:0:0:0:
471,292,185713,2,0,L|455:240,1,40.5,6|0,0:0|0:0,0:0:0:0:
390,154,185894,1,0,0:0:0:0:
373,117,185984,1,0,0:0:0:0:
378,77,186075,1,14,0:0:0:0:
404,47,186165,1,0,0:0:0:0:
441,34,186256,2,0,L|447:100,1,40.5,0|0,0:0|0:0,0:0:0:0:
305,176,186436,6,0,L|260:185,3,32.3999990112305,8|8|0|0,0:0|0:0|0:0|0:0,0:0:0:0:
427,245,186707,2,0,L|461:254,3,32.3999990112305,8|0|8|0,0:0|0:0|0:0|0:0,0:0:0:0:
297,101,186978,1,0,0:0:0:0:
292,102,187069,1,0,0:0:0:0:
287,103,187159,6,0,L|228:114,1,48.5999985168458,8|8,0:0|0:0,0:0:0:0:
168,73,187340,1,8,0:0:0:0:
152,105,187430,1,0,0:0:0:0:
156,140,187521,1,8,0:0:0:0:
178,168,187611,1,8,0:0:0:0:
201,196,187701,1,0,0:0:0:0:
205,231,187792,1,0,0:0:0:0:
189,264,187882,6,0,P|171:288|137:309,1,48.5999985168458,6|0,0:0|0:0,0:0:0:0:
45,191,188063,2,0,P|63:215|97:236,1,48.5999985168458,2|0,0:0|0:0,0:0:0:0:
233,160,188243,2,0,P|215:184|181:205,1,48.5999985168458,2|0,0:0|0:0,0:0:0:0:
67,87,188424,2,0,P|85:111|119:132,1,48.5999985168458,2|0,0:0|0:0,0:0:0:0:
302,52,188605,6,0,L|292:122,1,52.6499975898744,10|0,0:0|0:0,0:0:0:0:
336,231,188786,2,0,L|326:161,1,52.6499975898744,2|0,0:0|0:0,0:0:0:0:
385,28,188966,2,0,L|375:98,1,52.6499975898744,2|0,0:0|0:0,0:0:0:0:
413,209,189147,2,0,L|406:156,1,52.6499975898744,2|0,0:0|0:0,0:0:0:0:
302,52,189328,6,0,P|282:42|238:34,1,48.5999985168458,2|0,0:0|0:0,0:0:0:0:
167,123,189509,2,0,P|190:117|212:106,1,48.5999985168458,2|0,0:0|0:0,0:0:0:0:
349,116,189689,2,0,P|329:126|280:135,1,48.5999985168458,2|0,0:0|0:0,0:0:0:0:
191,199,189870,2,0,P|214:205|236:216,1,48.5999985168458,2|0,0:0|0:0,0:0:0:0:
374,299,190051,6,0,L|357:235,1,52.6499975898744,10|0,0:0|0:0,0:0:0:0:
349,116,190231,2,0,L|336:166,1,52.6499975898744,2|0,0:0|0:0,0:0:0:0:
453,287,190412,2,0,L|436:223,1,52.6499975898744,2|0,0:0|0:0,0:0:0:0:
437,104,190592,2,0,L|420:168,1,52.6499975898744,2|0,0:0|0:0,0:0:0:0:
224,341,190774,6,0,P|233:302|247:285,1,48.5999985168458,6|0,0:0|0:0,0:0:0:0:
134,171,190954,2,0,P|136:196|147:217,1,48.5999985168458,2|0,0:0|0:0,0:0:0:0:
153,384,191135,2,0,P|142:362|139:338,1,48.5999985168458,2|0,0:0|0:0,0:0:0:0:
243,167,191316,2,0,P|241:192|230:213,1,48.5999985168458,2|0,0:0|0:0,0:0:0:0:
30,261,191496,6,0,L|99:273,1,52.6499975898744,10|0,0:0|0:0,0:0:0:0:
224,341,191677,2,0,L|275:325,1,52.6499975898744,2|0,0:0|0:0,0:0:0:0:
375,206,191858,2,0,L|437:217,1,52.6499975898744,2|0,0:0|0:0,0:0:0:0:
227,86,192039,2,0,L|158:67,1,52.6499975898744,2|0,0:0|0:0,0:0:0:0:
30,261,192219,6,0,P|37:226|30:197,1,48.5999985168458,6|0,0:0|0:0,0:0:0:0:
99,41,192400,2,0,P|92:76|99:105,1,48.5999985168458,2|0,0:0|0:0,0:0:0:0:
134,270,192581,2,0,P|148:234|144:199,1,48.5999985168458,2|0,0:0|0:0,0:0:0:0:
212,40,192762,2,0,P|215:63|226:85,1,48.5999985168458,2|0,0:0|0:0,0:0:0:0:
358,198,192942,6,0,L|405:189,1,48.5999985168458,10|0,0:0|0:0,0:0:0:0:
218,349,193123,2,0,L|171:358,1,48.5999985168458,2|0,0:0|0:0,0:0:0:0:
404,268,193304,1,8,0:0:0:0:
347,283,193394,1,8,0:0:0:0:
294,258,193484,1,8,0:0:0:0:
272,202,193575,1,8,0:0:0:0:
293,146,193665,6,0,P|323:120|343:92,1,56.6999982696534,6|0,0:0|0:0,0:0:0:0:
74,156,193846,2,0,P|46:180|26:208,1,56.6999982696534,10|0,0:0|0:0,0:0:0:0:
258,71,194027,6,0,P|263:32|256:-1,1,56.6999982696534,2|0,0:0|0:0,0:0:0:0:
109,231,194208,2,0,P|107:268|113:302,1,56.6999982696534,10|0,0:0|0:0,0:0:0:0:
180,42,194388,6,0,P|156:12|128:-7,1,56.6999982696534,2|0,0:0|0:0,0:0:0:0:
186,260,194569,2,0,P|212:288|240:308,1,56.6999982696534,10|0,0:0|0:0,0:0:0:0:
105,76,194750,6,0,P|68:72|34:78,1,56.6999982696534,2|0,0:0|0:0,0:0:0:0:
262,225,194930,2,0,P|301:228|335:221,1,56.6999982696534,10|0,0:0|0:0,0:0:0:0:
441,53,195111,6,0,L|425:120,1,60.7500023174287,6|0,0:0|0:0,0:0:0:0:
248,284,195292,2,0,L|265:216,1,60.7500023174287,10|0,0:0|0:0,0:0:0:0:
332,19,195472,6,0,L|369:78,1,60.7500023174287,2|0,0:0|0:0,0:0:0:0:
358,318,195653,2,0,L|322:258,1,60.7500023174287,10|0,0:0|0:0,0:0:0:0:
231,71,195834,6,0,L|299:87,1,60.7500023174287,2|0,0:0|0:0,0:0:0:0:
459,266,196015,2,0,L|392:249,1,60.7500023174287,10|0,0:0|0:0,0:0:0:0:
197,179,196195,6,0,L|257:142,1,60.7500023174287,2|0,0:0|0:0,0:0:0:0:
493,158,196376,2,0,L|434:194,1,60.7500023174287,10|0,0:0|0:0,0:0:0:0:
200,313,196557,6,0,P|155:322|120:310,1,64.8,6|0,0:0|0:0,0:0:0:0:
231,71,196737,2,0,P|246:27|274:3,1,64.8,10|0,0:0|0:0,0:0:0:0:
425,218,196918,6,0,P|456:252|463:288,1,64.8,2|0,0:0|0:0,0:0:0:0:
143,180,197099,2,0,P|113:145|106:109,1,64.8,8|0,0:0|0:0,0:0:0:0:
368,85,197280,6,0,P|413:76|448:88,1,64.8,2|0,0:0|0:0,0:0:0:0:
337,327,197460,1,14,0:0:0:0:
231,71,197641,1,14,0:0:0:0:
425,218,197822,1,0,0:0:0:0:
426,224,197912,1,0,0:0:0:0:
428,230,198003,6,0,P|382:240|344:230,1,64.8,14|0,0:0|0:0,0:0:0:0:
210,148,198183,1,0,0:0:0:0:
141,147,198273,1,0,0:0:0:0:
92,197,198363,1,0,0:0:0:0:
94,266,198454,1,0,0:0:0:0:
144,314,198545,6,0,L|227:302,1,64.8,14|0,0:0|0:0,0:0:0:0:
365,231,198725,1,0,0:0:0:0:
428,230,198815,1,0,0:0:0:0:
472,275,198905,1,0,0:0:0:0:
470,337,198996,1,0,0:0:0:0:
425,380,199087,6,0,L|351:369,1,64.8,14|0,0:0|0:0,0:0:0:0:
335,209,199268,1,0,0:0:0:0:
341,160,199358,1,0,0:0:0:0:
347,112,199448,1,0,0:0:0:0:
352,64,199539,1,0,0:0:0:0:
358,15,199629,6,0,L|426:36,1,64.8,14|0,0:0|0:0,0:0:0:0:
212,16,199810,1,0,0:0:0:0:
217,55,199900,1,0,0:0:0:0:
221,93,199991,1,0,0:0:0:0:
226,132,200081,1,0,0:0:0:0:
230,171,200171,6,0,L|184:167,2,27,8|8|0,0:0|0:0|0:0,0:0:0:0:
306,232,200352,2,0,L|349:236,2,27,0|0|0,0:0|0:0|0:0,0:0:0:0:
224,252,200533,2,0,L|220:294,2,27,8|0|0,0:0|0:0|0:0,0:0:0:0:
308,154,200714,2,0,L|313:111,2,27,0|0|0,0:0|0:0|0:0,0:0:0:0:
152,188,200894,6,0,B|76:182|76:182|55:193|55:193|-24:187,1,162,6|10,0:0|0:0,0:0:0:0:
284,0,201436,2,0,P|351:31|348:114,1,162,2|0,0:0|0:0,0:0:0:0:
278,152,201888,1,0,0:0:0:0:
282,171,201978,2,0,B|277:203|289:226|289:226|270:255|270:255|285:288|273:338,1,162,10|0,0:0|0:0,0:0:0:0:
136,116,202521,1,0,0:0:0:0:
155,112,202611,1,0,0:0:0:0:
175,109,202701,2,0,B|210:140|210:140|188:244,1,121.5,10|0,0:0|0:0,0:0:0:0:
111,285,203063,2,0,B|162:280|162:280|177:288|177:288|231:284,1,121.5,2|0,0:0|0:0,0:0:0:0:
325,300,203424,2,0,P|371:260|375:201,1,121.5,10|0,0:0|0:0,0:0:0:0:
293,223,203786,6,0,L|310:394,1,162,6|10,0:0|0:0,0:0:0:0:
455,217,204328,2,0,P|431:138|336:132,1,162,10|0,0:0|0:0,0:0:0:0:
280,144,204780,1,0,0:0:0:0:
260,150,204870,2,0,B|212:164|212:164|92:124,1,162,10|2,0:0|0:0,0:0:0:0:
27,307,205412,1,0,0:0:0:0:
47,303,205503,1,0,0:0:0:0:
66,299,205593,2,0,L|177:275,1,81,10|0,0:0|0:0,0:0:0:0:
164,277,205864,1,0,0:0:0:0:
179,289,205954,5,8,0:0:0:0:
219,294,206044,1,8,0:0:0:0:
259,300,206134,1,8,0:0:0:0:
299,305,206225,1,8,0:0:0:0:
339,334,206316,5,8,0:0:0:0:
366,330,206406,1,0,0:0:0:0:
394,326,206496,1,8,0:0:0:0:
422,322,206587,1,0,0:0:0:0:
459,293,206677,6,0,L|472:209,3,50.625,14|0|0|0,0:0|0:0|0:0|0:0,0:0:0:0:
403,151,207039,1,10,0:0:0:0:
396,113,207129,1,0,0:0:0:0:
390,76,207219,1,0,0:0:0:0:
383,38,207310,1,0,0:0:0:0:
377,1,207400,2,0,L|321:16,3,50.625,10|0|0|0,0:0|0:0|0:0|0:0,0:0:0:0:
241,85,207762,2,0,L|192:72,3,50.625,10|0|0|0,0:0|0:0|0:0|0:0,0:0:0:0:
118,8,208123,5,10,0:0:0:0:
80,2,208213,1,0,0:0:0:0:
45,15,208303,1,0,0:0:0:0:
21,43,208394,1,0,0:0:0:0:
13,80,208484,1,10,0:0:0:0:
25,116,208574,1,0,0:0:0:0:
52,141,208665,2,0,L|109:129,1,50.625,0|0,0:0|0:0,0:0:0:0:
259,99,208846,5,10,0:0:0:0:
249,143,208936,1,0,0:0:0:0:
241,188,209027,2,0,L|231:249,1,50.625,0|0,0:0|0:0,0:0:0:0:
78,280,209207,1,10,0:0:0:0:
68,235,209297,1,0,0:0:0:0:
60,190,209388,2,0,L|50:129,1,50.625,0|0,0:0|0:0,0:0:0:0:
218,324,209569,6,0,L|316:338,3,50.625,10|0|0|0,0:0|0:0|0:0|0:0,0:0:0:0:
371,288,209930,1,10,0:0:0:0:
408,282,210020,1,0,0:0:0:0:
438,260,210110,1,0,0:0:0:0:
455,226,210201,1,0,0:0:0:0:
455,188,210292,2,0,P|442:137|441:116,3,50.625,10|0|0|0,0:0|0:0|0:0|0:0,0:0:0:0:
361,63,210653,2,0,P|374:12|375:-9,3,50.625,10|0|0|0,0:0|0:0|0:0|0:0,0:0:0:0:
272,127,211015,5,10,0:0:0:0:
235,139,211105,1,0,0:0:0:0:
198,138,211195,1,0,0:0:0:0:
163,124,211286,1,0,0:0:0:0:
137,98,211376,1,10,0:0:0:0:
120,65,211466,1,0,0:0:0:0:
116,29,211557,2,0,L|182:41,1,50.625,0|0,0:0|0:0,0:0:0:0:
24,174,211737,5,10,0:0:0:0:
48,207,211827,1,0,0:0:0:0:
62,246,211917,1,0,0:0:0:0:
64,287,212008,1,0,0:0:0:0:
54,327,212098,1,14,0:0:0:0:
101,310,212189,1,0,0:0:0:0:
151,298,212279,1,0,0:0:0:0:
201,293,212370,1,0,0:0:0:0:
259,310,212461,5,14,0:0:0:0:
308,335,212550,1,0,0:0:0:0:
363,326,212640,1,0,0:0:0:0:
403,287,212731,1,0,0:0:0:0:
413,232,212821,1,10,0:0:0:0:
458,200,212912,1,0,0:0:0:0:
471,146,213002,1,0,0:0:0:0:
445,98,213093,1,0,0:0:0:0:
392,79,213183,2,0,L|326:93,1,56.6999982696534,10|0,0:0|0:0,0:0:0:0:
177,10,213364,1,0,0:0:0:0:
121,10,213454,1,0,0:0:0:0:
77,44,213545,1,10,0:0:0:0:
64,99,213635,1,0,0:0:0:0:
83,155,213725,2,0,L|92:223,1,56.6999982696534,0|0,0:0|0:0,0:0:0:0:
183,347,213906,5,10,0:0:0:0:
239,373,213996,1,0,0:0:0:0:
300,360,214087,1,0,0:0:0:0:
342,314,214178,1,0,0:0:0:0:
348,252,214268,2,0,L|274:234,1,56.6999982696534,10|0,0:0|0:0,0:0:0:0:
412,44,214448,1,0,0:0:0:0:
381,96,214538,1,0,0:0:0:0:
396,156,214628,1,10,0:0:0:0:
447,188,214719,1,0,0:0:0:0:
508,178,214810,2,0,L|512:117,1,56.6999982696534,0|0,0:0|0:0,0:0:0:0:
303,146,214990,1,10,0:0:0:0:
247,158,215080,1,0,0:0:0:0:
191,164,215170,1,0,0:0:0:0:
134,164,215261,1,0,0:0:0:0:
78,184,215352,5,10,0:0:0:0:
30,155,215442,1,0,0:0:0:0:
19,101,215532,1,0,0:0:0:0:
53,57,215623,1,0,0:0:0:0:
108,53,215713,1,10,0:0:0:0:
123,108,215804,1,0,0:0:0:0:
134,164,215893,1,0,0:0:0:0:
140,220,215984,1,0,0:0:0:0:
143,276,216075,2,0,L|49:268,1,56.6999982696534,10|0,0:0|0:0,0:0:0:0:
280,372,216256,1,0,0:0:0:0:
335,379,216346,1,0,0:0:0:0:
383,352,216436,1,10,0:0:0:0:
403,300,216527,1,0,0:0:0:0:
387,247,216617,2,0,P|334:269|319:272,1,56.6999982696534,0|0,0:0|0:0,0:0:0:0:
222,145,216798,5,10,0:0:0:0:
241,86,216888,1,0,0:0:0:0:
291,51,216978,1,0,0:0:0:0:
352,52,217069,1,0,0:0:0:0:
401,90,217159,2,0,L|391:161,1,56.6999982696534,10|0,0:0|0:0,0:0:0:0:
290,279,217340,1,0,0:0:0:0:
228,267,217430,1,0,0:0:0:0:
167,258,217520,1,10,0:0:0:0:
104,252,217611,1,0,0:0:0:0:
42,250,217701,2,0,P|34:194|32:172,1,56.6999982696534,0|0,0:0|0:0,0:0:0:0:
131,9,217882,1,14,0:0:0:0:
186,7,217972,1,0,0:0:0:0:
231,40,218062,1,0,0:0:0:0:
246,93,218153,1,0,0:0:0:0:
222,145,218243,5,14,0:0:0:0:
278,130,218333,1,0,0:0:0:0:
330,152,218423,1,0,0:0:0:0:
357,201,218514,1,0,0:0:0:0:
348,256,218604,1,10,0:0:0:0:
339,311,218695,1,0,0:0:0:0:
366,360,218786,1,0,0:0:0:0:
418,382,218876,1,0,0:0:0:0:
474,367,218966,2,0,L|455:303,1,56.6999982696534,10|0,0:0|0:0,0:0:0:0:
267,239,219147,1,0,0:0:0:0:
214,221,219237,1,0,0:0:0:0:
163,243,219327,1,10,0:0:0:0:
141,294,219418,1,0,0:0:0:0:
160,347,219509,2,0,L|236:332,1,56.6999982696534,0|0,0:0|0:0,0:0:0:0:
71,198,219689,5,10,0:0:0:0:
60,136,219780,1,0,0:0:0:0:
89,82,219869,1,0,0:0:0:0:
143,53,219960,1,0,0:0:0:0:
204,64,220051,2,0,L|183:139,1,56.6999982696534,10|0,0:0|0:0,0:0:0:0:
397,4,220231,1,0,0:0:0:0:
381,64,220322,1,0,0:0:0:0:
366,124,220412,1,14,0:0:0:0:
354,185,220503,1,0,0:0:0:0:
344,246,220593,2,0,L|285:232,1,56.6999982696534,0|0,0:0|0:0,0:0:0:0:
115,347,220774,5,14,0:0:0:0:
60,336,220864,1,0,0:0:0:0:
32,289,220954,1,0,0:0:0:0:
47,236,221045,1,0,0:0:0:0:
97,212,221135,6,0,L|160:232,1,56.6999982696534,10|8,0:0|0:0,0:0:0:0:
312,129,221316,2,0,L|257:146,3,56.6999982696534,8|0|0|0,0:0|0:0|0:0|0:0,0:0:0:0:
140,83,221677,6,0,L|207:106,1,56.6999982696534,10|8,0:0|0:0,0:0:0:0:
338,202,221858,2,0,L|283:219,3,56.6999982696534,8|0|0|0,0:0|0:0|0:0|0:0,0:0:0:0:
51,10,222219,5,10,0:0:0:0:
62,79,222309,1,8,0:0:0:0:
73,149,222399,1,8,0:0:0:0:
84,219,222490,1,8,0:0:0:0:
96,289,222581,6,0,L|190:262,1,97.1999970336915,6|10,0:0|0:0,0:0:0:0:
343,140,222942,1,0,0:0:0:0:
324,135,223033,1,0,0:0:0:0:
305,130,223123,1,10,0:0:0:0:
502,62,223304,1,0,0:0:0:0:
484,227,223484,1,10,0:0:0:0:
491,246,223575,1,0,0:0:0:0:
404,83,223756,1,0,0:0:0:0:
411,63,223847,1,10,0:0:0:0:
318,248,224027,6,0,P|282:278|234:274,1,97.1999970336915,0|10,0:0|0:0,0:0:0:0:
76,136,224388,1,0,0:0:0:0:
72,137,224478,1,0,0:0:0:0:
68,138,224569,1,10,0:0:0:0:
273,156,224749,1,2,0:0:0:0:
269,175,224839,1,0,0:0:0:0:
266,195,224929,1,10,0:0:0:0:
88,257,225111,1,2,0:0:0:0:
85,237,225201,1,0,0:0:0:0:
82,218,225291,1,10,0:0:0:0:
287,76,225472,6,0,L|270:172,1,97.1999970336915,0|10,0:0|0:0,0:0:0:0:
173,324,225834,1,0,0:0:0:0:
170,304,225924,1,0,0:0:0:0:
167,285,226014,1,10,0:0:0:0:
359,129,226195,1,0,0:0:0:0:
150,72,226376,1,10,0:0:0:0:
143,52,226466,1,0,0:0:0:0:
275,216,226647,1,0,0:0:0:0:
268,236,226737,1,10,0:0:0:0:
357,9,226918,6,0,P|419:21|442:64,1,97.1999970336915,0|10,0:0|0:0,0:0:0:0:
359,129,227280,1,2,0:0:0:0:
362,104,227370,1,0,0:0:0:0:
370,81,227460,1,10,0:0:0:0:
367,207,227641,6,0,P|324:202|317:197,1,48.5999985168458,2|8,0:0|0:0,0:0:0:0:
228,94,227822,2,0,P|185:99|178:104,1,48.5999985168458,8|8,0:0|0:0,0:0:0:0:
70,212,228004,1,8,0:0:0:0:
80,240,228094,1,8,0:0:0:0:
88,269,228184,1,0,0:0:0:0:
95,299,228275,1,0,0:0:0:0:
100,328,228364,6,0,P|182:310|216:307,1,113.399996539307,14|0,0:0|0:0,0:0:0:0:
399,232,228725,2,0,P|328:224|236:203,1,113.399996539307,10|0,0:0|0:0,0:0:0:0:
160,91,229087,1,10,0:0:0:0:
371,52,229268,1,0,0:0:0:0:
364,79,229358,1,0,0:0:0:0:
357,107,229448,1,10,0:0:0:0:
192,223,229629,1,0,0:0:0:0:
185,195,229719,1,0,0:0:0:0:
178,168,229810,1,10,0:0:0:0:
364,260,229990,1,0,0:0:0:0:
212,96,230171,2,0,P|152:88|110:122,1,113.399996539307,10|0,0:0|0:0,0:0:0:0:
374,178,230533,5,8,0:0:0:0:
379,179,230623,2,0,L|452:200,2,56.6999982696534,8|0|0,0:0|0:0|0:0,0:0:0:0:
218,305,230894,1,8,0:0:0:0:
213,306,230984,2,0,L|140:327,2,56.6999982696534,8|0|0,0:0|0:0|0:0,0:0:0:0:
315,114,231256,6,0,L|338:1,1,113.399996539307,14|0,0:0|0:0,0:0:0:0:
99,131,231617,2,0,L|121:242,1,113.399996539307,10|0,0:0|0:0,0:0:0:0:
253,162,231978,5,8,0:0:0:0:
268,239,232099,5,8,0:0:0:0:
194,217,232219,5,8,0:0:0:0:
175,141,232340,5,0,0:0:0:0:
234,85,232460,5,8,0:0:0:0:
315,114,232581,5,0,0:0:0:0:
328,190,232701,6,0,L|468:176,1,121.5,6|0,0:0|0:0,0:0:0:0:
477,204,233063,2,0,P|478:172|484:143,1,40.5,8|0,0:0|0:0,0:0:0:0:
268,239,233243,1,2,0:0:0:0:
341,363,233424,6,0,P|353:316|358:295,2,54,0|0|8,0:0|0:0|0:0,0:0:0:0:
182,268,233786,2,0,P|174:242|167:215,2,54,0|8|0,0:0|0:0|0:0,0:0:0:0:
287,95,234147,6,0,B|311:125|311:125|294:208,1,121.5,6|0,0:0|0:0,0:0:0:0:
253,223,234509,2,0,L|266:161,1,40.5,8|0,0:0|0:0,0:0:0:0:
391,99,234689,2,0,L|356:277,1,162,2|0,0:0|0:0,0:0:0:0:
343,333,235111,5,0,0:0:0:0:
341,337,235171,1,0,0:0:0:0:
340,342,235231,1,10,0:0:0:0:
94,181,235593,6,0,P|44:195|17:200,2,54,6|0|0,0:0|0:0|0:0,0:0:0:0:
275,38,235954,2,0,P|301:44|327:52,2,54,10|0|0,0:0|0:0|0:0,0:0:0:0:
159,137,236316,5,2,0:0:0:0:
172,164,236406,1,0,0:0:0:0:
173,194,236496,1,0,0:0:0:0:
162,222,236587,1,0,0:0:0:0:
140,243,236677,1,14,0:0:0:0:
118,264,236768,1,0,0:0:0:0:
107,292,236859,1,0,0:0:0:0:
108,322,236949,1,0,0:0:0:0:
122,350,237039,6,0,P|179:354|208:338,1,81.0000030899049,8|8,0:0|0:0,0:0:0:0:
280,384,237280,2,0,P|323:346|332:314,1,81.0000030899049,0|0,0:0|0:0,0:0:0:0:
235,81,237521,6,0,P|203:128|202:161,1,81.0000030899049,8|8,0:0|0:0,0:0:0:0:
126,200,237762,2,0,P|136:256|159:279,1,81.0000030899049,0|0,0:0|0:0,0:0:0:0:
412,313,238003,6,0,P|386:261|358:244,1,81.0000030899049,8|8,0:0|0:0,0:0:0:0:
362,159,238244,2,0,P|307:140|275:148,1,81.0000030899049,0|0,0:0|0:0,0:0:0:0:
122,350,238484,6,0,P|179:354|220:334,1,101.25,6|10,0:0|0:0,0:0:0:0:
405,262,238846,1,0,0:0:0:0:
408,287,238936,1,0,0:0:0:0:
412,313,239026,1,10,0:0:0:0:
222,182,239207,1,0,0:0:0:0:
226,156,239297,1,0,0:0:0:0:
229,131,239387,1,10,0:0:0:0:
232,106,239478,1,0,0:0:0:0:
235,81,239569,1,0,0:0:0:0:
491,163,239749,1,10,0:0:0:0:
490,168,239840,1,0,0:0:0:0:
489,172,239930,6,0,L|385:155,1,101.25,0|10,0:0|0:0,0:0:0:0:
315,139,240201,1,0,0:0:0:0:
309,138,240292,1,0,0:0:0:0:
409,370,240472,1,10,0:0:0:0:
412,365,240563,1,0,0:0:0:0:
415,361,240653,2,0,B|413:321|413:321|405:302|405:302|404:253,1,101.25,0|10,0:0|0:0,0:0:0:0:
223,115,241015,2,0,B|225:155|225:155|233:174|233:174|234:223,1,101.25,0|10,0:0|0:0,0:0:0:0:
405,31,241376,5,0,0:0:0:0:
283,206,241557,1,10,0:0:0:0:
258,210,241647,1,0,0:0:0:0:
233,214,241737,1,0,0:0:0:0:
72,55,241918,1,10,0:0:0:0:
106,274,242100,1,0,0:0:0:0:
111,249,242190,1,0,0:0:0:0:
117,224,242280,1,10,0:0:0:0:
123,200,242371,1,0,0:0:0:0:
129,175,242460,1,0,0:0:0:0:
310,351,242641,1,10,0:0:0:0:
314,352,242731,1,0,0:0:0:0:
318,353,242822,6,0,B|364:369|364:369|442:356,1,101.25,0|10,0:0|0:0,0:0:0:0:
491,339,243093,1,0,0:0:0:0:
496,338,243183,1,0,0:0:0:0:
253,273,243364,1,10,0:0:0:0:
434,131,243545,1,0,0:0:0:0:
429,155,243635,1,0,0:0:0:0:
425,180,243725,1,10,0:0:0:0:
244,92,243906,1,0,0:0:0:0:
240,67,243996,1,0,0:0:0:0:
235,43,244086,1,10,0:0:0:0:
466,249,244268,6,0,P|402:258|362:228,1,101.25,6|10,0:0|0:0,0:0:0:0:
203,183,244629,1,0,0:0:0:0:
228,179,244719,1,0,0:0:0:0:
253,176,244809,1,10,0:0:0:0:
60,334,244990,2,0,P|48:291|69:239,1,101.25,0|10,0:0|0:0,0:0:0:0:
332,300,245352,1,0,0:0:0:0:
307,303,245442,1,0,0:0:0:0:
282,306,245534,1,10,0:0:0:0:
257,309,245624,1,0,0:0:0:0:
232,313,245713,6,0,L|124:290,1,101.25,0|10,0:0|0:0,0:0:0:0:
71,245,245984,1,0,0:0:0:0:
68,240,246075,1,0,0:0:0:0:
301,145,246256,1,10,0:0:0:0:
112,69,246436,1,0,0:0:0:0:
117,93,246526,1,0,0:0:0:0:
121,118,246616,1,10,0:0:0:0:
292,194,246798,1,0,0:0:0:0:
296,169,246888,1,0,0:0:0:0:
301,145,246978,1,10,0:0:0:0:
148,0,247159,6,0,P|100:-10|55:12,1,101.25,0|10,0:0|0:0,0:0:0:0:
198,157,247521,1,0,0:0:0:0:
201,131,247611,1,0,0:0:0:0:
204,106,247701,1,10,0:0:0:0:
11,171,247882,1,0,0:0:0:0:
15,195,247972,1,0,0:0:0:0:
20,220,248062,1,10,0:0:0:0:
24,245,248153,1,0,0:0:0:0:
29,270,248243,2,0,L|141:249,1,101.25,0|10,0:0|0:0,0:0:0:0:
205,236,248515,1,0,0:0:0:0:
223,252,248605,6,0,L|335:231,1,101.25,0|10,0:0|0:0,0:0:0:0:
398,213,248876,1,0,0:0:0:0:
403,212,248966,1,0,0:0:0:0:
246,361,249147,1,10,0:0:0:0:
484,274,249328,5,0,0:0:0:0:
489,259,249418,1,8,0:0:0:0:
485,233,249509,1,8,0:0:0:0:
480,203,249599,1,8,0:0:0:0:
474,168,249689,5,8,0:0:0:0:
448,129,249780,1,8,0:0:0:0:
399,115,249870,1,8,0:0:0:0:
349,140,249960,1,8,0:0:0:0:
331,198,250051,5,2,0:0:0:0:
311,191,250141,1,0,0:0:0:0:
292,186,250231,1,0,0:0:0:0:
272,180,250322,1,0,0:0:0:0:
253,176,250412,1,2,0:0:0:0:
233,172,250502,1,0,0:0:0:0:
213,168,250593,1,0,0:0:0:0:
193,165,250683,1,0,0:0:0:0:
173,162,250774,6,0,L|181:217,3,40.5,10|0|0|0,0:0|0:0|0:0|0:0,0:0:0:0:
85,247,251135,2,0,L|79:287,3,40.5,2|0|0|0,0:0|0:0|0:0|0:0,0:0:0:0:
164,354,251496,5,2,0:0:0:0:
180,364,251587,1,0,0:0:0:0:
199,371,251677,1,0,0:0:0:0:
220,373,251767,1,0,0:0:0:0:
240,370,251858,1,2,0:0:0:0:
258,363,251947,1,0,0:0:0:0:
275,351,252039,1,0,0:0:0:0:
288,336,252129,1,0,0:0:0:0:
297,318,252219,5,10,0:0:0:0:
321,300,252309,1,0,0:0:0:0:
350,300,252399,1,0,0:0:0:0:
375,317,252490,1,0,0:0:0:0:
385,345,252581,5,2,0:0:0:0:
412,373,252671,1,0,0:0:0:0:
452,376,252761,1,0,0:0:0:0:
483,352,252852,1,0,0:0:0:0:
491,314,252942,6,0,L|481:235,3,40.5,2|0|0|0,0:0|0:0|0:0|0:0,0:0:0:0:
407,228,253304,2,0,L|417:148,3,40.5,2|0|0|0,0:0|0:0|0:0|0:0,0:0:0:0:
456,113,253665,1,10,0:0:0:0:
416,106,253755,1,0,0:0:0:0:
376,99,253845,1,0,0:0:0:0:
336,93,253936,1,0,0:0:0:0:
297,87,254027,2,0,L|287:48,3,40.5,2|0|0|0,0:0|0:0|0:0|0:0,0:0:0:0:
272,171,254388,5,2,0:0:0:0:
251,169,254478,1,0,0:0:0:0:
231,169,254568,1,0,0:0:0:0:
211,170,254659,1,0,0:0:0:0:
191,174,254749,1,2,0:0:0:0:
171,179,254839,1,0,0:0:0:0:
152,185,254930,1,0,0:0:0:0:
134,194,255021,1,0,0:0:0:0:
116,203,255110,5,8,0:0:0:0:
125,163,255201,1,0,0:0:0:0:
129,123,255292,1,0,0:0:0:0:
127,119,255382,1,0,0:0:0:0:
124,115,255472,5,8,0:0:0:0:
70,101,255562,1,8,0:0:0:0:
23,130,255653,1,8,0:0:0:0:
11,184,255743,1,8,0:0:0:0:
41,231,255834,5,2,0:0:0:0:
45,229,255924,1,0,0:0:0:0:
50,228,256015,2,0,L|39:290,1,50.625,0|0,0:0|0:0,0:0:0:0:
261,332,256195,1,2,0:0:0:0:
257,330,256286,1,0,0:0:0:0:
252,329,256376,2,0,L|263:391,1,50.625,0|0,0:0|0:0,0:0:0:0:
66,103,256557,5,10,0:0:0:0:
70,101,256647,1,0,0:0:0:0:
75,100,256738,2,0,L|64:162,1,50.625,0|0,0:0|0:0,0:0:0:0:
313,211,256918,1,2,0:0:0:0:
309,209,257008,1,0,0:0:0:0:
304,208,257099,2,0,L|315:270,1,50.625,0|0,0:0|0:0,0:0:0:0:
158,13,257280,5,2,0:0:0:0:
162,11,257370,1,0,0:0:0:0:
167,10,257461,2,0,L|156:72,1,50.625,0|0,0:0|0:0,0:0:0:0:
380,159,257641,1,2,0:0:0:0:
384,161,257731,1,0,0:0:0:0:
389,162,257822,2,0,L|378:100,1,50.625,0|0,0:0|0:0,0:0:0:0:
159,275,258003,5,8,0:0:0:0:
113,233,258093,1,8,0:0:0:0:
114,171,258183,1,8,0:0:0:0:
159,130,258274,1,8,0:0:0:0:
220,135,258364,1,0,0:0:0:0:
244,153,258454,1,8,0:0:0:0:
268,160,258545,1,0,0:0:0:0:
283,158,258635,1,0,0:0:0:0:
289,155,258725,6,0,P|323:98|169:68,1,259.2,14|0,0:0|0:0,0:0:0:0:
61,210,259177,1,0,0:0:0:0:
53,221,259268,2,0,B|100:242|142:220|142:220|177:249|177:249|218:219|296:235,1,259.2,14|0,0:0|0:0,0:0:0:0:
446,311,259719,1,0,0:0:0:0:
460,307,259810,2,0,P|459:206|359:190,1,218.699993325806,14|0,0:0|0:0,0:0:0:0:
200,339,260171,6,0,L|121:318,1,72.8999977752686,14|0,0:0|0:0,0:0:0:0:
16,248,260352,1,0,0:0:0:0:
17,251,260412,1,0,0:0:0:0:
18,254,260472,1,0,0:0:0:0:
19,257,260533,2,0,L|94:246,1,72.8999977752686
202,345,260713,5,14,0:0:0:0:
201,342,260773,1,0,0:0:0:0:
200,339,260834,1,0,0:0:0:0:
199,336,260894,2,0,L|271:324,1,72.8999977752686,0|0,0:0|0:0,0:0:0:0:
346,204,261075,5,0,0:0:0:0:
72,374,261256,1,14,0:0:0:0:
72,374,261617,5,8,0:0:0:0:
83,305,261707,1,8,0:0:0:0:
94,235,261797,1,8,0:0:0:0:
105,165,261888,1,8,0:0:0:0:
117,95,261978,1,8,0:0:0:0:
117,95,263063,5,14,0:0:0:0:
185,111,263153,1,0,0:0:0:0:
254,127,263243,2,0,P|295:116|323:87,1,72.8999977752686,0|0,0:0|0:0,0:0:0:0:
125,316,263424,5,14,0:0:0:0:
104,247,263514,1,0,0:0:0:0:
84,180,263604,2,0,P|53:149|14:138,1,72.8999977752686,0|0,0:0|0:0,0:0:0:0:
312,198,263786,5,14,0:0:0:0:
264,249,263876,1,0,0:0:0:0:
215,301,263966,2,0,P|203:341|213:380,1,72.8999977752686,0|0,0:0|0:0,0:0:0:0:
467,51,264147,5,12,0:0:0:0:
455,125,264237,1,8,0:0:0:0:
444,197,264327,1,8,0:0:0:0:
433,269,264418,1,8,0:0:0:0:
422,341,264509,5,6,0:0:0:0:
181,205,264689,1,10,0:0:0:0:
390,77,264870,1,0,0:0:0:0:
383,108,264960,1,0,0:0:0:0:
376,140,265050,1,10,0:0:0:0:
191,15,265231,6,0,L|211:94,1,64.8,0|0,0:0|0:0,0:0:0:0:
118,72,265412,2,0,L|138:151,1,64.8,10|0,0:0|0:0,0:0:0:0:
45,129,265593,1,0,0:0:0:0:
259,256,265774,1,10,0:0:0:0:
266,224,265864,1,0,0:0:0:0:
274,193,265954,5,0,0:0:0:0:
106,375,266135,1,10,0:0:0:0:
318,324,266316,1,0,0:0:0:0:
349,315,266406,1,0,0:0:0:0:
381,306,266496,1,10,0:0:0:0:
199,144,266677,6,0,L|185:230,1,64.8,0|0,0:0|0:0,0:0:0:0:
392,63,266858,2,0,L|377:0,1,64.8,10|0,0:0|0:0,0:0:0:0:
128,98,267039,1,2,0:0:0:0:
122,129,267129,1,0,0:0:0:0:
117,161,267219,1,10,0:0:0:0:
112,193,267310,1,0,0:0:0:0:
107,225,267400,5,6,0:0:0:0:
311,39,267581,1,10,0:0:0:0:
430,206,267762,1,0,0:0:0:0:
399,196,267852,1,0,0:0:0:0:
368,186,267942,1,10,0:0:0:0:
238,360,268123,1,0,0:0:0:0:
269,350,268213,1,0,0:0:0:0:
300,340,268304,1,10,0:0:0:0:
331,330,268394,1,0,0:0:0:0:
362,320,268484,1,0,0:0:0:0:
198,145,268665,1,10,0:0:0:0:
206,176,268756,1,0,0:0:0:0:
214,208,268845,5,0,0:0:0:0:
404,53,269027,1,10,0:0:0:0:
219,17,269207,1,0,0:0:0:0:
188,9,269297,1,0,0:0:0:0:
156,1,269387,1,10,0:0:0:0:
44,186,269569,6,0,P|71:203|130:204,1,64.8,0|0,0:0|0:0,0:0:0:0:
278,90,269749,2,0,P|246:95|218:112,1,64.8,10|0,0:0|0:0,0:0:0:0:
237,334,269930,1,0,0:0:0:0:
231,302,270021,1,0,0:0:0:0:
225,270,270111,1,10,0:0:0:0:
219,238,270201,1,0,0:0:0:0:
213,207,270292,5,6,0:0:0:0:
458,339,270472,1,10,0:0:0:0:
373,121,270653,1,0,0:0:0:0:
367,152,270743,1,0,0:0:0:0:
361,184,270833,1,10,0:0:0:0:
188,78,271015,6,0,L|173:10,1,64.8,0|0,0:0|0:0,0:0:0:0:
118,126,271195,2,0,L|103:58,1,64.8,10|0,0:0|0:0,0:0:0:0:
48,174,271376,1,0,0:0:0:0:
285,58,271557,1,10,0:0:0:0:
278,90,271647,1,0,0:0:0:0:
272,123,271737,5,0,0:0:0:0:
80,21,271918,1,10,0:0:0:0:
219,242,272099,1,0,0:0:0:0:
213,210,272189,1,0,0:0:0:0:
206,178,272279,1,10,0:0:0:0:
418,178,272460,6,0,P|474:169|498:152,1,64.8,0|0,0:0|0:0,0:0:0:0:
233,324,272641,2,0,P|200:323|170:311,1,64.8,10|0,0:0|0:0,0:0:0:0:
433,96,272822,2,0,L|444:32,1,64.8,0|0,0:0|0:0,0:0:0:0:
206,178,273003,2,0,L|220:253,1,64.8,10|0,0:0|0:0,0:0:0:0:
471,319,273183,5,6,0:0:0:0:
272,123,273364,1,10,0:0:0:0:
304,358,273545,1,0,0:0:0:0:
310,326,273635,1,0,0:0:0:0:
317,294,273725,1,10,0:0:0:0:
123,166,273906,1,0,0:0:0:0:
130,198,273996,1,0,0:0:0:0:
136,230,274086,1,10,0:0:0:0:
142,262,274177,1,0,0:0:0:0:
148,294,274268,1,0,0:0:0:0:
347,167,274448,1,10,0:0:0:0:
137,87,274629,5,0,0:0:0:0:
360,252,274810,1,10,0:0:0:0:
291,66,274990,1,0,0:0:0:0:
285,97,275080,1,0,0:0:0:0:
280,129,275170,1,10,0:0:0:0:
370,335,275352,6,0,P|401:326|425:304,1,64.8,0|0,0:0|0:0,0:0:0:0:
263,208,275533,2,0,P|232:198|208:176,1,64.8,10|0,0:0|0:0,0:0:0:0:
377,57,275713,1,0,0:0:0:0:
371,88,275803,1,0,0:0:0:0:
366,120,275893,1,10,0:0:0:0:
232,2,276075,5,0,0:0:0:0:
427,196,276256,1,10,0:0:0:0:
215,101,276436,1,0,0:0:0:0:
247,96,276526,1,0,0:0:0:0:
278,90,276617,1,10,0:0:0:0:
159,270,276798,6,0,L|95:258,1,64.8,0|0,0:0|0:0,0:0:0:0:
333,157,276978,2,0,L|397:146,1,64.8,10|0,0:0|0:0,0:0:0:0:
271,346,277159,1,0,0:0:0:0:
240,341,277249,1,0,0:0:0:0:
208,335,277340,1,10,0:0:0:0:
134,57,277521,5,0,0:0:0:0:
241,254,277701,1,10,0:0:0:0:
365,117,277882,1,0,0:0:0:0:
333,112,277972,1,0,0:0:0:0:
302,106,278063,1,10,0:0:0:0:
177,264,278243,1,0,0:0:0:0:
209,259,278333,1,0,0:0:0:0:
241,254,278424,1,10,0:0:0:0:
273,249,278514,1,0,0:0:0:0:
315,279,278605,5,2,0:0:0:0:
378,271,278695,1,0,0:0:0:0:
417,221,278785,1,10,0:0:0:0:
412,158,278876,1,0,0:0:0:0:
365,117,278966,5,6,0:0:0:0:
248,369,279147,1,10,0:0:0:0:
97,202,279328,1,0,0:0:0:0:
129,196,279418,1,0,0:0:0:0:
161,191,279508,1,10,0:0:0:0:
356,108,279689,1,0,0:0:0:0:
323,102,279779,1,0,0:0:0:0:
291,97,279870,1,10,0:0:0:0:
259,92,279960,1,0,0:0:0:0:
226,86,280051,1,0,0:0:0:0:
371,288,280231,1,10,0:0:0:0:
466,81,280412,5,0,0:0:0:0:
262,230,280593,1,10,0:0:0:0:
447,355,280774,1,0,0:0:0:0:
450,322,280864,1,0,0:0:0:0:
453,290,280954,1,10,0:0:0:0:
320,70,281135,1,0,0:0:0:0:
323,102,281225,1,0,0:0:0:0:
327,135,281315,1,10,0:0:0:0:
331,168,281406,1,0,0:0:0:0:
335,201,281496,1,0,0:0:0:0:
512,24,281677,1,10,0:0:0:0:
243,149,281858,5,6,0:0:0:0:
453,290,282039,1,10,0:0:0:0:
270,372,282219,1,0,0:0:0:0:
275,340,282309,1,0,0:0:0:0:
280,308,282399,1,10,0:0:0:0:
151,128,282581,1,0,0:0:0:0:
156,159,282671,1,0,0:0:0:0:
161,191,282761,1,10,0:0:0:0:
364,267,282942,1,0,0:0:0:0:
369,235,283032,1,0,0:0:0:0:
374,203,283123,1,10,0:0:0:0:
174,274,283304,6,0,L|106:294,1,64.8,0|8,0:0|0:0,0:0:0:0:
327,127,283484,1,8,0:0:0:0:
389,113,283574,1,8,0:0:0:0:
444,144,283664,1,8,0:0:0:0:
466,203,283755,1,8,0:0:0:0:
443,262,283845,1,8,0:0:0:0:
387,291,283936,1,0,0:0:0:0:
324,281,284027,6,0,P|298:269|281:235,1,64.8,8|0,0:0|0:0,0:0:0:0:
159,195,284207,2,0,P|182:178|220:180,1,64.8,8|0,0:0|0:0,0:0:0:0:
315,95,284388,2,0,P|317:123|296:155,1,64.8,8|0,0:0|0:0,0:0:0:0:
203,265,284569,6,0,P|179:281|141:279,1,64.8,8|0,0:0|0:0,0:0:0:0:
94,150,284749,5,6,0:0:0:0:
128,112,284839,1,0,0:0:0:0:
176,94,284929,1,10,0:0:0:0:
228,100,285020,1,0,0:0:0:0:
270,128,285110,1,0,0:0:0:0:
296,173,285200,1,0,0:0:0:0:
298,224,285292,5,10,0:0:0:0:
324,281,285382,1,0,0:0:0:0:
381,309,285472,1,0,0:0:0:0:
443,294,285563,1,0,0:0:0:0:
481,243,285653,5,10,0:0:0:0:
473,185,285743,1,0,0:0:0:0:
466,127,285833,1,0,0:0:0:0:
459,69,285924,1,0,0:0:0:0:
452,11,286015,2,0,L|369:30,1,64.8,10|0,0:0|0:0,0:0:0:0:
228,166,286196,5,0,0:0:0:0:
173,186,286287,1,0,0:0:0:0:
116,174,286377,2,0,P|105:132|117:78,1,64.8,10|0,0:0|0:0,0:0:0:0:
332,238,286557,1,0,0:0:0:0:
380,255,286647,1,0,0:0:0:0:
431,248,286737,2,0,P|440:212|435:164,1,64.8,10|0,0:0|0:0,0:0:0:0:
241,79,286919,1,0,0:0:0:0:
225,122,287009,1,0,0:0:0:0:
228,166,287098,2,0,P|260:174|303:169,1,64.8,10|0,0:0|0:0,0:0:0:0:
380,255,287280,1,0,0:0:0:0:
401,301,287370,1,0,0:0:0:0:
393,352,287460,2,0,P|355:361|306:356,1,64.8,10|0,0:0|0:0,0:0:0:0:
149,383,287641,5,0,0:0:0:0:
99,367,287732,1,0,0:0:0:0:
66,326,287822,1,10,0:0:0:0:
62,274,287912,1,0,0:0:0:0:
90,228,288003,1,0,0:0:0:0:
136,206,288093,1,0,0:0:0:0:
188,214,288183,5,10,0:0:0:0:
240,248,288273,1,0,0:0:0:0:
300,231,288363,1,0,0:0:0:0:
327,174,288454,1,0,0:0:0:0:
300,117,288545,5,10,0:0:0:0:
276,66,288635,1,0,0:0:0:0:
300,15,288726,1,0,0:0:0:0:
353,0,288816,1,0,0:0:0:0:
400,31,288906,2,0,L|384:112,1,64.8,10|0,0:0|0:0,0:0:0:0:
198,344,289087,5,0,0:0:0:0:
168,283,289177,1,0,0:0:0:0:
188,220,289268,1,10,0:0:0:0:
242,183,289358,1,0,0:0:0:0:
307,191,289448,1,0,0:0:0:0:
355,237,289539,1,0,0:0:0:0:
361,303,289629,1,10,0:0:0:0:
321,357,289720,1,0,0:0:0:0:
258,374,289810,1,0,0:0:0:0:
198,344,289900,1,0,0:0:0:0:
168,283,289991,1,10,0:0:0:0:
120,236,290081,1,0,0:0:0:0:
53,228,290171,6,0,P|49:189|71:143,1,64.8,2|0,0:0|0:0,0:0:0:0:
153,47,290352,2,0,P|185:25|236:21,1,64.8,10|0,0:0|0:0,0:0:0:0:
380,182,290533,5,6,0:0:0:0:
348,223,290623,1,0,0:0:0:0:
302,244,290713,1,10,0:0:0:0:
250,235,290804,1,0,0:0:0:0:
213,201,290894,1,0,0:0:0:0:
199,149,290984,1,0,0:0:0:0:
213,98,291075,5,10,0:0:0:0:
205,35,291165,1,0,0:0:0:0:
153,0,291255,1,0,0:0:0:0:
92,14,291346,1,0,0:0:0:0:
62,69,291436,5,10,0:0:0:0:
71,124,291526,1,0,0:0:0:0:
81,180,291616,1,0,0:0:0:0:
91,236,291707,1,0,0:0:0:0:
100,292,291798,2,0,L|176:277,1,64.8,10|0,0:0|0:0,0:0:0:0:
313,323,291978,5,0,0:0:0:0:
335,269,292069,1,0,0:0:0:0:
336,211,292160,2,0,P|288:187|240:188,1,64.8,10|0,0:0|0:0,0:0:0:0:
120,193,292340,1,0,0:0:0:0:
101,241,292430,1,0,0:0:0:0:
100,292,292521,2,0,P|143:314|185:313,1,64.8,10|0,0:0|0:0,0:0:0:0:
250,158,292701,1,0,0:0:0:0:
262,114,292792,1,0,0:0:0:0:
252,71,292882,2,0,P|210:69|169:84,1,64.8,10|0,0:0|0:0,0:0:0:0:
21,138,293062,1,0,0:0:0:0:
20,190,293152,1,0,0:0:0:0:
37,238,293243,2,0,P|84:244|124:229,1,64.8,10|0,0:0|0:0,0:0:0:0:
352,139,293424,5,6,0:0:0:0:
314,87,293515,1,0,0:0:0:0:
252,71,293605,1,8,0:0:0:0:
194,99,293695,1,0,0:0:0:0:
167,156,293786,1,0,0:0:0:0:
182,218,293876,1,0,0:0:0:0:
234,253,293966,1,10,0:0:0:0:
297,249,294057,1,0,0:0:0:0:
343,205,294147,5,0,0:0:0:0:
291,166,294238,1,0,0:0:0:0:
228,175,294328,1,10,0:0:0:0:
182,218,294418,1,0,0:0:0:0:
141,267,294509,1,0,0:0:0:0:
78,274,294599,1,0,0:0:0:0:
27,235,294689,1,8,0:0:0:0:
21,171,294780,1,0,0:0:0:0:
62,121,294870,6,0,L|140:131,1,64.8,6|0,0:0|0:0,0:0:0:0:
239,25,295051,2,0,L|171:17,2,43.2,8|0|0,0:0|0:0|0:0,0:0:0:0:
298,9,295231,5,8,0:0:0:0:
361,9,295321,1,8,0:0:0:0:
410,49,295411,1,8,0:0:0:0:
422,111,295502,1,8,0:0:0:0:
392,166,295593,6,0,P|344:156|315:148,1,64.8,8|8,0:0|0:0,0:0:0:0:
182,218,295774,2,0,P|230:208|259:200,1,64.8,8|8,0:0|0:0,0:0:0:0:
387,240,295954,2,0,P|339:230|310:222,1,64.8,8|0,0:0|0:0,0:0:0:0:
168,144,296135,2,0,P|216:134|245:126,1,64.8,8|0,0:0|0:0,0:0:0:0:
382,314,296316,5,6,0:0:0:0:
335,298,296406,1,0,0:0:0:0:
286,292,296496,1,10,0:0:0:0:
236,296,296587,1,0,0:0:0:0:
189,310,296677,1,0,0:0:0:0:
145,333,296767,1,0,0:0:0:0:
107,364,296858,5,10,0:0:0:0:
46,348,296948,1,0,0:0:0:0:
16,292,297038,1,0,0:0:0:0:
37,233,297129,1,0,0:0:0:0:
94,208,297219,5,10,0:0:0:0:
144,186,297310,1,0,0:0:0:0:
163,133,297401,1,0,0:0:0:0:
136,85,297491,1,0,0:0:0:0:
83,71,297581,2,0,L|90:144,1,64.8,10|0,0:0|0:0,0:0:0:0:
455,28,297762,5,0,0:0:0:0:
459,24,297852,1,0,0:0:0:0:
463,20,297943,2,0,P|427:40|392:47,1,64.8,10|0,0:0|0:0,0:0:0:0:
207,8,298123,1,0,0:0:0:0:
203,4,298214,1,0,0:0:0:0:
198,0,298304,2,0,P|217:36|224:71,1,64.8,10|0,0:0|0:0,0:0:0:0:
178,265,298485,1,0,0:0:0:0:
174,269,298575,1,0,0:0:0:0:
171,274,298665,2,0,P|206:255|241:248,1,64.8,10|0,0:0|0:0,0:0:0:0:
433,277,298846,1,0,0:0:0:0:
437,281,298937,1,0,0:0:0:0:
442,285,299027,2,0,P|422:250|415:215,1,64.8,10|0,0:0|0:0,0:0:0:0:
222,59,299207,5,0,0:0:0:0:
179,30,299298,1,0,0:0:0:0:
129,32,299388,1,10,0:0:0:0:
87,72,299479,1,0,0:0:0:0:
89,119,299569,1,0,0:0:0:0:
119,160,299659,1,0,0:0:0:0:
167,172,299749,5,10,0:0:0:0:
226,150,299839,1,0,0:0:0:0:
287,169,299929,1,0,0:0:0:0:
324,221,300020,1,0,0:0:0:0:
321,285,300111,5,10,0:0:0:0:
334,342,300201,1,0,0:0:0:0:
384,371,300292,1,0,0:0:0:0:
441,364,300382,1,0,0:0:0:0:
477,319,300472,2,0,L|471:246,1,64.8,10|0,0:0|0:0,0:0:0:0:
464,159,300653,5,0,0:0:0:0:
406,128,300744,1,0,0:0:0:0:
340,129,300834,1,10,0:0:0:0:
287,169,300924,1,0,0:0:0:0:
238,210,301015,1,0,0:0:0:0:
174,222,301105,1,0,0:0:0:0:
112,195,301195,1,10,0:0:0:0:
75,139,301286,1,0,0:0:0:0:
77,71,301376,5,0,0:0:0:0:
89,75,301466,1,0,0:0:0:0:
102,80,301557,2,0,L|188:61,1,72.8999977752686,12|0,0:0|0:0,0:0:0:0:
377,214,301737,1,0,0:0:0:0:
365,218,301827,1,0,0:0:0:0:
352,223,301918,2,0,L|266:204,1,72.8999977752686,12|0,0:0|0:0,0:0:0:0:
177,360,302099,5,6,0:0:0:0:
125,359,302189,1,0,0:0:0:0:
82,330,302279,1,10,0:0:0:0:
60,283,302370,1,0,0:0:0:0:
67,232,302460,1,0,0:0:0:0:
101,193,302550,1,0,0:0:0:0:
150,178,302641,5,10,0:0:0:0:
213,192,302731,1,0,0:0:0:0:
276,207,302821,1,0,0:0:0:0:
339,222,302912,1,0,0:0:0:0:
402,237,303003,5,10,0:0:0:0:
455,217,303093,1,0,0:0:0:0:
482,167,303183,1,0,0:0:0:0:
470,111,303274,1,0,0:0:0:0:
424,78,303364,2,0,P|398:62|365:56,1,64.8,10|0,0:0|0:0,0:0:0:0:
349,304,303545,5,0,0:0:0:0:
353,309,303635,1,0,0:0:0:0:
357,313,303725,2,0,P|389:339|422:344,1,64.8,10|0,0:0|0:0,0:0:0:0:
146,265,303906,1,0,0:0:0:0:
141,269,303996,1,0,0:0:0:0:
137,273,304086,2,0,P|111:305|106:338,1,64.8,10|0,0:0|0:0,0:0:0:0:
185,62,304268,1,0,0:0:0:0:
181,57,304358,1,0,0:0:0:0:
177,53,304448,2,0,P|145:27|112:22,1,64.8,10|0,0:0|0:0,0:0:0:0:
388,101,304630,1,0,0:0:0:0:
393,97,304720,1,0,0:0:0:0:
397,93,304810,2,0,P|423:61|428:28,1,64.8,10|0,0:0|0:0,0:0:0:0:
357,313,304990,5,6,0:0:0:0:
293,329,305081,1,0,0:0:0:0:
231,306,305171,1,8,0:0:0:0:
191,256,305262,1,0,0:0:0:0:
185,189,305352,1,0,0:0:0:0:
215,130,305442,1,0,0:0:0:0:
270,96,305533,1,10,0:0:0:0:
337,101,305623,1,0,0:0:0:0:
392,140,305713,5,2,0:0:0:0:
334,171,305804,1,0,0:0:0:0:
268,170,305894,1,8,0:0:0:0:
215,130,305984,1,0,0:0:0:0:
166,89,306075,1,2,0:0:0:0:
102,77,306165,1,0,0:0:0:0:
40,104,306256,1,8,0:0:0:0:
3,160,306346,1,0,0:0:0:0:
5,228,306436,6,0,P|33:255|71:270,1,64.8,2|0,0:0|0:0,0:0:0:0:
250,382,306617,1,8,0:0:0:0:
239,351,306707,1,8,0:0:0:0:
232,320,306798,1,8,0:0:0:0:
239,276,306888,1,8,0:0:0:0:
253,226,306978,1,8,0:0:0:0:
268,170,307069,1,8,0:0:0:0:
280,108,307159,6,0,L|303:6,2,64.8,8|0|0,0:0|0:0|0:0,0:0:0:0:
128,175,307430,2,0,L|204:245,2,64.8,0|0|0,0:0|0:0|0:0,0:0:0:0:
145,9,307701,2,0,L|45:40,1,64.8,0|0,0:0|0:0,0:0:0:0:
349,160,307882,5,6,0:0:0:0:
256,192,307972,12,0,313304,0:0:0:0:
153,227,313665,6,0,P|133:249|127:289,1,40.5,8|8,0:0|0:0,0:0:0:0:
193,305,313846,2,0,P|213:283|219:243,1,40.5,8|8,0:0|0:0,0:0:0:0:
118,331,314027,1,8,0:0:0:0:
359,157,316557,6,0,P|379:135|385:95,1,40.5,8|8,0:0|0:0,0:0:0:0:
319,79,316738,2,0,P|299:101|293:141,1,40.5,8|8,0:0|0:0,0:0:0:0:
394,53,316919,1,8,0:0:0:0:
241,125,318906,5,0,0:0:0:0:
240,116,318967,1,0,0:0:0:0:
239,107,319027,1,0,0:0:0:0:
269,76,319087,6,0,L|278:181,1,91.125003476143,10|0,0:0|0:0,0:0:0:0:
332,231,319448,6,0,L|339:278,1,40.5,6|0,0:0|0:0,0:0:0:0:
290,339,319628,1,0,0:0:0:0:
262,357,319718,1,0,0:0:0:0:
229,362,319808,1,10,0:0:0:0:
196,353,319899,1,0,0:0:0:0:
171,332,319989,1,0,0:0:0:0:
156,302,320079,1,0,0:0:0:0:
156,268,320170,2,0,P|165:229|167:208,1,40.5,10|0,0:0|0:0,0:0:0:0:
107,160,320351,1,0,0:0:0:0:
119,129,320441,1,0,0:0:0:0:
111,97,320532,6,0,L|167:91,1,40.5,10|0,0:0|0:0,0:0:0:0:
226,50,320713,1,0,0:0:0:0:
236,81,320803,1,0,0:0:0:0:
259,106,320893,1,10,0:0:0:0:
290,119,320984,1,0,0:0:0:0:
323,117,321074,1,0,0:0:0:0:
353,102,321164,1,0,0:0:0:0:
374,76,321255,2,0,P|403:85|426:87,1,40.5,10|0,0:0|0:0,0:0:0:0:
478,145,321435,1,0,0:0:0:0:
489,175,321526,1,0,0:0:0:0:
477,205,321616,6,0,P|447:209|417:219,1,40.5,10|0,0:0|0:0,0:0:0:0:
364,254,321797,1,0,0:0:0:0:
360,255,321887,1,2,0:0:0:0:
356,256,321978,6,0,P|351:212|344:180,1,40.5,10|0,0:0|0:0,0:0:0:0:
303,144,322158,1,0,0:0:0:0:
272,129,322249,1,0,0:0:0:0:
239,130,322338,1,10,0:0:0:0:
209,145,322429,1,0,0:0:0:0:
189,172,322519,1,0,0:0:0:0:
182,204,322609,1,0,0:0:0:0:
190,237,322701,2,0,P|199:273|196:307,1,40.5,10|0,0:0|0:0,0:0:0:0:
141,338,322881,1,0,0:0:0:0:
109,346,322972,1,0,0:0:0:0:
78,336,323062,6,0,P|84:309|85:286,1,40.5,10|0,0:0|0:0,0:0:0:0:
32,227,323243,1,0,0:0:0:0:
13,198,323333,1,2,0:0:0:0:
9,165,323423,1,10,0:0:0:0:
20,134,323514,1,0,0:0:0:0:
44,110,323604,1,0,0:0:0:0:
76,99,323694,1,0,0:0:0:0:
109,103,323785,2,0,P|144:109|177:111,1,40.5,10|0,0:0|0:0,0:0:0:0:
218,58,323966,1,0,0:0:0:0:
248,67,324056,1,0,0:0:0:0:
280,63,324146,6,0,P|279:101|283:129,1,40.5,10|0,0:0|0:0,0:0:0:0:
341,162,324327,1,0,0:0:0:0:
340,166,324417,1,0,0:0:0:0:
363,194,324508,6,0,P|317:181|281:177,1,48.5999985168458,14|0,0:0|0:0,0:0:0:0:
220,213,324688,1,0,0:0:0:0:
206,250,324779,1,0,0:0:0:0:
212,290,324868,1,10,0:0:0:0:
235,322,324959,1,0,0:0:0:0:
271,340,325049,1,0,0:0:0:0:
311,339,325139,1,0,0:0:0:0:
346,319,325231,2,0,P|388:323|416:330,1,48.5999985168458,10|0,0:0|0:0,0:0:0:0:
478,266,325411,1,0,0:0:0:0:
496,231,325502,1,0,0:0:0:0:
492,192,325592,6,0,P|479:143|480:105,1,48.5999985168458,10|0,0:0|0:0,0:0:0:0:
428,57,325773,1,0,0:0:0:0:
408,92,325863,1,0,0:0:0:0:
374,112,325953,1,10,0:0:0:0:
334,112,326044,1,0,0:0:0:0:
300,92,326134,1,0,0:0:0:0:
280,57,326224,1,0,0:0:0:0:
282,17,326315,2,0,L|213:31,1,48.5999985168458,10|0,0:0|0:0,0:0:0:0:
134,2,326496,1,0,0:0:0:0:
117,37,326586,1,0,0:0:0:0:
115,75,326676,6,0,L|176:85,1,48.5999985168458,10|0,0:0|0:0,0:0:0:0:
229,161,326857,1,0,0:0:0:0:
227,165,326948,1,0,0:0:0:0:
225,169,327038,6,0,L|218:251,1,48.5999985168458,10|0,0:0|0:0,0:0:0:0:
151,292,327219,1,0,0:0:0:0:
184,311,327309,1,0,0:0:0:0:
222,317,327399,1,10,0:0:0:0:
259,306,327490,1,0,0:0:0:0:
292,287,327580,1,0,0:0:0:0:
330,281,327670,1,0,0:0:0:0:
367,292,327761,2,0,P|408:303|451:299,1,48.5999985168458,10|0,0:0|0:0,0:0:0:0:
487,231,327941,1,0,0:0:0:0:
502,194,328032,1,0,0:0:0:0:
494,155,328122,6,0,L|437:160,1,48.5999985168458,10|0,0:0|0:0,0:0:0:0:
392,71,328303,1,0,0:0:0:0:
356,51,328393,1,0,0:0:0:0:
316,53,328483,1,10,0:0:0:0:
283,76,328574,1,0,0:0:0:0:
267,112,328664,1,0,0:0:0:0:
272,152,328754,1,0,0:0:0:0:
297,183,328845,2,0,P|304:209|306:254,1,48.5999985168458,10|0,0:0|0:0,0:0:0:0:
238,309,329026,1,0,0:0:0:0:
202,324,329116,1,0,0:0:0:0:
163,318,329207,6,0,L|171:255,1,48.5999985168458,10|0,0:0|0:0,0:0:0:0:
125,178,329387,1,0,0:0:0:0:
120,180,329478,1,0,0:0:0:0:
91,204,329568,6,0,P|101:143|101:118,1,56.6999982696534,14|0,0:0|0:0,0:0:0:0:
90,29,329749,1,0,0:0:0:0:
129,4,329839,1,0,0:0:0:0:
176,0,329929,1,10,0:0:0:0:
219,19,330020,1,0,0:0:0:0:
247,56,330110,1,0,0:0:0:0:
255,102,330200,1,0,0:0:0:0:
241,147,330291,2,0,P|221:183|218:221,1,56.6999982696534,10|0,0:0|0:0,0:0:0:0:
280,301,330472,1,0,0:0:0:0:
321,318,330562,1,0,0:0:0:0:
365,313,330652,6,0,P|399:301|426:281,1,56.6999982696534,10|0,0:0|0:0,0:0:0:0:
503,206,330833,1,0,0:0:0:0:
512,160,330923,1,0,0:0:0:0:
501,115,331013,1,10,0:0:0:0:
467,83,331104,1,0,0:0:0:0:
422,71,331194,1,0,0:0:0:0:
377,84,331284,1,0,0:0:0:0:
344,117,331375,2,0,P|316:135|280:144,1,56.6999982696534,10|0,0:0|0:0,0:0:0:0:
211,230,331556,1,0,0:0:0:0:
169,248,331646,1,0,0:0:0:0:
123,241,331737,6,0,P|115:189|121:168,1,56.6999982696534,10|0,0:0|0:0,0:0:0:0:
63,79,331917,1,0,0:0:0:0:
57,77,332008,1,0,0:0:0:0:
30,55,332098,6,0,P|88:57|126:44,1,64.8,14|0,0:0|0:0,0:0:0:0:
221,2,332279,1,0,0:0:0:0:
273,0,332369,1,0,0:0:0:0:
321,16,332459,1,10,0:0:0:0:
349,62,332550,1,0,0:0:0:0:
348,115,332640,1,0,0:0:0:0:
317,159,332730,1,0,0:0:0:0:
268,178,332821,2,0,P|247:209|237:247,1,64.8,10|0,0:0|0:0,0:0:0:0:
316,349,333002,1,0,0:0:0:0:
363,369,333092,1,0,0:0:0:0:
414,362,333182,6,0,P|437:318|444:281,1,64.8,10|0,0:0|0:0,0:0:0:0:
509,187,333363,1,0,0:0:0:0:
461,166,333453,1,0,0:0:0:0:
411,180,333543,1,10,0:0:0:0:
381,223,333634,1,0,0:0:0:0:
351,266,333725,1,0,0:0:0:0:
301,280,333815,1,0,0:0:0:0:
253,259,333905,2,0,P|213:242|179:240,1,64.8,10|0,0:0|0:0,0:0:0:0:
76,312,334086,1,0,0:0:0:0:
48,268,334176,1,0,0:0:0:0:
53,216,334267,6,0,P|67:177|71:135,1,64.8,10|0,0:0|0:0,0:0:0:0:
142,37,334448,1,0,0:0:0:0:
148,39,334538,1,0,0:0:0:0:
174,21,334628,6,0,P|218:35|271:27,1,72.8999977752686,14|0,0:0|0:0,0:0:0:0:
397,7,334809,1,0,0:0:0:0:
440,48,334899,1,0,0:0:0:0:
449,107,334989,1,10,0:0:0:0:
421,159,335080,1,0,0:0:0:0:
367,184,335170,1,0,0:0:0:0:
308,170,335260,1,0,0:0:0:0:
270,125,335351,2,0,P|248:103|181:93,1,72.8999977752686,10|0,0:0|0:0,0:0:0:0:
67,150,335532,1,0,0:0:0:0:
42,202,335622,1,0,0:0:0:0:
55,259,335713,6,0,P|96:269|129:262,1,72.8999977752686,10|0,0:0|0:0,0:0:0:0:
241,363,335893,1,0,0:0:0:0:
282,322,335983,1,0,0:0:0:0:
287,264,336073,1,10,0:0:0:0:
256,213,336164,1,0,0:0:0:0:
225,162,336254,1,0,0:0:0:0:
230,104,336345,1,0,0:0:0:0:
271,63,336435,2,0,L|346:78,1,72.8999977752686,10|0,0:0|0:0,0:0:0:0:
491,124,336616,1,0,0:0:0:0:
504,179,336707,1,0,0:0:0:0:
479,231,336797,6,0,P|441:240|392:235,1,72.8999977752686,10|0,0:0|0:0,0:0:0:0:
256,213,336978,1,0,0:0:0:0:
249,215,337068,1,0,0:0:0:0:
225,234,337158,6,0,P|189:246|134:237,1,81,14|0,0:0|0:0,0:0:0:0:
20,125,337339,1,0,0:0:0:0:
31,61,337429,1,0,0:0:0:0:
84,24,337519,1,10,0:0:0:0:
149,28,337610,1,0,0:0:0:0:
193,74,337700,1,0,0:0:0:0:
237,120,337791,1,0,0:0:0:0:
302,124,337881,2,0,P|351:117|397:88,1,81,10|0,0:0|0:0,0:0:0:0:
507,215,338062,1,0,0:0:0:0:
493,278,338152,1,0,0:0:0:0:
479,341,338243,6,0,L|385:323,1,81,14|0,0:0|0:0,0:0:0:0:
307,202,338423,2,0,L|213:220,1,81,0|0,0:0|0:0,0:0:0:0:
63,314,338604,2,0,P|109:313|145:332,1,81,8|0,0:0|0:0,0:0:0:0:
283,282,338785,2,0,P|329:283|365:264,1,81,8|0,0:0|0:0,0:0:0:0:
165,105,338966,6,0,P|128:88|88:91,1,81,8|8,0:0|0:0,0:0:0:0:
202,269,339146,2,0,P|206:308|228:342,1,81,0|8,0:0|0:0,0:0:0:0:
326,155,339327,2,0,P|358:131|376:95,1,81,0|8,0:0|0:0,0:0:0:0:
163,190,339508,2,0,P|130:213|112:249,1,81,0|0,0:0|0:0,0:0:0:0:
359,268,339688,6,0,P|398:273|448:256,1,89.1000027191163,2|0,0:0|0:0,0:0:0:0:
496,76,339869,1,10,0:0:0:0:
424,68,339960,1,0,0:0:0:0:
365,27,340050,1,0,0:0:0:0:
294,15,340140,1,0,0:0:0:0:
235,56,340230,1,10,0:0:0:0:
163,64,340321,1,0,0:0:0:0:
98,35,340411,2,0,L|-21:57,1,89.1000027191163,0|0,0:0|0:0,0:0:0:0:
6,241,340592,1,10,0:0:0:0:
75,257,340682,1,0,0:0:0:0:
141,231,340773,6,0,L|185:147,1,89.1000027191163,0|0,0:0|0:0,0:0:0:0:
328,354,340954,1,10,0:0:0:0:
392,322,341044,1,0,0:0:0:0:
407,252,341134,1,0,0:0:0:0:
363,197,341225,1,0,0:0:0:0:
291,197,341315,1,10,0:0:0:0:
248,252,341405,1,0,0:0:0:0:
263,322,341496,2,0,L|335:263,1,89.1000027191163,0|0,0:0|0:0,0:0:0:0:
448,119,341676,1,10,0:0:0:0:
377,107,341767,1,0,0:0:0:0:
336,48,341857,6,0,L|206:71,1,89.1000027191163,0|0,0:0|0:0,0:0:0:0:
38,100,342038,2,0,L|125:115,1,89.1000027191163,8|0,0:0|0:0,0:0:0:0:
343,268,342219,6,0,L|244:251,1,97.1999970336915,2|0,0:0|0:0,0:0:0:0:
47,288,342399,1,0,0:0:0:0:
55,210,342490,1,0,0:0:0:0:
121,168,342579,1,2,0:0:0:0:
194,194,342670,1,0,0:0:0:0:
247,251,342761,1,0,0:0:0:0:
319,280,342851,1,0,0:0:0:0:
391,251,342941,2,0,P|415:195|406:143,1,97.1999970336915,10|0,0:0|0:0,0:0:0:0:
253,4,343122,1,0,0:0:0:0:
184,42,343213,1,0,0:0:0:0:
108,24,343303,6,0,L|-8:2,1,97.1999970336915,2|0,0:0|0:0,0:0:0:0:
130,254,343484,1,8,0:0:0:0:
178,316,343574,1,0,0:0:0:0:
255,326,343665,1,2,0:0:0:0:
317,279,343755,1,0,0:0:0:0:
327,201,343845,1,0,0:0:0:0:
388,152,343935,1,0,0:0:0:0:
464,169,344026,2,0,L|434:292,1,97.1999970336915,10|0,0:0|0:0,0:0:0:0:
230,238,344207,1,0,0:0:0:0:
228,159,344298,1,0,0:0:0:0:
174,102,344387,6,0,L|96:12,1,97.1999970336915,10|0,0:0|0:0,0:0:0:0:
46,283,344568,1,0,0:0:0:0:
49,292,344658,1,0,0:0:0:0:
52,301,344748,6,0,L|189:318,1,97.1999970336915,2|0,0:0|0:0,0:0:0:0:
348,362,344930,1,8,0:0:0:0:
426,353,345020,1,0,0:0:0:0:
464,284,345110,1,2,0:0:0:0:
437,212,345200,1,0,0:0:0:0:
363,188,345291,1,0,0:0:0:0:
289,164,345381,1,0,0:0:0:0:
262,92,345472,2,0,L|291:0,1,97.1999970336915,10|0,0:0|0:0,0:0:0:0:
120,286,345652,1,0,0:0:0:0:
177,233,345742,1,0,0:0:0:0:
253,246,345833,6,0,L|318:317,1,97.1999970336915
156,26,346013,1,10,0:0:0:0:
174,102,346103,1,0,0:0:0:0:
124,161,346194,2,0,L|29:181,1,97.1999970336915,0|0,0:0|0:0,0:0:0:0:
361,28,346375,1,0,0:0:0:0:
343,104,346465,1,0,0:0:0:0:
393,163,346556,6,0,L|488:183,1,97.1999970336915,10|2,0:0|0:0,0:0:0:0:
285,381,346737,1,0,0:0:0:0:
303,305,346827,1,0,0:0:0:0:
253,246,346918,2,0,L|158:226,1,97.1999970336915,10|2,0:0|0:0,0:0:0:0:
7,38,347098,5,0,0:0:0:0:
77,105,347188,5,0,0:0:0:0:
174,102,347278,5,10,0:0:0:0:
