osu file format v14

[General]
AudioFilename: Dawn of the Dead.mp3
AudioLeadIn: 3000
PreviewTime: 129951
Countdown: 0
SampleSet: Normal
StackLeniency: 0.4
Mode: 1
LetterboxInBreaks: 0
WidescreenStoryboard: 0

[Editor]
Bookmarks: 10162,164920,169800,212631,217691,218414,250041
DistanceSpacing: 0.9
BeatDivisor: 8
GridSize: 4
TimelineZoom: 2.5

[Metadata]
Title:Rigid Paradise ~ Dawn of the Dead
TitleUnicode:リジッドパラダイス ~ Dawn of the Dead
Artist:Demetori
ArtistUnicode:Demetori
Creator:Surono
Version:Taiko Stage
Source:東方神霊廟 ~ Ten Desires.
Tags:Shinreibyou Toho Touhou Project 13 th13 Yoshika Miyako 宮古 芳香 BEGIERDE DES ZAUBERER comic market comiket コミケットC81 djent DECD-0007 Power Progressive Heavy Metal Instrumental Video Game ZUN
BeatmapID:816960
BeatmapSetID:373017

[Difficulty]
HPDrainRate:5
CircleSize:2
OverallDifficulty:6.5
ApproachRate:0
SliderMultiplier:1.4
SliderTickRate:1

[Events]
//Background and Video events
0,0,"BG.jpg",0,-135
//Break Periods
//Storyboard Layer 0 (Background)
//Storyboard Layer 1 (Fail)
//Storyboard Layer 2 (Pass)
//Storyboard Layer 3 (Foreground)
//Storyboard Layer 4 (Overlay)
//Storyboard Sound Samples

[TimingPoints]
850,340.909090909091,4,1,0,70,1,0
850,-106.382978723404,4,1,0,70,0,0
1276,-113.636363636364,4,1,0,35,0,0
3492,-106.382978723404,4,1,0,70,0,0
4003,-113.636363636364,4,1,0,35,0,0
5537,-106.382978723404,4,1,0,70,0,0
6901,-113.636363636364,4,1,0,70,0,0
8094,-111.111111111111,4,1,0,70,0,0
8435,-108.695652173913,4,1,0,70,0,0
8605,-106.382978723404,4,1,0,70,0,0
8776,-102.040816326531,4,1,0,70,0,0
8946,-100,4,1,0,70,0,0
9884,-102.040816326531,4,1,0,70,0,0
10011,-103.092783505155,4,1,0,70,0,0
10139,-104.166666666667,4,1,0,70,0,0
10225,-105.263157894737,4,1,0,70,0,0
10395,348.837209302326,6,1,0,70,1,0
10395,-104.166666666667,6,1,0,70,0,0
12488,361.44578313253,4,1,0,70,1,0
16554,-95.2380952380952,4,1,0,70,0,0
18361,-100,4,1,0,70,0,0
22156,-97.5609756097561,4,1,0,70,0,0
22247,-95.2380952380952,4,1,0,70,0,0
24144,-100,4,1,0,70,0,0
28301,-95.2380952380952,4,1,0,70,0,0
29927,-100,4,1,0,70,0,0
34265,-97.5609756097561,4,1,0,70,0,0
34355,-95.2380952380952,4,1,0,70,0,0
36795,-97.5609756097561,4,1,0,70,0,0
37065,361.44578313253,4,1,0,70,1,0
42034,-95.2380952380952,4,1,0,70,0,0
42938,-100,4,1,0,70,0,0
45741,361.44578313253,3,1,0,70,1,8
46283,-90.9090909090909,4,1,0,70,0,0
46825,-83.3333333333333,4,1,0,70,0,0
47367,-76.9230769230769,4,1,0,70,0,0
47909,361.44578313253,4,1,0,70,1,0
47909,-90.9090909090909,4,1,0,70,0,0
49354,361.44578313253,4,1,0,70,1,0
70769,-95.2380952380952,4,1,0,70,0,0
71628,-96.1538461538461,4,1,0,70,0,0
71718,-97.0873786407767,4,1,0,70,0,0
71808,-98.0392156862745,4,1,0,70,0,0
71899,-99.009900990099,4,1,0,70,0,0
71989,-100,4,1,0,70,0,0
72079,-101.010101010101,4,1,0,70,0,0
72170,-102.040816326531,4,1,0,70,0,0
72260,-103.092783505155,4,1,0,70,0,0
72350,-104.166666666667,4,1,0,70,0,0
72486,-105.263157894737,4,1,0,75,0,1
74745,-104.166666666667,4,1,0,75,0,1
74881,-103.092783505155,4,1,0,75,0,1
75061,-102.040816326531,4,1,0,75,0,1
75152,-101.010101010101,4,1,0,75,0,1
75332,-100,4,1,0,75,0,1
78360,-105.263157894737,4,1,0,75,0,1
80573,-104.166666666667,4,1,0,75,0,1
80664,-103.092783505155,4,1,0,75,0,1
80844,-102.040816326531,4,1,0,75,0,1
80935,-101.010101010101,4,1,0,75,0,1
81116,-100,4,1,0,75,0,1
82607,-100,4,1,0,75,0,0
83826,-102.564102564103,4,1,0,75,0,0
84052,-105.263157894737,4,1,0,75,0,1
86176,-104.166666666667,4,1,0,75,0,1
86628,-103.092783505155,4,1,0,75,0,1
86718,-102.040816326531,4,1,0,75,0,1
86899,-100,4,1,0,75,0,1
89926,-105.263157894737,4,1,0,75,0,1
91597,-104.166666666667,4,1,0,75,0,1
91959,-103.092783505155,4,1,0,75,0,1
92049,-102.040816326531,4,1,0,75,0,1
92140,-101.010101010101,4,1,0,75,0,1
92230,-100,4,1,0,75,0,1
92320,-99.009900990099,4,1,0,75,0,1
92411,-98.0392156862745,4,1,0,75,0,1
92501,-97.0873786407767,4,1,0,75,0,1
92591,-96.1538461538461,4,1,0,75,0,1
92682,-95.2380952380952,4,1,0,75,0,1
95212,-96.1538461538461,4,1,0,75,0,1
95302,-97.0873786407767,4,1,0,75,0,1
95393,-98.0392156862745,4,1,0,75,0,1
95483,-99.009900990099,4,1,0,75,0,1
95619,-100,4,1,0,70,0,0
99549,-99.009900990099,4,1,0,70,0,0
99640,-98.0392156862745,4,1,0,70,0,0
99730,-97.0873786407767,4,1,0,70,0,0
99820,-96.1538461538461,4,1,0,70,0,0
99911,-95.2380952380952,4,1,0,70,0,0
101447,-100,4,1,0,70,0,0
105739,361.44578313253,4,1,0,70,1,8
105829,-105.263157894737,4,1,0,70,0,8
106554,361.44578313253,4,1,0,70,1,0
106554,-113.636363636364,4,1,0,70,0,0
106599,-112.359550561798,4,1,0,70,0,0
106689,-111.111111111111,4,1,0,70,0,0
106779,-109.89010989011,4,1,0,70,0,0
106870,-108.695652173913,4,1,0,70,0,0
106960,-107.52688172043,4,1,0,70,0,0
107050,-106.382978723404,4,1,0,70,0,0
107141,-105.263157894737,4,1,0,70,0,0
107231,-104.166666666667,4,1,0,70,0,0
107322,-103.092783505155,4,1,0,70,0,0
107412,-102.040816326531,4,1,0,70,0,0
107502,-101.010101010101,4,1,0,70,0,0
107638,361.44578313253,4,1,0,70,1,0
129098,-102.040816326531,4,1,0,70,0,0
129189,-103.092783505155,4,1,0,70,0,0
129279,-104.166666666667,4,1,0,70,0,0
129550,-105.263157894737,4,1,0,70,0,0
129821,-108.108108108108,4,1,0,70,0,0
130002,-111.111111111111,4,1,0,50,0,0
130770,-100,4,1,0,75,0,1
140891,-100,4,1,0,75,0,0
142201,-97.5609756097561,4,1,0,75,0,0
142336,-95.2380952380952,4,1,0,75,0,1
147713,-100,4,1,0,75,0,1
147803,-97.5609756097561,4,1,0,75,0,1
147894,-95.2380952380952,4,1,0,75,0,1
153496,-96.1538461538461,4,1,0,74,0,1
153586,-97.0873786407767,4,1,0,73,0,1
153677,-98.0392156862745,4,1,0,72,0,1
153767,-99.009900990099,4,1,0,71,0,1
153903,-100,4,1,0,70,0,0
159144,-95.2380952380952,4,1,0,70,0,0
159234,-97.5609756097561,4,1,0,70,0,0
159324,-100,4,1,0,70,0,0
159505,-102.040816326531,4,1,0,70,0,0
159686,-100,4,1,0,70,0,0
162577,361.44578313253,3,1,0,70,1,0
162577,-97.5609756097561,3,1,0,70,0,0
163073,-95.2380952380952,3,1,0,70,0,0
163616,-93.0232558139535,3,1,0,70,0,0
164158,-94.3396226415094,3,1,0,70,0,0
164248,-95.2380952380952,3,1,0,70,0,0
164339,-96.1538461538461,3,1,0,70,0,0
164429,-97.0873786407767,3,1,0,70,0,0
164519,-98.0392156862745,3,1,0,70,0,0
164610,-99.009900990099,3,1,0,70,0,0
164746,361.44578313253,4,1,0,70,1,8
169535,-95.2380952380952,4,1,0,70,0,0
175905,-96.1538461538461,4,1,0,70,0,0
175996,-97.0873786407767,4,1,0,70,0,0
176086,-98.0392156862745,4,1,0,70,0,0
176176,-99.009900990099,4,1,0,70,0,0
176267,-100,4,1,0,70,0,0
180739,-97.5609756097561,4,1,0,70,0,0
181869,-95.2380952380952,4,1,0,70,0,0
193752,-100,4,1,0,70,0,0
197321,-97.5609756097561,4,1,0,70,0,0
197411,-95.2380952380952,4,1,0,70,0,0
197863,-93.0232558139535,4,1,0,70,0,0
197953,-90.9090909090909,4,1,0,70,0,0
201071,-105.263157894737,4,1,0,70,0,0
206267,-104.166666666667,4,1,0,70,0,0
206357,-103.092783505155,4,1,0,70,0,0
206447,-102.040816326531,4,1,0,70,0,0
206538,-101.010101010101,4,1,0,70,0,0
206628,-100,4,1,0,70,0,0
212321,-97.5609756097561,4,1,0,70,0,0
212411,-95.2380952380952,4,1,0,70,0,0
217471,-96.1538461538461,4,1,0,70,0,0
217562,-97.0873786407767,4,1,0,70,0,0
217652,-98.0392156862745,4,1,0,70,0,0
217742,-99.009900990099,4,1,0,70,0,0
217833,-100,4,1,0,70,0,0
218104,-97.5609756097561,4,1,0,70,0,0
218194,-95.2380952380952,4,1,0,70,0,0
220860,-97.5609756097561,4,1,0,70,0,0
222622,-100,4,1,0,70,0,0
227592,-95.2380952380952,4,1,0,70,0,0
228405,-100,4,1,0,70,0,0
231749,-95.2380952380952,4,1,0,70,0,0
233014,-100,4,1,0,70,0,0
233330,-95.2380952380952,4,1,0,70,0,0
234459,-100,4,1,0,70,0,0
235002,-90.9090909090909,4,1,0,70,0,0
235468,-95.2380952380952,4,1,0,70,0,0
236809,-100,4,1,0,70,0,0
238480,361.44578313253,4,1,0,70,1,0
249639,-99.009900990099,4,1,0,70,0,0
249730,-98.0392156862745,4,1,0,70,0,0
249820,-97.0873786407767,4,1,0,70,0,0
249910,-96.1538461538461,4,1,0,70,0,0
250001,-95.2380952380952,4,1,0,70,0,0
257952,-93.0232558139535,4,1,0,70,0,0
260257,-90.9090909090909,4,1,0,70,0,0
261522,-100,4,1,0,70,0,0
262109,-100,4,1,0,50,0,0
262470,-102.564102564103,4,1,0,50,0,0
262832,-105.263157894737,4,1,0,50,0,0
263013,-108.108108108108,4,1,0,70,0,0
263193,-105.263157894737,4,1,0,70,0,0
263555,-102.564102564103,4,1,0,70,0,0
263916,-100,4,1,0,70,0,0
264504,-100,4,1,0,75,0,1
283299,-97.5609756097561,4,1,0,75,0,0
283434,-95.2380952380952,4,1,0,75,0,0
284745,-95.2380952380952,4,1,0,75,0,1
294865,-95.2380952380952,4,1,0,75,0,0
295001,-93.0232558139535,4,1,0,75,0,0
295181,-90.9090909090909,4,1,0,75,0,0
296311,-90.9090909090909,4,1,0,75,0,1
301687,-95.2380952380952,4,1,0,75,0,1
301778,-93.0232558139535,4,1,0,75,0,1
301868,-90.9090909090909,4,1,0,75,0,1
307877,-90.9090909090909,4,1,0,75,0,0
307922,-90.9090909090909,4,1,0,35,0,0
313615,-100,4,1,0,70,0,0
318811,-90.9090909090909,4,1,0,70,0,0
318937,-89.2857142857143,4,1,0,70,0,0
319010,-87.719298245614,4,1,0,70,0,0
319082,-86.2068965517241,4,1,0,70,0,0
319443,361.44578313253,7,1,0,70,1,0
319443,-97.5609756097561,7,1,0,70,0,0
324503,-95.2380952380952,7,1,0,70,0,0
329563,-93.0232558139535,7,1,0,70,0,0
332093,-90.9090909090909,7,1,0,70,0,0
334623,-88.8888888888889,7,1,0,70,0,0
337153,-86.9565217391304,7,1,0,70,0,0
338238,-85.1063829787234,7,1,0,70,0,0
339683,-83.3333333333333,7,1,0,70,0,0
341762,-86.9565217391304,7,1,0,70,0,0
341943,-85.1063829787234,7,1,0,70,0,0
342033,-83.3333333333333,7,1,0,70,0,0
342214,-83.3333333333333,7,1,0,75,0,1
347274,-83.3333333333333,7,1,0,75,0,0

[HitObjects]
256,164,850,5,8,0:0:0:0:
248,184,935,1,8,0:0:0:0:
248,184,1020,1,8,0:0:0:0:
248,184,1105,1,8,0:0:0:0:
248,160,1190,1,8,0:0:0:0:
244,168,1361,1,0,0:0:0:0:
248,168,1702,1,0,0:0:0:0:
248,168,2043,1,0,0:0:0:0:
248,168,2213,1,0,0:0:0:0:
248,168,2554,1,0,0:0:0:0:
248,168,2895,1,0,0:0:0:0:
244,168,3065,1,0,0:0:0:0:
248,168,3236,1,0,0:0:0:0:
264,160,3406,1,0,0:0:0:0:
248,184,3577,1,8,0:0:0:0:
248,184,3662,1,8,0:0:0:0:
248,184,3747,1,8,0:0:0:0:
248,184,3832,1,8,0:0:0:0:
248,184,3918,1,8,0:0:0:0:
224,148,4088,1,0,0:0:0:0:
224,148,4429,1,0,0:0:0:0:
224,148,4770,1,0,0:0:0:0:
224,148,4940,1,0,0:0:0:0:
232,140,5281,1,0,0:0:0:0:
256,176,5622,1,8,0:0:0:0:
256,176,5707,1,0,0:0:0:0:
256,176,5793,1,0,0:0:0:0:
256,176,5878,1,8,0:0:0:0:
256,176,5963,1,8,0:0:0:0:
256,176,6048,1,8,0:0:0:0:
248,176,6134,1,0,0:0:0:0:
248,176,6219,1,0,0:0:0:0:
248,176,6304,1,8,0:0:0:0:
248,176,6389,1,8,0:0:0:0:
244,176,6475,1,0,0:0:0:0:
240,160,6531,1,0,0:0:0:0:
240,160,6588,1,8,0:0:0:0:
240,160,6645,1,8,0:0:0:0:
248,176,6815,1,12,0:0:0:0:
252,148,7156,1,0,0:0:0:0:
256,168,7327,1,8,0:0:0:0:
252,148,7497,1,0,0:0:0:0:
252,148,7668,1,0,0:0:0:0:
256,168,8009,1,8,0:0:0:0:
244,164,8179,1,0,0:0:0:0:
244,164,8236,1,0,0:0:0:0:
244,164,8293,1,0,0:0:0:0:
244,164,8350,1,8,0:0:0:0:
256,168,8520,1,0,0:0:0:0:
256,168,8690,1,0,0:0:0:0:
256,168,8861,1,0,0:0:0:0:
256,168,9031,1,8,0:0:0:0:
256,168,9117,1,0,0:0:0:0:
256,168,9202,1,8,0:0:0:0:
256,168,9287,1,8,0:0:0:0:
264,148,9372,1,0,0:0:0:0:
264,148,9457,1,0,0:0:0:0:
264,148,9543,1,8,0:0:0:0:
264,148,9628,1,8,0:0:0:0:
252,136,9713,1,0,0:0:0:0:
252,136,9770,1,0,0:0:0:0:
252,136,9827,1,0,0:0:0:0:
256,148,9940,1,8,0:0:0:0:
256,148,10054,1,0,0:0:0:0:
256,148,10168,1,0,0:0:0:0:
248,148,10281,1,0,0:0:0:0:
248,148,10395,1,12,0:0:0:0:
224,148,10627,1,12,0:0:0:0:
234,174,10743,1,0,0:0:0:0:
224,148,10860,1,8,0:0:0:0:
236,165,10976,1,8,0:0:0:0:
224,148,11092,1,0,0:0:0:0:
224,148,11208,1,0,0:0:0:0:
244,144,11325,1,0,0:0:0:0:
224,148,11441,1,8,0:0:0:0:
236,144,11557,1,8,0:0:0:0:
236,144,11674,1,8,0:0:0:0:
236,144,11790,1,0,0:0:0:0:
240,144,11848,1,0,0:0:0:0:
224,144,11906,1,0,0:0:0:0:
236,144,12022,1,0,0:0:0:0:
236,144,12139,1,8,0:0:0:0:
228,144,12255,1,8,0:0:0:0:
228,144,12371,1,0,0:0:0:0:
228,144,12488,1,12,0:0:0:0:
224,128,12759,1,0,0:0:0:0:
224,128,12849,1,8,0:0:0:0:
224,128,13030,1,0,0:0:0:0:
224,128,13210,1,8,0:0:0:0:
224,132,13391,1,0,0:0:0:0:
224,132,13572,1,8,0:0:0:0:
216,124,13753,1,8,0:0:0:0:
212,120,13843,1,0,0:0:0:0:
224,132,13933,1,8,0:0:0:0:
200,120,14114,1,0,0:0:0:0:
200,120,14204,1,0,0:0:0:0:
220,132,14295,1,8,0:0:0:0:
216,96,14385,1,0,0:0:0:0:
212,116,14566,1,0,0:0:0:0:
216,132,14656,1,8,0:0:0:0:
212,112,14837,1,0,0:0:0:0:
212,112,14927,1,0,0:0:0:0:
216,116,15018,1,8,0:0:0:0:
208,120,15108,1,8,0:0:0:0:
208,116,15198,1,8,0:0:0:0:
208,116,15289,1,0,0:0:0:0:
216,116,15379,1,8,0:0:0:0:
212,120,15560,1,0,0:0:0:0:
208,116,15650,1,0,0:0:0:0:
208,116,15741,1,8,0:0:0:0:
208,124,15831,1,0,0:0:0:0:
208,124,16012,1,0,0:0:0:0:
208,124,16102,1,8,0:0:0:0:
196,128,16283,1,0,0:0:0:0:
196,128,16373,1,0,0:0:0:0:
196,128,16463,1,8,0:0:0:0:
224,132,16644,1,0,0:0:0:0:
224,132,16734,1,0,0:0:0:0:
224,132,16825,1,8,0:0:0:0:
220,132,16915,1,0,0:0:0:0:
224,132,17006,1,0,0:0:0:0:
224,132,17096,1,0,0:0:0:0:
224,132,17186,1,8,0:0:0:0:
220,132,17277,1,8,0:0:0:0:
220,136,17367,1,0,0:0:0:0:
220,132,17457,1,0,0:0:0:0:
220,132,17548,1,8,0:0:0:0:
216,136,17638,1,0,0:0:0:0:
216,136,17728,1,0,0:0:0:0:
220,136,17819,1,0,0:0:0:0:
220,136,17909,1,8,0:0:0:0:
220,136,18000,1,8,0:0:0:0:
220,136,18090,1,8,0:0:0:0:
219,142,18180,1,8,0:0:0:0:
220,136,18271,1,4,0:0:0:0:
216,136,18542,1,0,0:0:0:0:
220,132,18632,1,8,0:0:0:0:
216,132,18813,1,0,0:0:0:0:
216,132,18903,1,8,0:0:0:0:
220,132,18994,1,8,0:0:0:0:
224,128,19084,1,0,0:0:0:0:
220,132,19265,1,0,0:0:0:0:
220,128,19355,1,8,0:0:0:0:
224,128,19536,1,8,0:0:0:0:
224,128,19626,1,0,0:0:0:0:
224,128,19716,1,8,0:0:0:0:
220,136,19897,1,0,0:0:0:0:
220,136,19987,1,0,0:0:0:0:
216,136,20078,1,8,0:0:0:0:
208,112,20168,1,0,0:0:0:0:
220,132,20349,1,0,0:0:0:0:
216,132,20439,1,8,0:0:0:0:
208,116,20620,1,0,0:0:0:0:
208,116,20710,1,0,0:0:0:0:
208,116,20801,1,8,0:0:0:0:
204,120,20891,1,8,0:0:0:0:
204,120,20981,1,8,0:0:0:0:
208,120,21072,1,0,0:0:0:0:
208,120,21162,1,8,0:0:0:0:
208,148,21343,1,0,0:0:0:0:
208,148,21433,1,0,0:0:0:0:
208,148,21524,1,8,0:0:0:0:
216,144,21614,1,0,0:0:0:0:
208,144,21795,1,0,0:0:0:0:
208,144,21885,1,8,0:0:0:0:
196,144,22066,1,0,0:0:0:0:
214,153,22156,1,0,0:0:0:0:
196,148,22247,1,12,0:0:0:0:
196,152,22427,1,0,0:0:0:0:
200,164,22518,1,0,0:0:0:0:
196,152,22608,1,8,0:0:0:0:
196,152,22698,1,8,0:0:0:0:
196,152,22789,1,0,0:0:0:0:
208,156,22879,1,0,0:0:0:0:
196,152,22969,1,8,0:0:0:0:
196,152,23060,1,8,0:0:0:0:
200,168,23150,1,8,0:0:0:0:
208,168,23241,1,0,0:0:0:0:
192,152,23331,1,8,0:0:0:0:
192,152,23421,1,8,0:0:0:0:
192,152,23512,1,8,0:0:0:0:
192,152,23602,1,0,0:0:0:0:
192,152,23692,1,8,0:0:0:0:
192,152,23783,1,0,0:0:0:0:
192,152,23873,1,0,0:0:0:0:
222,159,23963,1,0,0:0:0:0:
216,184,24054,1,12,0:0:0:0:
196,152,24234,1,8,0:0:0:0:
188,132,24506,1,0,0:0:0:0:
188,132,24596,1,8,0:0:0:0:
188,132,24777,1,0,0:0:0:0:
188,132,24867,1,0,0:0:0:0:
188,132,24957,1,8,0:0:0:0:
188,132,25048,1,0,0:0:0:0:
188,132,25228,1,0,0:0:0:0:
188,132,25319,1,8,0:0:0:0:
210,163,25409,1,0,0:0:0:0:
188,132,25500,1,0,0:0:0:0:
188,132,25680,1,8,0:0:0:0:
188,132,25861,1,0,0:0:0:0:
188,132,25951,1,0,0:0:0:0:
188,132,26042,1,8,0:0:0:0:
188,132,26222,1,0,0:0:0:0:
188,132,26313,1,0,0:0:0:0:
188,132,26403,1,8,0:0:0:0:
212,136,26494,1,8,0:0:0:0:
188,132,26584,1,8,0:0:0:0:
188,132,26674,1,0,0:0:0:0:
188,132,26765,1,8,0:0:0:0:
201,166,26855,1,0,0:0:0:0:
188,132,26945,1,0,0:0:0:0:
188,132,27126,1,8,0:0:0:0:
188,132,27397,1,0,0:0:0:0:
188,132,27487,1,8,0:0:0:0:
212,136,27668,1,0,0:0:0:0:
212,136,27759,1,0,0:0:0:0:
212,136,27849,1,8,0:0:0:0:
212,136,27939,1,0,0:0:0:0:
212,136,28120,1,0,0:0:0:0:
212,136,28210,1,8,0:0:0:0:
216,184,28391,1,12,0:0:0:0:
212,136,28572,1,8,0:0:0:0:
212,136,28662,1,0,0:0:0:0:
212,136,28753,1,0,0:0:0:0:
212,136,28843,1,0,0:0:0:0:
212,136,28933,1,8,0:0:0:0:
212,136,29024,1,8,0:0:0:0:
212,136,29114,1,0,0:0:0:0:
212,136,29204,1,0,0:0:0:0:
212,136,29295,1,8,0:0:0:0:
212,136,29385,1,0,0:0:0:0:
212,136,29475,1,0,0:0:0:0:
212,136,29566,1,0,0:0:0:0:
212,136,29656,1,8,0:0:0:0:
183,182,29747,1,8,0:0:0:0:
216,184,29837,1,4,0:0:0:0:
216,132,30018,1,8,0:0:0:0:
212,136,30289,1,0,0:0:0:0:
212,136,30379,1,8,0:0:0:0:
212,136,30560,1,0,0:0:0:0:
220,128,30650,1,0,0:0:0:0:
220,128,30741,1,8,0:0:0:0:
220,128,30831,1,0,0:0:0:0:
220,128,31012,1,0,0:0:0:0:
220,128,31102,1,8,0:0:0:0:
210,163,31192,1,0,0:0:0:0:
210,163,31283,1,0,0:0:0:0:
216,132,31463,1,8,0:0:0:0:
216,160,31644,1,0,0:0:0:0:
216,132,31734,1,0,0:0:0:0:
216,132,31825,1,8,0:0:0:0:
216,176,32006,1,0,0:0:0:0:
216,176,32096,1,0,0:0:0:0:
216,176,32186,1,8,0:0:0:0:
216,176,32277,1,8,0:0:0:0:
224,176,32367,1,8,0:0:0:0:
216,176,32457,1,0,0:0:0:0:
216,176,32548,1,8,0:0:0:0:
232,184,32638,1,0,0:0:0:0:
216,176,32728,1,0,0:0:0:0:
216,176,32909,1,8,0:0:0:0:
216,176,33180,1,0,0:0:0:0:
216,176,33271,1,8,0:0:0:0:
216,176,33451,1,0,0:0:0:0:
216,176,33542,1,0,0:0:0:0:
216,176,33632,1,8,0:0:0:0:
216,176,33813,1,0,0:0:0:0:
216,176,33903,1,0,0:0:0:0:
216,176,33994,1,8,0:0:0:0:
216,176,34174,1,0,0:0:0:0:
216,176,34265,1,0,0:0:0:0:
216,176,34355,1,12,0:0:0:0:
216,176,34536,1,12,0:0:0:0:
216,176,34716,1,0,0:0:0:0:
216,176,34807,1,0,0:0:0:0:
216,176,34897,1,12,0:0:0:0:
216,176,35078,1,12,0:0:0:0:
216,176,35259,1,0,0:0:0:0:
216,176,35349,1,0,0:0:0:0:
216,176,35439,1,12,0:0:0:0:
216,176,35620,1,12,0:0:0:0:
208,180,35801,1,0,0:0:0:0:
216,176,35891,1,0,0:0:0:0:
208,180,35981,1,12,0:0:0:0:
204,180,36162,1,12,0:0:0:0:
204,184,36343,1,0,0:0:0:0:
204,184,36433,1,0,0:0:0:0:
204,184,36524,1,8,0:0:0:0:
208,156,36704,1,8,0:0:0:0:
208,184,36885,1,8,0:0:0:0:
208,184,37065,1,4,0:0:0:0:
220,180,37245,1,8,0:0:0:0:
220,180,37426,1,8,0:0:0:0:
220,180,37516,1,8,0:0:0:0:
220,180,37607,1,0,0:0:0:0:
220,180,37787,1,0,0:0:0:0:
220,180,37968,1,8,0:0:0:0:
220,180,38058,1,8,0:0:0:0:
220,180,38239,1,0,0:0:0:0:
220,180,38330,1,8,0:0:0:0:
220,184,38510,1,0,0:0:0:0:
220,180,38691,1,8,0:0:0:0:
220,180,38872,1,8,0:0:0:0:
220,180,38962,1,8,0:0:0:0:
220,180,39052,1,0,0:0:0:0:
220,180,39233,1,8,0:0:0:0:
220,180,39324,1,8,0:0:0:0:
220,180,39414,1,8,0:0:0:0:
220,180,39595,1,8,0:0:0:0:
220,180,39685,1,8,0:0:0:0:
220,180,39775,1,8,0:0:0:0:
219,190,39866,1,0,0:0:0:0:
220,184,39956,1,0,0:0:0:0:
220,184,40137,1,8,0:0:0:0:
216,188,40318,1,8,0:0:0:0:
216,188,40408,1,8,0:0:0:0:
216,188,40498,1,0,0:0:0:0:
216,188,40679,1,0,0:0:0:0:
216,188,40860,1,8,0:0:0:0:
216,188,40950,1,8,0:0:0:0:
216,188,41131,1,0,0:0:0:0:
216,188,41221,1,8,0:0:0:0:
206,190,41311,1,8,0:0:0:0:
212,192,41402,1,0,0:0:0:0:
212,192,41583,1,8,0:0:0:0:
216,188,41763,1,8,0:0:0:0:
216,188,41854,1,8,0:0:0:0:
216,188,41944,1,0,0:0:0:0:
216,188,42125,1,4,0:0:0:0:
216,188,42305,1,8,0:0:0:0:
216,188,42396,1,8,0:0:0:0:
216,188,42486,1,8,0:0:0:0:
216,188,42577,1,0,0:0:0:0:
224,160,42667,1,0,0:0:0:0:
216,188,42757,1,0,0:0:0:0:
212,192,42848,1,12,0:0:0:0:
212,176,43028,1,0,0:0:0:0:
212,176,43119,1,0,0:0:0:0:
212,176,43209,1,8,0:0:0:0:
212,176,43299,1,8,0:0:0:0:
208,184,43480,1,0,0:0:0:0:
208,184,43571,1,8,0:0:0:0:
208,184,43751,1,0,0:0:0:0:
208,184,43842,1,8,0:0:0:0:
208,184,43932,1,8,0:0:0:0:
208,184,44113,1,0,0:0:0:0:
208,184,44203,1,8,0:0:0:0:
208,184,44293,1,8,0:0:0:0:
208,184,44474,1,0,0:0:0:0:
208,184,44565,1,0,0:0:0:0:
208,184,44655,1,8,0:0:0:0:
208,184,44745,1,8,0:0:0:0:
208,184,44926,1,0,0:0:0:0:
208,184,45016,1,8,0:0:0:0:
208,184,45107,1,8,0:0:0:0:
208,184,45197,1,0,0:0:0:0:
208,184,45287,1,0,0:0:0:0:
208,184,45378,1,8,0:0:0:0:
208,184,45468,1,8,0:0:0:0:
216,168,45558,1,0,0:0:0:0:
216,190,45649,1,0,0:0:0:0:
216,160,45741,1,12,0:0:0:0:
212,168,46283,1,12,0:0:0:0:
212,168,46825,1,4,0:0:0:0:
212,168,47367,1,4,0:0:0:0:
212,168,47909,1,8,0:0:0:0:
204,168,47999,1,8,0:0:0:0:
204,168,48089,1,0,0:0:0:0:
204,168,48180,1,0,0:0:0:0:
204,168,48270,1,8,0:0:0:0:
204,168,48360,1,0,0:0:0:0:
204,168,48451,1,8,0:0:0:0:
204,168,48541,1,0,0:0:0:0:
204,168,48631,1,0,0:0:0:0:
204,168,48722,1,0,0:0:0:0:
204,168,48812,1,0,0:0:0:0:
204,168,48902,1,0,0:0:0:0:
204,172,48993,1,8,0:0:0:0:
204,172,49174,1,4,0:0:0:0:
204,168,49534,1,0,0:0:0:0:
204,156,49625,1,0,0:0:0:0:
204,156,49715,1,8,0:0:0:0:
200,160,49896,1,8,0:0:0:0:
200,160,49986,1,8,0:0:0:0:
200,160,50076,1,0,0:0:0:0:
200,160,50167,1,0,0:0:0:0:
200,160,50257,1,0,0:0:0:0:
200,160,50347,1,0,0:0:0:0:
200,160,50438,1,8,0:0:0:0:
200,160,50619,1,0,0:0:0:0:
200,160,50709,1,0,0:0:0:0:
204,156,50799,1,0,0:0:0:0:
204,156,51070,1,0,0:0:0:0:
204,156,51161,1,8,0:0:0:0:
192,148,51341,1,0,0:0:0:0:
192,156,51522,1,8,0:0:0:0:
196,152,51613,1,0,0:0:0:0:
196,152,51703,1,0,0:0:0:0:
196,152,51793,1,0,0:0:0:0:
196,152,51884,5,8,0:0:0:0:
192,156,52064,1,0,0:0:0:0:
192,156,52155,1,0,0:0:0:0:
192,156,52245,1,8,0:0:0:0:
192,156,52516,1,0,0:0:0:0:
192,156,52607,1,8,0:0:0:0:
192,156,52787,1,8,0:0:0:0:
180,160,52968,1,0,0:0:0:0:
180,160,53058,1,0,0:0:0:0:
192,156,53149,1,0,0:0:0:0:
184,156,53239,1,0,0:0:0:0:
184,156,53329,1,8,0:0:0:0:
176,152,53510,1,0,0:0:0:0:
176,152,53600,1,0,0:0:0:0:
176,152,53691,1,0,0:0:0:0:
176,152,53962,1,0,0:0:0:0:
176,152,54052,1,8,0:0:0:0:
176,152,54233,1,0,0:0:0:0:
172,152,54414,1,8,0:0:0:0:
172,152,54504,1,8,0:0:0:0:
172,152,54594,1,0,0:0:0:0:
172,152,54685,1,0,0:0:0:0:
172,152,54775,1,8,0:0:0:0:
172,156,54956,1,0,0:0:0:0:
182,160,55046,1,0,0:0:0:0:
168,152,55137,1,12,0:0:0:0:
168,152,55408,1,0,0:0:0:0:
168,152,55498,1,8,0:0:0:0:
168,152,55679,1,0,0:0:0:0:
172,152,55860,1,0,0:0:0:0:
172,152,55950,1,8,0:0:0:0:
172,152,56040,1,0,0:0:0:0:
172,152,56131,1,0,0:0:0:0:
172,152,56221,1,8,0:0:0:0:
172,156,56402,1,0,0:0:0:0:
172,156,56492,1,0,0:0:0:0:
168,152,56582,1,8,0:0:0:0:
168,152,56854,1,0,0:0:0:0:
168,152,56944,1,8,0:0:0:0:
164,152,57125,1,0,0:0:0:0:
160,156,57305,1,8,0:0:0:0:
160,152,57396,1,0,0:0:0:0:
160,156,57486,1,0,0:0:0:0:
160,156,57576,1,0,0:0:0:0:
160,156,57667,1,8,0:0:0:0:
192,156,57847,1,0,0:0:0:0:
192,156,57938,1,8,0:0:0:0:
192,156,58028,1,0,0:0:0:0:
208,168,58299,1,0,0:0:0:0:
192,156,58390,1,8,0:0:0:0:
192,156,58570,1,8,0:0:0:0:
184,156,58751,1,0,0:0:0:0:
216,144,58841,1,0,0:0:0:0:
188,156,58932,1,0,0:0:0:0:
188,156,59022,1,0,0:0:0:0:
192,156,59113,1,8,0:0:0:0:
184,156,59293,1,0,0:0:0:0:
184,156,59384,1,0,0:0:0:0:
184,156,59474,1,0,0:0:0:0:
184,156,59745,1,0,0:0:0:0:
184,156,59835,1,8,0:0:0:0:
184,156,60016,1,0,0:0:0:0:
184,156,60197,1,8,0:0:0:0:
184,156,60287,1,0,0:0:0:0:
184,156,60378,1,0,0:0:0:0:
184,156,60468,1,0,0:0:0:0:
184,156,60558,1,8,0:0:0:0:
184,156,60649,1,8,0:0:0:0:
184,156,60739,1,0,0:0:0:0:
196,155,60829,1,0,0:0:0:0:
184,156,60920,1,12,0:0:0:0:
184,136,61191,1,0,0:0:0:0:
184,136,61281,1,8,0:0:0:0:
185,148,61462,1,8,0:0:0:0:
185,148,61552,1,8,0:0:0:0:
184,136,61643,1,0,0:0:0:0:
184,136,61733,1,0,0:0:0:0:
184,136,61823,1,0,0:0:0:0:
184,136,61914,1,0,0:0:0:0:
184,136,62004,1,8,0:0:0:0:
180,140,62185,1,0,0:0:0:0:
180,140,62275,1,0,0:0:0:0:
180,140,62366,1,0,0:0:0:0:
184,136,62637,1,0,0:0:0:0:
184,136,62727,1,8,0:0:0:0:
176,140,62908,1,0,0:0:0:0:
176,128,63088,1,8,0:0:0:0:
176,128,63179,1,0,0:0:0:0:
176,128,63269,1,0,0:0:0:0:
180,128,63360,1,0,0:0:0:0:
180,128,63450,1,8,0:0:0:0:
176,132,63631,1,0,0:0:0:0:
176,132,63721,1,0,0:0:0:0:
176,132,63811,1,8,0:0:0:0:
176,132,64082,1,0,0:0:0:0:
176,132,64173,1,8,0:0:0:0:
168,132,64353,1,8,0:0:0:0:
168,132,64534,1,0,0:0:0:0:
176,128,64625,1,0,0:0:0:0:
168,132,64715,1,0,0:0:0:0:
168,132,64805,1,0,0:0:0:0:
168,132,64896,1,8,0:0:0:0:
168,132,65076,1,0,0:0:0:0:
168,132,65167,1,0,0:0:0:0:
168,132,65257,1,0,0:0:0:0:
176,132,65528,1,0,0:0:0:0:
176,132,65619,1,8,0:0:0:0:
168,132,65799,1,0,0:0:0:0:
168,132,65980,1,8,0:0:0:0:
168,132,66070,1,8,0:0:0:0:
168,132,66161,1,0,0:0:0:0:
168,132,66341,1,8,0:0:0:0:
196,128,66432,1,0,0:0:0:0:
172,136,66522,1,0,0:0:0:0:
168,132,66703,1,12,0:0:0:0:
204,164,66974,1,0,0:0:0:0:
172,136,67064,1,8,0:0:0:0:
172,136,67245,1,0,0:0:0:0:
168,132,67426,1,0,0:0:0:0:
168,132,67516,1,8,0:0:0:0:
164,112,67607,1,0,0:0:0:0:
164,112,67697,1,0,0:0:0:0:
164,112,67787,1,8,0:0:0:0:
160,112,67968,1,0,0:0:0:0:
160,112,68058,1,0,0:0:0:0:
160,112,68149,1,8,0:0:0:0:
160,116,68420,1,0,0:0:0:0:
160,116,68510,1,8,0:0:0:0:
164,112,68691,1,8,0:0:0:0:
160,116,68872,1,8,0:0:0:0:
160,116,68962,1,0,0:0:0:0:
164,116,69052,1,0,0:0:0:0:
164,116,69143,1,0,0:0:0:0:
164,116,69233,1,8,0:0:0:0:
160,120,69414,1,0,0:0:0:0:
142,127,69504,1,8,0:0:0:0:
160,120,69594,1,4,0:0:0:0:
160,116,69866,1,0,0:0:0:0:
160,116,69956,1,8,0:0:0:0:
156,120,70137,1,8,0:0:0:0:
156,120,70317,1,0,0:0:0:0:
152,132,70408,1,0,0:0:0:0:
156,120,70498,1,0,0:0:0:0:
180,115,70588,1,0,0:0:0:0:
152,112,70679,1,12,0:0:0:0:
152,120,70860,1,0,0:0:0:0:
152,120,70950,1,0,0:0:0:0:
152,116,71040,1,8,0:0:0:0:
164,167,71131,1,8,0:0:0:0:
160,104,71221,1,8,0:0:0:0:
156,128,71311,1,0,0:0:0:0:
152,120,71402,1,8,0:0:0:0:
164,108,71462,1,8,0:0:0:0:
164,108,71522,1,8,0:0:0:0:
164,108,71582,1,0,0:0:0:0:
152,112,71673,1,0,0:0:0:0:
160,104,71763,1,8,0:0:0:0:
156,112,71854,1,8,0:0:0:0:
156,112,71944,1,8,0:0:0:0:
156,112,72034,1,8,0:0:0:0:
152,112,72125,1,0,0:0:0:0:
96,112,72215,1,0,0:0:0:0:
152,120,72305,1,0,0:0:0:0:
141,143,72396,1,0,0:0:0:0:
152,120,72486,1,12,0:0:0:0:
164,112,72667,1,8,0:0:0:0:
160,116,72938,1,0,0:0:0:0:
160,116,73028,1,8,0:0:0:0:
160,116,73209,1,0,0:0:0:0:
156,112,73390,1,8,0:0:0:0:
156,112,73480,1,8,0:0:0:0:
160,116,73661,1,0,0:0:0:0:
160,116,73751,1,8,0:0:0:0:
160,116,73932,1,0,0:0:0:0:
160,116,74113,1,8,0:0:0:0:
168,120,74293,1,8,0:0:0:0:
160,116,74384,1,8,0:0:0:0:
160,116,74474,1,0,0:0:0:0:
160,116,74655,1,0,0:0:0:0:
156,112,74835,1,8,0:0:0:0:
156,112,74926,1,0,0:0:0:0:
160,116,75107,1,0,0:0:0:0:
160,116,75197,1,8,0:0:0:0:
160,116,75378,1,0,0:0:0:0:
160,116,75558,1,8,0:0:0:0:
160,116,75739,1,0,0:0:0:0:
160,116,75829,1,0,0:0:0:0:
160,116,75920,1,8,0:0:0:0:
160,116,76100,1,0,0:0:0:0:
160,116,76191,1,0,0:0:0:0:
156,112,76281,1,8,0:0:0:0:
156,112,76372,1,0,0:0:0:0:
137,133,76462,1,0,0:0:0:0:
160,116,76552,1,0,0:0:0:0:
160,116,76643,1,8,0:0:0:0:
160,116,76823,1,0,0:0:0:0:
160,116,77004,1,8,0:0:0:0:
173,120,77094,1,0,0:0:0:0:
156,120,77185,1,0,0:0:0:0:
152,120,77275,1,0,0:0:0:0:
152,120,77366,1,8,0:0:0:0:
148,132,77546,1,0,0:0:0:0:
144,136,77637,1,0,0:0:0:0:
140,140,77727,1,8,0:0:0:0:
136,144,77817,1,0,0:0:0:0:
136,156,77908,1,8,0:0:0:0:
128,160,77998,1,8,0:0:0:0:
128,160,78088,1,8,0:0:0:0:
172,131,78179,1,0,0:0:0:0:
128,160,78269,1,12,0:0:0:0:
128,160,78450,1,8,0:0:0:0:
140,148,78721,5,0,0:0:0:0:
124,168,78811,1,8,0:0:0:0:
140,152,78992,1,0,0:0:0:0:
148,148,79173,1,8,0:0:0:0:
148,148,79263,1,8,0:0:0:0:
156,164,79444,1,0,0:0:0:0:
156,164,79534,1,8,0:0:0:0:
152,168,79715,1,0,0:0:0:0:
152,168,79896,1,8,0:0:0:0:
144,152,80076,1,8,0:0:0:0:
160,148,80167,1,8,0:0:0:0:
160,148,80257,1,0,0:0:0:0:
160,148,80438,1,0,0:0:0:0:
168,148,80619,1,8,0:0:0:0:
168,148,80709,1,0,0:0:0:0:
168,148,80890,1,0,0:0:0:0:
168,148,80980,1,8,0:0:0:0:
168,148,81161,1,0,0:0:0:0:
168,148,81341,1,8,0:0:0:0:
168,148,81522,1,0,0:0:0:0:
168,148,81613,1,0,0:0:0:0:
168,148,81703,1,8,0:0:0:0:
168,148,81884,1,0,0:0:0:0:
168,148,81974,1,0,0:0:0:0:
168,148,82064,1,8,0:0:0:0:
168,148,82155,1,0,0:0:0:0:
168,148,82245,1,0,0:0:0:0:
164,120,82335,1,0,0:0:0:0:
164,120,82426,1,8,0:0:0:0:
164,120,82607,1,0,0:0:0:0:
164,120,82787,1,8,0:0:0:0:
172,108,82878,1,0,0:0:0:0:
164,120,82968,1,8,0:0:0:0:
164,120,83058,1,0,0:0:0:0:
164,120,83149,1,8,0:0:0:0:
164,120,83329,1,8,0:0:0:0:
175,132,83420,1,0,0:0:0:0:
164,124,83510,1,12,0:0:0:0:
160,108,83691,1,0,0:0:0:0:
160,108,83872,1,12,0:0:0:0:
160,112,84052,1,4,0:0:0:0:
164,120,84233,1,8,0:0:0:0:
164,120,84414,1,0,0:0:0:0:
164,120,84504,1,0,0:0:0:0:
164,120,84594,1,8,0:0:0:0:
160,128,84775,1,0,0:0:0:0:
160,128,84866,1,0,0:0:0:0:
160,128,84956,1,8,0:0:0:0:
160,128,85046,1,8,0:0:0:0:
156,128,85227,1,0,0:0:0:0:
156,128,85317,1,8,0:0:0:0:
156,128,85498,1,0,0:0:0:0:
156,128,85679,1,8,0:0:0:0:
156,128,85860,1,8,0:0:0:0:
156,128,85950,1,8,0:0:0:0:
156,128,86040,1,0,0:0:0:0:
160,128,86221,1,0,0:0:0:0:
160,136,86311,1,0,0:0:0:0:
160,128,86402,1,8,0:0:0:0:
156,132,86492,1,0,0:0:0:0:
160,136,86673,1,0,0:0:0:0:
160,136,86763,1,8,0:0:0:0:
160,136,86944,1,8,0:0:0:0:
162,140,87034,1,0,0:0:0:0:
160,136,87125,1,8,0:0:0:0:
160,136,87305,1,0,0:0:0:0:
160,136,87396,1,0,0:0:0:0:
160,136,87486,1,8,0:0:0:0:
160,136,87667,1,0,0:0:0:0:
160,136,87757,1,0,0:0:0:0:
160,136,87847,1,8,0:0:0:0:
160,136,87938,1,8,0:0:0:0:
160,136,88119,1,0,0:0:0:0:
160,136,88209,1,8,0:0:0:0:
188,155,88299,1,0,0:0:0:0:
160,136,88390,1,8,0:0:0:0:
160,136,88570,1,8,0:0:0:0:
160,136,88751,1,0,0:0:0:0:
160,136,88841,1,0,0:0:0:0:
160,136,88932,1,8,0:0:0:0:
156,140,89113,1,0,0:0:0:0:
156,140,89203,1,0,0:0:0:0:
156,140,89293,1,8,0:0:0:0:
156,140,89384,1,0,0:0:0:0:
156,140,89474,1,8,0:0:0:0:
156,120,89564,1,8,0:0:0:0:
156,120,89655,1,8,0:0:0:0:
169,143,89745,1,0,0:0:0:0:
156,120,89835,1,12,0:0:0:0:
152,124,90016,1,8,0:0:0:0:
152,128,90197,1,0,0:0:0:0:
156,128,90287,1,0,0:0:0:0:
156,128,90378,1,8,0:0:0:0:
156,128,90558,1,0,0:0:0:0:
156,128,90649,1,0,0:0:0:0:
156,128,90739,1,8,0:0:0:0:
156,112,90829,1,8,0:0:0:0:
156,128,91010,1,0,0:0:0:0:
156,112,91100,1,8,0:0:0:0:
156,112,91281,1,0,0:0:0:0:
156,112,91462,1,8,0:0:0:0:
156,112,91643,1,8,0:0:0:0:
156,112,91733,1,8,0:0:0:0:
156,112,91823,1,0,0:0:0:0:
160,92,92004,5,0,0:0:0:0:
152,112,92094,1,0,0:0:0:0:
152,112,92185,1,8,0:0:0:0:
152,116,92275,1,8,0:0:0:0:
152,116,92366,1,8,0:0:0:0:
148,116,92456,1,0,0:0:0:0:
152,116,92546,1,0,0:0:0:0:
181,121,92637,1,0,0:0:0:0:
152,116,92727,1,12,0:0:0:0:
156,100,92908,1,0,0:0:0:0:
156,100,92998,1,0,0:0:0:0:
156,112,93088,1,12,0:0:0:0:
156,112,93269,1,8,0:0:0:0:
156,112,93360,1,0,0:0:0:0:
152,108,93450,1,12,0:0:0:0:
152,112,93631,1,0,0:0:0:0:
164,112,93721,1,0,0:0:0:0:
152,108,93811,1,12,0:0:0:0:
152,108,93992,1,0,0:0:0:0:
163,127,94082,1,0,0:0:0:0:
152,108,94173,1,12,0:0:0:0:
160,120,94353,1,8,0:0:0:0:
160,120,94444,1,8,0:0:0:0:
160,120,94534,1,8,0:0:0:0:
156,124,94625,1,8,0:0:0:0:
152,128,94715,1,8,0:0:0:0:
156,124,94805,1,8,0:0:0:0:
164,128,94896,1,8,0:0:0:0:
164,108,94986,1,0,0:0:0:0:
160,128,95076,1,0,0:0:0:0:
164,108,95167,1,8,0:0:0:0:
160,104,95257,1,0,0:0:0:0:
160,120,95347,1,0,0:0:0:0:
148,96,95438,1,8,0:0:0:0:
164,133,95528,1,0,0:0:0:0:
152,92,95619,5,12,0:0:0:0:
156,128,95799,1,12,0:0:0:0:
173,136,95980,1,0,0:0:0:0:
181,128,96070,1,0,0:0:0:0:
156,128,96161,1,12,0:0:0:0:
156,108,96341,1,0,0:0:0:0:
156,128,96522,1,8,0:0:0:0:
168,104,96703,1,0,0:0:0:0:
168,104,96793,1,0,0:0:0:0:
168,104,96884,1,8,0:0:0:0:
168,104,96974,1,8,0:0:0:0:
168,108,97064,1,0,0:0:0:0:
168,108,97245,1,8,0:0:0:0:
168,100,97426,1,0,0:0:0:0:
168,108,97516,1,0,0:0:0:0:
168,108,97607,1,8,0:0:0:0:
168,112,97787,1,0,0:0:0:0:
136,116,97878,1,0,0:0:0:0:
168,112,97968,1,8,0:0:0:0:
176,128,98058,1,8,0:0:0:0:
172,120,98149,1,0,0:0:0:0:
172,120,98239,1,0,0:0:0:0:
172,120,98329,1,8,0:0:0:0:
180,150,98420,1,0,0:0:0:0:
172,120,98510,1,0,0:0:0:0:
172,120,98691,1,8,0:0:0:0:
168,100,98962,1,0,0:0:0:0:
160,100,99052,1,8,0:0:0:0:
160,100,99233,1,0,0:0:0:0:
160,100,99414,1,8,0:0:0:0:
152,116,99594,1,0,0:0:0:0:
172,112,99685,1,0,0:0:0:0:
156,116,99775,1,8,0:0:0:0:
156,139,99866,1,8,0:0:0:0:
164,112,99956,1,4,0:0:0:0:
152,116,100137,1,8,0:0:0:0:
152,116,100227,1,0,0:0:0:0:
152,116,100317,1,0,0:0:0:0:
152,116,100408,1,0,0:0:0:0:
152,116,100498,1,8,0:0:0:0:
152,120,100588,1,8,0:0:0:0:
152,120,100679,1,0,0:0:0:0:
152,120,100769,1,0,0:0:0:0:
152,120,100860,1,8,0:0:0:0:
164,116,100950,1,0,0:0:0:0:
164,116,101040,1,0,0:0:0:0:
164,116,101131,1,0,0:0:0:0:
164,116,101221,1,8,0:0:0:0:
178,168,101311,1,8,0:0:0:0:
164,120,101402,1,4,0:0:0:0:
188,120,101582,1,8,0:0:0:0:
188,116,101853,1,0,0:0:0:0:
188,116,101944,1,8,0:0:0:0:
188,116,102125,1,0,0:0:0:0:
188,116,102305,1,8,0:0:0:0:
188,116,102486,1,0,0:0:0:0:
188,116,102576,1,0,0:0:0:0:
188,116,102667,1,8,0:0:0:0:
168,104,102757,1,8,0:0:0:0:
184,116,102847,1,0,0:0:0:0:
188,120,103028,1,8,0:0:0:0:
200,120,103209,1,0,0:0:0:0:
204,104,103299,1,0,0:0:0:0:
204,104,103390,1,8,0:0:0:0:
204,104,103570,1,0,0:0:0:0:
204,104,103661,1,0,0:0:0:0:
204,104,103751,1,8,0:0:0:0:
204,104,103841,1,8,0:0:0:0:
204,104,103932,1,0,0:0:0:0:
204,104,104022,1,0,0:0:0:0:
204,104,104113,1,8,0:0:0:0:
180,150,104203,1,0,0:0:0:0:
204,104,104293,1,12,0:0:0:0:
204,104,104474,1,8,0:0:0:0:
200,104,104745,5,0,0:0:0:0:
228,104,104835,1,8,0:0:0:0:
200,124,105016,1,0,0:0:0:0:
204,80,105197,1,8,0:0:0:0:
224,100,105378,1,0,0:0:0:0:
224,100,105468,1,0,0:0:0:0:
220,100,105558,1,8,0:0:0:0:
156,139,105649,1,8,0:0:0:0:
220,100,105739,1,0,0:0:0:0:
204,160,105919,5,8,0:0:0:0:
204,160,106055,1,8,0:0:0:0:
204,160,106190,1,8,0:0:0:0:
204,160,106554,1,8,0:0:0:0:
220,128,106644,1,0,0:0:0:0:
220,128,106734,1,0,0:0:0:0:
220,128,106825,1,0,0:0:0:0:
220,128,106915,1,8,0:0:0:0:
220,128,107005,1,8,0:0:0:0:
220,128,107096,1,8,0:0:0:0:
220,128,107186,1,0,0:0:0:0:
220,128,107276,1,0,0:0:0:0:
220,128,107367,1,8,0:0:0:0:
220,128,107457,1,0,0:0:0:0:
236,133,107547,1,0,0:0:0:0:
204,120,107638,1,12,0:0:0:0:
248,128,107909,1,0,0:0:0:0:
220,112,107999,1,8,0:0:0:0:
220,128,108180,1,8,0:0:0:0:
222,140,108270,1,8,0:0:0:0:
230,147,108360,1,0,0:0:0:0:
236,132,108451,1,0,0:0:0:0:
236,132,108541,1,0,0:0:0:0:
236,132,108631,1,0,0:0:0:0:
236,132,108722,1,8,0:0:0:0:
236,132,108903,1,0,0:0:0:0:
236,132,108993,1,0,0:0:0:0:
220,112,109083,1,0,0:0:0:0:
248,132,109354,1,0,0:0:0:0:
232,116,109445,1,8,0:0:0:0:
220,128,109625,1,0,0:0:0:0:
224,124,109806,1,8,0:0:0:0:
232,116,109897,1,0,0:0:0:0:
232,116,109987,1,0,0:0:0:0:
232,116,110077,1,0,0:0:0:0:
232,116,110168,1,8,0:0:0:0:
220,112,110348,1,0,0:0:0:0:
220,112,110439,1,0,0:0:0:0:
220,112,110529,1,8,0:0:0:0:
220,112,110800,1,0,0:0:0:0:
220,112,110891,1,8,0:0:0:0:
224,112,111071,1,8,0:0:0:0:
224,112,111252,1,0,0:0:0:0:
224,112,111342,1,0,0:0:0:0:
224,112,111433,1,0,0:0:0:0:
224,112,111523,1,0,0:0:0:0:
224,112,111613,1,8,0:0:0:0:
220,112,111794,1,0,0:0:0:0:
220,112,111884,1,0,0:0:0:0:
220,112,111975,1,0,0:0:0:0:
220,112,112246,1,0,0:0:0:0:
220,112,112336,1,8,0:0:0:0:
232,100,112517,5,0,0:0:0:0:
232,100,112698,1,8,0:0:0:0:
232,100,112788,1,8,0:0:0:0:
232,100,112878,1,0,0:0:0:0:
232,100,112969,1,0,0:0:0:0:
232,100,113059,1,8,0:0:0:0:
232,100,113240,1,0,0:0:0:0:
220,112,113330,1,0,0:0:0:0:
232,100,113421,1,12,0:0:0:0:
220,112,113692,1,0,0:0:0:0:
232,100,113782,1,8,0:0:0:0:
232,100,113963,1,0,0:0:0:0:
228,104,114144,1,0,0:0:0:0:
224,104,114234,1,8,0:0:0:0:
232,100,114324,1,0,0:0:0:0:
232,100,114415,1,0,0:0:0:0:
228,104,114505,1,8,0:0:0:0:
228,104,114686,1,0,0:0:0:0:
228,104,114776,1,0,0:0:0:0:
228,104,114866,1,8,0:0:0:0:
228,104,115138,1,0,0:0:0:0:
228,104,115228,1,8,0:0:0:0:
216,128,115409,1,0,0:0:0:0:
220,104,115589,1,8,0:0:0:0:
228,104,115680,1,0,0:0:0:0:
224,104,115770,1,0,0:0:0:0:
220,104,115860,1,0,0:0:0:0:
220,104,115951,1,8,0:0:0:0:
220,104,116131,1,0,0:0:0:0:
220,104,116222,1,8,0:0:0:0:
220,104,116312,1,0,0:0:0:0:
220,104,116583,1,0,0:0:0:0:
220,104,116674,1,8,0:0:0:0:
216,128,116854,1,8,0:0:0:0:
216,88,117035,1,0,0:0:0:0:
216,88,117125,1,0,0:0:0:0:
216,88,117216,1,0,0:0:0:0:
216,88,117306,1,0,0:0:0:0:
216,88,117397,1,8,0:0:0:0:
224,100,117577,1,0,0:0:0:0:
224,100,117668,1,0,0:0:0:0:
224,100,117758,1,0,0:0:0:0:
224,92,118029,1,0,0:0:0:0:
224,96,118119,1,8,0:0:0:0:
228,84,118300,1,0,0:0:0:0:
224,84,118481,1,8,0:0:0:0:
224,84,118571,1,0,0:0:0:0:
228,84,118662,1,0,0:0:0:0:
228,84,118752,1,0,0:0:0:0:
228,84,118842,1,8,0:0:0:0:
224,84,118933,1,8,0:0:0:0:
224,88,119023,1,0,0:0:0:0:
236,137,119113,1,0,0:0:0:0:
224,88,119204,1,12,0:0:0:0:
220,112,119475,1,0,0:0:0:0:
220,112,119565,1,8,0:0:0:0:
220,128,119746,1,8,0:0:0:0:
206,143,119836,1,8,0:0:0:0:
236,132,119927,1,0,0:0:0:0:
236,132,120017,1,0,0:0:0:0:
236,132,120107,1,0,0:0:0:0:
236,132,120198,1,0,0:0:0:0:
236,132,120288,1,8,0:0:0:0:
236,132,120469,1,0,0:0:0:0:
236,132,120559,1,0,0:0:0:0:
220,112,120650,1,0,0:0:0:0:
248,132,120921,1,0,0:0:0:0:
232,116,121011,1,8,0:0:0:0:
220,128,121192,1,0,0:0:0:0:
224,124,121372,1,8,0:0:0:0:
232,116,121463,1,0,0:0:0:0:
232,116,121553,1,0,0:0:0:0:
232,116,121644,1,0,0:0:0:0:
232,116,121734,1,8,0:0:0:0:
220,112,121915,1,0,0:0:0:0:
220,112,122005,1,0,0:0:0:0:
220,112,122095,1,8,0:0:0:0:
220,112,122366,1,0,0:0:0:0:
220,112,122457,1,8,0:0:0:0:
224,112,122638,1,8,0:0:0:0:
224,112,122818,1,0,0:0:0:0:
224,112,122909,1,0,0:0:0:0:
224,112,122999,1,0,0:0:0:0:
224,112,123089,1,0,0:0:0:0:
224,112,123180,1,8,0:0:0:0:
220,112,123360,1,0,0:0:0:0:
220,112,123451,1,0,0:0:0:0:
220,112,123541,1,0,0:0:0:0:
220,112,123812,1,0,0:0:0:0:
220,112,123903,1,8,0:0:0:0:
232,100,124083,5,0,0:0:0:0:
232,100,124264,1,8,0:0:0:0:
232,100,124354,1,8,0:0:0:0:
232,100,124445,1,0,0:0:0:0:
232,100,124535,1,0,0:0:0:0:
232,100,124625,1,8,0:0:0:0:
232,100,124806,1,0,0:0:0:0:
226,106,124897,1,0,0:0:0:0:
232,100,124987,1,12,0:0:0:0:
232,100,125258,1,0,0:0:0:0:
232,100,125348,1,8,0:0:0:0:
232,100,125529,1,0,0:0:0:0:
228,104,125710,1,0,0:0:0:0:
224,104,125800,1,8,0:0:0:0:
232,100,125891,1,0,0:0:0:0:
232,100,125981,1,0,0:0:0:0:
228,104,126071,1,8,0:0:0:0:
228,104,126252,1,0,0:0:0:0:
228,104,126342,1,0,0:0:0:0:
228,104,126433,1,8,0:0:0:0:
228,104,126704,1,0,0:0:0:0:
228,104,126794,1,8,0:0:0:0:
216,128,126975,1,8,0:0:0:0:
220,104,127156,1,8,0:0:0:0:
228,104,127246,1,0,0:0:0:0:
224,104,127336,1,0,0:0:0:0:
220,104,127427,1,0,0:0:0:0:
220,104,127517,1,8,0:0:0:0:
220,104,127698,1,0,0:0:0:0:
216,107,127788,1,8,0:0:0:0:
220,104,127878,1,4,0:0:0:0:
220,104,128150,1,0,0:0:0:0:
220,104,128240,1,8,0:0:0:0:
216,128,128421,1,8,0:0:0:0:
216,88,128601,1,0,0:0:0:0:
216,88,128692,1,0,0:0:0:0:
216,88,128782,1,0,0:0:0:0:
236,92,128872,1,0,0:0:0:0:
216,88,128963,1,12,0:0:0:0:
224,100,129144,1,0,0:0:0:0:
224,100,129234,1,0,0:0:0:0:
224,100,129324,1,8,0:0:0:0:
224,92,129595,1,8,0:0:0:0:
228,84,129866,1,8,0:0:0:0:
224,84,130047,1,0,0:0:0:0:
206,135,130409,1,0,0:0:0:0:
152,120,130770,1,12,0:0:0:0:
164,112,130951,1,8,0:0:0:0:
168,100,131131,1,0,0:0:0:0:
160,116,131222,1,0,0:0:0:0:
160,116,131312,1,8,0:0:0:0:
160,116,131493,1,0,0:0:0:0:
168,104,131583,1,0,0:0:0:0:
156,112,131674,1,8,0:0:0:0:
156,112,131764,1,8,0:0:0:0:
160,116,131945,1,0,0:0:0:0:
160,116,132035,1,8,0:0:0:0:
160,116,132216,1,0,0:0:0:0:
160,116,132397,1,8,0:0:0:0:
168,100,132577,1,8,0:0:0:0:
160,116,132668,1,8,0:0:0:0:
160,116,132758,1,0,0:0:0:0:
160,116,132939,1,0,0:0:0:0:
172,104,133029,1,0,0:0:0:0:
156,112,133119,1,8,0:0:0:0:
156,112,133210,1,0,0:0:0:0:
160,116,133391,1,0,0:0:0:0:
160,116,133481,1,8,0:0:0:0:
160,116,133662,1,0,0:0:0:0:
160,116,133842,1,8,0:0:0:0:
160,116,134023,1,0,0:0:0:0:
160,116,134113,1,0,0:0:0:0:
160,116,134204,1,8,0:0:0:0:
160,116,134384,1,0,0:0:0:0:
160,116,134475,1,0,0:0:0:0:
156,112,134565,1,8,0:0:0:0:
156,112,134656,1,0,0:0:0:0:
161,136,134746,1,0,0:0:0:0:
160,116,134836,1,0,0:0:0:0:
160,116,134927,1,8,0:0:0:0:
160,116,135107,1,0,0:0:0:0:
160,116,135288,1,8,0:0:0:0:
161,136,135378,1,0,0:0:0:0:
156,120,135469,1,0,0:0:0:0:
152,120,135559,1,0,0:0:0:0:
152,120,135650,1,8,0:0:0:0:
148,132,135830,1,0,0:0:0:0:
144,136,135921,1,0,0:0:0:0:
140,140,136011,1,8,0:0:0:0:
136,144,136101,1,0,0:0:0:0:
136,156,136192,1,8,0:0:0:0:
128,160,136282,1,8,0:0:0:0:
128,160,136372,1,8,0:0:0:0:
161,136,136463,1,0,0:0:0:0:
128,160,136553,1,12,0:0:0:0:
128,160,136734,1,8,0:0:0:0:
140,148,136915,1,0,0:0:0:0:
140,148,137005,5,0,0:0:0:0:
124,168,137095,1,8,0:0:0:0:
140,152,137276,1,0,0:0:0:0:
172,112,137366,1,0,0:0:0:0:
148,148,137457,1,8,0:0:0:0:
148,148,137547,1,8,0:0:0:0:
156,164,137728,1,0,0:0:0:0:
156,164,137818,1,8,0:0:0:0:
152,168,137999,1,0,0:0:0:0:
152,168,138180,1,8,0:0:0:0:
160,148,138360,1,8,0:0:0:0:
160,148,138451,1,8,0:0:0:0:
144,152,138541,1,0,0:0:0:0:
160,148,138722,1,0,0:0:0:0:
172,112,138812,1,0,0:0:0:0:
168,148,138903,1,8,0:0:0:0:
168,148,138993,1,0,0:0:0:0:
168,148,139174,1,0,0:0:0:0:
168,148,139264,1,8,0:0:0:0:
172,112,139445,1,4,0:0:0:0:
168,148,139625,1,8,0:0:0:0:
168,148,139806,1,0,0:0:0:0:
168,148,139897,1,0,0:0:0:0:
168,148,139987,1,8,0:0:0:0:
156,132,140168,1,0,0:0:0:0:
168,120,140258,1,0,0:0:0:0:
168,148,140348,1,8,0:0:0:0:
172,128,140439,1,0,0:0:0:0:
157,138,140529,1,0,0:0:0:0:
177,123,140619,1,0,0:0:0:0:
164,120,140710,1,12,0:0:0:0:
164,120,140891,1,0,0:0:0:0:
164,120,141071,1,8,0:0:0:0:
168,128,141162,1,8,0:0:0:0:
168,128,141252,1,8,0:0:0:0:
168,128,141342,1,8,0:0:0:0:
168,132,141433,1,0,0:0:0:0:
164,132,141523,1,0,0:0:0:0:
164,120,141613,1,8,0:0:0:0:
164,124,141704,1,0,0:0:0:0:
184,136,141794,1,8,0:0:0:0:
164,124,141884,1,8,0:0:0:0:
160,108,141975,1,0,0:0:0:0:
160,108,142156,1,8,0:0:0:0:
190,117,142246,1,8,0:0:0:0:
160,112,142336,1,4,0:0:0:0:
164,120,142517,1,8,0:0:0:0:
176,120,142607,1,0,0:0:0:0:
164,120,142698,1,0,0:0:0:0:
131,138,142788,1,0,0:0:0:0:
164,120,142878,1,8,0:0:0:0:
176,108,142969,1,8,0:0:0:0:
154,136,143059,1,0,0:0:0:0:
160,128,143150,1,0,0:0:0:0:
160,128,143240,1,8,0:0:0:0:
160,128,143330,1,0,0:0:0:0:
176,96,143421,1,8,0:0:0:0:
152,134,143511,1,0,0:0:0:0:
156,128,143601,1,8,0:0:0:0:
168,124,143692,1,0,0:0:0:0:
156,128,143782,1,8,0:0:0:0:
152,134,143872,1,8,0:0:0:0:
160,104,143963,1,0,0:0:0:0:
152,134,144053,1,0,0:0:0:0:
156,128,144144,1,8,0:0:0:0:
144,112,144234,1,0,0:0:0:0:
156,128,144324,1,0,0:0:0:0:
152,134,144415,1,0,0:0:0:0:
152,134,144505,1,8,0:0:0:0:
160,136,144595,1,8,0:0:0:0:
160,128,144686,1,0,0:0:0:0:
152,134,144776,1,0,0:0:0:0:
148,112,144866,1,8,0:0:0:0:
160,136,144957,1,0,0:0:0:0:
160,136,145047,1,0,0:0:0:0:
152,134,145138,1,0,0:0:0:0:
160,136,145228,1,8,0:0:0:0:
152,136,145318,1,0,0:0:0:0:
160,136,145409,1,8,0:0:0:0:
144,116,145499,1,0,0:0:0:0:
160,136,145589,1,0,0:0:0:0:
165,146,145680,1,0,0:0:0:0:
160,136,145770,1,8,0:0:0:0:
156,120,145860,1,8,0:0:0:0:
160,136,145951,1,0,0:0:0:0:
160,136,146041,1,0,0:0:0:0:
160,136,146131,1,8,0:0:0:0:
160,136,146222,1,0,0:0:0:0:
140,120,146312,1,8,0:0:0:0:
161,148,146403,1,0,0:0:0:0:
160,136,146493,1,8,0:0:0:0:
160,92,146583,1,0,0:0:0:0:
160,136,146674,1,8,0:0:0:0:
160,92,146764,1,8,0:0:0:0:
160,136,146854,1,8,0:0:0:0:
160,96,146945,1,8,0:0:0:0:
160,136,147035,1,0,0:0:0:0:
160,136,147125,1,0,0:0:0:0:
160,136,147216,1,8,0:0:0:0:
159,137,147306,1,0,0:0:0:0:
156,140,147397,1,0,0:0:0:0:
160,136,147487,1,0,0:0:0:0:
156,140,147577,1,12,0:0:0:0:
161,146,147758,1,0,0:0:0:0:
161,146,147848,1,0,0:0:0:0:
156,120,147939,1,12,0:0:0:0:
156,120,148119,1,4,0:0:0:0:
152,124,148300,1,8,0:0:0:0:
100,88,148391,1,0,0:0:0:0:
152,128,148481,1,0,0:0:0:0:
186,124,148571,1,0,0:0:0:0:
156,128,148662,1,8,0:0:0:0:
140,132,148752,1,8,0:0:0:0:
156,128,148842,1,0,0:0:0:0:
156,128,148933,1,0,0:0:0:0:
156,128,149023,1,8,0:0:0:0:
156,112,149113,1,0,0:0:0:0:
152,128,149204,1,8,0:0:0:0:
168,96,149294,1,0,0:0:0:0:
156,112,149384,1,8,0:0:0:0:
194,120,149475,1,0,0:0:0:0:
156,112,149565,1,8,0:0:0:0:
194,120,149656,1,8,0:0:0:0:
156,112,149746,1,0,0:0:0:0:
194,120,149836,1,0,0:0:0:0:
176,92,149927,1,8,0:0:0:0:
196,88,150017,1,0,0:0:0:0:
156,112,150107,1,0,0:0:0:0:
194,120,150198,1,0,0:0:0:0:
180,112,150288,1,8,0:0:0:0:
184,112,150378,1,8,0:0:0:0:
180,112,150469,1,0,0:0:0:0:
194,120,150559,1,0,0:0:0:0:
192,88,150650,1,8,0:0:0:0:
180,112,150740,1,0,0:0:0:0:
180,112,150830,1,0,0:0:0:0:
194,120,150921,1,0,0:0:0:0:
176,112,151011,1,12,0:0:0:0:
200,112,151192,1,0,0:0:0:0:
198,117,151282,1,0,0:0:0:0:
180,108,151372,1,0,0:0:0:0:
180,108,151463,1,0,0:0:0:0:
180,108,151553,1,8,0:0:0:0:
186,109,151644,1,0,0:0:0:0:
180,112,151734,1,8,0:0:0:0:
180,112,151824,1,8,0:0:0:0:
186,109,151915,1,0,0:0:0:0:
192,96,152005,1,0,0:0:0:0:
180,112,152095,1,8,0:0:0:0:
180,112,152186,1,8,0:0:0:0:
180,112,152276,1,0,0:0:0:0:
197,142,152366,1,0,0:0:0:0:
152,108,152457,1,12,0:0:0:0:
160,120,152638,1,8,0:0:0:0:
160,120,152728,1,8,0:0:0:0:
160,120,152818,1,8,0:0:0:0:
156,124,152909,1,8,0:0:0:0:
152,128,152999,1,8,0:0:0:0:
156,124,153089,1,8,0:0:0:0:
164,128,153180,1,0,0:0:0:0:
168,104,153270,1,0,0:0:0:0:
168,104,153360,5,0,0:0:0:0:
168,104,153451,1,0,0:0:0:0:
168,104,153541,1,8,0:0:0:0:
172,112,153631,1,8,0:0:0:0:
172,112,153722,1,0,0:0:0:0:
172,112,153812,1,0,0:0:0:0:
152,92,153903,5,8,0:0:0:0:
180,104,153993,1,8,0:0:0:0:
180,104,154083,1,8,0:0:0:0:
180,104,154174,1,8,0:0:0:0:
176,104,154264,1,8,0:0:0:0:
176,104,154354,1,8,0:0:0:0:
168,100,154445,1,8,0:0:0:0:
168,112,156794,1,8,0:0:0:0:
168,112,156884,1,8,0:0:0:0:
168,112,156975,1,8,0:0:0:0:
168,112,157065,1,8,0:0:0:0:
168,112,157156,1,8,0:0:0:0:
168,112,157246,1,8,0:0:0:0:
168,112,157336,1,8,0:0:0:0:
168,112,159144,1,0,0:0:0:0:
168,112,159234,1,0,0:0:0:0:
168,112,159324,1,0,0:0:0:0:
164,148,159595,1,0,0:0:0:0:
192,96,159686,1,12,0:0:0:0:
184,92,159866,1,0,0:0:0:0:
188,92,159957,1,0,0:0:0:0:
184,92,160047,1,8,0:0:0:0:
188,84,160137,1,0,0:0:0:0:
188,84,160228,1,8,0:0:0:0:
192,84,160409,1,8,0:0:0:0:
192,80,160589,1,0,0:0:0:0:
188,80,160680,1,0,0:0:0:0:
188,80,160770,1,8,0:0:0:0:
188,80,161041,1,0,0:0:0:0:
188,80,161131,1,8,0:0:0:0:
188,80,161312,1,0,0:0:0:0:
188,80,161403,1,0,0:0:0:0:
188,80,161493,1,8,0:0:0:0:
184,76,161674,1,0,0:0:0:0:
192,84,161854,1,8,0:0:0:0:
188,76,161945,1,8,0:0:0:0:
192,80,162035,1,0,0:0:0:0:
192,80,162125,1,0,0:0:0:0:
188,80,162216,1,8,0:0:0:0:
188,80,162306,1,8,0:0:0:0:
188,80,162397,1,0,0:0:0:0:
188,80,162487,1,0,0:0:0:0:
204,76,162577,1,8,0:0:0:0:
204,76,162667,1,8,0:0:0:0:
204,76,162757,1,8,0:0:0:0:
204,76,162848,1,8,0:0:0:0:
204,76,162938,1,8,0:0:0:0:
208,80,163119,1,8,0:0:0:0:
208,80,163209,1,8,0:0:0:0:
208,80,163299,1,8,0:0:0:0:
200,56,163390,1,8,0:0:0:0:
200,56,163480,1,8,0:0:0:0:
192,76,163661,1,8,0:0:0:0:
192,76,163751,1,8,0:0:0:0:
188,80,163842,1,8,0:0:0:0:
192,76,163932,1,8,0:0:0:0:
192,72,164022,1,8,0:0:0:0:
192,80,164203,1,8,0:0:0:0:
192,80,164293,1,8,0:0:0:0:
168,88,164384,1,0,0:0:0:0:
192,80,164474,1,0,0:0:0:0:
192,80,164564,1,0,0:0:0:0:
194,91,164655,1,0,0:0:0:0:
188,76,164746,1,12,0:0:0:0:
212,84,164926,5,0,0:0:0:0:
212,84,165017,1,0,0:0:0:0:
212,84,165107,1,8,0:0:0:0:
212,72,165197,1,8,0:0:0:0:
212,84,165288,1,0,0:0:0:0:
204,88,165378,1,8,0:0:0:0:
212,84,165468,1,0,0:0:0:0:
212,80,165559,1,0,0:0:0:0:
212,80,165649,1,8,0:0:0:0:
212,84,165739,1,0,0:0:0:0:
212,84,165830,1,8,0:0:0:0:
200,88,165920,1,8,0:0:0:0:
212,80,166011,1,0,0:0:0:0:
212,80,166101,1,0,0:0:0:0:
224,88,166191,1,8,0:0:0:0:
224,88,166282,1,8,0:0:0:0:
212,84,166372,1,8,0:0:0:0:
200,88,166462,1,0,0:0:0:0:
212,84,166553,1,8,0:0:0:0:
224,88,166643,1,0,0:0:0:0:
224,88,166733,1,0,0:0:0:0:
224,88,166824,1,0,0:0:0:0:
224,88,166914,1,8,0:0:0:0:
200,88,167005,1,8,0:0:0:0:
224,88,167095,1,0,0:0:0:0:
224,88,167185,1,0,0:0:0:0:
224,88,167276,1,8,0:0:0:0:
224,88,167366,1,8,0:0:0:0:
224,92,167456,1,0,0:0:0:0:
224,92,167547,1,0,0:0:0:0:
212,80,167637,5,8,0:0:0:0:
200,88,167727,1,8,0:0:0:0:
212,84,167818,5,0,0:0:0:0:
212,84,167908,1,0,0:0:0:0:
212,84,167999,1,8,0:0:0:0:
212,72,168089,1,8,0:0:0:0:
212,84,168179,1,0,0:0:0:0:
204,88,168270,1,8,0:0:0:0:
212,84,168360,1,0,0:0:0:0:
212,80,168450,1,0,0:0:0:0:
212,80,168541,1,8,0:0:0:0:
212,84,168631,1,0,0:0:0:0:
212,84,168721,1,8,0:0:0:0:
200,88,168812,1,8,0:0:0:0:
212,80,168902,1,0,0:0:0:0:
212,80,168992,1,0,0:0:0:0:
224,88,169083,1,8,0:0:0:0:
224,88,169173,1,8,0:0:0:0:
212,84,169264,1,8,0:0:0:0:
214,126,169354,1,0,0:0:0:0:
212,84,169444,1,12,0:0:0:0:
204,88,169625,1,0,0:0:0:0:
208,88,169715,1,8,0:0:0:0:
208,88,169806,1,0,0:0:0:0:
211,97,169896,1,0,0:0:0:0:
208,88,169986,1,0,0:0:0:0:
204,88,170077,1,0,0:0:0:0:
204,88,170167,1,8,0:0:0:0:
204,84,170258,1,8,0:0:0:0:
204,88,170348,1,8,0:0:0:0:
204,88,170438,1,8,0:0:0:0:
204,88,170529,1,0,0:0:0:0:
204,88,170619,1,0,0:0:0:0:
204,88,170709,1,0,0:0:0:0:
204,92,170890,1,0,0:0:0:0:
204,92,170980,1,0,0:0:0:0:
204,88,171071,1,0,0:0:0:0:
208,72,171161,1,8,0:0:0:0:
208,72,171342,1,8,0:0:0:0:
208,72,171432,1,0,0:0:0:0:
208,72,171523,1,0,0:0:0:0:
216,68,171613,1,8,0:0:0:0:
216,72,171794,1,0,0:0:0:0:
216,72,171884,1,0,0:0:0:0:
216,72,171974,1,8,0:0:0:0:
216,72,172065,1,8,0:0:0:0:
216,72,172155,1,0,0:0:0:0:
208,64,172336,1,0,0:0:0:0:
216,72,172426,1,0,0:0:0:0:
216,72,172517,1,0,0:0:0:0:
208,64,172607,1,8,0:0:0:0:
208,72,172788,1,8,0:0:0:0:
208,72,172878,1,0,0:0:0:0:
221,77,172968,1,0,0:0:0:0:
208,72,173059,1,12,0:0:0:0:
216,64,173239,1,0,0:0:0:0:
216,60,173330,1,0,0:0:0:0:
216,60,173420,1,8,0:0:0:0:
188,52,173511,1,0,0:0:0:0:
188,52,173601,1,0,0:0:0:0:
192,56,173782,1,0,0:0:0:0:
192,56,173872,1,0,0:0:0:0:
192,56,173962,1,0,0:0:0:0:
192,56,174053,1,8,0:0:0:0:
196,56,174233,1,8,0:0:0:0:
196,56,174324,1,0,0:0:0:0:
188,54,174414,1,0,0:0:0:0:
196,56,174505,1,12,0:0:0:0:
196,48,174685,1,0,0:0:0:0:
196,48,174776,1,0,0:0:0:0:
196,48,174866,1,8,0:0:0:0:
184,48,174956,1,8,0:0:0:0:
196,40,175047,1,8,0:0:0:0:
192,44,175137,1,8,0:0:0:0:
208,52,175227,1,0,0:0:0:0:
208,52,175318,1,0,0:0:0:0:
208,56,175408,1,8,0:0:0:0:
208,52,175499,1,0,0:0:0:0:
208,52,175589,1,0,0:0:0:0:
208,56,175679,1,8,0:0:0:0:
208,56,175770,1,0,0:0:0:0:
208,56,175860,1,0,0:0:0:0:
208,56,175950,1,8,0:0:0:0:
186,119,176041,1,8,0:0:0:0:
208,56,176131,1,0,0:0:0:0:
198,57,176221,1,8,0:0:0:0:
208,56,176312,1,4,0:0:0:0:
188,76,176492,1,0,0:0:0:0:
200,116,176583,1,0,0:0:0:0:
200,116,176673,1,8,0:0:0:0:
200,116,176764,1,8,0:0:0:0:
200,116,176854,1,0,0:0:0:0:
200,116,176944,1,0,0:0:0:0:
200,116,177035,1,8,0:0:0:0:
200,116,177125,1,8,0:0:0:0:
188,76,177215,1,0,0:0:0:0:
188,76,177306,1,0,0:0:0:0:
188,76,177396,1,0,0:0:0:0:
188,76,177486,1,0,0:0:0:0:
200,116,177577,1,8,0:0:0:0:
188,76,177667,1,0,0:0:0:0:
200,116,177758,1,8,0:0:0:0:
200,116,177848,1,8,0:0:0:0:
188,76,177938,1,0,0:0:0:0:
188,76,178029,1,0,0:0:0:0:
200,116,178119,1,8,0:0:0:0:
200,116,178209,1,8,0:0:0:0:
188,76,178300,1,0,0:0:0:0:
188,76,178390,1,0,0:0:0:0:
188,76,178480,1,8,0:0:0:0:
188,76,178571,1,0,0:0:0:0:
188,76,178661,1,8,0:0:0:0:
188,76,178752,1,8,0:0:0:0:
188,76,178842,1,0,0:0:0:0:
188,76,178932,1,8,0:0:0:0:
188,76,179023,1,8,0:0:0:0:
188,76,179113,1,8,0:0:0:0:
204,64,179203,1,4,0:0:0:0:
188,76,179384,1,0,0:0:0:0:
200,116,179474,1,0,0:0:0:0:
200,116,179565,1,8,0:0:0:0:
200,116,179655,1,8,0:0:0:0:
200,116,179746,1,0,0:0:0:0:
200,116,179836,1,0,0:0:0:0:
200,116,179926,1,8,0:0:0:0:
200,116,180017,1,8,0:0:0:0:
188,76,180107,1,0,0:0:0:0:
188,76,180197,1,0,0:0:0:0:
188,76,180288,1,0,0:0:0:0:
188,76,180378,1,0,0:0:0:0:
200,116,180468,1,8,0:0:0:0:
188,76,180559,1,0,0:0:0:0:
200,116,180649,1,8,0:0:0:0:
197,86,180830,1,12,0:0:0:0:
197,86,181011,1,12,0:0:0:0:
215,73,181191,1,0,0:0:0:0:
215,73,181282,1,0,0:0:0:0:
215,73,181372,1,8,0:0:0:0:
215,73,181462,1,8,0:0:0:0:
215,73,181643,1,0,0:0:0:0:
215,73,181733,1,8,0:0:0:0:
208,48,181914,1,0,0:0:0:0:
208,48,182005,1,8,0:0:0:0:
208,48,182095,1,0,0:0:0:0:
208,48,182185,1,0,0:0:0:0:
208,48,182276,1,0,0:0:0:0:
208,48,182456,1,0,0:0:0:0:
208,48,182547,1,0,0:0:0:0:
208,48,182637,1,0,0:0:0:0:
208,48,182727,1,8,0:0:0:0:
208,48,182908,1,8,0:0:0:0:
208,48,182999,1,0,0:0:0:0:
208,48,183089,1,0,0:0:0:0:
208,48,183179,1,8,0:0:0:0:
208,48,183360,1,0,0:0:0:0:
208,48,183450,1,0,0:0:0:0:
208,48,183541,1,8,0:0:0:0:
208,48,183631,1,8,0:0:0:0:
208,48,183721,1,0,0:0:0:0:
208,48,183902,1,0,0:0:0:0:
208,48,183992,1,0,0:0:0:0:
208,48,184083,1,0,0:0:0:0:
208,48,184173,1,8,0:0:0:0:
208,48,184354,1,8,0:0:0:0:
204,32,184444,1,0,0:0:0:0:
231,62,184535,1,0,0:0:0:0:
204,32,184625,1,12,0:0:0:0:
204,32,184806,1,0,0:0:0:0:
204,32,184896,1,0,0:0:0:0:
204,32,184986,1,0,0:0:0:0:
204,32,185077,1,0,0:0:0:0:
204,32,185167,1,0,0:0:0:0:
204,32,185348,1,0,0:0:0:0:
204,32,185438,1,0,0:0:0:0:
204,32,185529,1,0,0:0:0:0:
204,32,185619,1,8,0:0:0:0:
204,32,185800,1,8,0:0:0:0:
204,32,185890,1,0,0:0:0:0:
207,57,185980,1,0,0:0:0:0:
204,32,186071,1,12,0:0:0:0:
204,32,186252,1,0,0:0:0:0:
204,32,186342,1,0,0:0:0:0:
204,32,186432,1,8,0:0:0:0:
192,36,186523,1,8,0:0:0:0:
208,32,186613,1,8,0:0:0:0:
208,32,186703,1,0,0:0:0:0:
204,32,186794,1,8,0:0:0:0:
196,32,186884,1,8,0:0:0:0:
196,32,186974,1,0,0:0:0:0:
196,32,187065,1,0,0:0:0:0:
196,32,187155,1,8,0:0:0:0:
196,32,187246,1,8,0:0:0:0:
196,32,187336,1,0,0:0:0:0:
196,32,187426,1,0,0:0:0:0:
196,32,187517,1,8,0:0:0:0:
205,60,187607,1,8,0:0:0:0:
196,32,187697,1,0,0:0:0:0:
205,60,187788,1,8,0:0:0:0:
184,16,187878,1,4,0:0:0:0:
196,32,188059,1,8,0:0:0:0:
196,32,188149,1,0,0:0:0:0:
192,28,188239,1,8,0:0:0:0:
192,28,188330,1,8,0:0:0:0:
196,32,188420,1,0,0:0:0:0:
196,32,188511,1,0,0:0:0:0:
196,32,188601,1,8,0:0:0:0:
196,32,188691,1,0,0:0:0:0:
196,32,188782,1,8,0:0:0:0:
196,32,188872,1,8,0:0:0:0:
196,32,188962,1,0,0:0:0:0:
196,32,189053,1,0,0:0:0:0:
196,32,189143,1,8,0:0:0:0:
199,50,189233,1,8,0:0:0:0:
196,32,189324,1,4,0:0:0:0:
196,32,189505,1,8,0:0:0:0:
196,32,189595,1,0,0:0:0:0:
192,36,189685,1,8,0:0:0:0:
192,36,189776,1,8,0:0:0:0:
196,32,189866,1,0,0:0:0:0:
196,32,189956,1,0,0:0:0:0:
196,32,190047,1,8,0:0:0:0:
196,32,190137,1,0,0:0:0:0:
196,32,190227,1,8,0:0:0:0:
196,32,190318,1,8,0:0:0:0:
196,32,190408,1,0,0:0:0:0:
196,32,190499,1,0,0:0:0:0:
196,32,190589,1,8,0:0:0:0:
205,62,190679,1,8,0:0:0:0:
196,32,190770,1,4,0:0:0:0:
196,32,190950,1,8,0:0:0:0:
196,32,191041,1,8,0:0:0:0:
196,32,191131,1,0,0:0:0:0:
192,36,191221,1,8,0:0:0:0:
196,32,191312,1,0,0:0:0:0:
208,40,191402,1,0,0:0:0:0:
196,32,191492,1,8,0:0:0:0:
200,16,191583,1,8,0:0:0:0:
196,32,191673,1,0,0:0:0:0:
196,32,191764,1,8,0:0:0:0:
196,32,191854,1,0,0:0:0:0:
208,48,191944,1,0,0:0:0:0:
196,32,192035,1,8,0:0:0:0:
223,62,192125,1,8,0:0:0:0:
196,32,192215,1,4,0:0:0:0:
196,32,192396,1,8,0:0:0:0:
200,48,192486,1,0,0:0:0:0:
208,40,192577,1,8,0:0:0:0:
208,40,192667,1,8,0:0:0:0:
196,32,192758,1,0,0:0:0:0:
192,44,192848,1,8,0:0:0:0:
196,32,192938,1,8,0:0:0:0:
192,16,193029,1,0,0:0:0:0:
184,24,193119,1,0,0:0:0:0:
184,24,193209,1,0,0:0:0:0:
184,24,193300,1,8,0:0:0:0:
176,32,193390,1,8,0:0:0:0:
176,32,193480,1,8,0:0:0:0:
183,35,193571,1,8,0:0:0:0:
176,32,193661,1,4,0:0:0:0:
176,32,193842,1,8,0:0:0:0:
176,36,193932,1,0,0:0:0:0:
176,36,194113,1,0,0:0:0:0:
176,36,194203,1,8,0:0:0:0:
168,40,194384,1,0,0:0:0:0:
168,40,194474,1,0,0:0:0:0:
168,40,194565,1,8,0:0:0:0:
172,44,194655,1,0,0:0:0:0:
172,44,194746,1,0,0:0:0:0:
172,44,194836,1,0,0:0:0:0:
172,44,194926,1,8,0:0:0:0:
172,44,195107,1,8,0:0:0:0:
172,44,195197,1,0,0:0:0:0:
172,44,195288,1,8,0:0:0:0:
172,44,195378,1,0,0:0:0:0:
172,44,195559,1,0,0:0:0:0:
172,44,195649,1,8,0:0:0:0:
168,48,195830,1,0,0:0:0:0:
168,48,195920,1,0,0:0:0:0:
168,48,196011,1,8,0:0:0:0:
168,48,196101,1,8,0:0:0:0:
168,48,196191,1,0,0:0:0:0:
168,48,196282,1,0,0:0:0:0:
168,48,196372,1,8,0:0:0:0:
168,48,196553,1,4,0:0:0:0:
168,48,196733,1,8,0:0:0:0:
168,48,196824,1,0,0:0:0:0:
172,44,197005,1,0,0:0:0:0:
172,44,197095,1,8,0:0:0:0:
180,44,197276,1,0,0:0:0:0:
168,48,197366,1,0,0:0:0:0:
180,44,197456,1,12,0:0:0:0:
180,44,197637,1,12,0:0:0:0:
180,44,197818,1,8,0:0:0:0:
171,52,197908,1,0,0:0:0:0:
180,44,197999,1,12,0:0:0:0:
180,44,198179,1,8,0:0:0:0:
180,44,198270,1,8,0:0:0:0:
180,44,198360,1,0,0:0:0:0:
184,57,198450,1,0,0:0:0:0:
180,44,198541,1,12,0:0:0:0:
180,44,198721,1,8,0:0:0:0:
180,44,198812,1,0,0:0:0:0:
180,44,198902,1,0,0:0:0:0:
185,57,198992,1,0,0:0:0:0:
180,44,199083,1,12,0:0:0:0:
180,44,199264,1,0,0:0:0:0:
180,44,199354,1,0,0:0:0:0:
180,44,199444,1,0,0:0:0:0:
185,57,199535,1,0,0:0:0:0:
180,44,199625,1,12,0:0:0:0:
180,44,199806,1,0,0:0:0:0:
180,44,199896,1,0,0:0:0:0:
180,44,199986,1,8,0:0:0:0:
186,52,200077,1,8,0:0:0:0:
180,44,200167,1,0,0:0:0:0:
184,40,200227,1,0,0:0:0:0:
184,40,200288,1,0,0:0:0:0:
180,44,200348,1,8,0:0:0:0:
184,40,200438,1,0,0:0:0:0:
200,40,200529,1,8,0:0:0:0:
199,53,200589,1,8,0:0:0:0:
199,53,200649,1,8,0:0:0:0:
188,40,200709,1,0,0:0:0:0:
192,44,200800,1,0,0:0:0:0:
188,40,200890,1,12,0:0:0:0:
190,43,201252,1,8,0:0:0:0:
197,42,201432,1,0,0:0:0:0:
184,40,201794,1,0,0:0:0:0:
184,40,201884,1,0,0:0:0:0:
194,44,201974,1,8,0:0:0:0:
188,40,202155,1,0,0:0:0:0:
188,37,202517,1,0,0:0:0:0:
186,35,202607,1,0,0:0:0:0:
186,35,202697,1,8,0:0:0:0:
184,40,202788,1,0,0:0:0:0:
184,40,202878,1,8,0:0:0:0:
194,44,202968,1,8,0:0:0:0:
184,40,203059,1,0,0:0:0:0:
188,40,203149,1,0,0:0:0:0:
187,45,203239,1,0,0:0:0:0:
184,40,203420,1,8,0:0:0:0:
177,38,203511,1,0,0:0:0:0:
177,38,203601,1,0,0:0:0:0:
177,38,203782,1,12,0:0:0:0:
181,38,204143,1,8,0:0:0:0:
186,35,204324,1,0,0:0:0:0:
181,33,204685,1,0,0:0:0:0:
181,33,204776,1,0,0:0:0:0:
181,33,204866,1,8,0:0:0:0:
194,43,205047,1,0,0:0:0:0:
188,46,205227,1,0,0:0:0:0:
188,46,205318,1,0,0:0:0:0:
188,46,205408,1,8,0:0:0:0:
188,46,205499,1,8,0:0:0:0:
188,46,205589,1,8,0:0:0:0:
188,46,205770,1,0,0:0:0:0:
188,46,205860,1,0,0:0:0:0:
188,46,205950,1,8,0:0:0:0:
189,49,206041,1,8,0:0:0:0:
189,49,206131,1,8,0:0:0:0:
189,49,206221,1,8,0:0:0:0:
189,49,206312,1,0,0:0:0:0:
189,49,206402,1,8,0:0:0:0:
189,49,206492,1,0,0:0:0:0:
175,68,206583,1,0,0:0:0:0:
188,46,206673,1,12,0:0:0:0:
188,46,206854,1,0,0:0:0:0:
188,46,207035,1,8,0:0:0:0:
188,46,207215,1,0,0:0:0:0:
188,46,207306,1,8,0:0:0:0:
188,46,207396,1,8,0:0:0:0:
196,64,207486,1,0,0:0:0:0:
190,57,207577,1,0,0:0:0:0:
191,56,207667,1,0,0:0:0:0:
190,57,207758,1,8,0:0:0:0:
194,46,207938,1,0,0:0:0:0:
194,45,208119,1,8,0:0:0:0:
188,46,208300,1,8,0:0:0:0:
188,46,208390,1,0,0:0:0:0:
188,46,208480,1,8,0:0:0:0:
191,40,208661,1,0,0:0:0:0:
191,40,208752,1,0,0:0:0:0:
193,31,208842,1,8,0:0:0:0:
202,43,208932,1,8,0:0:0:0:
192,38,209023,1,0,0:0:0:0:
192,38,209113,1,0,0:0:0:0:
191,40,209203,1,8,0:0:0:0:
192,38,209384,1,0,0:0:0:0:
192,38,209474,1,0,0:0:0:0:
192,38,209565,1,8,0:0:0:0:
192,38,209746,1,0,0:0:0:0:
192,38,209926,1,8,0:0:0:0:
191,40,210107,1,0,0:0:0:0:
191,40,210197,1,8,0:0:0:0:
172,73,210288,1,8,0:0:0:0:
172,73,210378,1,0,0:0:0:0:
192,38,210468,1,0,0:0:0:0:
192,38,210559,1,0,0:0:0:0:
192,38,210649,1,8,0:0:0:0:
192,38,210830,1,0,0:0:0:0:
192,38,211011,1,8,0:0:0:0:
192,38,211191,1,8,0:0:0:0:
192,38,211282,1,0,0:0:0:0:
192,38,211372,1,8,0:0:0:0:
171,63,211553,1,0,0:0:0:0:
171,63,211643,1,0,0:0:0:0:
176,60,211733,1,8,0:0:0:0:
200,80,211824,1,8,0:0:0:0:
176,60,211914,1,0,0:0:0:0:
182,67,212005,1,0,0:0:0:0:
176,60,212095,1,12,0:0:0:0:
176,60,212276,1,0,0:0:0:0:
187,79,212366,1,0,0:0:0:0:
188,76,212456,1,12,0:0:0:0:
204,60,212637,5,0,0:0:0:0:
204,60,212727,1,0,0:0:0:0:
203,60,212818,1,8,0:0:0:0:
203,60,212908,1,0,0:0:0:0:
183,57,212999,1,8,0:0:0:0:
227,131,213089,1,8,0:0:0:0:
185,40,213179,1,0,0:0:0:0:
200,58,213270,1,0,0:0:0:0:
200,58,213360,1,8,0:0:0:0:
200,58,213450,1,8,0:0:0:0:
184,57,213541,1,0,0:0:0:0:
227,131,213631,1,8,0:0:0:0:
197,58,213721,1,0,0:0:0:0:
197,58,213812,1,0,0:0:0:0:
190,33,213902,1,8,0:0:0:0:
199,58,213992,1,8,0:0:0:0:
192,57,214083,1,0,0:0:0:0:
227,131,214173,1,8,0:0:0:0:
180,29,214264,1,0,0:0:0:0:
190,33,214354,1,0,0:0:0:0:
190,33,214444,1,8,0:0:0:0:
190,33,214535,1,8,0:0:0:0:
192,57,214625,1,0,0:0:0:0:
212,128,214715,1,8,0:0:0:0:
239,125,214806,1,0,0:0:0:0:
190,33,214896,1,0,0:0:0:0:
192,57,214986,1,8,0:0:0:0:
227,131,215077,1,8,0:0:0:0:
227,131,215167,1,8,0:0:0:0:
190,33,215258,1,0,0:0:0:0:
192,57,215348,1,8,0:0:0:0:
227,131,215438,1,8,0:0:0:0:
204,60,215529,5,0,0:0:0:0:
204,60,215619,1,0,0:0:0:0:
203,60,215709,1,8,0:0:0:0:
203,60,215800,1,0,0:0:0:0:
183,57,215890,1,8,0:0:0:0:
227,131,215980,1,8,0:0:0:0:
185,40,216071,1,0,0:0:0:0:
200,58,216161,1,0,0:0:0:0:
200,58,216252,1,8,0:0:0:0:
200,58,216342,1,8,0:0:0:0:
184,57,216432,1,0,0:0:0:0:
227,131,216523,1,8,0:0:0:0:
197,58,216613,1,0,0:0:0:0:
197,58,216703,1,0,0:0:0:0:
190,33,216794,1,8,0:0:0:0:
199,58,216884,1,8,0:0:0:0:
192,57,216974,1,0,0:0:0:0:
227,131,217065,1,8,0:0:0:0:
180,29,217155,1,0,0:0:0:0:
190,33,217245,1,0,0:0:0:0:
190,33,217336,1,8,0:0:0:0:
190,33,217426,1,8,0:0:0:0:
192,57,217517,1,0,0:0:0:0:
187,79,217607,1,8,0:0:0:0:
239,125,217697,1,0,0:0:0:0:
187,79,217788,1,0,0:0:0:0:
194,64,217878,5,12,0:0:0:0:
187,79,218059,1,0,0:0:0:0:
187,79,218149,1,0,0:0:0:0:
194,64,218239,1,12,0:0:0:0:
201,130,218420,1,0,0:0:0:0:
201,130,218511,1,0,0:0:0:0:
201,130,218601,1,8,0:0:0:0:
201,130,218691,1,0,0:0:0:0:
207,52,218782,1,8,0:0:0:0:
201,130,218872,1,8,0:0:0:0:
201,130,218962,1,8,0:0:0:0:
201,130,219053,1,0,0:0:0:0:
201,130,219143,1,8,0:0:0:0:
201,130,219233,1,8,0:0:0:0:
207,52,219324,1,8,0:0:0:0:
201,130,219414,1,0,0:0:0:0:
201,130,219505,1,8,0:0:0:0:
201,130,219595,1,0,0:0:0:0:
201,130,219685,1,8,0:0:0:0:
201,130,219776,1,8,0:0:0:0:
207,52,219866,1,0,0:0:0:0:
201,130,219956,1,8,0:0:0:0:
201,130,220047,1,0,0:0:0:0:
201,130,220137,1,0,0:0:0:0:
201,130,220227,1,8,0:0:0:0:
214,145,220318,1,0,0:0:0:0:
207,52,220408,1,12,0:0:0:0:
236,135,220589,1,0,0:0:0:0:
214,145,220679,1,0,0:0:0:0:
236,135,220770,1,12,0:0:0:0:
242,155,220950,1,0,0:0:0:0:
242,155,221041,1,0,0:0:0:0:
265,178,221131,1,8,0:0:0:0:
199,47,221221,1,0,0:0:0:0:
265,178,221312,1,8,0:0:0:0:
201,49,221402,1,0,0:0:0:0:
201,49,221492,1,0,0:0:0:0:
201,49,221583,1,0,0:0:0:0:
265,178,221673,1,8,0:0:0:0:
201,49,221764,1,0,0:0:0:0:
254,180,221854,1,8,0:0:0:0:
201,49,221944,1,0,0:0:0:0:
199,47,222035,1,0,0:0:0:0:
214,145,222125,1,0,0:0:0:0:
254,180,222215,1,12,0:0:0:0:
199,47,222396,1,0,0:0:0:0:
214,145,222486,1,8,0:0:0:0:
199,47,222577,1,4,0:0:0:0:
226,151,222758,1,8,0:0:0:0:
226,151,222938,1,8,0:0:0:0:
226,151,223029,1,8,0:0:0:0:
226,151,223119,1,0,0:0:0:0:
226,151,223300,1,0,0:0:0:0:
226,151,223480,1,8,0:0:0:0:
232,136,223571,1,8,0:0:0:0:
226,151,223752,1,0,0:0:0:0:
226,151,223842,1,8,0:0:0:0:
228,168,223932,1,8,0:0:0:0:
226,151,224023,1,0,0:0:0:0:
244,128,224203,1,8,0:0:0:0:
226,151,224384,1,8,0:0:0:0:
232,136,224474,1,8,0:0:0:0:
226,151,224565,1,0,0:0:0:0:
213,151,224745,1,8,0:0:0:0:
220,147,224836,1,8,0:0:0:0:
220,147,224926,1,8,0:0:0:0:
198,153,225017,1,0,0:0:0:0:
220,147,225107,1,8,0:0:0:0:
220,147,225197,1,8,0:0:0:0:
220,147,225288,1,8,0:0:0:0:
220,147,225378,1,0,0:0:0:0:
220,147,225468,1,0,0:0:0:0:
217,146,225649,1,8,0:0:0:0:
212,137,225830,1,8,0:0:0:0:
212,137,225920,1,8,0:0:0:0:
212,137,226011,1,0,0:0:0:0:
214,129,226191,5,0,0:0:0:0:
214,129,226372,1,8,0:0:0:0:
223,124,226462,1,8,0:0:0:0:
214,129,226553,1,0,0:0:0:0:
198,153,226643,1,0,0:0:0:0:
223,124,226733,1,8,0:0:0:0:
223,124,226824,1,8,0:0:0:0:
216,118,226914,1,0,0:0:0:0:
216,118,227095,1,8,0:0:0:0:
216,118,227276,1,8,0:0:0:0:
216,128,227366,1,8,0:0:0:0:
216,118,227456,1,0,0:0:0:0:
216,118,227637,1,4,0:0:0:0:
216,118,227818,1,8,0:0:0:0:
216,118,227908,1,8,0:0:0:0:
216,118,227999,1,8,0:0:0:0:
216,118,228089,1,0,0:0:0:0:
216,118,228179,1,0,0:0:0:0:
198,153,228270,1,0,0:0:0:0:
221,107,228360,1,12,0:0:0:0:
221,107,228541,1,0,0:0:0:0:
221,107,228631,1,0,0:0:0:0:
221,107,228721,1,8,0:0:0:0:
221,107,228812,1,8,0:0:0:0:
221,107,228992,1,0,0:0:0:0:
221,107,229083,1,8,0:0:0:0:
221,107,229264,1,0,0:0:0:0:
221,107,229354,1,8,0:0:0:0:
221,107,229444,1,8,0:0:0:0:
221,107,229625,1,0,0:0:0:0:
221,107,229715,1,8,0:0:0:0:
221,107,229806,1,8,0:0:0:0:
221,107,229986,1,0,0:0:0:0:
221,107,230077,1,0,0:0:0:0:
221,107,230167,1,8,0:0:0:0:
221,107,230258,1,8,0:0:0:0:
221,107,230438,1,0,0:0:0:0:
221,107,230529,1,8,0:0:0:0:
221,107,230619,1,8,0:0:0:0:
221,107,230709,1,0,0:0:0:0:
221,107,230800,1,0,0:0:0:0:
221,107,230890,1,8,0:0:0:0:
221,107,230980,1,8,0:0:0:0:
221,107,231071,1,0,0:0:0:0:
198,153,231161,1,0,0:0:0:0:
196,66,231252,5,12,0:0:0:0:
221,107,231432,1,0,0:0:0:0:
221,107,231613,1,8,0:0:0:0:
221,107,231794,1,0,0:0:0:0:
221,107,231884,1,0,0:0:0:0:
221,107,231974,1,8,0:0:0:0:
206,110,232095,1,8,0:0:0:0:
206,110,232215,1,8,0:0:0:0:
221,107,232336,1,0,0:0:0:0:
206,109,232456,1,0,0:0:0:0:
206,109,232577,1,0,0:0:0:0:
196,66,232697,1,12,0:0:0:0:
206,109,233059,1,8,0:0:0:0:
196,66,233239,1,4,0:0:0:0:
218,105,233420,1,0,0:0:0:0:
204,108,233541,1,0,0:0:0:0:
206,110,233661,1,0,0:0:0:0:
206,110,233782,1,0,0:0:0:0:
206,109,233902,1,0,0:0:0:0:
206,109,234023,1,0,0:0:0:0:
196,66,234143,1,12,0:0:0:0:
206,109,234505,1,8,0:0:0:0:
196,66,234685,1,4,0:0:0:0:
206,110,235047,1,0,0:0:0:0:
206,110,235107,1,0,0:0:0:0:
206,110,235167,1,0,0:0:0:0:
206,110,235227,1,12,0:0:0:0:
196,66,235589,1,12,0:0:0:0:
224,144,235709,1,0,0:0:0:0:
214,121,235830,1,0,0:0:0:0:
214,121,235950,1,8,0:0:0:0:
214,121,236071,1,0,0:0:0:0:
214,122,236191,1,0,0:0:0:0:
214,122,236312,1,8,0:0:0:0:
220,112,236402,1,0,0:0:0:0:
221,101,236492,1,0,0:0:0:0:
200,116,236583,1,0,0:0:0:0:
196,66,236673,1,12,0:0:0:0:
221,95,236854,1,0,0:0:0:0:
221,95,236944,1,0,0:0:0:0:
221,95,237035,1,8,0:0:0:0:
216,92,237155,1,0,0:0:0:0:
216,92,237276,1,0,0:0:0:0:
216,92,237396,1,0,0:0:0:0:
216,92,237517,1,8,0:0:0:0:
216,92,237637,1,0,0:0:0:0:
216,92,237758,1,0,0:0:0:0:
216,92,237878,1,0,0:0:0:0:
216,92,237999,1,8,0:0:0:0:
216,92,238119,1,0,0:0:0:0:
216,92,238239,1,0,0:0:0:0:
216,92,238360,1,0,0:0:0:0:
192,75,238480,1,12,0:0:0:0:
184,76,238660,1,8,0:0:0:0:
220,88,238931,1,0,0:0:0:0:
220,88,239022,1,8,0:0:0:0:
220,88,239202,1,0,0:0:0:0:
220,88,239383,1,8,0:0:0:0:
220,88,239564,1,0,0:0:0:0:
220,88,239654,1,0,0:0:0:0:
220,88,239745,1,8,0:0:0:0:
208,80,239925,1,0,0:0:0:0:
204,80,240106,1,8,0:0:0:0:
204,80,240377,1,0,0:0:0:0:
204,80,240467,1,8,0:0:0:0:
200,84,240648,1,8,0:0:0:0:
200,84,240739,1,0,0:0:0:0:
204,80,240829,1,8,0:0:0:0:
208,112,241010,1,8,0:0:0:0:
200,84,241100,1,0,0:0:0:0:
200,84,241190,1,8,0:0:0:0:
196,68,241281,1,8,0:0:0:0:
200,84,241371,1,0,0:0:0:0:
204,80,241552,1,8,0:0:0:0:
204,80,241823,1,0,0:0:0:0:
204,80,241913,1,8,0:0:0:0:
204,80,242094,1,0,0:0:0:0:
204,80,242275,1,8,0:0:0:0:
204,80,242455,1,0,0:0:0:0:
204,80,242546,1,0,0:0:0:0:
204,80,242636,1,8,0:0:0:0:
204,80,242817,1,0,0:0:0:0:
204,80,242998,1,8,0:0:0:0:
204,80,243269,1,0,0:0:0:0:
204,80,243359,1,8,0:0:0:0:
204,80,243540,1,8,0:0:0:0:
204,80,243630,1,8,0:0:0:0:
204,80,243720,1,8,0:0:0:0:
204,80,243901,1,8,0:0:0:0:
204,80,243992,1,0,0:0:0:0:
204,80,244082,1,8,0:0:0:0:
204,80,244263,1,4,0:0:0:0:
212,72,244443,1,8,0:0:0:0:
204,80,244714,1,0,0:0:0:0:
204,80,244805,1,8,0:0:0:0:
204,80,244986,1,0,0:0:0:0:
204,80,245166,1,8,0:0:0:0:
200,80,245347,1,0,0:0:0:0:
200,80,245437,1,0,0:0:0:0:
200,80,245528,1,8,0:0:0:0:
200,80,245708,1,0,0:0:0:0:
196,80,245889,1,8,0:0:0:0:
196,80,246160,1,0,0:0:0:0:
196,80,246251,1,8,0:0:0:0:
192,84,246431,1,8,0:0:0:0:
192,84,246522,1,0,0:0:0:0:
196,80,246612,1,8,0:0:0:0:
184,88,246793,1,8,0:0:0:0:
196,56,246883,1,8,0:0:0:0:
188,88,246973,1,0,0:0:0:0:
196,56,247064,1,8,0:0:0:0:
184,88,247154,1,0,0:0:0:0:
180,80,247335,1,8,0:0:0:0:
180,80,247606,1,0,0:0:0:0:
180,80,247696,1,8,0:0:0:0:
176,80,247877,1,0,0:0:0:0:
180,80,248058,1,8,0:0:0:0:
176,84,248239,1,0,0:0:0:0:
176,84,248329,1,0,0:0:0:0:
176,84,248419,1,8,0:0:0:0:
176,84,248600,1,0,0:0:0:0:
176,84,248781,1,8,0:0:0:0:
176,88,249052,1,0,0:0:0:0:
176,88,249142,1,8,0:0:0:0:
176,88,249323,1,0,0:0:0:0:
176,64,249413,1,8,0:0:0:0:
200,80,249504,1,8,0:0:0:0:
180,80,249594,1,0,0:0:0:0:
184,84,249684,1,8,0:0:0:0:
176,84,249775,1,8,0:0:0:0:
192,68,249865,1,8,0:0:0:0:
220,113,249955,1,8,0:0:0:0:
176,76,250046,1,4,0:0:0:0:
241,170,250226,1,0,0:0:0:0:
241,170,250317,1,0,0:0:0:0:
222,168,250407,1,8,0:0:0:0:
236,191,250498,1,0,0:0:0:0:
221,167,250588,1,0,0:0:0:0:
226,198,250678,1,0,0:0:0:0:
266,159,250769,1,12,0:0:0:0:
248,163,250949,1,0,0:0:0:0:
232,219,251040,1,0,0:0:0:0:
242,235,251130,1,8,0:0:0:0:
260,188,251220,1,0,0:0:0:0:
266,190,251311,1,0,0:0:0:0:
260,188,251401,1,0,0:0:0:0:
236,201,251492,1,8,0:0:0:0:
260,188,251582,1,0,0:0:0:0:
219,195,251672,1,0,0:0:0:0:
224,191,251763,1,0,0:0:0:0:
236,201,251853,1,8,0:0:0:0:
260,188,251943,1,0,0:0:0:0:
243,179,252034,1,0,0:0:0:0:
236,201,252124,1,0,0:0:0:0:
236,201,252214,1,12,0:0:0:0:
236,201,252395,1,0,0:0:0:0:
246,184,252486,1,0,0:0:0:0:
250,178,252576,1,8,0:0:0:0:
260,188,252666,1,0,0:0:0:0:
236,201,252757,1,8,0:0:0:0:
250,180,252847,1,8,0:0:0:0:
258,173,252937,1,4,0:0:0:0:
243,187,253118,1,0,0:0:0:0:
242,184,253208,1,0,0:0:0:0:
239,198,253299,1,0,0:0:0:0:
276,175,253389,1,0,0:0:0:0:
263,175,253480,1,0,0:0:0:0:
236,201,253570,1,0,0:0:0:0:
245,213,253660,1,12,0:0:0:0:
276,175,253841,1,0,0:0:0:0:
259,190,253931,1,0,0:0:0:0:
254,191,254022,1,8,0:0:0:0:
276,175,254112,1,0,0:0:0:0:
256,192,254202,1,0,0:0:0:0:
254,186,254293,1,0,0:0:0:0:
253,185,254383,1,8,0:0:0:0:
276,175,254473,1,0,0:0:0:0:
253,185,254564,1,0,0:0:0:0:
251,179,254654,1,0,0:0:0:0:
236,201,254745,1,8,0:0:0:0:
276,175,254835,1,0,0:0:0:0:
259,190,254925,1,0,0:0:0:0:
236,201,255016,1,0,0:0:0:0:
236,148,255106,5,8,0:0:0:0:
236,144,255196,1,8,0:0:0:0:
235,171,255287,1,0,0:0:0:0:
236,144,255377,1,0,0:0:0:0:
236,144,255467,1,8,0:0:0:0:
240,152,255558,1,8,0:0:0:0:
235,171,255648,1,8,0:0:0:0:
235,171,255739,1,8,0:0:0:0:
240,148,255829,1,4,0:0:0:0:
240,136,256010,1,0,0:0:0:0:
227,133,256100,1,0,0:0:0:0:
240,136,256190,1,8,0:0:0:0:
236,128,256371,1,0,0:0:0:0:
227,133,256461,1,0,0:0:0:0:
236,128,256552,1,12,0:0:0:0:
224,124,256733,1,0,0:0:0:0:
232,128,256913,1,8,0:0:0:0:
220,128,257004,1,0,0:0:0:0:
230,136,257184,1,0,0:0:0:0:
216,128,257275,1,12,0:0:0:0:
216,128,257455,1,0,0:0:0:0:
216,128,257546,1,0,0:0:0:0:
216,128,257636,1,8,0:0:0:0:
216,128,257817,1,0,0:0:0:0:
216,128,257998,1,8,0:0:0:0:
216,128,258088,1,8,0:0:0:0:
216,128,258178,1,8,0:0:0:0:
216,128,258269,1,8,0:0:0:0:
216,128,258359,1,0,0:0:0:0:
216,128,258449,1,0,0:0:0:0:
220,128,258540,1,0,0:0:0:0:
196,121,258630,1,0,0:0:0:0:
204,108,258720,1,12,0:0:0:0:
204,108,258901,1,0,0:0:0:0:
204,108,258992,1,0,0:0:0:0:
204,108,259082,1,0,0:0:0:0:
213,102,259172,1,0,0:0:0:0:
216,128,259263,1,12,0:0:0:0:
212,120,259443,1,0,0:0:0:0:
212,120,259534,1,0,0:0:0:0:
212,120,259624,1,0,0:0:0:0:
213,102,259714,1,0,0:0:0:0:
212,120,259805,1,12,0:0:0:0:
212,120,259986,1,0,0:0:0:0:
213,102,260076,1,0,0:0:0:0:
208,108,260166,1,12,0:0:0:0:
208,96,260347,1,8,0:0:0:0:
208,100,260407,1,8,0:0:0:0:
208,96,260467,1,0,0:0:0:0:
208,100,260528,1,0,0:0:0:0:
200,116,260708,1,0,0:0:0:0:
192,100,260769,1,8,0:0:0:0:
208,88,260829,1,8,0:0:0:0:
216,88,260889,1,0,0:0:0:0:
216,88,261070,1,0,0:0:0:0:
208,116,261251,1,12,0:0:0:0:
220,88,261612,1,8,0:0:0:0:
216,88,261702,1,8,0:0:0:0:
220,88,261793,1,8,0:0:0:0:
216,88,261883,1,8,0:0:0:0:
216,88,261973,1,8,0:0:0:0:
214,101,262154,1,0,0:0:0:0:
214,101,262516,1,0,0:0:0:0:
214,101,262877,1,0,0:0:0:0:
208,108,263058,1,12,0:0:0:0:
208,112,263239,1,0,0:0:0:0:
208,108,263329,1,0,0:0:0:0:
208,108,263419,1,12,0:0:0:0:
208,108,263600,1,0,0:0:0:0:
208,108,263690,1,0,0:0:0:0:
208,108,263781,1,12,0:0:0:0:
204,112,263961,1,0,0:0:0:0:
208,108,264052,1,0,0:0:0:0:
204,112,264142,1,8,0:0:0:0:
204,112,264233,1,8,0:0:0:0:
204,112,264323,1,8,0:0:0:0:
199,122,264413,1,8,0:0:0:0:
204,120,264504,1,4,0:0:0:0:
184,116,264684,1,8,0:0:0:0:
204,124,264865,1,0,0:0:0:0:
204,124,264955,1,0,0:0:0:0:
208,128,265046,1,8,0:0:0:0:
208,128,265226,1,0,0:0:0:0:
208,128,265317,1,0,0:0:0:0:
208,128,265407,1,8,0:0:0:0:
208,128,265498,1,0,0:0:0:0:
208,128,265678,1,0,0:0:0:0:
208,128,265769,1,8,0:0:0:0:
208,128,265949,1,0,0:0:0:0:
208,128,266130,1,8,0:0:0:0:
193,139,266220,1,0,0:0:0:0:
204,124,266311,1,0,0:0:0:0:
204,124,266401,1,0,0:0:0:0:
208,128,266492,1,8,0:0:0:0:
208,128,266672,1,0,0:0:0:0:
208,128,266763,1,0,0:0:0:0:
208,128,266853,1,8,0:0:0:0:
208,128,266943,1,0,0:0:0:0:
212,104,267034,1,8,0:0:0:0:
208,128,267124,1,8,0:0:0:0:
208,128,267214,1,8,0:0:0:0:
193,139,267305,1,0,0:0:0:0:
208,128,267395,1,12,0:0:0:0:
184,116,267576,1,8,0:0:0:0:
204,124,267757,1,0,0:0:0:0:
204,124,267847,1,0,0:0:0:0:
208,128,267937,1,8,0:0:0:0:
208,128,268118,1,0,0:0:0:0:
208,128,268208,1,0,0:0:0:0:
208,128,268299,1,8,0:0:0:0:
208,128,268389,1,8,0:0:0:0:
208,128,268570,1,0,0:0:0:0:
208,128,268660,1,8,0:0:0:0:
208,128,268841,1,8,0:0:0:0:
208,128,269022,1,0,0:0:0:0:
204,124,269202,1,8,0:0:0:0:
204,124,269293,1,8,0:0:0:0:
208,128,269383,1,0,0:0:0:0:
208,128,269564,1,0,0:0:0:0:
208,128,269654,1,0,0:0:0:0:
208,128,269745,1,8,0:0:0:0:
208,128,269835,1,0,0:0:0:0:
208,128,270016,1,0,0:0:0:0:
208,128,270106,1,8,0:0:0:0:
208,128,270287,1,4,0:0:0:0:
184,116,270467,1,8,0:0:0:0:
204,124,270648,1,0,0:0:0:0:
204,124,270739,1,0,0:0:0:0:
208,128,270829,1,8,0:0:0:0:
208,128,271010,1,0,0:0:0:0:
208,128,271100,1,0,0:0:0:0:
208,128,271190,1,8,0:0:0:0:
208,128,271281,1,0,0:0:0:0:
193,139,271371,1,0,0:0:0:0:
208,128,271461,1,0,0:0:0:0:
208,128,271552,1,8,0:0:0:0:
208,128,271733,1,0,0:0:0:0:
208,128,271913,1,8,0:0:0:0:
193,139,272004,1,0,0:0:0:0:
204,124,272094,1,0,0:0:0:0:
204,124,272184,1,0,0:0:0:0:
208,128,272275,1,8,0:0:0:0:
208,128,272455,1,8,0:0:0:0:
208,128,272546,1,0,0:0:0:0:
208,128,272636,1,8,0:0:0:0:
212,104,272726,1,8,0:0:0:0:
192,120,272817,1,0,0:0:0:0:
208,128,272907,1,0,0:0:0:0:
208,128,272998,1,8,0:0:0:0:
208,116,273178,1,4,0:0:0:0:
184,116,273359,1,8,0:0:0:0:
228,120,273449,1,8,0:0:0:0:
204,124,273540,1,0,0:0:0:0:
204,124,273630,1,0,0:0:0:0:
208,128,273720,1,8,0:0:0:0:
208,128,273901,1,0,0:0:0:0:
208,128,273992,1,0,0:0:0:0:
208,128,274082,1,8,0:0:0:0:
208,128,274172,1,8,0:0:0:0:
208,128,274353,1,0,0:0:0:0:
208,128,274443,1,8,0:0:0:0:
208,128,274624,1,8,0:0:0:0:
208,128,274805,1,0,0:0:0:0:
204,124,274986,1,8,0:0:0:0:
204,124,275076,1,8,0:0:0:0:
208,128,275166,1,0,0:0:0:0:
208,128,275347,1,0,0:0:0:0:
208,128,275437,1,0,0:0:0:0:
208,128,275528,1,8,0:0:0:0:
208,128,275618,1,0,0:0:0:0:
208,128,275799,1,0,0:0:0:0:
208,128,275889,1,8,0:0:0:0:
208,128,276070,1,8,0:0:0:0:
184,116,276251,1,8,0:0:0:0:
208,136,276341,1,8,0:0:0:0:
204,124,276431,1,0,0:0:0:0:
204,124,276522,1,0,0:0:0:0:
208,128,276612,1,8,0:0:0:0:
208,128,276793,1,0,0:0:0:0:
208,128,276883,1,0,0:0:0:0:
208,128,276973,1,8,0:0:0:0:
208,128,277064,1,8,0:0:0:0:
208,128,277245,1,0,0:0:0:0:
208,128,277335,1,8,0:0:0:0:
206,158,277425,1,0,0:0:0:0:
208,128,277516,1,8,0:0:0:0:
208,128,277696,1,8,0:0:0:0:
204,124,277877,1,0,0:0:0:0:
204,124,277967,1,0,0:0:0:0:
208,128,278058,1,8,0:0:0:0:
208,128,278239,1,0,0:0:0:0:
208,128,278329,1,0,0:0:0:0:
208,128,278419,1,8,0:0:0:0:
208,128,278510,1,0,0:0:0:0:
200,132,278600,1,8,0:0:0:0:
208,128,278690,1,8,0:0:0:0:
208,128,278781,1,8,0:0:0:0:
193,139,278871,1,0,0:0:0:0:
204,108,278961,1,12,0:0:0:0:
196,128,279142,1,8,0:0:0:0:
196,128,279233,1,8,0:0:0:0:
204,124,279323,1,0,0:0:0:0:
204,124,279413,1,0,0:0:0:0:
208,128,279504,1,8,0:0:0:0:
208,128,279684,1,0,0:0:0:0:
208,128,279775,1,0,0:0:0:0:
208,128,279865,1,8,0:0:0:0:
208,128,279955,1,8,0:0:0:0:
208,128,280136,1,0,0:0:0:0:
208,128,280226,1,8,0:0:0:0:
208,128,280407,1,8,0:0:0:0:
208,128,280588,1,0,0:0:0:0:
204,124,280769,1,8,0:0:0:0:
204,124,280859,1,8,0:0:0:0:
208,128,280949,1,0,0:0:0:0:
208,128,281130,1,0,0:0:0:0:
208,128,281220,1,0,0:0:0:0:
208,128,281311,1,8,0:0:0:0:
208,128,281401,1,0,0:0:0:0:
208,128,281582,1,0,0:0:0:0:
208,128,281672,1,8,0:0:0:0:
224,128,281853,1,4,0:0:0:0:
184,116,282034,1,8,0:0:0:0:
204,124,282214,1,0,0:0:0:0:
204,124,282305,1,0,0:0:0:0:
208,128,282395,1,8,0:0:0:0:
208,128,282576,1,0,0:0:0:0:
208,128,282666,1,0,0:0:0:0:
208,128,282757,1,8,0:0:0:0:
208,128,282847,1,0,0:0:0:0:
187,127,282937,1,0,0:0:0:0:
220,132,283028,1,0,0:0:0:0:
208,128,283118,1,12,0:0:0:0:
204,124,283299,1,0,0:0:0:0:
208,120,283480,1,8,0:0:0:0:
208,120,283570,1,8,0:0:0:0:
208,120,283660,1,8,0:0:0:0:
212,124,283751,1,8,0:0:0:0:
216,128,283841,1,0,0:0:0:0:
212,124,283931,1,0,0:0:0:0:
216,128,284022,1,8,0:0:0:0:
200,108,284112,1,0,0:0:0:0:
216,128,284202,1,8,0:0:0:0:
216,128,284293,1,8,0:0:0:0:
216,128,284383,1,0,0:0:0:0:
202,138,284473,1,0,0:0:0:0:
216,128,284564,1,8,0:0:0:0:
208,120,284654,1,8,0:0:0:0:
208,128,284745,1,4,0:0:0:0:
208,128,284925,1,8,0:0:0:0:
200,116,285016,1,8,0:0:0:0:
220,116,285106,1,0,0:0:0:0:
216,128,285196,1,0,0:0:0:0:
220,116,285287,1,8,0:0:0:0:
256,116,285377,1,8,0:0:0:0:
215,124,285467,1,8,0:0:0:0:
216,128,285558,1,0,0:0:0:0:
215,124,285648,1,8,0:0:0:0:
220,108,285739,1,0,0:0:0:0:
215,124,285829,1,8,0:0:0:0:
224,92,285919,1,0,0:0:0:0:
204,104,286010,1,8,0:0:0:0:
215,124,286100,1,0,0:0:0:0:
200,108,286190,1,8,0:0:0:0:
200,108,286281,1,8,0:0:0:0:
215,124,286371,1,0,0:0:0:0:
215,124,286461,1,0,0:0:0:0:
216,128,286552,1,8,0:0:0:0:
196,108,286642,1,0,0:0:0:0:
200,108,286733,1,0,0:0:0:0:
204,104,286823,1,0,0:0:0:0:
196,108,286913,1,8,0:0:0:0:
195,124,287004,1,8,0:0:0:0:
196,108,287094,1,0,0:0:0:0:
197,122,287184,1,0,0:0:0:0:
196,108,287275,1,8,0:0:0:0:
196,108,287365,1,0,0:0:0:0:
196,108,287455,1,0,0:0:0:0:
237,137,287546,1,0,0:0:0:0:
208,112,287636,1,8,0:0:0:0:
236,120,287726,1,0,0:0:0:0:
208,112,287817,1,8,0:0:0:0:
208,112,287907,1,8,0:0:0:0:
208,112,287998,1,0,0:0:0:0:
251,154,288088,1,0,0:0:0:0:
208,112,288178,1,8,0:0:0:0:
216,96,288269,1,8,0:0:0:0:
196,108,288359,1,8,0:0:0:0:
207,149,288449,1,0,0:0:0:0:
196,108,288540,1,8,0:0:0:0:
208,120,288630,1,0,0:0:0:0:
196,108,288720,1,8,0:0:0:0:
216,116,288811,1,0,0:0:0:0:
196,108,288901,1,8,0:0:0:0:
216,102,288992,1,0,0:0:0:0:
216,100,289082,1,8,0:0:0:0:
216,100,289172,1,8,0:0:0:0:
216,104,289263,1,8,0:0:0:0:
192,120,289353,1,8,0:0:0:0:
216,100,289443,1,0,0:0:0:0:
216,100,289534,1,0,0:0:0:0:
212,80,289624,1,8,0:0:0:0:
210,117,289714,1,0,0:0:0:0:
216,100,289805,1,0,0:0:0:0:
216,100,289895,1,0,0:0:0:0:
216,100,289986,1,8,0:0:0:0:
232,96,290076,1,0,0:0:0:0:
216,100,290166,1,8,0:0:0:0:
216,100,290257,1,8,0:0:0:0:
216,100,290347,1,8,0:0:0:0:
210,117,290437,1,0,0:0:0:0:
204,120,290528,1,12,0:0:0:0:
206,127,290708,1,8,0:0:0:0:
206,127,290799,1,8,0:0:0:0:
206,127,290889,1,0,0:0:0:0:
206,127,290980,1,0,0:0:0:0:
206,127,291070,1,8,0:0:0:0:
206,127,291160,1,8,0:0:0:0:
206,127,291251,1,8,0:0:0:0:
206,127,291341,1,0,0:0:0:0:
206,127,291431,1,8,0:0:0:0:
206,127,291522,1,0,0:0:0:0:
206,127,291612,1,8,0:0:0:0:
206,127,291702,1,0,0:0:0:0:
206,127,291793,1,8,0:0:0:0:
206,127,291883,1,0,0:0:0:0:
206,127,291973,1,8,0:0:0:0:
206,127,292064,1,8,0:0:0:0:
206,127,292154,1,0,0:0:0:0:
206,127,292245,1,0,0:0:0:0:
206,127,292335,1,8,0:0:0:0:
206,127,292425,1,8,0:0:0:0:
206,127,292516,1,0,0:0:0:0:
206,127,292606,1,0,0:0:0:0:
206,127,292696,1,8,0:0:0:0:
206,127,292787,1,0,0:0:0:0:
206,127,292877,1,0,0:0:0:0:
206,127,292967,1,0,0:0:0:0:
206,127,293058,1,8,0:0:0:0:
206,127,293148,1,8,0:0:0:0:
206,127,293239,1,0,0:0:0:0:
206,127,293329,1,0,0:0:0:0:
222,123,293419,1,12,0:0:0:0:
192,80,293600,1,8,0:0:0:0:
221,106,293690,1,0,0:0:0:0:
220,68,293781,1,0,0:0:0:0:
220,68,293871,1,0,0:0:0:0:
220,68,293961,1,8,0:0:0:0:
221,106,294052,1,0,0:0:0:0:
220,68,294142,1,0,0:0:0:0:
220,68,294233,1,0,0:0:0:0:
192,80,294323,1,8,0:0:0:0:
212,112,294413,1,0,0:0:0:0:
232,116,294504,1,0,0:0:0:0:
232,116,294594,1,0,0:0:0:0:
232,116,294684,1,8,0:0:0:0:
236,100,294865,1,4,0:0:0:0:
247,101,295046,1,8,0:0:0:0:
236,100,295091,5,8,0:0:0:0:
241,103,295226,1,0,0:0:0:0:
244,100,295317,1,8,0:0:0:0:
244,100,295407,1,8,0:0:0:0:
241,103,295498,1,0,0:0:0:0:
244,100,295588,1,8,0:0:0:0:
240,96,295678,1,8,0:0:0:0:
240,96,295769,1,0,0:0:0:0:
240,96,295859,1,8,0:0:0:0:
240,96,295949,1,0,0:0:0:0:
256,96,296040,1,0,0:0:0:0:
240,96,296130,1,8,0:0:0:0:
246,97,296220,1,8,0:0:0:0:
240,96,296311,1,4,0:0:0:0:
232,84,296492,1,8,0:0:0:0:
232,84,296582,1,8,0:0:0:0:
232,84,296672,1,0,0:0:0:0:
240,96,296763,1,0,0:0:0:0:
240,96,296853,1,8,0:0:0:0:
240,96,296943,1,8,0:0:0:0:
240,94,297034,1,8,0:0:0:0:
240,96,297124,1,0,0:0:0:0:
246,97,297214,1,8,0:0:0:0:
240,96,297305,1,0,0:0:0:0:
240,94,297395,1,8,0:0:0:0:
240,94,297486,1,0,0:0:0:0:
240,94,297576,1,8,0:0:0:0:
240,94,297666,1,0,0:0:0:0:
240,96,297757,1,8,0:0:0:0:
240,96,297847,1,8,0:0:0:0:
240,96,297937,1,0,0:0:0:0:
240,94,298028,1,0,0:0:0:0:
240,96,298118,1,8,0:0:0:0:
246,97,298208,1,0,0:0:0:0:
240,96,298299,1,0,0:0:0:0:
240,94,298389,1,0,0:0:0:0:
240,94,298480,1,8,0:0:0:0:
240,94,298570,1,8,0:0:0:0:
240,94,298660,1,0,0:0:0:0:
240,96,298751,1,0,0:0:0:0:
240,96,298841,1,8,0:0:0:0:
240,96,298931,1,0,0:0:0:0:
240,94,299022,1,0,0:0:0:0:
240,96,299112,1,0,0:0:0:0:
246,97,299202,1,8,0:0:0:0:
240,96,299293,1,0,0:0:0:0:
240,94,299383,1,8,0:0:0:0:
240,94,299473,1,8,0:0:0:0:
240,94,299564,1,0,0:0:0:0:
240,94,299654,1,0,0:0:0:0:
240,96,299745,1,8,0:0:0:0:
240,96,299835,1,8,0:0:0:0:
240,96,299925,1,8,0:0:0:0:
240,94,300016,1,0,0:0:0:0:
240,96,300106,1,8,0:0:0:0:
246,97,300196,1,0,0:0:0:0:
240,96,300287,1,8,0:0:0:0:
240,94,300377,1,0,0:0:0:0:
240,94,300467,1,8,0:0:0:0:
240,94,300558,1,0,0:0:0:0:
232,176,300648,5,8,0:0:0:0:
232,176,300739,5,8,0:0:0:0:
232,176,300829,1,8,0:0:0:0:
232,176,300919,5,8,0:0:0:0:
232,176,301010,5,8,0:0:0:0:
232,176,301100,1,0,0:0:0:0:
232,176,301190,5,8,0:0:0:0:
232,176,301281,5,8,0:0:0:0:
240,94,301371,1,8,0:0:0:0:
217,136,301461,1,0,0:0:0:0:
240,152,301552,1,12,0:0:0:0:
228,153,301733,1,0,0:0:0:0:
228,153,301823,1,0,0:0:0:0:
240,152,301913,1,12,0:0:0:0:
240,96,302094,1,4,0:0:0:0:
232,84,302275,1,8,0:0:0:0:
232,84,302365,1,8,0:0:0:0:
232,84,302455,1,0,0:0:0:0:
228,153,302546,1,0,0:0:0:0:
232,84,302636,1,8,0:0:0:0:
228,153,302726,1,8,0:0:0:0:
228,153,302817,1,8,0:0:0:0:
232,84,302907,1,0,0:0:0:0:
232,84,302998,1,8,0:0:0:0:
240,84,303088,1,0,0:0:0:0:
232,84,303178,1,8,0:0:0:0:
231,137,303269,1,0,0:0:0:0:
232,84,303359,1,8,0:0:0:0:
224,100,303449,1,0,0:0:0:0:
232,88,303540,1,8,0:0:0:0:
229,100,303630,1,8,0:0:0:0:
228,88,303720,1,0,0:0:0:0:
212,106,303811,1,0,0:0:0:0:
224,96,303901,1,8,0:0:0:0:
245,111,303992,1,8,0:0:0:0:
224,96,304082,1,0,0:0:0:0:
245,111,304172,1,0,0:0:0:0:
245,111,304263,1,8,0:0:0:0:
245,111,304353,1,0,0:0:0:0:
245,111,304443,1,0,0:0:0:0:
245,111,304534,1,0,0:0:0:0:
224,96,304624,1,8,0:0:0:0:
232,84,304714,1,8,0:0:0:0:
224,96,304805,1,0,0:0:0:0:
233,133,304895,1,0,0:0:0:0:
236,80,304986,1,12,0:0:0:0:
236,80,305166,1,8,0:0:0:0:
240,120,305257,1,0,0:0:0:0:
232,116,305347,1,0,0:0:0:0:
278,143,305437,1,0,0:0:0:0:
232,116,305528,1,8,0:0:0:0:
232,96,305618,1,0,0:0:0:0:
232,116,305708,1,0,0:0:0:0:
232,116,305799,1,0,0:0:0:0:
232,116,305889,1,8,0:0:0:0:
278,143,305980,1,0,0:0:0:0:
248,160,306070,5,0,0:0:0:0:
236,164,306160,1,0,0:0:0:0:
248,160,306251,5,8,0:0:0:0:
264,188,306431,1,4,0:0:0:0:
264,188,306612,1,0,0:0:0:0:
256,168,306702,1,0,0:0:0:0:
260,168,306793,1,8,0:0:0:0:
260,168,306883,1,8,0:0:0:0:
260,168,306973,1,8,0:0:0:0:
264,188,307064,1,8,0:0:0:0:
264,188,307154,1,8,0:0:0:0:
252,156,307245,1,0,0:0:0:0:
252,156,307335,1,0,0:0:0:0:
256,168,307425,1,8,0:0:0:0:
252,156,307516,1,0,0:0:0:0:
252,156,307606,1,0,0:0:0:0:
252,156,307696,1,8,0:0:0:0:
251,183,307787,1,0,0:0:0:0:
216,172,307877,1,12,0:0:0:0:
256,192,308058,12,0,313480,0:0:0:0:
216,200,313660,5,8,0:0:0:0:
216,200,313751,1,8,0:0:0:0:
216,200,313841,1,8,0:0:0:0:
216,192,313931,1,8,0:0:0:0:
216,192,314022,1,8,0:0:0:0:
216,176,316552,1,8,0:0:0:0:
216,176,316642,1,8,0:0:0:0:
216,176,316733,1,8,0:0:0:0:
216,176,316823,1,8,0:0:0:0:
216,176,316913,1,8,0:0:0:0:
220,176,318901,1,8,0:0:0:0:
220,176,318961,1,0,0:0:0:0:
220,176,319022,1,0,0:0:0:0:
220,176,319082,1,12,0:0:0:0:
208,164,319443,1,12,0:0:0:0:
216,176,319623,1,0,0:0:0:0:
216,176,319714,1,8,0:0:0:0:
220,176,319804,1,0,0:0:0:0:
208,172,319894,1,0,0:0:0:0:
208,176,319985,1,8,0:0:0:0:
216,176,320075,1,8,0:0:0:0:
216,176,320165,1,0,0:0:0:0:
220,176,320256,1,8,0:0:0:0:
208,172,320346,1,0,0:0:0:0:
208,176,320436,1,0,0:0:0:0:
216,176,320527,1,8,0:0:0:0:
208,172,320617,1,8,0:0:0:0:
208,176,320708,1,0,0:0:0:0:
216,176,320798,1,8,0:0:0:0:
216,176,320888,1,0,0:0:0:0:
220,176,320979,1,0,0:0:0:0:
208,172,321069,1,8,0:0:0:0:
208,176,321159,1,8,0:0:0:0:
216,176,321250,1,0,0:0:0:0:
208,172,321340,1,8,0:0:0:0:
208,176,321430,1,0,0:0:0:0:
216,176,321521,1,0,0:0:0:0:
216,176,321611,1,8,0:0:0:0:
220,176,321702,1,8,0:0:0:0:
208,172,321792,1,0,0:0:0:0:
208,176,321882,1,0,0:0:0:0:
216,176,321973,1,8,0:0:0:0:
208,172,322063,1,8,0:0:0:0:
208,176,322153,1,0,0:0:0:0:
216,176,322244,1,8,0:0:0:0:
216,176,322334,1,0,0:0:0:0:
220,176,322424,1,0,0:0:0:0:
208,172,322515,1,8,0:0:0:0:
208,176,322605,1,8,0:0:0:0:
216,176,322696,1,0,0:0:0:0:
208,172,322786,1,8,0:0:0:0:
208,176,322876,1,0,0:0:0:0:
216,176,322967,1,0,0:0:0:0:
216,176,323057,1,8,0:0:0:0:
220,176,323147,1,8,0:0:0:0:
208,172,323238,1,0,0:0:0:0:
208,176,323328,1,8,0:0:0:0:
216,176,323418,1,0,0:0:0:0:
208,172,323509,1,0,0:0:0:0:
208,176,323599,1,8,0:0:0:0:
216,176,323689,1,8,0:0:0:0:
216,176,323780,1,0,0:0:0:0:
220,176,323870,1,8,0:0:0:0:
208,172,323961,1,0,0:0:0:0:
208,176,324051,1,0,0:0:0:0:
216,176,324141,1,8,0:0:0:0:
200,176,324232,1,8,0:0:0:0:
208,176,324322,1,0,0:0:0:0:
206,178,324412,1,0,0:0:0:0:
188,172,324503,5,12,0:0:0:0:
216,176,324683,1,8,0:0:0:0:
216,176,324774,1,8,0:0:0:0:
220,176,324864,1,0,0:0:0:0:
208,172,324955,1,0,0:0:0:0:
208,176,325045,1,8,0:0:0:0:
216,176,325135,1,0,0:0:0:0:
216,176,325226,1,8,0:0:0:0:
220,176,325316,1,8,0:0:0:0:
208,172,325406,1,0,0:0:0:0:
208,176,325497,1,0,0:0:0:0:
216,176,325587,1,8,0:0:0:0:
216,176,325677,1,0,0:0:0:0:
220,176,325768,1,8,0:0:0:0:
208,172,325858,1,8,0:0:0:0:
208,176,325949,1,0,0:0:0:0:
216,176,326039,1,0,0:0:0:0:
216,176,326129,1,8,0:0:0:0:
220,176,326220,1,0,0:0:0:0:
208,172,326310,1,8,0:0:0:0:
208,176,326400,1,8,0:0:0:0:
216,176,326491,1,0,0:0:0:0:
216,176,326581,1,0,0:0:0:0:
220,176,326671,1,8,0:0:0:0:
208,172,326762,1,0,0:0:0:0:
208,176,326852,1,8,0:0:0:0:
216,176,326943,1,8,0:0:0:0:
216,176,327033,1,0,0:0:0:0:
220,176,327123,1,0,0:0:0:0:
208,172,327214,1,8,0:0:0:0:
208,176,327304,1,8,0:0:0:0:
216,176,327394,1,0,0:0:0:0:
216,176,327485,1,0,0:0:0:0:
220,176,327575,1,8,0:0:0:0:
208,172,327665,1,0,0:0:0:0:
208,176,327756,1,8,0:0:0:0:
216,176,327846,5,8,0:0:0:0:
216,176,327936,1,0,0:0:0:0:
220,176,328027,1,0,0:0:0:0:
208,172,328117,1,8,0:0:0:0:
208,176,328208,1,0,0:0:0:0:
216,176,328298,1,8,0:0:0:0:
216,176,328388,1,8,0:0:0:0:
220,176,328479,1,0,0:0:0:0:
208,172,328569,1,0,0:0:0:0:
208,176,328659,1,8,0:0:0:0:
216,176,328750,1,0,0:0:0:0:
216,176,328840,1,8,0:0:0:0:
220,176,328930,1,8,0:0:0:0:
208,172,329021,1,0,0:0:0:0:
208,176,329111,1,0,0:0:0:0:
208,176,329202,1,8,0:0:0:0:
200,168,329292,1,8,0:0:0:0:
200,172,329382,1,0,0:0:0:0:
204,181,329473,1,0,0:0:0:0:
188,132,329563,5,12,0:0:0:0:
208,176,329744,1,0,0:0:0:0:
216,176,329834,1,8,0:0:0:0:
216,176,329924,1,8,0:0:0:0:
220,176,330015,1,0,0:0:0:0:
208,172,330105,1,0,0:0:0:0:
208,176,330196,1,0,0:0:0:0:
208,176,330286,1,8,0:0:0:0:
200,168,330376,1,8,0:0:0:0:
200,172,330467,1,0,0:0:0:0:
208,176,330557,1,8,0:0:0:0:
216,176,330647,1,8,0:0:0:0:
216,176,330738,1,0,0:0:0:0:
220,176,330828,1,0,0:0:0:0:
208,172,330918,1,8,0:0:0:0:
208,176,331009,1,8,0:0:0:0:
208,176,331099,1,0,0:0:0:0:
200,168,331189,1,0,0:0:0:0:
200,172,331280,1,0,0:0:0:0:
208,176,331370,1,8,0:0:0:0:
200,168,331461,1,8,0:0:0:0:
200,172,331551,1,0,0:0:0:0:
208,176,331641,1,8,0:0:0:0:
200,168,331732,1,8,0:0:0:0:
200,172,331822,1,0,0:0:0:0:
212,180,331912,1,0,0:0:0:0:
208,176,332003,1,0,0:0:0:0:
184,136,332093,1,12,0:0:0:0:
208,176,332274,1,8,0:0:0:0:
200,168,332364,1,8,0:0:0:0:
200,172,332455,1,8,0:0:0:0:
208,176,332545,1,0,0:0:0:0:
200,168,332635,1,0,0:0:0:0:
200,172,332726,1,0,0:0:0:0:
208,176,332816,1,8,0:0:0:0:
200,168,332906,1,8,0:0:0:0:
200,172,332997,1,0,0:0:0:0:
208,176,333087,1,0,0:0:0:0:
200,168,333177,1,8,0:0:0:0:
200,172,333268,1,0,0:0:0:0:
208,176,333358,1,8,0:0:0:0:
200,168,333449,1,8,0:0:0:0:
208,176,333539,1,8,0:0:0:0:
200,172,333629,1,0,0:0:0:0:
200,168,333720,1,0,0:0:0:0:
200,172,333810,1,0,0:0:0:0:
208,176,333900,1,8,0:0:0:0:
200,168,333991,1,8,0:0:0:0:
200,172,334081,1,0,0:0:0:0:
208,176,334171,1,0,0:0:0:0:
200,168,334262,1,8,0:0:0:0:
200,172,334352,1,0,0:0:0:0:
208,172,334443,1,0,0:0:0:0:
204,178,334533,1,0,0:0:0:0:
192,132,334623,1,12,0:0:0:0:
200,168,334804,1,0,0:0:0:0:
200,172,334894,1,8,0:0:0:0:
208,176,334985,1,8,0:0:0:0:
200,168,335075,1,0,0:0:0:0:
200,172,335165,1,0,0:0:0:0:
208,176,335256,1,0,0:0:0:0:
200,168,335346,1,8,0:0:0:0:
200,172,335436,1,0,0:0:0:0:
208,172,335527,1,8,0:0:0:0:
200,168,335617,1,8,0:0:0:0:
200,172,335708,1,8,0:0:0:0:
208,176,335798,1,0,0:0:0:0:
200,168,335888,1,0,0:0:0:0:
200,172,335979,1,8,0:0:0:0:
208,176,336069,1,8,0:0:0:0:
200,168,336159,1,0,0:0:0:0:
200,172,336250,1,0,0:0:0:0:
208,172,336340,1,0,0:0:0:0:
200,168,336430,1,8,0:0:0:0:
200,172,336521,1,0,0:0:0:0:
208,176,336611,1,8,0:0:0:0:
200,168,336702,1,8,0:0:0:0:
200,172,336792,1,8,0:0:0:0:
208,176,336882,1,0,0:0:0:0:
200,168,336973,1,0,0:0:0:0:
181,168,337063,1,0,0:0:0:0:
208,172,337153,1,12,0:0:0:0:
200,116,337334,1,8,0:0:0:0:
200,116,337424,1,0,0:0:0:0:
200,116,337515,1,8,0:0:0:0:
200,116,337605,1,8,0:0:0:0:
200,116,337696,1,8,0:0:0:0:
200,116,337786,1,0,0:0:0:0:
200,116,337876,1,8,0:0:0:0:
200,116,337967,1,8,0:0:0:0:
200,116,338057,1,0,0:0:0:0:
181,168,338147,1,0,0:0:0:0:
200,116,338238,1,12,0:0:0:0:
200,116,338418,1,8,0:0:0:0:
200,116,338509,1,0,0:0:0:0:
200,116,338599,1,8,0:0:0:0:
216,116,338689,1,8,0:0:0:0:
216,116,338780,1,8,0:0:0:0:
216,116,338870,1,0,0:0:0:0:
216,116,338961,1,8,0:0:0:0:
220,116,339051,1,8,0:0:0:0:
220,116,339141,1,0,0:0:0:0:
220,116,339232,1,0,0:0:0:0:
220,116,339322,1,0,0:0:0:0:
220,110,339412,1,8,0:0:0:0:
220,120,339503,1,8,0:0:0:0:
220,110,339593,1,8,0:0:0:0:
220,120,339683,1,4,0:0:0:0:
216,132,339864,1,8,0:0:0:0:
216,132,339955,1,8,0:0:0:0:
216,132,340045,1,0,0:0:0:0:
216,132,340135,1,8,0:0:0:0:
216,132,340226,1,0,0:0:0:0:
216,132,340316,1,0,0:0:0:0:
216,132,340406,1,8,0:0:0:0:
216,132,340497,1,0,0:0:0:0:
216,132,340587,1,8,0:0:0:0:
216,132,340677,1,8,0:0:0:0:
216,132,340768,1,0,0:0:0:0:
234,97,340858,1,0,0:0:0:0:
234,97,340949,1,8,0:0:0:0:
234,97,341039,1,8,0:0:0:0:
234,97,341129,1,0,0:0:0:0:
234,97,341220,1,8,0:0:0:0:
234,97,341310,1,0,0:0:0:0:
234,97,341400,1,0,0:0:0:0:
234,97,341491,1,8,0:0:0:0:
234,97,341581,1,0,0:0:0:0:
220,92,341671,1,12,0:0:0:0:
234,97,341852,1,0,0:0:0:0:
234,97,341943,1,0,0:0:0:0:
220,92,342033,1,12,0:0:0:0:
220,92,342214,1,12,0:0:0:0:
224,88,342394,1,0,0:0:0:0:
224,76,342485,1,8,0:0:0:0:
224,76,342575,1,8,0:0:0:0:
224,76,342665,5,8,0:0:0:0:
224,76,342756,1,0,0:0:0:0:
234,97,342846,1,0,0:0:0:0:
224,88,342936,1,8,0:0:0:0:
224,80,343027,1,8,0:0:0:0:
224,76,343117,1,8,0:0:0:0:
224,80,343208,1,0,0:0:0:0:
224,80,343298,1,8,0:0:0:0:
234,97,343388,1,0,0:0:0:0:
220,80,343479,1,0,0:0:0:0:
220,80,343569,1,8,0:0:0:0:
220,80,343659,1,8,0:0:0:0:
220,80,343750,1,8,0:0:0:0:
220,80,343840,1,0,0:0:0:0:
234,97,343930,1,0,0:0:0:0:
220,80,344021,1,8,0:0:0:0:
244,136,344111,1,8,0:0:0:0:
240,120,344202,1,8,0:0:0:0:
234,97,344292,1,0,0:0:0:0:
248,156,344382,5,12,0:0:0:0:
248,156,344563,1,0,0:0:0:0:
253,135,344653,1,0,0:0:0:0:
248,156,344744,5,12,0:0:0:0:
256,144,344924,1,0,0:0:0:0:
256,144,345015,1,8,0:0:0:0:
256,144,345105,1,8,0:0:0:0:
253,135,345196,1,8,0:0:0:0:
256,132,345286,1,4,0:0:0:0:
252,160,345467,1,8,0:0:0:0:
253,135,345557,1,8,0:0:0:0:
256,132,345647,1,4,0:0:0:0:
252,160,345828,1,0,0:0:0:0:
253,135,345918,1,0,0:0:0:0:
256,136,346009,1,12,0:0:0:0:
252,148,346189,1,8,0:0:0:0:
252,148,346280,1,0,0:0:0:0:
252,148,346370,1,0,0:0:0:0:
253,135,346461,1,0,0:0:0:0:
244,132,346551,1,12,0:0:0:0:
253,135,346732,1,0,0:0:0:0:
253,135,346822,1,0,0:0:0:0:
252,148,346912,1,12,0:0:0:0:
256,192,347093,1,8,0:0:0:0:
253,135,347183,1,0,0:0:0:0:
264,192,347274,5,12,0:0:0:0:
180,258,347635,2,0,L|270:200,1,83.9999974365235
