osu file format v14

[General]
AudioFilename: audio.mp3
AudioLeadIn: 0
PreviewTime: 87876
Countdown: 1
SampleSet: Normal
StackLeniency: 0.2
Mode: 0
LetterboxInBreaks: 0
WidescreenStoryboard: 0

[Editor]
Bookmarks: 17809,23846,35553,45797,53114,64639,152444,163053,181712,193419,205127,219761,225614
DistanceSpacing: 1.6
BeatDivisor: 4
GridSize: 4
TimelineZoom: 2

[Metadata]
Title:Reverse Ideology ~ The Antinomy of Ideology
TitleUnicode:Reverse Ideology ~ The Antinomy of Ideology
Artist:Demetori
ArtistUnicode:Demetori
Creator:Xue Yue
Version:Reverse Ideology
Source:東方project
Tags:touhou
BeatmapID:1124282
BeatmapSetID:530346

[Difficulty]
HPDrainRate:5
CircleSize:4
OverallDifficulty:8
ApproachRate:9.1
SliderMultiplier:1.4
SliderTickRate:1

[Events]
//Background and Video events
0,0,"bg1.png",0,0
//Break Periods
//Storyboard Layer 0 (Background)
//Storyboard Layer 1 (Fail)
//Storyboard Layer 2 (Pass)
//Storyboard Layer 3 (Foreground)
//Storyboard Sound Samples

[TimingPoints]
249,365.853658536585,4,1,0,100,1,0
249,-100,4,1,0,80,0,0
5370,-100,4,1,0,90,0,0
6102,-100,4,1,0,80,0,0
28968,-100,4,1,0,80,0,0
29242,-100,4,1,0,80,0,0
88053,-100,4,1,0,80,0,0
111468,-100,4,1,0,80,0,0
112017,-200,4,1,0,80,0,0
112748,-200,4,1,0,80,0,0
117870,-133.333333333333,4,1,0,80,0,0
118419,-100,4,1,0,80,0,0
119334,-133.333333333333,4,1,0,80,0,0
119883,-100,4,1,0,80,0,0
120797,-133.333333333333,4,1,0,80,0,0
121712,-100,4,1,0,80,0,0
123175,-100,4,1,0,80,0,1
136346,-50,4,1,0,80,0,1
136712,-100,4,1,0,80,0,1
138175,-50,4,1,0,80,0,1
138541,-100,4,1,0,80,0,1
140370,-50,4,1,0,80,0,1
140736,-100,4,1,0,80,0,1
141285,-50,4,1,0,80,0,1
141649,-50,4,1,0,80,0,1
143663,-100,4,1,0,80,0,1
146590,-100,4,1,0,80,0,1
170005,-100,4,1,0,80,0,0
181712,-100,4,1,0,80,0,1
219761,-100,4,1,0,80,0,0
238785,-66.6666666666667,4,1,0,80,0,0

[HitObjects]
56,64,249,5,0,0:0:0:0:
68,100,340,1,0,0:0:0:0:
88,132,431,1,0,0:0:0:0:
112,160,523,1,0,0:0:0:0:
144,180,614,1,0,0:0:0:0:
220,56,797,5,0,0:0:0:0:
248,82,889,1,0,0:0:0:0:
265,115,980,1,0,0:0:0:0:
273,152,1072,1,0,0:0:0:0:
269,190,1163,2,0,B|309:214|309:214|257:242|257:242|305:274,1,140
468,112,1712,5,0,0:0:0:0:
454,147,1803,1,0,0:0:0:0:
436,181,1895,1,0,0:0:0:0:
413,211,1986,1,0,0:0:0:0:
382,234,2078,1,0,0:0:0:0:
252,20,2261,5,0,0:0:0:0:
219,40,2352,1,0,0:0:0:0:
196,71,2444,1,0,0:0:0:0:
181,106,2535,1,0,0:0:0:0:
180,144,2627,2,0,B|208:168|208:168|152:184|152:184|204:228,1,140
288,296,3175,5,0,0:0:0:0:
325,288,3267,1,0,0:0:0:0:
360,272,3358,1,0,0:0:0:0:
390,247,3450,1,0,0:0:0:0:
413,216,3541,1,0,0:0:0:0:
267,139,3724,5,0,0:0:0:0:
296,113,3816,1,0,0:0:0:0:
333,106,3907,1,0,0:0:0:0:
371,108,3998,1,0,0:0:0:0:
405,125,4090,2,0,B|445:93|445:93|405:69|405:69|441:45,1,140
236,27,4639,5,0,0:0:0:0:
201,43,4730,1,0,0:0:0:0:
181,77,4822,1,0,0:0:0:0:
172,114,4913,1,0,0:0:0:0:
184,150,5005,1,0,0:0:0:0:
219,164,5096,1,0,0:0:0:0:
256,156,5188,1,0,0:0:0:0:
292,142,5279,5,0,0:0:0:0:
329,149,5370,1,0,0:0:0:0:
343,184,5462,1,0,0:0:0:0:
333,221,5553,1,0,0:0:0:0:
310,252,5645,1,0,0:0:0:0:
278,273,5736,1,0,0:0:0:0:
240,282,5828,1,0,0:0:0:0:
201,278,5919,1,0,0:0:0:0:
61,90,6102,5,0,0:0:0:0:
99,83,6194,1,0,0:0:0:0:
136,90,6285,1,0,0:0:0:0:
167,113,6377,1,0,0:0:0:0:
180,148,6468,1,0,0:0:0:0:
113,269,6651,5,0,0:0:0:0:
145,289,6742,1,0,0:0:0:0:
183,293,6834,1,0,0:0:0:0:
220,284,6925,1,0,0:0:0:0:
250,259,7017,1,0,0:0:0:0:
272,64,7200,5,0,0:0:0:0:
308,75,7291,1,0,0:0:0:0:
332,104,7383,1,0,0:0:0:0:
462,141,7566,5,0,0:0:0:0:
454,178,7657,1,0,0:0:0:0:
432,209,7748,1,0,0:0:0:0:
400,231,7840,1,0,0:0:0:0:
363,242,7931,1,0,0:0:0:0:
180,168,8114,5,0,0:0:0:0:
186,206,8206,1,0,0:0:0:0:
203,240,8297,1,0,0:0:0:0:
226,270,8389,1,0,0:0:0:0:
258,290,8480,1,0,0:0:0:0:
456,164,8663,5,0,0:0:0:0:
434,196,8755,1,0,0:0:0:0:
401,216,8846,1,0,0:0:0:0:
308,80,9029,5,0,0:0:0:0:
279,54,9120,1,0,0:0:0:0:
244,37,9212,1,0,0:0:0:0:
205,37,9303,1,0,0:0:0:0:
167,48,9395,1,0,0:0:0:0:
58,159,9578,5,0,0:0:0:0:
71,194,9669,1,0,0:0:0:0:
100,219,9761,1,0,0:0:0:0:
134,234,9852,1,0,0:0:0:0:
172,232,9944,1,0,0:0:0:0:
188,72,10127,5,0,0:0:0:0:
224,82,10218,1,0,0:0:0:0:
252,107,10309,1,0,0:0:0:0:
424,72,10492,5,0,0:0:0:0:
433,109,10584,1,0,0:0:0:0:
418,144,10675,1,0,0:0:0:0:
395,175,10767,1,0,0:0:0:0:
416,206,10858,1,0,0:0:0:0:
413,244,10950,1,0,0:0:0:0:
392,276,11041,1,0,0:0:0:0:
356,292,11133,5,0,0:0:0:0:
318,284,11224,1,0,0:0:0:0:
285,263,11316,1,0,0:0:0:0:
254,240,11407,1,0,0:0:0:0:
215,236,11498,1,0,0:0:0:0:
177,244,11590,1,0,0:0:0:0:
146,266,11681,1,0,0:0:0:0:
116,292,11773,1,0,0:0:0:0:
40,123,11956,5,0,0:0:0:0:
64,93,12047,1,0,0:0:0:0:
96,71,12139,1,0,0:0:0:0:
132,57,12230,1,0,0:0:0:0:
170,61,12322,1,0,0:0:0:0:
116,228,12505,5,0,0:0:0:0:
154,223,12596,1,0,0:0:0:0:
188,205,12688,1,0,0:0:0:0:
220,184,12779,1,0,0:0:0:0:
246,156,12870,1,0,0:0:0:0:
284,24,13053,5,0,0:0:0:0:
321,33,13145,1,0,0:0:0:0:
342,64,13236,1,0,0:0:0:0:
444,192,13419,5,0,0:0:0:0:
415,218,13511,1,0,0:0:0:0:
381,236,13602,1,0,0:0:0:0:
343,246,13694,1,0,0:0:0:0:
304,242,13785,1,0,0:0:0:0:
80,160,13968,5,0,0:0:0:0:
109,135,14059,1,0,0:0:0:0:
144,118,14151,1,0,0:0:0:0:
182,117,14242,1,0,0:0:0:0:
216,135,14334,1,0,0:0:0:0:
124,264,14517,5,0,0:0:0:0:
151,290,14608,1,0,0:0:0:0:
189,295,14700,1,0,0:0:0:0:
359,313,14883,5,0,0:0:0:0:
390,290,14974,1,0,0:0:0:0:
407,255,15066,1,0,0:0:0:0:
415,217,15157,1,0,0:0:0:0:
413,178,15248,1,0,0:0:0:0:
242,37,15431,5,0,0:0:0:0:
209,58,15523,1,0,0:0:0:0:
187,89,15614,1,0,0:0:0:0:
188,127,15706,1,0,0:0:0:0:
202,162,15797,1,0,0:0:0:0:
184,320,15980,5,0,0:0:0:0:
220,305,16072,1,0,0:0:0:0:
245,276,16163,1,0,0:0:0:0:
312,100,16346,5,0,0:0:0:0:
350,105,16438,1,0,0:0:0:0:
380,128,16529,1,0,0:0:0:0:
398,161,16620,1,0,0:0:0:0:
365,181,16712,1,0,0:0:0:0:
333,202,16803,5,0,0:0:0:0:
314,235,16895,1,0,0:0:0:0:
329,269,16986,1,0,0:0:0:0:
363,285,17078,1,0,0:0:0:0:
394,263,17169,1,0,0:0:0:0:
385,225,17261,5,0,0:0:0:0:
371,191,17352,1,0,0:0:0:0:
352,157,17444,1,0,0:0:0:0:
331,124,17535,1,0,0:0:0:0:
304,95,17627,1,0,0:0:0:0:
120,160,17809,6,0,L|76:200,2,35
236,264,18175,1,0,0:0:0:0:
236,66,18358,1,0,0:0:0:0:
400,84,18541,2,0,P|428:92|456:140,1,70
464,160,18816,1,0,0:0:0:0:
452,208,18907,2,0,P|428:244|388:264,1,70
236,120,19273,6,0,P|258:133|260:156,1,35
256,196,19456,2,0,P|220:232|184:232,1,70
56,84,19822,1,0,0:0:0:0:
192,84,20005,1,0,0:0:0:0:
52,236,20188,1,0,0:0:0:0:
86,212,20279,1,0,0:0:0:0:
110,177,20370,1,0,0:0:0:0:
180,43,20553,1,0,0:0:0:0:
235,173,20736,5,0,0:0:0:0:
256,209,20828,1,0,0:0:0:0:
287,236,20919,2,0,P|327:256|363:252,1,70
321,45,21285,1,0,0:0:0:0:
220,136,21468,1,0,0:0:0:0:
416,136,21651,2,0,L|456:196,1,70
392,296,22017,1,0,0:0:0:0:
299,29,22200,5,0,0:0:0:0:
331,61,22291,1,0,0:0:0:0:
291,73,22382,1,0,0:0:0:0:
250,83,22474,1,0,0:0:0:0:
209,93,22565,1,0,0:0:0:0:
170,109,22657,1,0,0:0:0:0:
130,125,22748,1,0,0:0:0:0:
171,131,22840,5,0,0:0:0:0:
212,133,22931,1,0,0:0:0:0:
253,139,23023,1,0,0:0:0:0:
294,145,23114,1,0,0:0:0:0:
336,149,23206,1,0,0:0:0:0:
300,170,23297,1,0,0:0:0:0:
265,193,23389,1,0,0:0:0:0:
237,224,23480,5,0,0:0:0:0:
221,263,23572,1,0,0:0:0:0:
223,304,23663,1,0,0:0:0:0:
265,193,23846,5,0,0:0:0:0:
224,64,24029,2,0,L|300:84,1,70
144,200,24395,1,0,0:0:0:0:
332,208,24578,1,0,0:0:0:0:
370,192,24669,1,0,0:0:0:0:
403,158,24761,2,0,P|427:126|419:86,1,70
212,216,25127,5,0,0:0:0:0:
300,60,25309,1,0,0:0:0:0:
108,92,25492,2,0,L|176:124,1,70
300,212,25858,1,0,0:0:0:0:
144,108,26041,1,0,0:0:0:0:
163,70,26133,1,0,0:0:0:0:
202,48,26224,2,0,P|245:48|269:65,1,70
120,160,26590,5,0,0:0:0:0:
144,288,26773,1,0,0:0:0:0:
256,168,26956,2,0,P|292:166|324:192,1,70
144,288,27322,1,0,0:0:0:0:
256,168,27505,1,0,0:0:0:0:
224,135,27596,1,0,0:0:0:0:
221,89,27688,2,0,P|229:45|261:25,1,70
264,168,28053,5,0,0:0:0:0:
300,296,28236,1,0,0:0:0:0:
384,144,28419,2,0,P|424:148|456:184,1,70
316,40,28785,1,0,0:0:0:0:
108,176,28968,2,0,L|128:228,1,35
128,248,29151,2,0,P|170:257|204:240,1,70
152,28,29517,5,0,0:0:0:0:
268,124,29700,2,0,P|317:125|348:152,1,70
92,244,30066,1,0,0:0:0:0:
228,240,30248,1,0,0:0:0:0:
104,128,30431,1,0,0:0:0:0:
114,83,30523,1,0,0:0:0:0:
146,50,30614,2,0,P|186:30|222:34,1,70
204,156,30980,5,0,0:0:0:0:
276,292,31163,1,0,0:0:0:0:
104,256,31346,2,0,P|108:296|132:324,1,70
208,156,31712,1,0,0:0:0:0:
276,36,31895,1,0,0:0:0:0:
320,43,31986,1,0,0:0:0:0:
355,71,32078,2,0,P|379:95|383:135,1,70
408,304,32444,5,0,0:0:0:0:
256,300,32627,1,0,0:0:0:0:
369,118,32809,2,0,P|388:160|369:199,1,70
189,180,33175,1,0,0:0:0:0:
192,24,33358,1,0,0:0:0:0:
147,35,33450,1,0,0:0:0:0:
119,70,33541,2,0,P|95:98|93:145,1,70
100,304,33907,5,0,0:0:0:0:
208,184,34090,1,0,0:0:0:0:
296,76,34273,2,0,P|340:64|374:81,1,70
208,184,34639,5,0,0:0:0:0:
253,185,34730,1,0,0:0:0:0:
298,186,34822,1,0,0:0:0:0:
260,220,34913,1,0,0:0:0:0:
230,248,35005,1,0,0:0:0:0:
196,272,35096,2,0,L|164:292,3,35
192,48,35553,5,0,0:0:0:0:
48,140,35736,2,0,P|68:176|104:188,1,70
80,328,36102,1,0,0:0:0:0:
216,244,36285,2,0,L|264:256,1,35
264,216,36468,2,0,L|328:172,1,70
352,312,36834,5,0,0:0:0:0:
452,184,37017,1,0,0:0:0:0:
336,48,37200,2,0,P|296:40|252:72,1,70
384,188,37566,1,0,0:0:0:0:
276,288,37748,2,0,P|288:308|284:332,1,35
148,216,37931,2,0,P|160:176|196:152,1,70
196,44,38297,5,0,0:0:0:0:
144,300,38480,1,0,0:0:0:0:
40,108,38663,2,0,P|52:152|85:167,1,70
196,44,39029,1,0,0:0:0:0:
232,212,39212,1,0,0:0:0:0:
259,163,39303,1,0,0:0:0:0:
305,131,39395,2,0,P|345:135|369:165,1,70
364,304,39761,5,0,0:0:0:0:
192,268,39944,2,0,P|212:320|240:332,1,70
316,128,40309,1,0,0:0:0:0:
168,36,40492,5,0,0:0:0:0:
126,56,40584,1,0,0:0:0:0:
91,85,40675,1,0,0:0:0:0:
65,122,40767,1,0,0:0:0:0:
51,165,40858,1,0,0:0:0:0:
90,142,40950,1,0,0:0:0:0:
133,129,41041,1,0,0:0:0:0:
178,127,41133,1,0,0:0:0:0:
221,137,41224,1,0,0:0:0:0:
133,129,41407,5,0,0:0:0:0:
292,40,41590,2,0,P|328:72|333:103,1,70
207,180,41956,1,0,0:0:0:0:
84,116,42139,1,0,0:0:0:0:
107,65,42230,1,0,0:0:0:0:
147,25,42322,2,0,P|199:13|237:27,1,70
304,156,42688,5,0,0:0:0:0:
164,248,42870,1,0,0:0:0:0:
92,68,43053,2,0,P|128:96|168:92,1,70
248,192,43419,1,0,0:0:0:0:
368,128,43602,1,0,0:0:0:0:
347,75,43694,1,0,0:0:0:0:
307,35,43785,2,0,P|263:31|215:63,1,70
248,152,44151,5,0,0:0:0:0:
128,36,44334,1,0,0:0:0:0:
52,200,44517,2,0,P|100:168|132:180,1,70
220,40,44883,1,0,0:0:0:0:
296,172,45066,1,0,0:0:0:0:
281,225,45157,1,0,0:0:0:0:
245,268,45248,2,0,P|193:280|169:268,1,70
84,168,45614,1,0,0:0:0:0:
228,28,45797,5,0,0:0:0:0:
203,62,45889,1,0,0:0:0:0:
194,102,45980,1,0,0:0:0:0:
212,139,46072,1,0,0:0:0:0:
247,160,46163,1,0,0:0:0:0:
289,157,46255,5,0,0:0:0:0:
318,127,46346,1,0,0:0:0:0:
325,85,46438,1,0,0:0:0:0:
318,43,46529,1,0,0:0:0:0:
341,77,46620,1,0,0:0:0:0:
359,114,46712,1,0,0:0:0:0:
370,154,46803,1,0,0:0:0:0:
376,195,46895,1,0,0:0:0:0:
223,195,47078,5,0,0:0:0:0:
192,165,47169,1,0,0:0:0:0:
175,126,47261,1,0,0:0:0:0:
175,84,47352,1,0,0:0:0:0:
189,44,47444,1,0,0:0:0:0:
52,53,47627,1,0,0:0:0:0:
20,80,47718,1,0,0:0:0:0:
8,120,47809,1,0,0:0:0:0:
152,172,47992,2,0,P|180:100|256:68,1,140
40,224,48541,5,0,0:0:0:0:
59,261,48633,1,0,0:0:0:0:
93,284,48724,1,0,0:0:0:0:
134,290,48816,1,0,0:0:0:0:
174,279,48907,1,0,0:0:0:0:
168,108,49090,1,0,0:0:0:0:
209,106,49181,1,0,0:0:0:0:
243,130,49273,1,0,0:0:0:0:
264,320,49456,2,0,P|340:284|368:204,1,140
296,24,50005,5,0,0:0:0:0:
262,49,50096,1,0,0:0:0:0:
240,85,50188,1,0,0:0:0:0:
231,125,50279,1,0,0:0:0:0:
235,166,50370,1,0,0:0:0:0:
376,88,50553,1,0,0:0:0:0:
411,110,50645,1,0,0:0:0:0:
429,147,50736,1,0,0:0:0:0:
296,264,50919,2,0,P|368:268|424:328,1,140
456,148,51468,5,0,0:0:0:0:
444,107,51559,1,0,0:0:0:0:
429,67,51651,1,0,0:0:0:0:
413,28,51742,1,0,0:0:0:0:
401,68,51834,1,0,0:0:0:0:
391,108,51925,5,0,0:0:0:0:
381,149,52017,1,0,0:0:0:0:
371,189,52108,1,0,0:0:0:0:
348,153,52200,1,0,0:0:0:0:
327,116,52291,1,0,0:0:0:0:
307,78,52383,5,0,0:0:0:0:
285,42,52474,1,0,0:0:0:0:
269,81,52566,1,0,0:0:0:0:
254,120,52657,1,0,0:0:0:0:
230,154,52748,1,0,0:0:0:0:
198,182,52840,1,0,0:0:0:0:
159,199,52931,1,0,0:0:0:0:
230,154,53114,5,0,0:0:0:0:
64,100,53297,2,0,P|100:64|141:60,1,70
95,241,53663,1,0,0:0:0:0:
240,124,53846,1,0,0:0:0:0:
247,179,53938,1,0,0:0:0:0:
215,225,54029,2,0,P|271:245|287:281,1,70
377,143,54395,5,0,0:0:0:0:
275,251,54578,1,0,0:0:0:0:
194,111,54761,2,0,P|226:67|262:59,1,70
272,270,55127,1,0,0:0:0:0:
194,111,55309,1,0,0:0:0:0:
229,67,55401,1,0,0:0:0:0:
256,18,55492,2,0,P|296:46|308:90,1,70
352,224,55858,5,0,0:0:0:0:
216,144,56041,1,0,0:0:0:0:
212,324,56224,2,0,P|184:284|152:276,1,70
92,148,56590,1,0,0:0:0:0:
256,220,56773,1,0,0:0:0:0:
281,170,56864,1,0,0:0:0:0:
323,133,56956,2,0,P|301:97|313:55,1,70
179,156,57322,5,0,0:0:0:0:
112,28,57505,1,0,0:0:0:0:
4,176,57688,2,0,P|52:196|64:228,1,70
160,64,58053,1,0,0:0:0:0:
268,136,58236,1,0,0:0:0:0:
241,185,58328,1,0,0:0:0:0:
205,228,58419,2,0,P|255:219|286:247,1,70
144,352,58785,5,0,0:0:0:0:
269,226,58968,1,0,0:0:0:0:
80,168,59151,2,0,P|40:148|32:104,1,70
232,52,59517,1,0,0:0:0:0:
228,232,59700,1,0,0:0:0:0:
268,193,59791,1,0,0:0:0:0:
326,187,59883,2,0,P|362:215|406:203,1,70
220,320,60248,5,0,0:0:0:0:
362,211,60431,1,0,0:0:0:0:
200,108,60614,2,0,P|240:80|276:88,1,70
184,264,60980,1,0,0:0:0:0:
316,152,61163,1,0,0:0:0:0:
363,183,61255,1,0,0:0:0:0:
377,236,61346,2,0,P|421:192|421:160,1,70
212,252,61712,5,0,0:0:0:0:
377,236,61895,1,0,0:0:0:0:
285,67,62078,2,0,P|327:68|357:103,1,70
212,252,62444,1,0,0:0:0:0:
285,67,62627,1,0,0:0:0:0:
244,105,62718,1,0,0:0:0:0:
188,107,62809,2,0,P|155:83|108:95,1,70
52,228,63175,1,0,0:0:0:0:
171,293,63358,5,0,0:0:0:0:
206,316,63450,1,0,0:0:0:0:
247,316,63541,1,0,0:0:0:0:
284,296,63633,1,0,0:0:0:0:
310,263,63724,1,0,0:0:0:0:
315,221,63816,5,0,0:0:0:0:
306,180,63907,1,0,0:0:0:0:
293,139,63998,1,0,0:0:0:0:
326,164,64090,1,0,0:0:0:0:
355,193,64181,1,0,0:0:0:0:
385,222,64273,1,0,0:0:0:0:
414,251,64364,1,0,0:0:0:0:
443,281,64456,1,0,0:0:0:0:
36,181,64639,5,0,0:0:0:0:
191,79,64943,1,0,0:0:0:0:
192,264,65188,1,0,0:0:0:0:
241,214,65370,1,0,0:0:0:0:
112,108,65675,1,0,0:0:0:0:
241,214,65919,1,0,0:0:0:0:
312,76,66164,1,0,0:0:0:0:
400,208,66423,1,0,0:0:0:0:
240,224,66651,1,0,0:0:0:0:
400,208,66834,5,0,0:0:0:0:
312,304,67017,1,0,0:0:0:0:
272,176,67200,1,0,0:0:0:0:
360,104,67383,1,0,0:0:0:0:
184,248,67566,1,0,0:0:0:0:
204,88,67870,1,0,0:0:0:0:
115,172,68114,1,0,0:0:0:0:
62,218,68297,1,0,0:0:0:0:
253,217,68602,1,0,0:0:0:0:
340,80,68847,5,0,0:0:0:0:
298,23,69120,1,0,0:0:0:0:
118,109,69334,1,0,0:0:0:0:
204,248,69578,1,0,0:0:0:0:
259,184,69761,1,0,0:0:0:0:
343,185,69944,1,0,0:0:0:0:
402,244,70127,1,0,0:0:0:0:
403,327,70309,1,0,0:0:0:0:
315,275,70492,1,0,0:0:0:0:
192,136,70797,5,0,0:0:0:0:
368,52,71088,1,0,0:0:0:0:
350,126,71271,1,0,0:0:0:0:
140,72,71529,1,0,0:0:0:0:
212,196,71773,1,0,0:0:0:0:
148,239,71956,1,0,0:0:0:0:
268,56,72261,1,0,0:0:0:0:
320,111,72481,1,0,0:0:0:0:
292,264,72688,5,0,0:0:0:0:
387,246,72870,1,0,0:0:0:0:
434,160,73053,1,0,0:0:0:0:
421,62,73236,1,0,0:0:0:0:
343,2,73419,1,0,0:0:0:0:
184,40,73724,5,0,0:0:0:0:
148,192,73968,1,0,0:0:0:0:
80,184,74182,1,0,0:0:0:0:
276,280,74456,1,0,0:0:0:0:
328,224,74700,1,0,0:0:0:0:
296,72,74914,1,0,0:0:0:0:
196,224,75188,1,0,0:0:0:0:
143,179,75431,1,0,0:0:0:0:
48,120,75614,5,0,0:0:0:0:
122,36,75797,1,0,0:0:0:0:
234,36,75980,1,0,0:0:0:0:
303,123,76163,1,0,0:0:0:0:
120,188,76346,5,0,0:0:0:0:
137,226,76438,1,0,0:0:0:0:
164,257,76529,1,0,0:0:0:0:
200,278,76620,1,0,0:0:0:0:
241,286,76712,2,0,P|287:285|317:266,1,70
284,128,77078,1,0,0:0:0:0:
359,22,77444,2,0,P|303:-2|250:18,1,105
144,88,77992,5,0,0:0:0:0:
168,168,78175,1,0,0:0:0:0:
239,211,78358,1,0,0:0:0:0:
168,168,78541,1,0,0:0:0:0:
268,76,78724,1,0,0:0:0:0:
320,96,78816,1,0,0:0:0:0:
347,144,78907,2,0,P|389:146|411:112,1,70
387,326,79273,5,0,0:0:0:0:
322,227,79456,1,0,0:0:0:0:
209,226,79639,1,0,0:0:0:0:
158,325,79822,1,0,0:0:0:0:
91,235,80005,1,0,0:0:0:0:
30,140,80188,2,0,P|38:100|78:72,1,70
224,48,80553,5,0,0:0:0:0:
253,77,80645,1,0,0:0:0:0:
265,116,80736,1,0,0:0:0:0:
258,157,80828,1,0,0:0:0:0:
236,192,80919,1,0,0:0:0:0:
209,225,81011,1,0,0:0:0:0:
245,204,81102,1,0,0:0:0:0:
274,173,81194,5,0,0:0:0:0:
287,133,81285,1,0,0:0:0:0:
299,92,81377,1,0,0:0:0:0:
299,50,81468,1,0,0:0:0:0:
329,78,81559,1,0,0:0:0:0:
356,109,81651,5,0,0:0:0:0:
375,145,81742,1,0,0:0:0:0:
377,187,81834,1,0,0:0:0:0:
368,227,81925,1,0,0:0:0:0:
346,263,82017,1,0,0:0:0:0:
314,290,82108,1,0,0:0:0:0:
275,308,82200,1,0,0:0:0:0:
228,184,82383,6,0,P|244:164|244:136,1,35
120,92,82566,1,0,0:0:0:0:
144,58,82657,1,0,0:0:0:0:
180,37,82748,2,0,P|220:29|256:41,1,70
125,157,83114,5,0,0:0:0:0:
156,280,83297,2,0,P|208:296|244:284,1,70
263,282,83572,1,0,0:0:0:0:
288,248,83663,1,0,0:0:0:0:
316,132,83846,5,0,0:0:0:0:
294,95,83938,1,0,0:0:0:0:
262,67,84029,1,0,0:0:0:0:
416,40,84212,1,0,0:0:0:0:
448,66,84303,1,0,0:0:0:0:
462,105,84395,1,0,0:0:0:0:
388,212,84578,2,0,P|408:232|412:252,1,35
412,292,84761,2,0,P|380:332|336:324,1,70
272,164,85127,1,0,0:0:0:0:
332,24,85309,5,0,0:0:0:0:
289,21,85401,1,0,0:0:0:0:
249,34,85492,1,0,0:0:0:0:
219,64,85584,1,0,0:0:0:0:
207,104,85675,1,0,0:0:0:0:
213,145,85767,1,0,0:0:0:0:
242,177,85858,1,0,0:0:0:0:
204,156,85950,5,0,0:0:0:0:
171,130,86041,1,0,0:0:0:0:
130,119,86133,1,0,0:0:0:0:
89,127,86224,1,0,0:0:0:0:
56,153,86316,1,0,0:0:0:0:
94,169,86407,5,0,0:0:0:0:
129,191,86498,1,0,0:0:0:0:
154,224,86590,1,0,0:0:0:0:
164,264,86681,1,0,0:0:0:0:
156,305,86773,1,0,0:0:0:0:
132,339,86864,5,0,0:0:0:0:
164,311,86956,1,0,0:0:0:0:
200,290,87047,1,0,0:0:0:0:
239,275,87139,1,0,0:0:0:0:
280,271,87230,1,0,0:0:0:0:
319,285,87322,5,0,0:0:0:0:
347,315,87413,1,0,0:0:0:0:
374,346,87505,1,0,0:0:0:0:
391,308,87596,1,0,0:0:0:0:
392,265,87688,1,0,0:0:0:0:
390,223,87779,1,0,0:0:0:0:
382,181,87870,1,0,0:0:0:0:
392,265,88053,5,0,0:0:0:0:
264,144,88236,2,0,P|220:152|188:116,1,70
368,52,88602,1,0,0:0:0:0:
200,139,88785,1,0,0:0:0:0:
364,144,88968,1,0,0:0:0:0:
401,185,89059,1,0,0:0:0:0:
411,240,89151,1,0,0:0:0:0:
292,328,89334,1,0,0:0:0:0:
192,172,89517,2,0,P|227:133|264:132,1,70
396,104,89883,5,0,0:0:0:0:
433,144,89974,1,0,0:0:0:0:
446,198,90066,2,0,P|490:170|490:126,1,70
242,130,90431,1,0,0:0:0:0:
348,36,90614,2,0,P|385:37|420:60,1,70
248,124,90980,1,0,0:0:0:0:
264,284,91163,1,0,0:0:0:0:
104,200,91346,2,0,P|128:232|166:231,1,70
184,52,91712,5,0,0:0:0:0:
280,176,91895,2,0,P|325:176|352:136,1,70
154,230,92261,1,0,0:0:0:0:
342,161,92444,1,0,0:0:0:0:
212,56,92627,1,0,0:0:0:0:
184,232,92809,6,0,P|176:268|136:296,1,70
64,124,93175,1,0,0:0:0:0:
232,104,93358,1,0,0:0:0:0:
252,272,93541,5,0,0:0:0:0:
291,256,93633,1,0,0:0:0:0:
323,229,93724,1,0,0:0:0:0:
345,193,93816,1,0,0:0:0:0:
351,151,93907,1,0,0:0:0:0:
256,56,94090,5,0,0:0:0:0:
120,136,94273,1,0,0:0:0:0:
83,177,94364,1,0,0:0:0:0:
89,232,94456,2,0,P|121:256|157:252,1,70
256,76,94822,1,0,0:0:0:0:
288,120,94913,1,0,0:0:0:0:
286,176,95005,2,0,P|327:178|354:144,1,70
404,40,95370,2,0,P|444:48|476:84,1,70
412,228,95736,5,0,0:0:0:0:
384,179,95828,1,0,0:0:0:0:
337,147,95919,2,0,P|293:151|269:183,1,70
300,320,96285,1,0,0:0:0:0:
92,224,96468,1,0,0:0:0:0:
144,241,96559,1,0,0:0:0:0:
180,197,96651,2,0,P|212:177|260:205,1,70
140,40,97017,5,0,0:0:0:0:
316,80,97200,1,0,0:0:0:0:
299,133,97291,1,0,0:0:0:0:
256,170,97383,2,0,P|283:206|275:252,1,70
120,152,97748,1,0,0:0:0:0:
82,194,97840,1,0,0:0:0:0:
83,249,97931,1,0,0:0:0:0:
200,332,98114,2,0,P|248:324|268:288,1,70
392,316,98480,5,0,0:0:0:0:
410,278,98572,1,0,0:0:0:0:
414,236,98663,1,0,0:0:0:0:
399,196,98755,1,0,0:0:0:0:
375,161,98846,1,0,0:0:0:0:
408,180,98938,6,0,L|444:212,2,35
370,166,99212,1,0,0:0:0:0:
328,162,99303,1,0,0:0:0:0:
286,172,99395,1,0,0:0:0:0:
249,192,99486,1,0,0:0:0:0:
222,225,99578,1,0,0:0:0:0:
286,172,99761,5,0,0:0:0:0:
126,226,99944,1,0,0:0:0:0:
92,181,100035,1,0,0:0:0:0:
95,124,100127,2,0,P|127:92|163:92,1,70
248,240,100492,1,0,0:0:0:0:
288,64,100675,1,0,0:0:0:0:
330,101,100767,1,0,0:0:0:0:
344,152,100858,2,0,P|393:161|418:140,1,70
396,312,101224,5,0,0:0:0:0:
412,147,101407,1,0,0:0:0:0:
357,157,101498,1,0,0:0:0:0:
322,112,101590,2,0,P|366:96|402:120,1,70
248,264,101956,1,0,0:0:0:0:
200,136,102139,1,0,0:0:0:0:
170,88,102230,1,0,0:0:0:0:
118,66,102322,2,0,P|82:70|54:90,1,70
56,272,102688,5,0,0:0:0:0:
228,240,102870,1,0,0:0:0:0:
105,124,103053,1,0,0:0:0:0:
118,66,103145,1,0,0:0:0:0:
170,46,103236,1,0,0:0:0:0:
268,180,103419,2,0,P|308:180|336:148,1,70
344,8,103785,1,0,0:0:0:0:
391,37,103877,1,0,0:0:0:0:
419,85,103968,1,0,0:0:0:0:
384,288,104151,5,0,0:0:0:0:
368,234,104242,1,0,0:0:0:0:
332,190,104334,1,0,0:0:0:0:
284,160,104425,1,0,0:0:0:0:
231,139,104517,2,0,P|227:95|251:71,1,70
416,56,104883,1,0,0:0:0:0:
392,212,105066,5,0,0:0:0:0:
354,253,105157,1,0,0:0:0:0:
304,284,105248,1,0,0:0:0:0:
248,291,105340,1,0,0:0:0:0:
194,277,105431,1,0,0:0:0:0:
304,284,105614,5,0,0:0:0:0:
156,108,105797,2,0,L|200:132,1,35
212,96,105980,2,0,L|300:56,1,70
288,276,106346,1,0,0:0:0:0:
412,116,106529,2,0,L|468:124,1,35
468,164,106712,2,0,L|414:216,1,70
208,48,107078,5,0,0:0:0:0:
88,168,107261,2,0,L|140:184,1,35
112,228,107444,2,0,L|148:296,1,70
228,44,107809,5,0,0:0:0:0:
292,192,107992,2,0,P|328:228|364:232,1,70
368,40,108358,1,0,0:0:0:0:
292,192,108541,2,0,P|264:224|216:228,1,70
60,116,108907,5,0,0:0:0:0:
94,150,108998,1,0,0:0:0:0:
130,183,109090,1,0,0:0:0:0:
192,48,109273,1,0,0:0:0:0:
220,84,109364,1,0,0:0:0:0:
248,120,109456,1,0,0:0:0:0:
344,16,109639,1,0,0:0:0:0:
372,52,109730,1,0,0:0:0:0:
400,88,109822,1,0,0:0:0:0:
412,184,110005,5,0,0:0:0:0:
393,225,110096,1,0,0:0:0:0:
365,261,110188,1,0,0:0:0:0:
330,289,110279,1,0,0:0:0:0:
286,300,110370,1,0,0:0:0:0:
240,296,110462,1,0,0:0:0:0:
201,271,110553,1,0,0:0:0:0:
246,262,110645,5,0,0:0:0:0:
281,233,110736,1,0,0:0:0:0:
305,194,110828,1,0,0:0:0:0:
315,150,110919,1,0,0:0:0:0:
332,192,111011,1,0,0:0:0:0:
342,236,111102,1,0,0:0:0:0:
336,281,111194,1,0,0:0:0:0:
314,320,111285,1,0,0:0:0:0:
144,268,111468,5,0,0:0:0:0:
114,220,111559,1,0,0:0:0:0:
107,164,111651,1,0,0:0:0:0:
124,111,111742,1,0,0:0:0:0:
163,71,111834,1,0,0:0:0:0:
224,204,112017,2,0,P|272:220|324:196,1,105
208,72,112748,5,0,0:0:0:0:
256,42,112840,1,0,0:0:0:0:
310,31,112931,1,0,0:0:0:0:
365,39,113023,1,0,0:0:0:0:
413,71,113114,1,0,0:0:0:0:
446,116,113206,1,0,0:0:0:0:
456,170,113297,1,0,0:0:0:0:
320,136,113480,2,0,P|292:176|300:240,1,105
36,180,114212,5,0,0:0:0:0:
76,141,114303,1,0,0:0:0:0:
117,102,114395,1,0,0:0:0:0:
212,208,114578,1,0,0:0:0:0:
249,166,114669,1,0,0:0:0:0:
286,123,114761,1,0,0:0:0:0:
404,192,114944,2,0,L|472:104,1,105
320,40,115675,5,0,0:0:0:0:
267,59,115767,1,0,0:0:0:0:
225,96,115858,1,0,0:0:0:0:
208,149,115950,1,0,0:0:0:0:
221,203,116041,1,0,0:0:0:0:
252,249,116133,1,0,0:0:0:0:
297,280,116224,1,0,0:0:0:0:
352,286,116316,1,0,0:0:0:0:
402,262,116407,1,0,0:0:0:0:
312,32,116590,5,0,0:0:0:0:
260,120,116773,1,0,0:0:0:0:
364,176,116956,1,0,0:0:0:0:
316,296,117139,1,0,0:0:0:0:
144,164,117322,5,0,0:0:0:0:
170,114,117413,1,0,0:0:0:0:
215,80,117505,1,0,0:0:0:0:
270,63,117596,1,0,0:0:0:0:
325,69,117688,1,0,0:0:0:0:
372,97,117779,1,0,0:0:0:0:
408,139,117870,2,0,P|412:179|388:239,1,105.000004005432
236,290,118419,5,0,0:0:0:0:
258,238,118511,1,0,0:0:0:0:
253,182,118602,1,0,0:0:0:0:
230,130,118694,1,0,0:0:0:0:
196,85,118785,1,0,0:0:0:0:
143,64,118877,1,0,0:0:0:0:
87,62,118968,1,0,0:0:0:0:
40,93,119059,5,0,0:0:0:0:
96,95,119151,1,0,0:0:0:0:
149,109,119242,1,0,0:0:0:0:
195,140,119334,2,0,P|227:172|239:232,1,105.000004005432
81,234,119883,5,0,0:0:0:0:
106,283,119974,1,0,0:0:0:0:
146,322,120066,1,0,0:0:0:0:
198,340,120157,1,0,0:0:0:0:
253,334,120248,1,0,0:0:0:0:
303,309,120340,1,0,0:0:0:0:
342,269,120431,1,0,0:0:0:0:
285,274,120523,5,0,0:0:0:0:
229,265,120614,1,0,0:0:0:0:
177,242,120706,1,0,0:0:0:0:
135,205,120797,2,0,P|103:157|111:89,1,105.000004005432
208,8,121346,2,0,P|244:8|272:28,1,52.5000020027161
346,126,121712,5,0,0:0:0:0:
372,174,121803,1,0,0:0:0:0:
380,229,121895,1,0,0:0:0:0:
370,283,121986,1,0,0:0:0:0:
336,328,122078,1,0,0:0:0:0:
284,348,122169,1,0,0:0:0:0:
227,351,122261,1,0,0:0:0:0:
271,317,122352,5,0,0:0:0:0:
306,273,122444,1,0,0:0:0:0:
317,218,122535,1,0,0:0:0:0:
311,161,122627,1,0,0:0:0:0:
283,112,122718,1,0,0:0:0:0:
334,132,122809,1,0,0:0:0:0:
375,170,122901,1,0,0:0:0:0:
394,222,122992,1,0,0:0:0:0:
124,276,123175,6,0,P|168:292|200:272,1,70
94,118,123541,1,0,0:0:0:0:
126,72,123633,1,0,0:0:0:0:
175,45,123724,1,0,0:0:0:0:
240,172,123907,2,0,P|276:172|308:196,1,70
290,337,124273,5,0,0:0:0:0:
343,320,124364,1,0,0:0:0:0:
386,285,124455,1,0,0:0:0:0:
414,237,124547,1,0,0:0:0:0:
423,182,124638,1,0,0:0:0:0:
412,128,124730,1,0,0:0:0:0:
381,81,124821,1,0,0:0:0:0:
339,44,124913,5,0,0:0:0:0:
358,96,125005,1,0,0:0:0:0:
368,150,125096,1,0,0:0:0:0:
357,205,125188,1,0,0:0:0:0:
312,171,125279,1,0,0:0:0:0:
260,147,125370,1,0,0:0:0:0:
204,135,125462,1,0,0:0:0:0:
148,143,125553,5,0,0:0:0:0:
97,166,125645,1,0,0:0:0:0:
125,118,125736,1,0,0:0:0:0:
171,86,125828,1,0,0:0:0:0:
223,68,125919,1,0,0:0:0:0:
278,75,126011,1,0,0:0:0:0:
326,102,126102,1,0,0:0:0:0:
359,146,126193,5,0,0:0:0:0:
384,196,126285,1,0,0:0:0:0:
396,140,126376,1,0,0:0:0:0:
384,84,126468,1,0,0:0:0:0:
352,40,126559,1,0,0:0:0:0:
300,16,126651,1,0,0:0:0:0:
244,12,126742,1,0,0:0:0:0:
192,36,126834,5,0,0:0:0:0:
156,80,126925,1,0,0:0:0:0:
148,136,127017,1,0,0:0:0:0:
164,188,127108,1,0,0:0:0:0:
204,228,127200,1,0,0:0:0:0:
256,244,127291,1,0,0:0:0:0:
311,251,127383,1,0,0:0:0:0:
363,232,127474,5,0,0:0:0:0:
400,192,127566,1,0,0:0:0:0:
420,140,127657,1,0,0:0:0:0:
372,116,127748,1,0,0:0:0:0:
320,100,127840,1,0,0:0:0:0:
264,92,127931,1,0,0:0:0:0:
208,92,128023,1,0,0:0:0:0:
156,108,128114,5,0,0:0:0:0:
108,140,128206,1,0,0:0:0:0:
76,184,128297,1,0,0:0:0:0:
255,155,128480,5,0,0:0:0:0:
316,256,128663,1,0,0:0:0:0:
367,233,128755,1,0,0:0:0:0:
404,191,128846,1,0,0:0:0:0:
296,64,129029,2,0,P|292:104|324:128,1,70
180,264,129395,1,0,0:0:0:0:
222,228,129486,1,0,0:0:0:0:
233,172,129578,1,0,0:0:0:0:
96,152,129761,2,0,P|64:164|40:204,1,70
172,280,130127,5,0,0:0:0:0:
216,246,130218,1,0,0:0:0:0:
251,203,130309,1,0,0:0:0:0:
268,149,130401,1,0,0:0:0:0:
265,93,130492,1,0,0:0:0:0:
238,43,130584,5,0,0:0:0:0:
285,71,130675,1,0,0:0:0:0:
320,114,130767,1,0,0:0:0:0:
333,168,130858,1,0,0:0:0:0:
324,223,130950,1,0,0:0:0:0:
293,269,131041,1,0,0:0:0:0:
247,301,131133,1,0,0:0:0:0:
300,286,131224,5,0,0:0:0:0:
346,253,131316,1,0,0:0:0:0:
377,206,131407,1,0,0:0:0:0:
386,151,131498,1,0,0:0:0:0:
379,95,131590,1,0,0:0:0:0:
344,51,131681,1,0,0:0:0:0:
299,17,131773,1,0,0:0:0:0:
250,2,131864,5,0,0:0:0:0:
193,3,131956,1,0,0:0:0:0:
141,23,132047,1,0,0:0:0:0:
94,55,132139,1,0,0:0:0:0:
62,100,132230,1,0,0:0:0:0:
48,154,132322,1,0,0:0:0:0:
54,209,132413,1,0,0:0:0:0:
84,256,132505,5,0,0:0:0:0:
126,292,132596,1,0,0:0:0:0:
136,236,132688,1,0,0:0:0:0:
159,185,132779,1,0,0:0:0:0:
194,142,132870,1,0,0:0:0:0:
241,111,132962,1,0,0:0:0:0:
295,100,133053,1,0,0:0:0:0:
350,106,133145,5,0,0:0:0:0:
398,133,133236,1,0,0:0:0:0:
432,177,133328,1,0,0:0:0:0:
451,229,133419,1,0,0:0:0:0:
446,285,133511,1,0,0:0:0:0:
415,331,133602,1,0,0:0:0:0:
370,365,133694,1,0,0:0:0:0:
314,368,133785,5,0,0:0:0:0:
260,351,133877,1,0,0:0:0:0:
215,317,133968,1,0,0:0:0:0:
183,271,134059,1,0,0:0:0:0:
164,216,134151,1,0,0:0:0:0:
216,235,134242,5,0,0:0:0:0:
271,244,134334,1,0,0:0:0:0:
321,221,134425,1,0,0:0:0:0:
354,176,134517,1,0,0:0:0:0:
376,124,134608,1,0,0:0:0:0:
384,68,134700,1,0,0:0:0:0:
104,256,134883,5,0,0:0:0:0:
108,248,134974,1,0,0:0:0:0:
112,240,135066,1,0,0:0:0:0:
280,168,135248,5,0,0:0:0:0:
284,160,135339,1,0,0:0:0:0:
288,152,135431,1,0,0:0:0:0:
112,116,135614,5,0,0:0:0:0:
116,108,135705,1,0,0:0:0:0:
120,100,135797,1,0,0:0:0:0:
272,256,135980,5,0,0:0:0:0:
276,248,136071,1,0,0:0:0:0:
280,240,136163,1,0,0:0:0:0:
182,145,136346,2,0,B|228:114|228:114|215:63|215:63|263:33,1,140
384,108,136712,5,0,0:0:0:0:
386,163,136803,1,0,0:0:0:0:
373,217,136895,1,0,0:0:0:0:
344,265,136986,1,0,0:0:0:0:
300,300,137078,1,0,0:0:0:0:
188,64,137261,5,0,0:0:0:0:
163,114,137352,1,0,0:0:0:0:
161,170,137444,1,0,0:0:0:0:
308,168,137627,1,0,0:0:0:0:
313,223,137718,1,0,0:0:0:0:
293,275,137809,1,0,0:0:0:0:
168,152,137992,5,0,0:0:0:0:
190,100,138084,1,0,0:0:0:0:
232,66,138175,2,0,B|280:46|280:46|312:90|312:90|368:62,1,140
464,140,138541,5,0,0:0:0:0:
438,190,138633,1,0,0:0:0:0:
398,228,138724,1,0,0:0:0:0:
345,249,138816,1,0,0:0:0:0:
289,254,138907,1,0,0:0:0:0:
238,229,138998,1,0,0:0:0:0:
198,188,139090,1,0,0:0:0:0:
172,138,139181,5,0,0:0:0:0:
225,155,139273,1,0,0:0:0:0:
280,156,139364,1,0,0:0:0:0:
332,136,139456,1,0,0:0:0:0:
363,89,139547,1,0,0:0:0:0:
370,33,139639,5,0,0:0:0:0:
395,82,139730,1,0,0:0:0:0:
412,135,139822,1,0,0:0:0:0:
420,190,139913,1,0,0:0:0:0:
411,245,140005,1,0,0:0:0:0:
412,135,140188,5,0,0:0:0:0:
291,67,140370,2,0,B|253:81|253:81|272:148|272:148|214:170,1,140
124,67,140736,1,0,0:0:0:0:
60,194,140919,1,0,0:0:0:0:
93,239,141011,1,0,0:0:0:0:
147,250,141102,1,0,0:0:0:0:
244,96,141285,2,0,B|276:136|276:136|320:100|320:100|360:147,1,140
216,300,141651,5,0,0:0:0:0:
267,279,141742,1,0,0:0:0:0:
316,251,141834,1,0,0:0:0:0:
351,208,141925,1,0,0:0:0:0:
377,158,142017,1,0,0:0:0:0:
390,103,142108,1,0,0:0:0:0:
367,49,142200,2,0,B|321:33|321:33|297:81|297:81|234:63,2,140
473,113,142748,5,0,0:0:0:0:
375,202,142931,1,0,0:0:0:0:
279,307,143114,2,0,B|335:355|335:355|402:308,2,140
155,164,143663,5,0,0:0:0:0:
189,119,143755,1,0,0:0:0:0:
237,92,143846,1,0,0:0:0:0:
293,88,143938,1,0,0:0:0:0:
345,108,144029,1,0,0:0:0:0:
200,236,144212,5,0,0:0:0:0:
244,269,144303,1,0,0:0:0:0:
297,285,144395,1,0,0:0:0:0:
351,272,144486,1,0,0:0:0:0:
393,234,144578,1,0,0:0:0:0:
417,183,144669,1,0,0:0:0:0:
425,127,144761,1,0,0:0:0:0:
420,76,144852,5,0,0:0:0:0:
392,124,144944,1,0,0:0:0:0:
352,164,145035,1,0,0:0:0:0:
304,192,145127,1,0,0:0:0:0:
248,204,145218,1,0,0:0:0:0:
192,192,145309,1,0,0:0:0:0:
140,176,145401,1,0,0:0:0:0:
154,220,145492,5,0,0:0:0:0:
184,267,145584,1,0,0:0:0:0:
230,299,145675,1,0,0:0:0:0:
285,307,145767,1,0,0:0:0:0:
338,291,145858,1,0,0:0:0:0:
375,249,145950,1,0,0:0:0:0:
390,195,146041,1,0,0:0:0:0:
386,138,146133,5,0,0:0:0:0:
354,92,146224,1,0,0:0:0:0:
309,57,146316,1,0,0:0:0:0:
255,42,146407,1,0,0:0:0:0:
196,180,146590,5,0,0:0:0:0:
48,184,146773,5,0,0:0:0:0:
68,132,146864,1,0,0:0:0:0:
105,90,146956,1,0,0:0:0:0:
154,65,147047,1,0,0:0:0:0:
209,57,147139,1,0,0:0:0:0:
261,74,147230,1,0,0:0:0:0:
296,117,147322,1,0,0:0:0:0:
312,170,147413,5,0,0:0:0:0:
308,226,147505,1,0,0:0:0:0:
272,268,147596,1,0,0:0:0:0:
219,288,147688,1,0,0:0:0:0:
163,280,147779,1,0,0:0:0:0:
122,241,147870,1,0,0:0:0:0:
102,188,147962,1,0,0:0:0:0:
113,133,148053,5,0,0:0:0:0:
149,90,148145,1,0,0:0:0:0:
202,74,148236,1,0,0:0:0:0:
258,76,148328,1,0,0:0:0:0:
309,97,148419,1,0,0:0:0:0:
343,141,148511,1,0,0:0:0:0:
356,195,148602,1,0,0:0:0:0:
348,250,148694,5,0,0:0:0:0:
323,299,148785,1,0,0:0:0:0:
274,327,148877,1,0,0:0:0:0:
220,340,148968,1,0,0:0:0:0:
167,322,149059,1,0,0:0:0:0:
131,278,149151,1,0,0:0:0:0:
114,224,149242,1,0,0:0:0:0:
129,169,149334,5,0,0:0:0:0:
166,127,149425,1,0,0:0:0:0:
215,100,149517,1,0,0:0:0:0:
270,92,149608,1,0,0:0:0:0:
325,101,149700,1,0,0:0:0:0:
366,137,149791,1,0,0:0:0:0:
393,185,149883,1,0,0:0:0:0:
398,240,149974,5,0,0:0:0:0:
376,291,150066,1,0,0:0:0:0:
335,329,150157,1,0,0:0:0:0:
280,340,150248,1,0,0:0:0:0:
225,324,150340,1,0,0:0:0:0:
180,289,150431,1,0,0:0:0:0:
150,241,150523,1,0,0:0:0:0:
200,263,150614,5,0,0:0:0:0:
255,273,150706,1,0,0:0:0:0:
310,267,150797,1,0,0:0:0:0:
358,239,150889,1,0,0:0:0:0:
385,193,150980,1,0,0:0:0:0:
386,136,151072,1,0,0:0:0:0:
369,82,151163,1,0,0:0:0:0:
332,39,151255,5,0,0:0:0:0:
281,15,151346,1,0,0:0:0:0:
224,12,151438,1,0,0:0:0:0:
169,23,151529,1,0,0:0:0:0:
125,57,151620,1,0,0:0:0:0:
89,100,151712,1,0,0:0:0:0:
68,151,151803,1,0,0:0:0:0:
65,207,151895,5,0,0:0:0:0:
106,169,151986,1,0,0:0:0:0:
155,142,152078,1,0,0:0:0:0:
209,130,152169,1,0,0:0:0:0:
264,139,152261,1,0,0:0:0:0:
256,192,152444,12,0,155005,0:0:0:0:
256,192,155188,5,0,0:0:0:0:
116,104,155370,5,0,0:0:0:0:
165,78,155462,1,0,0:0:0:0:
219,67,155553,1,0,0:0:0:0:
273,81,155645,1,0,0:0:0:0:
314,117,155736,1,0,0:0:0:0:
185,217,155919,5,0,0:0:0:0:
232,246,156011,1,0,0:0:0:0:
287,254,156102,1,0,0:0:0:0:
339,232,156194,1,0,0:0:0:0:
381,195,156285,1,0,0:0:0:0:
328,28,156468,5,0,0:0:0:0:
272,31,156559,1,0,0:0:0:0:
219,51,156651,1,0,0:0:0:0:
176,87,156742,1,0,0:0:0:0:
141,131,156834,1,0,0:0:0:0:
132,186,156925,1,0,0:0:0:0:
147,240,157017,1,0,0:0:0:0:
188,277,157108,5,0,0:0:0:0:
241,294,157200,1,0,0:0:0:0:
291,269,157291,1,0,0:0:0:0:
328,226,157383,1,0,0:0:0:0:
331,170,157474,1,0,0:0:0:0:
314,116,157566,1,0,0:0:0:0:
268,84,157657,1,0,0:0:0:0:
213,71,157748,5,0,0:0:0:0:
158,84,157840,1,0,0:0:0:0:
109,111,157931,1,0,0:0:0:0:
70,152,158023,1,0,0:0:0:0:
48,203,158114,1,0,0:0:0:0:
192,288,158297,6,0,P|240:284|276:260,1,70
264,148,158663,1,0,0:0:0:0:
316,126,158755,1,0,0:0:0:0:
367,147,158846,1,0,0:0:0:0:
196,44,159029,2,0,P|156:64|136:100,1,70
154,255,159395,1,0,0:0:0:0:
207,238,159486,1,0,0:0:0:0:
251,203,159578,1,0,0:0:0:0:
276,56,159761,5,0,0:0:0:0:
324,83,159852,1,0,0:0:0:0:
354,130,159944,1,0,0:0:0:0:
364,184,160035,1,0,0:0:0:0:
351,238,160127,1,0,0:0:0:0:
313,279,160218,1,0,0:0:0:0:
261,301,160309,1,0,0:0:0:0:
282,248,160401,5,0,0:0:0:0:
280,192,160492,1,0,0:0:0:0:
261,138,160584,1,0,0:0:0:0:
222,97,160675,1,0,0:0:0:0:
167,82,160767,1,0,0:0:0:0:
111,76,160858,1,0,0:0:0:0:
56,91,160950,1,0,0:0:0:0:
17,131,161041,1,0,0:0:0:0:
96,280,161224,6,0,P|132:300|167:295,1,70
172,136,161590,1,0,0:0:0:0:
226,125,161681,1,0,0:0:0:0:
274,153,161773,1,0,0:0:0:0:
324,280,161956,6,0,P|364:256|384:216,1,70
304,44,162322,1,0,0:0:0:0:
349,75,162413,1,0,0:0:0:0:
377,123,162505,1,0,0:0:0:0:
324,280,162688,1,0,0:0:0:0:
216,188,162870,1,0,0:0:0:0:
348,112,163053,5,0,0:0:0:0:
324,60,163145,1,0,0:0:0:0:
279,26,163236,1,0,0:0:0:0:
223,19,163328,1,0,0:0:0:0:
168,29,163419,1,0,0:0:0:0:
125,65,163511,1,0,0:0:0:0:
90,108,163602,1,0,0:0:0:0:
82,163,163694,5,0,0:0:0:0:
100,215,163785,1,0,0:0:0:0:
141,252,163877,1,0,0:0:0:0:
192,274,163968,1,0,0:0:0:0:
247,268,164059,1,0,0:0:0:0:
202,232,164151,1,0,0:0:0:0:
166,189,164242,1,0,0:0:0:0:
155,133,164334,5,0,0:0:0:0:
173,80,164425,1,0,0:0:0:0:
209,36,164517,1,0,0:0:0:0:
261,17,164608,1,0,0:0:0:0:
317,20,164700,1,0,0:0:0:0:
361,54,164791,1,0,0:0:0:0:
395,98,164883,1,0,0:0:0:0:
407,152,164974,5,0,0:0:0:0:
392,206,165066,1,0,0:0:0:0:
358,250,165157,1,0,0:0:0:0:
306,270,165248,1,0,0:0:0:0:
249,269,165340,1,0,0:0:0:0:
196,250,165431,1,0,0:0:0:0:
242,226,165523,1,0,0:0:0:0:
288,194,165614,5,0,0:0:0:0:
309,141,165706,1,0,0:0:0:0:
309,85,165797,1,0,0:0:0:0:
337,133,165889,1,0,0:0:0:0:
361,183,165980,1,0,0:0:0:0:
375,237,166072,1,0,0:0:0:0:
387,291,166163,1,0,0:0:0:0:
361,240,166255,5,0,0:0:0:0:
324,197,166346,1,0,0:0:0:0:
274,170,166438,1,0,0:0:0:0:
218,162,166529,1,0,0:0:0:0:
167,185,166620,1,0,0:0:0:0:
133,230,166712,1,0,0:0:0:0:
135,285,166803,1,0,0:0:0:0:
164,333,166895,5,0,0:0:0:0:
214,356,166986,1,0,0:0:0:0:
270,351,167078,1,0,0:0:0:0:
306,308,167169,1,0,0:0:0:0:
329,256,167261,1,0,0:0:0:0:
310,203,167352,1,0,0:0:0:0:
265,168,167444,1,0,0:0:0:0:
213,145,167535,5,0,0:0:0:0:
262,117,167627,1,0,0:0:0:0:
316,105,167718,1,0,0:0:0:0:
371,105,167809,1,0,0:0:0:0:
420,132,167901,1,0,0:0:0:0:
453,176,167992,1,0,0:0:0:0:
463,231,168084,1,0,0:0:0:0:
444,283,168175,5,0,0:0:0:0:
406,325,168267,1,0,0:0:0:0:
353,344,168358,1,0,0:0:0:0:
288,200,168541,5,0,0:0:0:0:
36,232,168724,2,0,P|56:252|92:252,1,35
120,120,168907,2,0,P|156:88|192:84,1,70
244,244,169273,5,0,0:0:0:0:
356,152,169456,2,0,P|368:176|388:184,1,35
420,36,169639,2,0,P|468:48|496:80,1,70
264,196,170005,5,0,0:0:0:0:
216,56,170188,2,0,P|184:42|151:51,1,70
144,228,170554,1,0,0:0:0:0:
316,164,170736,2,0,P|332:188|340:232,1,70
336,284,171011,2,0,P|332:308|312:328,1,35
168,220,171286,5,0,0:0:0:0:
308,144,171468,1,0,0:0:0:0:
148,64,171651,2,0,P|188:32|224:28,1,70
308,144,172017,1,0,0:0:0:0:
96,232,172200,6,0,L|152:280,1,70
152,308,172474,2,0,L|196:324,1,35
312,156,172749,5,0,0:0:0:0:
400,288,172932,1,0,0:0:0:0:
245,306,173115,2,0,P|264:260|256:224,1,70
116,228,173481,1,0,0:0:0:0:
136,80,173663,2,0,L|208:96,1,70
236,68,173938,2,0,L|272:84,1,35
248,216,174212,5,0,0:0:0:0:
320,336,174395,1,0,0:0:0:0:
400,168,174578,2,0,P|440:172|472:208,1,70
308,32,174944,5,0,0:0:0:0:
160,132,175127,1,0,0:0:0:0:
140,180,175218,1,0,0:0:0:0:
152,232,175309,2,0,P|188:264|224:260,1,70
400,168,175675,1,0,0:0:0:0:
332,312,175858,1,0,0:0:0:0:
160,172,176041,2,0,L|232:172,1,70
228,308,176407,5,0,0:0:0:0:
232,64,176590,2,0,L|300:96,1,70
296,132,176864,2,0,L|328:160,1,35
192,196,177139,5,0,0:0:0:0:
272,308,177322,1,0,0:0:0:0:
120,284,177505,2,0,P|124:324|148:352,1,70
84,140,177871,1,0,0:0:0:0:
252,136,178053,2,0,P|276:152|288:192,2,70
348,296,178603,5,0,0:0:0:0:
212,296,178786,1,0,0:0:0:0:
340,116,178968,2,0,P|359:158|335:194,1,70
200,236,179334,1,0,0:0:0:0:
88,112,179517,2,0,L|172:84,1,70
176,56,179791,2,0,L|216:84,1,35
264,268,180066,5,0,0:0:0:0:
116,256,180249,1,0,0:0:0:0:
280,120,180432,2,0,P|324:108|356:128,1,70
360,264,180797,5,0,0:0:0:0:
323,285,180889,1,0,0:0:0:0:
281,291,180980,1,0,0:0:0:0:
239,280,181072,1,0,0:0:0:0:
205,255,181163,1,0,0:0:0:0:
190,215,181255,1,0,0:0:0:0:
192,173,181346,1,0,0:0:0:0:
205,132,181438,1,0,0:0:0:0:
231,99,181529,1,0,0:0:0:0:
88,244,181712,5,0,0:0:0:0:
74,204,181803,1,0,0:0:0:0:
81,162,181895,1,0,0:0:0:0:
100,124,181986,1,0,0:0:0:0:
132,97,182078,1,0,0:0:0:0:
173,91,182169,1,0,0:0:0:0:
213,101,182261,1,0,0:0:0:0:
244,127,182352,1,0,0:0:0:0:
261,165,182444,1,0,0:0:0:0:
146,200,182627,5,0,0:0:0:0:
113,173,182718,1,0,0:0:0:0:
109,131,182809,2,0,P|140:88|181:78,1,70
224,268,183175,5,0,0:0:0:0:
266,267,183267,1,0,0:0:0:0:
304,249,183358,1,0,0:0:0:0:
329,215,183450,1,0,0:0:0:0:
338,174,183541,1,0,0:0:0:0:
335,131,183633,1,0,0:0:0:0:
317,92,183724,1,0,0:0:0:0:
287,61,183816,1,0,0:0:0:0:
248,45,183907,1,0,0:0:0:0:
244,184,184090,5,0,0:0:0:0:
273,214,184181,1,0,0:0:0:0:
314,223,184273,2,0,P|354:219|382:187,1,70
404,304,184639,5,0,0:0:0:0:
392,263,184730,1,0,0:0:0:0:
370,226,184822,1,0,0:0:0:0:
340,196,184913,1,0,0:0:0:0:
300,182,185005,1,0,0:0:0:0:
258,182,185096,1,0,0:0:0:0:
218,196,185188,1,0,0:0:0:0:
186,223,185279,1,0,0:0:0:0:
167,260,185370,1,0,0:0:0:0:
296,260,185553,5,0,0:0:0:0:
317,223,185645,1,0,0:0:0:0:
309,181,185736,2,0,P|293:141|257:129,1,70
360,84,186102,5,0,0:0:0:0:
340,121,186194,1,0,0:0:0:0:
310,151,186285,1,0,0:0:0:0:
271,168,186377,1,0,0:0:0:0:
229,174,186468,1,0,0:0:0:0:
189,160,186559,1,0,0:0:0:0:
158,131,186651,1,0,0:0:0:0:
138,94,186742,1,0,0:0:0:0:
129,52,186834,1,0,0:0:0:0:
260,96,187017,5,0,0:0:0:0:
260,137,187108,1,0,0:0:0:0:
244,176,187200,2,0,P|220:208|176:216,1,70
128,88,187566,5,0,0:0:0:0:
89,105,187657,1,0,0:0:0:0:
58,133,187748,1,0,0:0:0:0:
36,169,187840,1,0,0:0:0:0:
32,210,187931,1,0,0:0:0:0:
42,250,188023,1,0,0:0:0:0:
67,282,188114,1,0,0:0:0:0:
102,304,188206,1,0,0:0:0:0:
142,315,188297,1,0,0:0:0:0:
128,208,188480,5,0,0:0:0:0:
89,225,188572,1,0,0:0:0:0:
73,263,188663,2,0,P|73:303|101:331,1,70
224,112,189029,5,0,0:0:0:0:
262,128,189120,1,0,0:0:0:0:
288,160,189212,1,0,0:0:0:0:
296,201,189303,1,0,0:0:0:0:
287,242,189395,1,0,0:0:0:0:
266,278,189486,1,0,0:0:0:0:
236,307,189578,1,0,0:0:0:0:
197,323,189669,1,0,0:0:0:0:
154,321,189761,1,0,0:0:0:0:
212,224,189944,5,0,0:0:0:0:
235,189,190035,1,0,0:0:0:0:
275,175,190127,2,0,P|322:181|339:203,1,70
256,36,190492,5,0,0:0:0:0:
225,65,190584,1,0,0:0:0:0:
208,103,190675,1,0,0:0:0:0:
203,144,190767,1,0,0:0:0:0:
216,183,190858,1,0,0:0:0:0:
245,213,190950,1,0,0:0:0:0:
283,228,191041,1,0,0:0:0:0:
325,230,191133,1,0,0:0:0:0:
364,217,191224,1,0,0:0:0:0:
280,112,191407,5,0,0:0:0:0:
260,149,191498,1,0,0:0:0:0:
223,169,191590,2,0,P|185:171|151:153,1,70
264,40,191956,5,0,0:0:0:0:
302,56,192047,1,0,0:0:0:0:
334,82,192139,1,0,0:0:0:0:
354,118,192230,1,0,0:0:0:0:
359,159,192322,1,0,0:0:0:0:
352,200,192413,1,0,0:0:0:0:
336,239,192505,1,0,0:0:0:0:
311,205,192596,5,0,0:0:0:0:
284,171,192688,1,0,0:0:0:0:
248,149,192779,1,0,0:0:0:0:
204,141,192870,1,0,0:0:0:0:
163,151,192962,1,0,0:0:0:0:
127,172,193053,1,0,0:0:0:0:
99,203,193145,1,0,0:0:0:0:
78,239,193236,1,0,0:0:0:0:
60,280,193328,1,0,0:0:0:0:
232,260,193419,5,0,0:0:0:0:
360,168,193602,2,0,P|316:176|284:140,1,70
304,32,193968,1,0,0:0:0:0:
184,124,194151,1,0,0:0:0:0:
360,168,194334,1,0,0:0:0:0:
406,191,194425,1,0,0:0:0:0:
420,241,194517,1,0,0:0:0:0:
272,304,194700,1,0,0:0:0:0:
192,164,194883,2,0,P|227:125|264:124,1,70
448,120,195249,5,0,0:0:0:0:
452,172,195340,1,0,0:0:0:0:
432,220,195432,2,0,P|415:250|383:262,1,70
248,156,195797,1,0,0:0:0:0:
328,36,195980,2,0,P|365:37|400:60,1,70
248,156,196346,1,0,0:0:0:0:
264,284,196529,1,0,0:0:0:0:
156,168,196712,2,0,P|116:180|92:216,1,70
216,36,197078,5,0,0:0:0:0:
280,168,197261,2,0,P|325:168|352:128,1,70
160,232,197627,1,0,0:0:0:0:
342,152,197810,1,0,0:0:0:0:
212,56,197993,1,0,0:0:0:0:
136,212,198175,6,0,P|128:248|88:276,1,70
284,212,198541,1,0,0:0:0:0:
216,68,198724,1,0,0:0:0:0:
356,108,198907,5,0,0:0:0:0:
379,143,198999,1,0,0:0:0:0:
390,183,199090,1,0,0:0:0:0:
383,224,199182,1,0,0:0:0:0:
360,259,199273,1,0,0:0:0:0:
232,128,199456,5,0,0:0:0:0:
48,156,199639,2,0,L|112:168,1,35
92,212,199822,2,0,L|120:268,1,35
120,264,200005,1,0,0:0:0:0:
344,116,200188,2,0,L|304:156,1,35
272,168,200370,2,0,L|316:220,1,35
312,220,200553,1,0,0:0:0:0:
408,56,200736,6,0,P|448:64|480:100,1,70
272,200,201102,2,0,L|324:168,1,35
336,168,201285,2,0,P|364:208|388:220,1,70
240,320,201651,1,0,0:0:0:0:
96,168,201834,2,0,L|136:224,1,35
158,181,202017,2,0,P|194:182|242:210,1,70
160,40,202383,5,0,0:0:0:0:
296,80,202566,1,0,0:0:0:0:
296,228,202749,2,0,P|288:272|261:294,1,70
120,152,203114,1,0,0:0:0:0:
80,187,203206,1,0,0:0:0:0:
75,239,203297,1,0,0:0:0:0:
176,324,203480,2,0,P|224:316|244:280,1,70
224,148,203846,5,0,0:0:0:0:
269,154,203938,1,0,0:0:0:0:
307,178,204029,1,0,0:0:0:0:
335,213,204121,1,0,0:0:0:0:
344,257,204212,1,0,0:0:0:0:
352,211,204304,5,0,0:0:0:0:
351,165,204395,1,0,0:0:0:0:
332,123,204486,1,0,0:0:0:0:
301,88,204578,1,0,0:0:0:0:
260,68,204669,1,0,0:0:0:0:
215,58,204761,1,0,0:0:0:0:
170,63,204852,1,0,0:0:0:0:
129,84,204944,1,0,0:0:0:0:
260,192,205127,5,0,0:0:0:0:
72,192,205310,1,0,0:0:0:0:
76,244,205401,1,0,0:0:0:0:
104,288,205493,2,0,P|136:312|184:296,1,70
188,152,205858,1,0,0:0:0:0:
288,64,206041,1,0,0:0:0:0:
327,99,206133,1,0,0:0:0:0:
332,152,206224,2,0,P|375:161|400:140,1,70
232,280,206590,5,0,0:0:0:0:
283,133,206773,1,0,0:0:0:0:
332,152,206864,1,0,0:0:0:0:
355,199,206956,2,0,P|407:219|435:207,1,70
248,252,207322,1,0,0:0:0:0:
212,132,207505,1,0,0:0:0:0:
160,126,207596,1,0,0:0:0:0:
125,86,207688,2,0,P|89:90|61:110,1,70
76,268,208054,5,0,0:0:0:0:
228,212,208236,1,0,0:0:0:0:
117,135,208419,1,0,0:0:0:0:
125,86,208511,1,0,0:0:0:0:
163,50,208602,1,0,0:0:0:0:
232,180,208785,2,0,P|272:180|300:148,1,70
420,128,209151,1,0,0:0:0:0:
379,94,209243,1,0,0:0:0:0:
334,66,209334,1,0,0:0:0:0:
216,96,209517,5,0,0:0:0:0:
194,135,209608,1,0,0:0:0:0:
191,180,209700,1,0,0:0:0:0:
210,220,209791,1,0,0:0:0:0:
247,246,209883,2,0,P|287:250|319:218,1,70
328,88,210249,1,0,0:0:0:0:
460,144,210432,5,0,0:0:0:0:
447,187,210523,1,0,0:0:0:0:
426,227,210614,1,0,0:0:0:0:
392,258,210706,1,0,0:0:0:0:
352,280,210797,1,0,0:0:0:0:
180,200,210980,5,0,0:0:0:0:
244,72,211163,1,0,0:0:0:0:
286,53,211255,1,0,0:0:0:0:
328,67,211346,2,0,P|364:95|372:131,1,70
236,208,211712,1,0,0:0:0:0:
400,308,211895,1,0,0:0:0:0:
436,280,211986,1,0,0:0:0:0:
428,234,212078,2,0,P|384:218|344:241,1,70
252,68,212444,5,0,0:0:0:0:
132,160,212627,1,0,0:0:0:0:
146,206,212718,1,0,0:0:0:0:
187,232,212810,2,0,P|179:272|127:300,1,70
280,72,213175,5,0,0:0:0:0:
304,232,213358,1,0,0:0:0:0:
353,230,213450,1,0,0:0:0:0:
390,198,213541,1,0,0:0:0:0:
360,32,213724,1,0,0:0:0:0:
291,155,213907,2,0,P|259:119|207:111,1,70
396,68,214273,5,0,0:0:0:0:
380,55,214364,1,0,0:0:0:0:
364,44,214456,1,0,0:0:0:0:
239,111,214639,5,0,0:0:0:0:
223,98,214730,1,0,0:0:0:0:
207,87,214822,1,0,0:0:0:0:
72,160,215005,5,0,0:0:0:0:
56,147,215096,1,0,0:0:0:0:
40,136,215188,1,0,0:0:0:0:
184,164,215371,5,0,0:0:0:0:
200,206,215462,1,0,0:0:0:0:
228,241,215554,1,0,0:0:0:0:
267,263,215645,1,0,0:0:0:0:
311,271,215736,1,0,0:0:0:0:
265,279,215828,1,0,0:0:0:0:
220,286,215919,1,0,0:0:0:0:
174,290,216011,5,0,0:0:0:0:
216,274,216102,1,0,0:0:0:0:
252,246,216194,1,0,0:0:0:0:
281,211,216285,1,0,0:0:0:0:
298,168,216377,1,0,0:0:0:0:
295,122,216468,1,0,0:0:0:0:
279,78,216560,1,0,0:0:0:0:
252,41,216651,1,0,0:0:0:0:
130,125,216834,5,0,0:0:0:0:
151,160,216925,1,0,0:0:0:0:
177,192,217017,1,0,0:0:0:0:
207,208,217108,1,0,0:0:0:0:
240,215,217200,1,0,0:0:0:0:
257,216,217291,1,0,0:0:0:0:
274,212,217383,1,0,0:0:0:0:
289,204,217474,1,0,0:0:0:0:
304,194,217566,1,0,0:0:0:0:
337,156,217688,5,0,0:0:0:0:
367,109,217809,1,0,0:0:0:0:
385,56,217931,1,0,0:0:0:0:
420,99,218053,1,0,0:0:0:0:
443,149,218175,1,0,0:0:0:0:
448,204,218297,1,0,0:0:0:0:
431,257,218419,5,0,0:0:0:0:
390,295,218541,1,0,0:0:0:0:
339,319,218663,1,0,0:0:0:0:
282,320,218785,1,0,0:0:0:0:
227,308,218907,1,0,0:0:0:0:
182,273,219029,1,0,0:0:0:0:
72,249,219273,1,0,0:0:0:0:
173,201,219517,1,0,0:0:0:0:
240,108,219761,5,0,0:0:0:0:
124,40,219944,1,0,0:0:0:0:
89,68,220035,1,0,0:0:0:0:
68,109,220127,1,0,0:0:0:0:
200,168,220309,1,0,0:0:0:0:
208,212,220401,1,0,0:0:0:0:
240,244,220492,1,0,0:0:0:0:
360,176,220675,5,0,0:0:0:0:
216,48,220858,1,0,0:0:0:0:
368,80,221041,1,0,0:0:0:0:
188,148,221224,1,0,0:0:0:0:
304,244,221407,1,0,0:0:0:0:
337,213,221498,1,0,0:0:0:0:
356,171,221590,1,0,0:0:0:0:
260,20,221773,1,0,2:0:0:0:
228,52,221864,1,0,2:0:0:0:
215,96,221956,1,0,2:0:0:0:
96,190,222139,6,0,B|124:232|124:232|176:204|176:204|208:248,1,140
280,104,222688,1,0,0:0:0:0:
376,208,222870,1,0,0:0:0:0:
352,247,222962,1,0,0:0:0:0:
316,275,223053,1,0,0:0:0:0:
200,108,223236,1,0,0:0:0:0:
186,151,223328,1,0,0:0:0:0:
205,191,223419,1,0,0:0:0:0:
192,324,223602,5,0,0:0:0:0:
48,280,223785,2,0,P|60:236|88:212,1,70
128,48,224151,1,0,0:0:0:0:
224,200,224334,1,0,0:0:0:0:
264,179,224425,1,0,0:0:0:0:
278,135,224517,2,0,P|318:123|370:139,1,70
264,304,224883,5,0,0:0:0:0:
307,291,224974,1,0,0:0:0:0:
343,263,225066,1,0,0:0:0:0:
364,223,225157,1,0,0:0:0:0:
376,179,225248,1,0,0:0:0:0:
376,133,225340,1,0,0:0:0:0:
359,90,225431,1,0,0:0:0:0:
152,32,225614,5,0,0:0:0:0:
124,68,225706,1,0,0:0:0:0:
111,111,225797,1,0,0:0:0:0:
116,156,225889,1,0,0:0:0:0:
145,190,225980,1,0,0:0:0:0:
264,56,226163,5,0,0:0:0:0:
299,85,226255,1,0,0:0:0:0:
312,128,226346,1,0,0:0:0:0:
314,173,226438,1,0,0:0:0:0:
294,213,226529,1,0,0:0:0:0:
144,236,226712,5,0,0:0:0:0:
139,190,226803,1,0,0:0:0:0:
159,148,226895,1,0,0:0:0:0:
261,33,227078,5,0,0:0:0:0:
283,72,227169,1,0,0:0:0:0:
319,99,227261,1,0,0:0:0:0:
362,112,227352,1,0,0:0:0:0:
407,106,227444,1,0,0:0:0:0:
512,149,227627,5,0,0:0:0:0:
500,192,227718,1,0,0:0:0:0:
474,229,227809,1,0,0:0:0:0:
436,254,227901,1,0,0:0:0:0:
395,273,227992,1,0,0:0:0:0:
349,279,228084,1,0,0:0:0:0:
304,272,228175,1,0,0:0:0:0:
265,247,228267,1,0,0:0:0:0:
234,213,228358,1,0,0:0:0:0:
280,72,228541,5,0,0:0:0:0:
245,41,228633,1,0,0:0:0:0:
201,28,228724,1,0,0:0:0:0:
155,29,228816,1,0,0:0:0:0:
117,54,228907,1,0,0:0:0:0:
96,260,229090,5,0,0:0:0:0:
107,216,229181,1,0,0:0:0:0:
136,180,229273,1,0,0:0:0:0:
175,158,229364,1,0,0:0:0:0:
220,158,229456,1,0,0:0:0:0:
240,328,229639,5,0,0:0:0:0:
277,302,229730,1,0,0:0:0:0:
296,260,229822,1,0,0:0:0:0:
151,201,230005,5,0,0:0:0:0:
135,158,230096,1,0,0:0:0:0:
139,112,230188,1,0,0:0:0:0:
158,71,230279,1,0,0:0:0:0:
190,39,230370,1,0,0:0:0:0:
234,29,230462,1,0,0:0:0:0:
279,29,230553,1,0,0:0:0:0:
318,52,230645,5,0,0:0:0:0:
344,88,230736,1,0,0:0:0:0:
361,130,230828,1,0,0:0:0:0:
365,175,230919,2,0,B|345:215|345:215|401:215|401:215|377:263,1,140
160,320,231468,5,0,0:0:0:0:
191,287,231559,1,0,0:0:0:0:
208,244,231651,1,0,0:0:0:0:
213,199,231742,1,0,0:0:0:0:
200,154,231834,1,0,0:0:0:0:
52,144,232017,5,0,0:0:0:0:
68,101,232108,1,0,0:0:0:0:
100,69,232200,1,0,0:0:0:0:
143,54,232291,1,0,0:0:0:0:
188,56,232383,1,0,0:0:0:0:
122,190,232566,5,0,0:0:0:0:
109,233,232657,1,0,0:0:0:0:
120,276,232748,1,0,0:0:0:0:
224,80,232931,5,0,0:0:0:0:
265,99,233023,1,0,0:0:0:0:
293,134,233114,1,0,0:0:0:0:
306,177,233206,1,0,0:0:0:0:
304,222,233297,1,0,0:0:0:0:
285,263,233389,1,0,0:0:0:0:
318,232,233480,1,0,0:0:0:0:
346,195,233572,5,0,0:0:0:0:
366,154,233663,1,0,0:0:0:0:
377,109,233755,1,0,0:0:0:0:
378,63,233846,1,0,0:0:0:0:
360,20,233938,1,0,0:0:0:0:
391,52,234029,1,0,0:0:0:0:
413,91,234120,1,0,0:0:0:0:
430,133,234212,1,0,0:0:0:0:
308,40,234395,5,0,0:0:0:0:
266,57,234486,1,0,0:0:0:0:
231,86,234578,1,0,0:0:0:0:
204,122,234669,1,0,0:0:0:0:
189,165,234761,1,0,0:0:0:0:
229,143,234852,1,0,0:0:0:0:
271,126,234944,1,0,0:0:0:0:
314,114,235035,5,0,0:0:0:0:
359,115,235127,1,0,0:0:0:0:
333,152,235218,1,0,0:0:0:0:
319,195,235309,1,0,0:0:0:0:
322,240,235401,1,0,0:0:0:0:
343,279,235492,1,0,0:0:0:0:
382,301,235584,1,0,0:0:0:0:
426,309,235675,1,0,0:0:0:0:
432,152,235858,5,0,0:0:0:0:
410,111,235950,1,0,0:0:0:0:
378,78,236041,1,0,0:0:0:0:
335,62,236133,1,0,0:0:0:0:
289,59,236224,1,0,0:0:0:0:
247,79,236316,1,0,0:0:0:0:
220,115,236407,1,0,0:0:0:0:
264,122,236498,5,0,0:0:0:0:
303,144,236590,1,0,0:0:0:0:
329,180,236681,1,0,0:0:0:0:
339,224,236773,1,0,0:0:0:0:
328,267,236864,1,0,0:0:0:0:
304,227,236956,1,0,0:0:0:0:
270,196,237047,1,0,0:0:0:0:
226,182,237139,1,0,0:0:0:0:
148,304,237322,5,0,0:0:0:0:
107,283,237413,1,0,0:0:0:0:
78,247,237505,1,0,0:0:0:0:
62,204,237596,1,0,0:0:0:0:
65,158,237688,1,0,0:0:0:0:
224,172,237870,5,0,0:0:0:0:
251,208,237962,1,0,0:0:0:0:
288,233,238053,1,0,0:0:0:0:
329,252,238145,1,0,0:0:0:0:
374,252,238236,1,0,0:0:0:0:
252,64,238419,5,0,0:0:0:0:
297,66,238511,1,0,0:0:0:0:
338,84,238602,1,0,0:0:0:0:
366,119,238694,1,0,0:0:0:0:
383,160,238785,2,0,P|419:112|411:52,1,105.000004005432
