osu file format v14

[General]
AudioFilename: audio.mp3
AudioLeadIn: 0
PreviewTime: 279034
Countdown: 0
SampleSet: Normal
StackLeniency: 0.7
Mode: 1
LetterboxInBreaks: 0
WidescreenStoryboard: 0

[Editor]
DistanceSpacing: 0.6
BeatDivisor: 6
GridSize: 32
TimelineZoom: 2.899999

[Metadata]
Title:Retrospective Kyoto ~ Japanese Beautiful Barrage
TitleUnicode:レトロスペクティブ京都 ~ Japanese Beautiful Barrage
Artist:Demetori
ArtistUnicode:Demetori
Creator:Akonine
Version:Taiko Stage
Source:東方文花帖 ~ Shoot the Bullet.
Tags:Bunkachou TH9.5 StB metal aya shameimaru 瑰狂鬱嵂 レトロスペクティブ京都 c94 comiket 94 ZUN Team Shanghai Alice 東方Project touhou doujin Photo Theme 4 instrumental video game
BeatmapID:2691342
BeatmapSetID:1297296

[Difficulty]
HPDrainRate:6
CircleSize:2
OverallDifficulty:7.2
ApproachRate:10
SliderMultiplier:1.4
SliderTickRate:1

[Events]
//Background and Video events
0,0,"bg22.jpg",0,0
//Break Periods
//Storyboard Layer 0 (Background)
//Storyboard Layer 1 (Fail)
//Storyboard Layer 2 (Pass)
//Storyboard Layer 3 (Foreground)
//Storyboard Layer 4 (Overlay)
//Storyboard Sound Samples

[TimingPoints]
116,324.324324324324,4,1,0,100,1,0
440,-100,4,1,0,70,0,0
9681,-98.0392156862745,4,1,0,70,0,0
10005,-96.1538461538461,4,1,0,70,0,0
10168,-94.3396226415094,4,1,0,70,0,0
10330,-92.5925925925926,4,1,0,70,0,0
10492,-90.9090909090909,4,1,0,70,0,0
10816,-100,4,1,0,70,0,0
16168,-98.0392156862745,4,1,0,70,0,0
16816,-96.1538461538461,4,1,0,70,0,0
17465,-92.5925925925926,4,1,0,70,0,0
17951,-90.9090909090909,4,1,0,70,0,0
19086,-91.743119266055,4,1,0,70,0,0
19168,-92.5925925925926,4,1,0,70,0,0
19249,-93.4579439252336,4,1,0,70,0,0
19411,-94.3396226415094,4,1,0,70,0,0
19492,-95.2380952380952,4,1,0,70,0,0
19573,-96.1538461538461,4,1,0,70,0,0
19735,-97.0873786407767,4,1,0,70,0,0
19897,-98.0392156862745,4,1,0,70,0,0
20059,-99.009900990099,4,1,0,70,0,0
20870,-117.647058823529,4,1,0,70,0,0
29465,-116.279069767442,4,1,0,70,0,0
29546,-114.942528735632,4,1,0,70,0,0
29627,-113.636363636364,4,1,0,70,0,0
29789,-112.359550561798,4,1,0,70,0,0
29951,-111.111111111111,4,1,0,70,0,0
30032,-109.89010989011,4,1,0,70,0,0
30113,-108.695652173913,4,1,0,70,0,0
30195,-107.52688172043,4,1,0,70,0,0
30276,-106.382978723404,4,1,0,70,0,0
30357,-105.263157894737,4,1,0,70,0,0
30438,-104.166666666667,4,1,0,70,0,0
30519,-103.092783505155,4,1,0,70,0,0
30600,-102.040816326531,4,1,0,70,0,0
30681,-101.010101010101,4,1,0,70,0,0
30762,-100,4,1,0,70,0,0
30926,-100,4,1,0,75,0,0
40816,-101.010101010101,4,1,0,70,0,0
40897,-102.040816326531,4,1,0,70,0,0
40978,-103.092783505155,4,1,0,70,0,0
41141,-104.166666666667,4,1,0,70,0,0
41303,-105.263157894737,4,1,0,70,0,0
41465,-106.382978723404,4,1,0,70,0,0
41627,-107.52688172043,4,1,0,70,0,0
41951,-108.695652173913,4,1,0,70,0,0
42113,-109.89010989011,4,1,0,70,0,0
42438,-111.111111111111,4,1,0,70,0,0
49897,-105.263157894737,4,1,0,70,0,0
51681,-104.166666666667,4,1,0,75,0,0
51843,-103.092783505155,4,1,0,75,0,0
51924,-102.040816326531,4,1,0,75,0,0
52005,-101.010101010101,4,1,0,75,0,0
52168,-100,4,1,0,75,0,0
59303,-101.010101010101,4,1,0,75,0,0
59384,-102.040816326531,4,1,0,75,0,0
59465,-103.092783505155,4,1,0,75,0,0
59627,-104.166666666667,4,1,0,75,0,0
59708,-105.263157894737,4,1,0,75,0,0
59789,-106.382978723404,4,1,0,75,0,0
59951,-107.52688172043,4,1,0,75,0,0
60113,-111.111111111111,4,1,0,75,0,0
60276,-106.382978723404,4,1,0,76,0,0
60438,-102.040816326531,4,1,0,77,0,0
60600,-98.0392156862745,4,1,0,78,0,0
60762,-94.3396226415094,4,1,0,79,0,0
61088,-94.3396226415094,4,1,0,80,0,0
61328,-90.9090909090909,4,1,0,80,0,0
61573,-87.719298245614,4,1,0,80,0,0
62386,-95.2380952380952,4,1,0,85,0,1
81843,-96.1538461538461,4,1,0,85,0,1
82005,-97.0873786407767,4,1,0,85,0,1
82168,-98.0392156862745,4,1,0,85,0,1
82330,-99.009900990099,4,1,0,85,0,1
82494,-100,4,1,0,85,0,0
83143,-100,4,1,0,100,0,0
83305,-100,4,1,0,70,0,0
92059,-101.010101010101,4,1,0,70,0,0
92141,-102.040816326531,4,1,0,70,0,0
92222,-103.092783505155,4,1,0,70,0,0
92384,-104.166666666667,4,1,0,70,0,0
92465,-105.263157894737,4,1,0,70,0,0
92546,-106.382978723404,4,1,0,70,0,0
92708,-107.52688172043,4,1,0,70,0,0
92789,-108.695652173913,4,1,0,70,0,0
92870,-109.89010989011,4,1,0,70,0,0
93032,-111.111111111111,4,1,0,70,0,0
93195,-112.359550561798,4,1,0,70,0,0
93357,-113.636363636364,4,1,0,70,0,0
93519,-117.647058823529,4,1,0,70,0,0
102438,-116.279069767442,4,1,0,70,0,0
102519,-114.942528735632,4,1,0,70,0,0
103086,-113.636363636364,4,1,0,70,0,0
103168,-112.359550561798,4,1,0,70,0,0
103249,-111.111111111111,4,1,0,70,0,0
103411,-108.695652173913,4,1,0,70,0,0
103573,-106.382978723404,4,1,0,70,0,0
103735,-102.040816326531,4,1,0,70,0,0
103897,-100,4,1,0,75,0,0
123357,-95.2380952380952,4,1,0,75,0,0
124330,-96.1538461538461,4,1,0,75,0,0
124411,-97.0873786407767,4,1,0,75,0,0
124492,-98.0392156862745,4,1,0,75,0,0
124573,-99.009900990099,4,1,0,75,0,0
124654,-100,4,1,0,75,0,0
131951,-101.010101010101,4,1,0,75,0,0
132032,-102.040816326531,4,1,0,75,0,0
132113,-103.092783505155,4,1,0,75,0,0
132276,-104.166666666667,4,1,0,75,0,0
132357,-105.263157894737,4,1,0,75,0,0
132438,-106.382978723404,4,1,0,75,0,0
132600,-108.695652173913,4,1,0,75,0,0
132762,-111.111111111111,4,1,0,75,0,0
132924,-106.382978723404,4,1,0,75,0,0
133086,-102.040816326531,4,1,0,75,0,0
133249,-98.0392156862745,4,1,0,75,0,0
133411,-94.3396226415094,4,1,0,75,0,0
133573,-90.9090909090909,4,1,0,80,0,0
135034,-95.2380952380952,4,1,0,85,0,1
155141,-96.1538461538461,4,1,0,85,0,1
155303,-97.0873786407767,4,1,0,85,0,1
155465,-98.0392156862745,4,1,0,85,0,1
155627,-99.009900990099,4,1,0,85,0,1
155791,-100,4,1,0,80,0,0
156115,-100,4,1,0,70,0,0
157249,-102.040816326531,4,1,0,70,0,0
157411,-104.166666666667,4,1,0,70,0,0
157573,-106.382978723404,4,1,0,70,0,0
157737,-108.695652173913,4,1,0,70,0,0
157897,-111.111111111111,4,1,0,70,0,0
158059,-113.636363636364,4,1,0,70,0,0
158222,-116.279069767442,4,1,0,70,0,0
158384,-119.047619047619,4,1,0,70,0,0
158708,-100,4,1,0,70,0,0
159843,-102.040816326531,4,1,0,70,0,0
160005,-104.166666666667,4,1,0,70,0,0
160168,-106.382978723404,4,1,0,70,0,0
160330,-108.695652173913,4,1,0,70,0,0
160492,-111.111111111111,4,1,0,70,0,0
160654,-113.636363636364,4,1,0,70,0,0
160978,-100,4,1,0,70,0,0
165438,-99.009900990099,4,1,0,70,0,0
165519,-98.0392156862745,4,1,0,70,0,0
165600,-97.0873786407767,4,1,0,70,0,0
165681,-96.1538461538461,4,1,0,70,0,0
165762,-95.2380952380952,4,1,0,70,0,0
165843,-94.3396226415094,4,1,0,70,0,0
165924,-93.4579439252336,4,1,0,70,0,0
166005,-92.5925925925926,4,1,0,70,0,0
166086,-91.743119266055,4,1,0,70,0,0
166168,-90.9090909090909,4,1,0,70,0,0
175168,-92.5925925925926,4,1,0,70,0,0
175411,-94.3396226415094,4,1,0,70,0,0
175573,-96.1538461538461,4,1,0,70,0,0
175735,-98.0392156862745,4,1,0,70,0,0
175897,-100,4,1,0,70,0,0
176870,-99.009900990099,4,1,0,70,0,0
177519,-98.0392156862745,4,1,0,70,0,0
178168,-97.0873786407767,4,1,0,70,0,0
178816,-96.1538461538461,4,1,0,70,0,0
179465,-95.2380952380952,4,1,0,70,0,0
180113,-94.3396226415094,4,1,0,70,0,0
180762,-93.4579439252336,4,1,0,70,0,0
181411,-92.5925925925926,4,1,0,70,0,0
181735,-91.743119266055,4,1,0,70,0,0
182059,-90.9090909090909,4,1,0,70,0,0
182384,-90.0900900900901,4,1,0,70,0,0
182706,-89.2857142857143,4,1,0,70,0,0
183032,-88.4955752212389,4,1,0,70,0,0
183357,-87.719298245614,4,1,0,70,0,0
183681,-86.9565217391304,4,1,0,70,0,0
184005,-86.2068965517241,4,1,0,70,0,0
184330,-85.4700854700855,4,1,0,70,0,0
184492,-84.7457627118644,4,1,0,70,0,0
184654,-84.0336134453781,4,1,0,70,0,0
184816,-83.3333333333333,4,1,0,70,0,0
184978,-82.6446280991736,4,1,0,70,0,0
185141,-81.9672131147541,4,1,0,70,0,0
185303,-81.3008130081301,4,1,0,70,0,0
185465,-80.6451612903226,4,1,0,70,0,0
185627,-80,4,1,0,70,0,0
185708,-79.3650793650794,4,1,0,70,0,0
185789,-78.7401574803149,4,1,0,70,0,0
185870,-78.125,4,1,0,70,0,0
185951,-77.5193798449612,4,1,0,70,0,0
186032,-76.9230769230769,4,1,0,70,0,0
186113,-76.3358778625954,4,1,0,70,0,0
186195,-75.7575757575758,4,1,0,70,0,0
186276,-75.187969924812,4,1,0,70,0,0
186924,-95.2380952380952,4,1,0,75,0,0
202332,-93.4579439252336,4,1,0,75,0,0
202411,-91.743119266055,4,1,0,75,0,0
202492,-90.0900900900901,4,1,0,75,0,0
207519,-92.5925925925926,4,1,0,75,0,0
207681,-95.2380952380952,4,1,0,70,0,0
207843,-98.0392156862745,4,1,0,70,0,0
210276,-100,4,1,0,70,0,0
217735,-99.009900990099,4,1,0,70,0,0
217816,-98.0392156862745,4,1,0,70,0,0
217897,-97.0873786407767,4,1,0,70,0,0
217978,-96.1538461538461,4,1,0,70,0,0
218059,-95.2380952380952,4,1,0,75,0,0
224789,-96.1538461538461,4,1,0,75,0,0
224870,-97.0873786407767,4,1,0,75,0,0
225032,-98.0392156862745,4,1,0,75,0,0
225195,-99.009900990099,4,1,0,75,0,0
225357,-100,4,1,0,75,0,0
225438,-101.010101010101,4,1,0,75,0,0
225519,-102.040816326531,4,1,0,75,0,0
225681,-103.092783505155,4,1,0,75,0,0
225762,-104.166666666667,4,1,0,75,0,0
225843,-105.263157894737,4,1,0,75,0,0
226005,-106.382978723404,4,1,0,75,0,0
226170,-107.52688172043,4,1,0,75,0,0
226330,-104.166666666667,4,1,0,75,0,0
226492,-100,4,1,0,75,0,0
226654,-96.1538461538461,4,1,0,75,0,0
226816,-92.5925925925926,4,1,0,75,0,0
226978,-91.743119266055,4,1,0,75,0,0
227059,-90.9090909090909,4,1,0,75,0,0
227140,-89.2857142857143,4,1,0,80,0,0
227384,-87.719298245614,4,1,0,80,0,0
227627,-86.2068965517241,4,1,0,80,0,0
228440,-95.2380952380952,4,1,0,85,0,1
248465,-96.1538461538461,4,1,0,85,0,1
248546,-97.0873786407767,4,1,0,85,0,1
248762,-98.0392156862745,4,1,0,85,0,1
248978,-99.009900990099,4,1,0,85,0,1
249197,-100,4,1,0,85,0,0
249521,-100,4,1,0,70,0,0
250654,-102.040816326531,4,1,0,70,0,0
250816,-104.166666666667,4,1,0,70,0,0
250978,-106.382978723404,4,1,0,70,0,0
251141,-108.695652173913,4,1,0,70,0,0
251303,-111.111111111111,4,1,0,70,0,0
251465,-113.636363636364,4,1,0,70,0,0
251627,-116.279069767442,4,1,0,70,0,0
251791,-119.047619047619,4,1,0,70,0,0
252113,-100,4,1,0,70,0,0
253249,-102.040816326531,4,1,0,70,0,0
253411,-104.166666666667,4,1,0,70,0,0
253573,-106.382978723404,4,1,0,70,0,0
253735,-108.695652173913,4,1,0,70,0,0
253897,-111.111111111111,4,1,0,70,0,0
254059,-113.636363636364,4,1,0,70,0,0
254384,-100,4,1,0,70,0,0
258843,-99.009900990099,4,1,0,70,0,0
258924,-98.0392156862745,4,1,0,70,0,0
259005,-97.0873786407767,4,1,0,70,0,0
259086,-96.1538461538461,4,1,0,70,0,0
259168,-95.2380952380952,4,1,0,70,0,0
259249,-94.3396226415094,4,1,0,70,0,0
259330,-93.4579439252336,4,1,0,70,0,0
259411,-92.5925925925926,4,1,0,70,0,0
259492,-91.743119266055,4,1,0,70,0,0
259573,-90.9090909090909,4,1,0,70,0,0
268573,-92.5925925925926,4,1,0,70,0,0
268816,-94.3396226415094,4,1,0,70,0,0
268978,-96.1538461538461,4,1,0,70,0,0
269141,-98.0392156862745,4,1,0,70,0,0
269305,-100,4,1,0,70,0,0
269953,-100,4,1,0,100,0,0
270278,-100,4,1,0,70,0,0
280332,-100,4,1,0,70,0,1
290710,-100,4,1,0,70,0,0
291032,-99.009900990099,4,1,0,70,0,0
291681,-98.0392156862745,4,1,0,70,0,0
292330,-97.0873786407767,4,1,0,70,0,0
292978,-96.1538461538461,4,1,0,70,0,0
293627,-95.2380952380952,4,1,0,70,0,0
294276,-94.3396226415094,4,1,0,70,0,0
294924,-93.4579439252336,4,1,0,70,0,0
295573,-92.5925925925926,4,1,0,70,0,0
295897,-91.743119266055,4,1,0,70,0,0
296222,-90.9090909090909,4,1,0,70,0,0
296546,-90.0900900900901,4,1,0,70,0,0
296870,-89.2857142857143,4,1,0,70,0,0
297195,-88.4955752212389,4,1,0,70,0,0
297519,-87.719298245614,4,1,0,70,0,0
297843,-86.9565217391304,4,1,0,70,0,0
298168,-86.2068965517241,4,1,0,70,0,0
298492,-85.4700854700855,4,1,0,70,0,0
298654,-84.7457627118644,4,1,0,70,0,0
298816,-84.0336134453781,4,1,0,70,0,0
298978,-83.3333333333333,4,1,0,70,0,0
299141,-82.6446280991736,4,1,0,70,0,0
299303,-81.9672131147541,4,1,0,70,0,0
299465,-81.3008130081301,4,1,0,70,0,0
299627,-80.6451612903226,4,1,0,70,0,0
299789,-80,4,1,0,70,0,0
299870,-79.3650793650794,4,1,0,70,0,0
299951,-78.7401574803149,4,1,0,70,0,0
300032,-78.125,4,1,0,70,0,0
300113,-77.5193798449612,4,1,0,70,0,0
300195,-76.9230769230769,4,1,0,70,0,0
300276,-76.3358778625954,4,1,0,70,0,0
300357,-75.7575757575758,4,1,0,70,0,0
300438,-75.187969924812,4,1,0,70,0,0
300519,-74.6268656716418,4,1,0,70,0,0
300600,-74.0740740740741,4,1,0,70,0,0
300681,-73.5294117647059,4,1,0,70,0,0
300762,-72.992700729927,4,1,0,70,0,0

[HitObjects]
256,192,116,5,4,0:0:0:0:
256,192,440,1,8,0:0:0:0:
256,192,602,1,0,0:0:0:0:
256,192,683,1,0,0:0:0:0:
256,192,764,1,0,0:0:0:0:
256,192,926,1,0,0:0:0:0:
256,192,1088,1,8,0:0:0:0:
256,192,1251,1,0,0:0:0:0:
256,192,1332,1,0,0:0:0:0:
256,192,1413,1,8,0:0:0:0:
256,192,1575,1,0,0:0:0:0:
256,192,1737,1,8,0:0:0:0:
256,192,1899,1,0,0:0:0:0:
256,192,1980,1,0,0:0:0:0:
256,192,2061,1,0,0:0:0:0:
256,192,2224,1,0,0:0:0:0:
256,192,2386,1,8,0:0:0:0:
256,192,2548,1,0,0:0:0:0:
256,192,2710,1,4,0:0:0:0:
256,192,3034,1,8,0:0:0:0:
256,192,3196,1,0,0:0:0:0:
256,192,3277,1,0,0:0:0:0:
256,192,3358,1,0,0:0:0:0:
256,192,3520,1,0,0:0:0:0:
256,192,3682,1,8,0:0:0:0:
256,192,3845,1,0,0:0:0:0:
256,192,3926,1,0,0:0:0:0:
256,192,4007,1,8,0:0:0:0:
256,192,4169,1,0,0:0:0:0:
256,192,4331,1,8,0:0:0:0:
256,192,4493,1,0,0:0:0:0:
256,192,4574,1,0,0:0:0:0:
256,192,4655,1,0,0:0:0:0:
256,192,4818,1,0,0:0:0:0:
256,192,4980,1,8,0:0:0:0:
256,192,5142,1,0,0:0:0:0:
256,192,5304,1,4,0:0:0:0:
256,192,5629,1,8,0:0:0:0:
256,192,5791,1,0,0:0:0:0:
256,192,5872,1,0,0:0:0:0:
256,192,5953,1,0,0:0:0:0:
256,192,6115,1,0,0:0:0:0:
256,192,6277,1,8,0:0:0:0:
256,192,6440,1,0,0:0:0:0:
256,192,6521,1,0,0:0:0:0:
256,192,6602,1,8,0:0:0:0:
256,192,6764,1,0,0:0:0:0:
256,192,6926,1,8,0:0:0:0:
256,192,7088,1,0,0:0:0:0:
256,192,7169,1,8,0:0:0:0:
256,192,7250,1,0,0:0:0:0:
256,192,7413,1,0,0:0:0:0:
256,192,7575,1,8,0:0:0:0:
256,192,7737,1,0,0:0:0:0:
256,192,7899,1,4,0:0:0:0:
256,192,8224,1,8,0:0:0:0:
256,192,8386,1,0,0:0:0:0:
256,192,8467,1,0,0:0:0:0:
256,192,8548,1,0,0:0:0:0:
256,192,8710,1,0,0:0:0:0:
256,192,8872,1,8,0:0:0:0:
256,192,9035,1,0,0:0:0:0:
256,192,9116,1,0,0:0:0:0:
256,192,9197,1,8,0:0:0:0:
256,192,9359,1,0,0:0:0:0:
256,192,9521,1,8,0:0:0:0:
256,192,9683,1,8,0:0:0:0:
256,192,9737,1,0,0:0:0:0:
256,192,9791,1,0,0:0:0:0:
256,192,9845,1,8,0:0:0:0:
256,192,10007,1,0,0:0:0:0:
256,192,10170,1,8,0:0:0:0:
256,192,10210,1,8,0:0:0:0:
256,192,10332,1,8,0:0:0:0:
256,192,10494,1,4,0:0:0:0:
256,192,10818,1,8,0:0:0:0:
256,192,10980,1,8,0:0:0:0:
256,192,11061,1,0,0:0:0:0:
256,192,11143,1,0,0:0:0:0:
256,192,11305,1,0,0:0:0:0:
256,192,11467,1,8,0:0:0:0:
256,192,11629,1,8,0:0:0:0:
256,192,11710,1,8,0:0:0:0:
256,192,11791,1,8,0:0:0:0:
256,192,11953,1,0,0:0:0:0:
256,192,12115,1,8,0:0:0:0:
256,192,12278,1,8,0:0:0:0:
256,192,12359,1,0,0:0:0:0:
256,192,12440,1,0,0:0:0:0:
256,192,12602,1,0,0:0:0:0:
256,192,12764,1,8,0:0:0:0:
256,192,12926,1,8,0:0:0:0:
256,192,13088,1,4,0:0:0:0:
256,192,13413,1,8,0:0:0:0:
256,192,13575,1,8,0:0:0:0:
256,192,13656,1,0,0:0:0:0:
256,192,13737,1,8,0:0:0:0:
256,192,13899,1,0,0:0:0:0:
256,192,14061,1,8,0:0:0:0:
256,192,14224,1,0,0:0:0:0:
256,192,14305,1,8,0:0:0:0:
256,192,14386,1,0,0:0:0:0:
256,192,14548,1,0,0:0:0:0:
256,192,14710,1,8,0:0:0:0:
256,192,14872,1,0,0:0:0:0:
256,192,14953,1,0,0:0:0:0:
256,192,15034,1,0,0:0:0:0:
256,192,15197,1,0,0:0:0:0:
256,192,15359,1,12,0:0:0:0:
256,192,15521,1,0,0:0:0:0:
256,192,15683,1,4,0:0:0:0:
256,192,16007,1,8,0:0:0:0:
256,192,16170,1,8,0:0:0:0:
256,192,16251,1,0,0:0:0:0:
256,192,16332,1,0,0:0:0:0:
256,192,16494,1,0,0:0:0:0:
256,192,16656,1,8,0:0:0:0:
256,192,16818,1,8,0:0:0:0:
256,192,16899,1,8,0:0:0:0:
256,192,16980,1,8,0:0:0:0:
256,192,17143,1,0,0:0:0:0:
256,192,17305,1,8,0:0:0:0:
256,192,17467,1,0,0:0:0:0:
256,192,17521,1,8,0:0:0:0:
256,192,17575,1,8,0:0:0:0:
256,192,17629,1,0,0:0:0:0:
256,192,17791,1,0,0:0:0:0:
256,192,17953,1,12,0:0:0:0:
256,192,18115,1,0,0:0:0:0:
256,192,18197,1,0,0:0:0:0:
256,192,18278,1,8,0:0:0:0:
256,192,18440,1,0,0:0:0:0:
256,192,18521,1,0,0:0:0:0:
256,192,18602,1,8,0:0:0:0:
256,192,18764,1,8,0:0:0:0:
256,192,18845,1,0,0:0:0:0:
256,192,18926,1,8,0:0:0:0:
256,192,19088,1,8,0:0:0:0:
256,192,19170,1,8,0:0:0:0:
256,192,19251,1,8,0:0:0:0:
256,192,19413,1,0,0:0:0:0:
256,192,19494,1,0,0:0:0:0:
256,192,19575,1,8,0:0:0:0:
256,192,19615,1,8,0:0:0:0:
256,192,19737,1,8,0:0:0:0:
256,192,19899,1,8,0:0:0:0:
256,192,20061,1,0,0:0:0:0:
256,192,20872,1,0,0:0:0:0:
256,192,21034,1,0,0:0:0:0:
256,192,21197,1,8,0:0:0:0:
256,192,21359,1,0,0:0:0:0:
256,192,21845,1,8,0:0:0:0:
256,192,22494,1,8,0:0:0:0:
256,192,23143,1,8,0:0:0:0:
256,192,23467,1,0,0:0:0:0:
256,192,23629,1,0,0:0:0:0:
256,192,23791,1,8,0:0:0:0:
256,192,23953,1,0,0:0:0:0:
256,192,24440,1,8,0:0:0:0:
256,192,24764,1,0,0:0:0:0:
256,192,24926,1,0,0:0:0:0:
256,192,25088,1,8,0:0:0:0:
256,192,25251,1,0,0:0:0:0:
256,192,25575,1,0,0:0:0:0:
256,192,25656,1,0,0:0:0:0:
256,192,25737,1,0,0:0:0:0:
256,192,26061,1,4,0:0:0:0:
256,192,26224,1,0,0:0:0:0:
256,192,26386,1,8,0:0:0:0:
256,192,26548,1,0,0:0:0:0:
256,192,27034,1,8,0:0:0:0:
256,192,27359,1,0,0:0:0:0:
256,192,27683,1,8,0:0:0:0:
256,192,28007,1,0,0:0:0:0:
256,192,28332,1,8,0:0:0:0:
256,192,28656,1,0,0:0:0:0:
256,192,28818,1,0,0:0:0:0:
256,192,28980,1,8,0:0:0:0:
256,192,29143,1,0,0:0:0:0:
256,192,29467,1,0,0:0:0:0:
256,192,29548,1,0,0:0:0:0:
256,192,29629,1,8,0:0:0:0:
256,192,29791,1,0,0:0:0:0:
256,192,29953,1,8,0:0:0:0:
256,192,30034,1,8,0:0:0:0:
256,192,30115,1,8,0:0:0:0:
256,192,30197,1,0,0:0:0:0:
256,192,30278,1,8,0:0:0:0:
256,192,30359,1,8,0:0:0:0:
256,192,30440,1,0,0:0:0:0:
256,192,30521,1,0,0:0:0:0:
256,192,30602,1,8,0:0:0:0:
256,192,30683,1,8,0:0:0:0:
256,192,30764,1,0,0:0:0:0:
256,192,30845,1,0,0:0:0:0:
256,192,30926,1,8,0:0:0:0:
256,192,31088,1,0,0:0:0:0:
256,192,31170,1,0,0:0:0:0:
256,192,31251,1,8,0:0:0:0:
256,192,31413,1,0,0:0:0:0:
256,192,31575,1,8,0:0:0:0:
256,192,31737,1,0,0:0:0:0:
256,192,31899,1,0,0:0:0:0:
256,192,32061,1,8,0:0:0:0:
256,192,32143,1,0,0:0:0:0:
256,192,32224,1,8,0:0:0:0:
256,192,32386,1,8,0:0:0:0:
256,192,32548,1,8,0:0:0:0:
256,192,32710,1,0,0:0:0:0:
256,192,32872,1,8,0:0:0:0:
256,192,33034,1,0,0:0:0:0:
256,192,33197,1,8,0:0:0:0:
256,192,33359,1,0,0:0:0:0:
256,192,33521,1,0,0:0:0:0:
256,192,33683,1,8,0:0:0:0:
256,192,33845,1,0,0:0:0:0:
256,192,34007,1,0,0:0:0:0:
256,192,34170,1,8,0:0:0:0:
256,192,34332,1,0,0:0:0:0:
256,192,34494,1,0,0:0:0:0:
256,192,34656,1,0,0:0:0:0:
256,192,34818,1,8,0:0:0:0:
256,192,34980,1,0,0:0:0:0:
256,192,35143,1,0,0:0:0:0:
256,192,35224,1,0,0:0:0:0:
256,192,35305,1,0,0:0:0:0:
256,192,35386,1,0,0:0:0:0:
256,192,35467,1,8,0:0:0:0:
256,192,35629,1,0,0:0:0:0:
256,192,35791,1,8,0:0:0:0:
256,192,35872,1,8,0:0:0:0:
256,192,35953,1,0,0:0:0:0:
256,192,36034,1,0,0:0:0:0:
256,192,36115,1,8,0:0:0:0:
256,192,36278,1,0,0:0:0:0:
256,192,36440,1,4,0:0:0:0:
256,192,36602,1,0,0:0:0:0:
256,192,36764,1,8,0:0:0:0:
256,192,36926,1,0,0:0:0:0:
256,192,37088,1,8,0:0:0:0:
256,192,37251,1,0,0:0:0:0:
256,192,37332,1,0,0:0:0:0:
256,192,37413,1,8,0:0:0:0:
256,192,37575,1,8,0:0:0:0:
256,192,37737,1,8,0:0:0:0:
256,192,37899,1,0,0:0:0:0:
256,192,38061,1,8,0:0:0:0:
256,192,38224,1,0,0:0:0:0:
256,192,38386,1,0,0:0:0:0:
256,192,38548,1,0,0:0:0:0:
256,192,38629,1,0,0:0:0:0:
256,192,38710,1,8,0:0:0:0:
256,192,38872,1,0,0:0:0:0:
256,192,39034,1,4,0:0:0:0:
256,192,39197,1,4,0:0:0:0:
256,192,39359,1,8,0:0:0:0:
256,192,39521,1,4,0:0:0:0:
256,192,39845,1,4,0:0:0:0:
256,192,40170,1,4,0:0:0:0:
256,192,40494,1,0,0:0:0:0:
256,192,40575,1,0,0:0:0:0:
256,192,40656,1,8,0:0:0:0:
256,192,40818,1,8,0:0:0:0:
256,192,40899,1,8,0:0:0:0:
256,192,40980,1,0,0:0:0:0:
256,192,41143,1,0,0:0:0:0:
256,192,41305,1,0,0:0:0:0:
256,192,41467,1,0,0:0:0:0:
256,192,41629,1,4,0:0:0:0:
256,192,41953,1,8,0:0:0:0:
256,192,42115,1,0,0:0:0:0:
256,192,42197,1,0,0:0:0:0:
256,192,42278,1,0,0:0:0:0:
256,192,42440,1,0,0:0:0:0:
256,192,42602,1,8,0:0:0:0:
256,192,42764,1,0,0:0:0:0:
256,192,42845,1,0,0:0:0:0:
256,192,42926,1,0,0:0:0:0:
256,192,43088,1,0,0:0:0:0:
256,192,43251,1,8,0:0:0:0:
256,192,43413,1,0,0:0:0:0:
256,192,43494,1,0,0:0:0:0:
256,192,43575,1,8,0:0:0:0:
256,192,43656,1,0,0:0:0:0:
256,192,43737,1,0,0:0:0:0:
256,192,43899,1,8,0:0:0:0:
256,192,44061,1,0,0:0:0:0:
256,192,44143,1,0,0:0:0:0:
256,192,44224,1,0,0:0:0:0:
256,192,44548,1,8,0:0:0:0:
256,192,44710,1,0,0:0:0:0:
256,192,44791,1,0,0:0:0:0:
256,192,44872,1,0,0:0:0:0:
256,192,45034,1,0,0:0:0:0:
256,192,45197,1,8,0:0:0:0:
256,192,45359,1,0,0:0:0:0:
256,192,45440,1,0,0:0:0:0:
256,192,45521,1,0,0:0:0:0:
256,192,45683,1,0,0:0:0:0:
256,192,45845,1,8,0:0:0:0:
256,192,46007,1,8,0:0:0:0:
256,192,46061,1,0,0:0:0:0:
256,192,46115,1,0,0:0:0:0:
256,192,46170,1,8,0:0:0:0:
256,192,46332,1,12,0:0:0:0:
256,192,46494,1,0,0:0:0:0:
256,192,46656,1,12,0:0:0:0:
256,192,46818,1,0,0:0:0:0:
256,192,47143,1,8,0:0:0:0:
256,192,47305,1,0,0:0:0:0:
256,192,47386,1,0,0:0:0:0:
256,192,47467,1,0,0:0:0:0:
256,192,47629,1,0,0:0:0:0:
256,192,47791,1,8,0:0:0:0:
256,192,47953,1,0,0:0:0:0:
256,192,48034,1,0,0:0:0:0:
256,192,48115,1,0,0:0:0:0:
256,192,48278,1,0,0:0:0:0:
256,192,48440,1,8,0:0:0:0:
256,192,48602,1,0,0:0:0:0:
256,192,48683,1,0,0:0:0:0:
256,192,48764,1,8,0:0:0:0:
256,192,48845,1,8,0:0:0:0:
256,192,48926,1,0,0:0:0:0:
256,192,49088,1,12,0:0:0:0:
256,192,49251,1,0,0:0:0:0:
256,192,49332,1,0,0:0:0:0:
256,192,49413,1,0,0:0:0:0:
256,192,49737,1,8,0:0:0:0:
256,192,49899,1,8,0:0:0:0:
256,192,49953,1,0,0:0:0:0:
256,192,50007,1,0,0:0:0:0:
256,192,50061,1,8,0:0:0:0:
256,192,50224,1,0,0:0:0:0:
256,192,50386,1,12,0:0:0:0:
256,192,50548,1,0,0:0:0:0:
256,192,50629,1,0,0:0:0:0:
256,192,50710,1,8,0:0:0:0:
256,192,50791,1,8,0:0:0:0:
256,192,50872,1,0,0:0:0:0:
256,192,50953,1,8,0:0:0:0:
256,192,51034,1,0,0:0:0:0:
256,192,51115,1,0,0:0:0:0:
256,192,51197,1,8,0:0:0:0:
256,192,51278,1,0,0:0:0:0:
256,192,51359,1,8,0:0:0:0:
256,192,51440,1,8,0:0:0:0:
256,192,51521,1,0,0:0:0:0:
256,192,51602,1,0,0:0:0:0:
256,192,51683,1,8,0:0:0:0:
256,192,51845,1,8,0:0:0:0:
256,192,51926,1,0,0:0:0:0:
256,192,52007,1,8,0:0:0:0:
256,192,52170,1,0,0:0:0:0:
256,192,52332,1,8,0:0:0:0:
256,192,52494,1,0,0:0:0:0:
256,192,52656,1,8,0:0:0:0:
256,192,52818,1,0,0:0:0:0:
256,192,52980,1,8,0:0:0:0:
256,192,53143,1,0,0:0:0:0:
256,192,53224,1,0,0:0:0:0:
256,192,53305,1,8,0:0:0:0:
256,192,53548,1,0,0:0:0:0:
256,192,53629,1,8,0:0:0:0:
256,192,53791,1,0,0:0:0:0:
256,192,53953,1,8,0:0:0:0:
256,192,54115,1,0,0:0:0:0:
256,192,54197,1,0,0:0:0:0:
256,192,54278,1,8,0:0:0:0:
256,192,54440,1,8,0:0:0:0:
256,192,54521,1,0,0:0:0:0:
256,192,54602,1,8,0:0:0:0:
256,192,54845,1,0,0:0:0:0:
256,192,54926,1,8,0:0:0:0:
256,192,55088,1,0,0:0:0:0:
256,192,55251,1,8,0:0:0:0:
256,192,55413,1,0,0:0:0:0:
256,192,55494,1,0,0:0:0:0:
256,192,55575,1,8,0:0:0:0:
256,192,55737,1,8,0:0:0:0:
256,192,55818,1,0,0:0:0:0:
256,192,55899,1,8,0:0:0:0:
256,192,56061,1,0,0:0:0:0:
256,192,56143,1,0,0:0:0:0:
256,192,56224,1,8,0:0:0:0:
256,192,56386,1,8,0:0:0:0:
256,192,56467,1,8,0:0:0:0:
256,192,56548,1,8,0:0:0:0:
256,192,56710,1,0,0:0:0:0:
256,192,56791,1,0,0:0:0:0:
256,192,56872,1,8,0:0:0:0:
256,192,57034,1,8,0:0:0:0:
256,192,57115,1,0,0:0:0:0:
256,192,57197,1,8,0:0:0:0:
256,192,57440,1,0,0:0:0:0:
256,192,57521,1,8,0:0:0:0:
256,192,57683,1,0,0:0:0:0:
256,192,57845,1,8,0:0:0:0:
256,192,58007,1,0,0:0:0:0:
256,192,58088,1,0,0:0:0:0:
256,192,58170,1,8,0:0:0:0:
256,192,58332,1,8,0:0:0:0:
256,192,58413,1,0,0:0:0:0:
256,192,58494,1,8,0:0:0:0:
256,192,58737,1,0,0:0:0:0:
256,192,58818,1,8,0:0:0:0:
256,192,58980,1,0,0:0:0:0:
256,192,59143,1,8,0:0:0:0:
256,192,59305,1,0,0:0:0:0:
256,192,59386,1,0,0:0:0:0:
256,192,59467,1,8,0:0:0:0:
256,192,59629,1,8,0:0:0:0:
256,192,59710,1,0,0:0:0:0:
256,192,59791,1,8,0:0:0:0:
256,192,59953,1,8,0:0:0:0:
256,192,60115,1,0,0:0:0:0:
256,192,60278,1,8,0:0:0:0:
256,192,60440,1,8,0:0:0:0:
256,192,60602,1,8,0:0:0:0:
256,192,60764,1,8,0:0:0:0:
256,192,60926,1,0,0:0:0:0:
256,192,61007,1,0,0:0:0:0:
256,192,61088,1,12,0:0:0:0:
256,192,61332,1,12,0:0:0:0:
256,192,61575,1,12,0:0:0:0:
256,192,62386,1,4,0:0:0:0:
256,192,62548,1,0,0:0:0:0:
256,192,62710,1,8,0:0:0:0:
256,192,62791,1,8,0:0:0:0:
256,192,62872,1,0,0:0:0:0:
256,192,63034,1,0,0:0:0:0:
256,192,63197,1,0,0:0:0:0:
256,192,63278,1,0,0:0:0:0:
256,192,63359,1,8,0:0:0:0:
256,192,63521,1,8,0:0:0:0:
256,192,63683,1,0,0:0:0:0:
256,192,63845,1,8,0:0:0:0:
256,192,63926,1,0,0:0:0:0:
256,192,64007,1,8,0:0:0:0:
256,192,64088,1,8,0:0:0:0:
256,192,64170,1,0,0:0:0:0:
256,192,64251,1,0,0:0:0:0:
256,192,64332,1,8,0:0:0:0:
256,192,64494,1,0,0:0:0:0:
256,192,64656,1,8,0:0:0:0:
256,192,64818,1,0,0:0:0:0:
256,192,64899,1,0,0:0:0:0:
256,192,64980,1,8,0:0:0:0:
256,192,65143,1,0,0:0:0:0:
256,192,65305,1,8,0:0:0:0:
256,192,65386,1,8,0:0:0:0:
256,192,65467,1,0,0:0:0:0:
256,192,65629,1,0,0:0:0:0:
256,192,65791,1,0,0:0:0:0:
256,192,65872,1,0,0:0:0:0:
256,192,65953,1,8,0:0:0:0:
256,192,66115,1,0,0:0:0:0:
256,192,66278,1,8,0:0:0:0:
256,192,66440,1,8,0:0:0:0:
256,192,66521,1,0,0:0:0:0:
256,192,66602,1,8,0:0:0:0:
256,192,66683,1,8,0:0:0:0:
256,192,66764,1,0,0:0:0:0:
256,192,66845,1,8,0:0:0:0:
256,192,66926,1,0,0:0:0:0:
256,192,67007,1,0,0:0:0:0:
256,192,67088,1,8,0:0:0:0:
256,192,67170,1,8,0:0:0:0:
256,192,67251,1,0,0:0:0:0:
256,192,67413,1,0,0:0:0:0:
256,192,67494,1,0,0:0:0:0:
256,192,67575,1,8,0:0:0:0:
256,192,67737,1,0,0:0:0:0:
256,192,67899,1,8,0:0:0:0:
256,192,67980,1,8,0:0:0:0:
256,192,68061,1,0,0:0:0:0:
256,192,68223,1,0,0:0:0:0:
256,192,68386,1,0,0:0:0:0:
256,192,68467,1,0,0:0:0:0:
256,192,68548,1,8,0:0:0:0:
256,192,68710,1,8,0:0:0:0:
256,192,68872,1,0,0:0:0:0:
256,192,69034,1,0,0:0:0:0:
256,192,69196,1,8,0:0:0:0:
256,192,69277,1,8,0:0:0:0:
256,192,69359,1,0,0:0:0:0:
256,192,69440,1,0,0:0:0:0:
256,192,69521,1,8,0:0:0:0:
256,192,69683,1,0,0:0:0:0:
256,192,69845,1,8,0:0:0:0:
256,192,70007,1,8,0:0:0:0:
256,192,70170,1,4,0:0:0:0:
256,192,70332,1,0,0:0:0:0:
256,192,70413,1,0,0:0:0:0:
256,192,70494,1,8,0:0:0:0:
256,192,70656,1,0,0:0:0:0:
256,192,70737,1,0,0:0:0:0:
256,192,70818,1,0,0:0:0:0:
256,192,70980,1,0,0:0:0:0:
256,192,71061,1,0,0:0:0:0:
256,192,71143,1,8,0:0:0:0:
256,192,71305,1,0,0:0:0:0:
256,192,71386,1,0,0:0:0:0:
256,192,71467,1,0,0:0:0:0:
256,192,71629,1,0,0:0:0:0:
256,192,71791,1,8,0:0:0:0:
256,192,71953,1,0,0:0:0:0:
256,192,72034,1,0,0:0:0:0:
256,192,72115,1,8,0:0:0:0:
256,192,72278,1,8,0:0:0:0:
256,192,72440,1,8,0:0:0:0:
256,192,72602,1,8,0:0:0:0:
256,192,72764,1,4,0:0:0:0:
256,192,72926,1,0,0:0:0:0:
256,192,73088,1,8,0:0:0:0:
256,192,73169,1,8,0:0:0:0:
256,192,73250,1,0,0:0:0:0:
256,192,73412,1,0,0:0:0:0:
256,192,73575,1,0,0:0:0:0:
256,192,73656,1,0,0:0:0:0:
256,192,73737,1,8,0:0:0:0:
256,192,73899,1,8,0:0:0:0:
256,192,74061,1,0,0:0:0:0:
256,192,74223,1,8,0:0:0:0:
256,192,74305,1,0,0:0:0:0:
256,192,74385,1,8,0:0:0:0:
256,192,74466,1,8,0:0:0:0:
256,192,74548,1,0,0:0:0:0:
256,192,74629,1,0,0:0:0:0:
256,192,74710,1,8,0:0:0:0:
256,192,74872,1,0,0:0:0:0:
256,192,75034,1,8,0:0:0:0:
256,192,75196,1,0,0:0:0:0:
256,192,75277,1,0,0:0:0:0:
256,192,75358,1,8,0:0:0:0:
256,192,75521,1,0,0:0:0:0:
256,192,75683,1,8,0:0:0:0:
256,192,75764,1,8,0:0:0:0:
256,192,75845,1,0,0:0:0:0:
256,192,76007,1,0,0:0:0:0:
256,192,76169,1,0,0:0:0:0:
256,192,76250,1,0,0:0:0:0:
256,192,76331,1,8,0:0:0:0:
256,192,76493,1,0,0:0:0:0:
256,192,76656,1,8,0:0:0:0:
256,192,76818,1,8,0:0:0:0:
256,192,76899,1,0,0:0:0:0:
256,192,76980,1,8,0:0:0:0:
256,192,77061,1,8,0:0:0:0:
256,192,77142,1,0,0:0:0:0:
256,192,77223,1,8,0:0:0:0:
256,192,77304,1,0,0:0:0:0:
256,192,77385,1,0,0:0:0:0:
256,192,77466,1,8,0:0:0:0:
256,192,77548,1,8,0:0:0:0:
256,192,77629,1,0,0:0:0:0:
256,192,77791,1,0,0:0:0:0:
256,192,77872,1,0,0:0:0:0:
256,192,77953,1,8,0:0:0:0:
256,192,78115,1,0,0:0:0:0:
256,192,78277,1,8,0:0:0:0:
256,192,78358,1,8,0:0:0:0:
256,192,78439,1,0,0:0:0:0:
256,192,78601,1,0,0:0:0:0:
256,192,78764,1,0,0:0:0:0:
256,192,78845,1,0,0:0:0:0:
256,192,78926,1,8,0:0:0:0:
256,192,79088,1,8,0:0:0:0:
256,192,79250,1,0,0:0:0:0:
256,192,79412,1,0,0:0:0:0:
256,192,79574,1,8,0:0:0:0:
256,192,79655,1,8,0:0:0:0:
256,192,79737,1,0,0:0:0:0:
256,192,79818,1,0,0:0:0:0:
256,192,79899,1,8,0:0:0:0:
256,192,80061,1,0,0:0:0:0:
256,192,80224,1,0,0:0:0:0:
256,192,80305,1,8,0:0:0:0:
256,192,80386,1,0,0:0:0:0:
256,192,80467,1,0,0:0:0:0:
256,192,80548,1,8,0:0:0:0:
256,192,80710,1,0,0:0:0:0:
256,192,80872,1,8,0:0:0:0:
256,192,81034,1,0,0:0:0:0:
256,192,81115,1,0,0:0:0:0:
256,192,81197,1,0,0:0:0:0:
256,192,81359,1,0,0:0:0:0:
256,192,81521,1,8,0:0:0:0:
256,192,81683,1,0,0:0:0:0:
256,192,81764,1,0,0:0:0:0:
256,192,81845,1,0,0:0:0:0:
256,192,82007,1,8,0:0:0:0:
256,192,82170,1,0,0:0:0:0:
256,192,82332,1,0,0:0:0:0:
256,192,82494,1,12,0:0:0:0:
256,192,83143,1,4,0:0:0:0:
256,192,83305,1,0,0:0:0:0:
256,192,83467,1,8,0:0:0:0:
256,192,83629,1,0,0:0:0:0:
256,192,83710,1,0,0:0:0:0:
256,192,83791,1,0,0:0:0:0:
256,192,83953,1,0,0:0:0:0:
256,192,84115,1,8,0:0:0:0:
256,192,84278,1,0,0:0:0:0:
256,192,84359,1,0,0:0:0:0:
256,192,84440,1,8,0:0:0:0:
256,192,84602,1,0,0:0:0:0:
256,192,84764,1,8,0:0:0:0:
256,192,84926,1,0,0:0:0:0:
256,192,85007,1,0,0:0:0:0:
256,192,85088,1,0,0:0:0:0:
256,192,85251,1,0,0:0:0:0:
256,192,85413,1,8,0:0:0:0:
256,192,85575,1,0,0:0:0:0:
256,192,85737,1,4,0:0:0:0:
256,192,86061,1,8,0:0:0:0:
256,192,86223,1,0,0:0:0:0:
256,192,86304,1,0,0:0:0:0:
256,192,86385,1,0,0:0:0:0:
256,192,86547,1,0,0:0:0:0:
256,192,86709,1,8,0:0:0:0:
256,192,86872,1,0,0:0:0:0:
256,192,86953,1,0,0:0:0:0:
256,192,87034,1,8,0:0:0:0:
256,192,87196,1,0,0:0:0:0:
256,192,87358,1,8,0:0:0:0:
256,192,87520,1,0,0:0:0:0:
256,192,87601,1,0,0:0:0:0:
256,192,87682,1,0,0:0:0:0:
256,192,87845,1,0,0:0:0:0:
256,192,88007,1,8,0:0:0:0:
256,192,88170,1,0,0:0:0:0:
256,192,88332,1,4,0:0:0:0:
256,192,88656,1,8,0:0:0:0:
256,192,88818,1,0,0:0:0:0:
256,192,88899,1,0,0:0:0:0:
256,192,88980,1,0,0:0:0:0:
256,192,89142,1,0,0:0:0:0:
256,192,89304,1,8,0:0:0:0:
256,192,89467,1,0,0:0:0:0:
256,192,89548,1,0,0:0:0:0:
256,192,89629,1,8,0:0:0:0:
256,192,89791,1,0,0:0:0:0:
256,192,89953,1,8,0:0:0:0:
256,192,90115,1,0,0:0:0:0:
256,192,90196,1,8,0:0:0:0:
256,192,90277,1,0,0:0:0:0:
256,192,90440,1,0,0:0:0:0:
256,192,90602,1,8,0:0:0:0:
256,192,90764,1,0,0:0:0:0:
256,192,90926,1,4,0:0:0:0:
256,192,91251,1,8,0:0:0:0:
256,192,91413,1,0,0:0:0:0:
256,192,91494,1,0,0:0:0:0:
256,192,91575,1,0,0:0:0:0:
256,192,91737,1,0,0:0:0:0:
256,192,91899,1,8,0:0:0:0:
256,192,92062,1,0,0:0:0:0:
256,192,92143,1,0,0:0:0:0:
256,192,92224,1,8,0:0:0:0:
256,192,92386,1,0,0:0:0:0:
256,192,92467,1,0,0:0:0:0:
256,192,92548,1,8,0:0:0:0:
256,192,92710,1,8,0:0:0:0:
256,192,92791,1,8,0:0:0:0:
256,192,92872,1,0,0:0:0:0:
256,192,93035,1,0,0:0:0:0:
256,192,93197,1,8,0:0:0:0:
256,192,93359,1,8,0:0:0:0:
256,192,93521,1,4,0:0:0:0:
256,192,93683,1,0,0:0:0:0:
256,192,93845,1,8,0:0:0:0:
256,192,94007,1,0,0:0:0:0:
256,192,94088,1,8,0:0:0:0:
256,192,94251,1,8,0:0:0:0:
256,192,94332,1,0,0:0:0:0:
256,192,94494,1,8,0:0:0:0:
256,192,94818,1,0,0:0:0:0:
256,192,94980,1,0,0:0:0:0:
256,192,95143,1,8,0:0:0:0:
256,192,95305,1,0,0:0:0:0:
256,192,95386,1,8,0:0:0:0:
256,192,95548,1,8,0:0:0:0:
256,192,95629,1,0,0:0:0:0:
256,192,95791,1,8,0:0:0:0:
256,192,96115,1,0,0:0:0:0:
256,192,96278,1,0,0:0:0:0:
256,192,96440,1,8,0:0:0:0:
256,192,96602,1,0,0:0:0:0:
256,192,96683,1,8,0:0:0:0:
256,192,96845,1,8,0:0:0:0:
256,192,96926,1,0,0:0:0:0:
256,192,97088,1,8,0:0:0:0:
256,192,97413,1,0,0:0:0:0:
256,192,97575,1,0,0:0:0:0:
256,192,97737,1,8,0:0:0:0:
256,192,97899,1,0,0:0:0:0:
256,192,97980,1,8,0:0:0:0:
256,192,98143,1,8,0:0:0:0:
256,192,98224,1,0,0:0:0:0:
256,192,98386,1,8,0:0:0:0:
256,192,98710,1,0,0:0:0:0:
256,192,98872,1,0,0:0:0:0:
256,192,99034,1,8,0:0:0:0:
256,192,99197,1,0,0:0:0:0:
256,192,99278,1,8,0:0:0:0:
256,192,99440,1,8,0:0:0:0:
256,192,99521,1,0,0:0:0:0:
256,192,99683,1,8,0:0:0:0:
256,192,100007,1,0,0:0:0:0:
256,192,100170,1,0,0:0:0:0:
256,192,100332,1,8,0:0:0:0:
256,192,100494,1,0,0:0:0:0:
256,192,100575,1,8,0:0:0:0:
256,192,100737,1,8,0:0:0:0:
256,192,100818,1,0,0:0:0:0:
256,192,100980,1,8,0:0:0:0:
256,192,101305,1,0,0:0:0:0:
256,192,101467,1,0,0:0:0:0:
256,192,101629,1,8,0:0:0:0:
256,192,101791,1,0,0:0:0:0:
256,192,101872,1,8,0:0:0:0:
256,192,102035,1,8,0:0:0:0:
256,192,102116,1,0,0:0:0:0:
256,192,102278,1,8,0:0:0:0:
256,192,102440,1,0,0:0:0:0:
256,192,102521,1,0,0:0:0:0:
256,192,102602,1,8,0:0:0:0:
256,192,102764,1,8,0:0:0:0:
256,192,103088,1,0,0:0:0:0:
256,192,103170,1,0,0:0:0:0:
256,192,103251,1,8,0:0:0:0:
256,192,103413,1,8,0:0:0:0:
256,192,103575,1,8,0:0:0:0:
256,192,103737,1,8,0:0:0:0:
256,192,103899,1,12,0:0:0:0:
256,192,104061,1,0,0:0:0:0:
256,192,104223,1,8,0:0:0:0:
256,192,104385,1,0,0:0:0:0:
256,192,104547,1,0,0:0:0:0:
256,192,104709,1,8,0:0:0:0:
256,192,104791,1,0,0:0:0:0:
256,192,104872,1,8,0:0:0:0:
256,192,105034,1,8,0:0:0:0:
256,192,105196,1,8,0:0:0:0:
256,192,105358,1,0,0:0:0:0:
256,192,105520,1,8,0:0:0:0:
256,192,105682,1,0,0:0:0:0:
256,192,105845,1,8,0:0:0:0:
256,192,106007,1,0,0:0:0:0:
256,192,106169,1,0,0:0:0:0:
256,192,106331,1,8,0:0:0:0:
256,192,106493,1,0,0:0:0:0:
256,192,106655,1,0,0:0:0:0:
256,192,106818,1,8,0:0:0:0:
256,192,106980,1,0,0:0:0:0:
256,192,107142,1,0,0:0:0:0:
256,192,107304,1,0,0:0:0:0:
256,192,107466,1,8,0:0:0:0:
256,192,107628,1,0,0:0:0:0:
256,192,107791,1,0,0:0:0:0:
256,192,107872,1,0,0:0:0:0:
256,192,107953,1,0,0:0:0:0:
256,192,108034,1,0,0:0:0:0:
256,192,108115,1,8,0:0:0:0:
256,192,108277,1,0,0:0:0:0:
256,192,108439,1,8,0:0:0:0:
256,192,108520,1,8,0:0:0:0:
256,192,108601,1,0,0:0:0:0:
256,192,108682,1,0,0:0:0:0:
256,192,108763,1,8,0:0:0:0:
256,192,108926,1,0,0:0:0:0:
256,192,109088,1,4,0:0:0:0:
256,192,109250,1,0,0:0:0:0:
256,192,109412,1,8,0:0:0:0:
256,192,109574,1,0,0:0:0:0:
256,192,109736,1,8,0:0:0:0:
256,192,109899,1,0,0:0:0:0:
256,192,109980,1,0,0:0:0:0:
256,192,110061,1,8,0:0:0:0:
256,192,110223,1,8,0:0:0:0:
256,192,110385,1,8,0:0:0:0:
256,192,110547,1,0,0:0:0:0:
256,192,110709,1,8,0:0:0:0:
256,192,110872,1,0,0:0:0:0:
256,192,111034,1,0,0:0:0:0:
256,192,111196,1,0,0:0:0:0:
256,192,111277,1,0,0:0:0:0:
256,192,111358,1,8,0:0:0:0:
256,192,111520,1,0,0:0:0:0:
256,192,111602,1,0,0:0:0:0:
256,192,111683,1,12,0:0:0:0:
256,192,111899,1,0,0:0:0:0:
256,192,112115,1,0,0:0:0:0:
256,192,112332,1,12,0:0:0:0:
256,192,112548,1,0,0:0:0:0:
256,192,112764,1,0,0:0:0:0:
256,192,112980,1,8,0:0:0:0:
256,192,113088,1,0,0:0:0:0:
256,192,113143,1,0,0:0:0:0:
256,192,113197,1,8,0:0:0:0:
256,192,113305,1,8,0:0:0:0:
256,192,113413,1,8,0:0:0:0:
256,192,113521,1,8,0:0:0:0:
256,192,113629,1,0,0:0:0:0:
256,192,113737,1,0,0:0:0:0:
256,192,113845,1,0,0:0:0:0:
256,192,113953,1,8,0:0:0:0:
256,192,114061,1,8,0:0:0:0:
256,192,114170,1,8,0:0:0:0:
256,192,114278,1,4,0:0:0:0:
256,192,115575,1,4,0:0:0:0:
256,192,116872,1,4,0:0:0:0:
256,192,118170,1,4,0:0:0:0:
256,192,119143,1,0,0:0:0:0:
256,192,119305,1,0,0:0:0:0:
256,192,119467,1,4,0:0:0:0:
256,192,120115,1,12,0:0:0:0:
256,192,120764,1,4,0:0:0:0:
256,192,121413,1,4,0:0:0:0:
256,192,122061,1,12,0:0:0:0:
256,192,122386,1,0,0:0:0:0:
256,192,122710,1,0,0:0:0:0:
256,192,123034,1,0,0:0:0:0:
256,192,123359,5,8,0:0:0:0:
256,192,123521,1,0,0:0:0:0:
256,192,123575,1,0,0:0:0:0:
256,192,123629,1,0,0:0:0:0:
256,192,123683,1,8,0:0:0:0:
256,192,123845,1,8,0:0:0:0:
256,192,123899,1,0,0:0:0:0:
256,192,123953,1,0,0:0:0:0:
256,192,124007,1,8,0:0:0:0:
256,192,124170,1,8,0:0:0:0:
256,192,124332,1,0,0:0:0:0:
256,192,124413,1,0,0:0:0:0:
256,192,124494,1,8,0:0:0:0:
256,192,124575,1,8,0:0:0:0:
256,192,124656,1,0,0:0:0:0:
256,192,124818,1,0,0:0:0:0:
256,192,124980,1,8,0:0:0:0:
256,192,125142,1,0,0:0:0:0:
256,192,125304,1,8,0:0:0:0:
256,192,125466,1,0,0:0:0:0:
256,192,125628,1,8,0:0:0:0:
256,192,125791,1,0,0:0:0:0:
256,192,125872,1,0,0:0:0:0:
256,192,125953,1,8,0:0:0:0:
256,192,126196,1,0,0:0:0:0:
256,192,126277,1,8,0:0:0:0:
256,192,126439,1,0,0:0:0:0:
256,192,126601,1,8,0:0:0:0:
256,192,126763,1,0,0:0:0:0:
256,192,126845,1,0,0:0:0:0:
256,192,126926,1,8,0:0:0:0:
256,192,127088,1,8,0:0:0:0:
256,192,127169,1,0,0:0:0:0:
256,192,127250,1,8,0:0:0:0:
256,192,127493,1,0,0:0:0:0:
256,192,127574,1,8,0:0:0:0:
256,192,127736,1,0,0:0:0:0:
256,192,127899,1,8,0:0:0:0:
256,192,128061,1,0,0:0:0:0:
256,192,128142,1,0,0:0:0:0:
256,192,128223,1,8,0:0:0:0:
256,192,128385,1,8,0:0:0:0:
256,192,128466,1,0,0:0:0:0:
256,192,128547,1,8,0:0:0:0:
256,192,128709,1,0,0:0:0:0:
256,192,128791,1,0,0:0:0:0:
256,192,128872,1,8,0:0:0:0:
256,192,129034,1,8,0:0:0:0:
256,192,129115,1,8,0:0:0:0:
256,192,129196,1,8,0:0:0:0:
256,192,129358,1,0,0:0:0:0:
256,192,129439,1,0,0:0:0:0:
256,192,129520,1,8,0:0:0:0:
256,192,129682,1,8,0:0:0:0:
256,192,129763,1,0,0:0:0:0:
256,192,129845,1,8,0:0:0:0:
256,192,130088,1,0,0:0:0:0:
256,192,130169,1,8,0:0:0:0:
256,192,130331,1,0,0:0:0:0:
256,192,130493,1,8,0:0:0:0:
256,192,130655,1,0,0:0:0:0:
256,192,130736,1,0,0:0:0:0:
256,192,130818,1,8,0:0:0:0:
256,192,130980,1,8,0:0:0:0:
256,192,131061,1,0,0:0:0:0:
256,192,131142,1,8,0:0:0:0:
256,192,131385,1,0,0:0:0:0:
256,192,131466,1,8,0:0:0:0:
256,192,131628,1,0,0:0:0:0:
256,192,131791,1,8,0:0:0:0:
256,192,131953,1,0,0:0:0:0:
256,192,132034,1,0,0:0:0:0:
256,192,132115,1,8,0:0:0:0:
256,192,132277,1,8,0:0:0:0:
256,192,132358,1,0,0:0:0:0:
256,192,132439,1,8,0:0:0:0:
256,192,132601,1,8,0:0:0:0:
256,192,132763,1,0,0:0:0:0:
256,192,132926,1,8,0:0:0:0:
256,192,133088,1,8,0:0:0:0:
256,192,133250,1,8,0:0:0:0:
256,192,133412,1,8,0:0:0:0:
256,192,133574,1,0,0:0:0:0:
256,192,133655,1,0,0:0:0:0:
256,192,133737,1,8,0:0:0:0:
256,192,133818,1,8,0:0:0:0:
256,192,133899,1,0,0:0:0:0:
256,192,133980,1,8,0:0:0:0:
256,192,134061,1,8,0:0:0:0:
256,192,134143,1,0,0:0:0:0:
256,192,134224,1,8,0:0:0:0:
256,192,134305,1,8,0:0:0:0:
256,192,134386,1,0,0:0:0:0:
256,192,134467,1,8,0:0:0:0:
256,192,134548,1,0,0:0:0:0:
256,192,134629,1,0,0:0:0:0:
256,192,134710,1,8,0:0:0:0:
256,192,135034,1,4,0:0:0:0:
256,192,135196,1,0,0:0:0:0:
256,192,135359,1,8,0:0:0:0:
256,192,135440,1,8,0:0:0:0:
256,192,135521,1,0,0:0:0:0:
256,192,135683,1,0,0:0:0:0:
256,192,135845,1,0,0:0:0:0:
256,192,135926,1,0,0:0:0:0:
256,192,136007,1,8,0:0:0:0:
256,192,136170,1,8,0:0:0:0:
256,192,136332,1,0,0:0:0:0:
256,192,136493,1,8,0:0:0:0:
256,192,136575,1,0,0:0:0:0:
256,192,136655,1,8,0:0:0:0:
256,192,136736,1,8,0:0:0:0:
256,192,136818,1,0,0:0:0:0:
256,192,136899,1,0,0:0:0:0:
256,192,136980,1,8,0:0:0:0:
256,192,137142,1,0,0:0:0:0:
256,192,137304,1,8,0:0:0:0:
256,192,137466,1,0,0:0:0:0:
256,192,137547,1,0,0:0:0:0:
256,192,137628,1,8,0:0:0:0:
256,192,137791,1,0,0:0:0:0:
256,192,137953,1,8,0:0:0:0:
256,192,138034,1,8,0:0:0:0:
256,192,138115,1,0,0:0:0:0:
256,192,138277,1,0,0:0:0:0:
256,192,138439,1,0,0:0:0:0:
256,192,138520,1,0,0:0:0:0:
256,192,138601,1,8,0:0:0:0:
256,192,138763,1,0,0:0:0:0:
256,192,138926,1,8,0:0:0:0:
256,192,139088,1,8,0:0:0:0:
256,192,139169,1,0,0:0:0:0:
256,192,139250,1,8,0:0:0:0:
256,192,139331,1,8,0:0:0:0:
256,192,139412,1,0,0:0:0:0:
256,192,139493,1,8,0:0:0:0:
256,192,139574,1,0,0:0:0:0:
256,192,139655,1,0,0:0:0:0:
256,192,139736,1,8,0:0:0:0:
256,192,139818,1,8,0:0:0:0:
256,192,139899,1,0,0:0:0:0:
256,192,140061,1,0,0:0:0:0:
256,192,140142,1,0,0:0:0:0:
256,192,140223,1,8,0:0:0:0:
256,192,140385,1,0,0:0:0:0:
256,192,140547,1,8,0:0:0:0:
256,192,140628,1,8,0:0:0:0:
256,192,140709,1,0,0:0:0:0:
256,192,140871,1,0,0:0:0:0:
256,192,141034,1,0,0:0:0:0:
256,192,141115,1,0,0:0:0:0:
256,192,141196,1,8,0:0:0:0:
256,192,141358,1,8,0:0:0:0:
256,192,141520,1,0,0:0:0:0:
256,192,141682,1,0,0:0:0:0:
256,192,141844,1,8,0:0:0:0:
256,192,141925,1,8,0:0:0:0:
256,192,142007,1,0,0:0:0:0:
256,192,142088,1,0,0:0:0:0:
256,192,142169,1,8,0:0:0:0:
256,192,142331,1,0,0:0:0:0:
256,192,142493,1,8,0:0:0:0:
256,192,142655,1,8,0:0:0:0:
256,192,142818,1,4,0:0:0:0:
256,192,142981,1,0,0:0:0:0:
256,192,143062,1,0,0:0:0:0:
256,192,143143,1,8,0:0:0:0:
256,192,143305,1,0,0:0:0:0:
256,192,143386,1,0,0:0:0:0:
256,192,143467,1,0,0:0:0:0:
256,192,143629,1,0,0:0:0:0:
256,192,143710,1,0,0:0:0:0:
256,192,143791,1,8,0:0:0:0:
256,192,143953,1,0,0:0:0:0:
256,192,144034,1,0,0:0:0:0:
256,192,144115,1,0,0:0:0:0:
256,192,144278,1,0,0:0:0:0:
256,192,144440,1,8,0:0:0:0:
256,192,144601,1,0,0:0:0:0:
256,192,144682,1,0,0:0:0:0:
256,192,144763,1,8,0:0:0:0:
256,192,144926,1,8,0:0:0:0:
256,192,145088,1,8,0:0:0:0:
256,192,145250,1,8,0:0:0:0:
256,192,145412,1,4,0:0:0:0:
256,192,145574,1,0,0:0:0:0:
256,192,145736,1,8,0:0:0:0:
256,192,145817,1,8,0:0:0:0:
256,192,145898,1,0,0:0:0:0:
256,192,146060,1,0,0:0:0:0:
256,192,146223,1,0,0:0:0:0:
256,192,146304,1,0,0:0:0:0:
256,192,146385,1,8,0:0:0:0:
256,192,146547,1,8,0:0:0:0:
256,192,146709,1,0,0:0:0:0:
256,192,146871,1,8,0:0:0:0:
256,192,146953,1,0,0:0:0:0:
256,192,147033,1,8,0:0:0:0:
256,192,147114,1,8,0:0:0:0:
256,192,147196,1,0,0:0:0:0:
256,192,147277,1,0,0:0:0:0:
256,192,147358,1,8,0:0:0:0:
256,192,147520,1,0,0:0:0:0:
256,192,147682,1,8,0:0:0:0:
256,192,147844,1,0,0:0:0:0:
256,192,147925,1,0,0:0:0:0:
256,192,148006,1,8,0:0:0:0:
256,192,148169,1,0,0:0:0:0:
256,192,148331,1,8,0:0:0:0:
256,192,148412,1,8,0:0:0:0:
256,192,148493,1,0,0:0:0:0:
256,192,148655,1,0,0:0:0:0:
256,192,148817,1,0,0:0:0:0:
256,192,148898,1,0,0:0:0:0:
256,192,148979,1,8,0:0:0:0:
256,192,149143,1,0,0:0:0:0:
256,192,149304,1,8,0:0:0:0:
256,192,149466,1,8,0:0:0:0:
256,192,149547,1,0,0:0:0:0:
256,192,149628,1,8,0:0:0:0:
256,192,149709,1,8,0:0:0:0:
256,192,149790,1,0,0:0:0:0:
256,192,149871,1,8,0:0:0:0:
256,192,149952,1,0,0:0:0:0:
256,192,150033,1,0,0:0:0:0:
256,192,150114,1,8,0:0:0:0:
256,192,150196,1,8,0:0:0:0:
256,192,150277,1,0,0:0:0:0:
256,192,150439,1,0,0:0:0:0:
256,192,150520,1,0,0:0:0:0:
256,192,150601,1,8,0:0:0:0:
256,192,150763,1,0,0:0:0:0:
256,192,150925,1,8,0:0:0:0:
256,192,151006,1,8,0:0:0:0:
256,192,151087,1,0,0:0:0:0:
256,192,151251,1,0,0:0:0:0:
256,192,151412,1,0,0:0:0:0:
256,192,151493,1,0,0:0:0:0:
256,192,151574,1,8,0:0:0:0:
256,192,151736,1,8,0:0:0:0:
256,192,151898,1,0,0:0:0:0:
256,192,152060,1,0,0:0:0:0:
256,192,152224,1,8,0:0:0:0:
256,192,152305,1,8,0:0:0:0:
256,192,152386,1,0,0:0:0:0:
256,192,152467,1,0,0:0:0:0:
256,192,152548,1,8,0:0:0:0:
256,192,152709,1,0,0:0:0:0:
256,192,152872,1,0,0:0:0:0:
256,192,152953,1,8,0:0:0:0:
256,192,153034,1,0,0:0:0:0:
256,192,153115,1,0,0:0:0:0:
256,192,153196,1,8,0:0:0:0:
256,192,153358,1,0,0:0:0:0:
256,192,153520,1,8,0:0:0:0:
256,192,153682,1,0,0:0:0:0:
256,192,153763,1,0,0:0:0:0:
256,192,153845,1,0,0:0:0:0:
256,192,154007,1,0,0:0:0:0:
256,192,154169,1,8,0:0:0:0:
256,192,154331,1,8,0:0:0:0:
256,192,154412,1,8,0:0:0:0:
256,192,154493,1,8,0:0:0:0:
256,192,154655,1,8,0:0:0:0:
256,192,154737,1,0,0:0:0:0:
256,192,154818,1,0,0:0:0:0:
256,192,154980,1,0,0:0:0:0:
256,192,155061,1,0,0:0:0:0:
256,192,155142,1,8,0:0:0:0:
256,192,155305,1,0,0:0:0:0:
256,192,155467,1,0,0:0:0:0:
256,192,155629,1,0,0:0:0:0:
256,192,155791,1,4,0:0:0:0:
256,192,156115,1,0,0:0:0:0:
256,192,156278,1,0,0:0:0:0:
256,192,156440,1,8,0:0:0:0:
256,192,156764,1,0,0:0:0:0:
256,192,156926,1,0,0:0:0:0:
256,192,157251,1,8,0:0:0:0:
256,192,157413,1,0,0:0:0:0:
256,192,157575,1,0,0:0:0:0:
256,192,157737,1,8,0:0:0:0:
256,192,157899,1,0,0:0:0:0:
256,192,158061,1,0,0:0:0:0:
256,192,158224,1,0,0:0:0:0:
256,192,158386,1,8,0:0:0:0:
256,192,158710,1,0,0:0:0:0:
256,192,158872,1,0,0:0:0:0:
256,192,159034,1,8,0:0:0:0:
256,192,159359,1,0,0:0:0:0:
256,192,159521,1,0,0:0:0:0:
256,192,159845,1,8,0:0:0:0:
256,192,160007,1,0,0:0:0:0:
256,192,160170,1,0,0:0:0:0:
256,192,160332,1,8,0:0:0:0:
256,192,160494,1,0,0:0:0:0:
256,192,160656,1,0,0:0:0:0:
256,192,160980,1,0,0:0:0:0:
256,192,161305,1,0,0:0:0:0:
256,192,161467,1,0,0:0:0:0:
256,192,161629,1,8,0:0:0:0:
256,192,161953,1,0,0:0:0:0:
256,192,162115,1,0,0:0:0:0:
256,192,162278,1,0,0:0:0:0:
256,192,162440,1,8,0:0:0:0:
256,192,162764,1,0,0:0:0:0:
256,192,162926,1,8,0:0:0:0:
256,192,163088,1,0,0:0:0:0:
256,192,163413,1,0,0:0:0:0:
256,192,163575,1,0,0:0:0:0:
256,192,163899,1,0,0:0:0:0:
256,192,164061,1,0,0:0:0:0:
256,192,164224,1,8,0:0:0:0:
256,192,164386,1,0,0:0:0:0:
256,192,164548,1,8,0:0:0:0:
256,192,164872,1,0,0:0:0:0:
256,192,165034,1,0,0:0:0:0:
256,192,165197,1,8,0:0:0:0:
256,192,165359,1,0,0:0:0:0:
256,192,165440,1,0,0:0:0:0:
256,192,165521,1,8,0:0:0:0:
256,192,165602,1,8,0:0:0:0:
256,192,165683,1,0,0:0:0:0:
256,192,165764,1,8,0:0:0:0:
256,192,165845,1,0,0:0:0:0:
256,192,165926,1,0,0:0:0:0:
256,192,166007,1,8,0:0:0:0:
256,192,166088,1,8,0:0:0:0:
256,192,166170,1,0,0:0:0:0:
256,192,166332,1,0,0:0:0:0:
256,192,166494,1,8,0:0:0:0:
256,192,166656,1,0,0:0:0:0:
256,192,166818,1,8,0:0:0:0:
256,192,166980,1,0,0:0:0:0:
256,192,167143,1,8,0:0:0:0:
256,192,167224,1,8,0:0:0:0:
256,192,167305,1,0,0:0:0:0:
256,192,167386,1,0,0:0:0:0:
256,192,167467,1,8,0:0:0:0:
256,192,167629,1,0,0:0:0:0:
256,192,167710,1,0,0:0:0:0:
256,192,167791,1,8,0:0:0:0:
256,192,167872,1,8,0:0:0:0:
256,192,167953,1,0,0:0:0:0:
256,192,168034,1,0,0:0:0:0:
256,192,168115,1,8,0:0:0:0:
256,192,168197,1,0,0:0:0:0:
256,192,168278,1,8,0:0:0:0:
256,192,168359,1,8,0:0:0:0:
256,192,168440,1,0,0:0:0:0:
256,192,168521,1,0,0:0:0:0:
256,192,168602,1,0,0:0:0:0:
256,192,168683,1,0,0:0:0:0:
256,192,168764,1,8,0:0:0:0:
256,192,168926,1,0,0:0:0:0:
256,192,169088,1,8,0:0:0:0:
256,192,169251,1,0,0:0:0:0:
256,192,169332,1,0,0:0:0:0:
256,192,169413,1,8,0:0:0:0:
256,192,169575,1,0,0:0:0:0:
256,192,169737,1,8,0:0:0:0:
256,192,169818,1,8,0:0:0:0:
256,192,169899,1,0,0:0:0:0:
256,192,169980,1,0,0:0:0:0:
256,192,170061,1,8,0:0:0:0:
256,192,170224,1,0,0:0:0:0:
256,192,170386,1,8,0:0:0:0:
256,192,170467,1,0,0:0:0:0:
256,192,170548,1,8,0:0:0:0:
256,192,170629,1,8,0:0:0:0:
256,192,170710,1,0,0:0:0:0:
256,192,170791,1,8,0:0:0:0:
256,192,170872,1,0,0:0:0:0:
256,192,170953,1,0,0:0:0:0:
256,192,171034,1,8,0:0:0:0:
256,192,171115,1,8,0:0:0:0:
256,192,171197,1,0,0:0:0:0:
256,192,171278,1,0,0:0:0:0:
256,192,171359,1,8,0:0:0:0:
256,192,171521,1,0,0:0:0:0:
256,192,171602,1,0,0:0:0:0:
256,192,171683,1,8,0:0:0:0:
256,192,171845,1,0,0:0:0:0:
256,192,172007,1,8,0:0:0:0:
256,192,172170,1,0,0:0:0:0:
256,192,172332,1,0,0:0:0:0:
256,192,172413,1,8,0:0:0:0:
256,192,172494,1,0,0:0:0:0:
256,192,172575,1,0,0:0:0:0:
256,192,172656,1,8,0:0:0:0:
256,192,172818,1,0,0:0:0:0:
256,192,172899,1,0,0:0:0:0:
256,192,172980,1,8,0:0:0:0:
256,192,173143,1,0,0:0:0:0:
256,192,173305,1,8,0:0:0:0:
256,192,173386,1,8,0:0:0:0:
256,192,173467,1,0,0:0:0:0:
256,192,173548,1,0,0:0:0:0:
256,192,173629,1,8,0:0:0:0:
256,192,173791,1,8,0:0:0:0:
256,192,173872,1,0,0:0:0:0:
256,192,173953,1,8,0:0:0:0:
256,192,174115,1,0,0:0:0:0:
256,192,174278,1,8,0:0:0:0:
256,192,174440,1,8,0:0:0:0:
256,192,174521,1,8,0:0:0:0:
256,192,174602,1,8,0:0:0:0:
256,192,174764,1,0,0:0:0:0:
256,192,174845,1,0,0:0:0:0:
256,192,174926,1,8,0:0:0:0:
256,192,175170,1,8,0:0:0:0:
256,192,175251,1,0,0:0:0:0:
256,192,175413,1,0,0:0:0:0:
256,192,175575,1,0,0:0:0:0:
256,192,175737,1,0,0:0:0:0:
256,192,175899,1,8,0:0:0:0:
256,192,176224,1,0,0:0:0:0:
256,192,176332,1,0,0:0:0:0:
256,192,176440,1,0,0:0:0:0:
256,192,176548,1,8,0:0:0:0:
256,192,176872,1,0,0:0:0:0:
256,192,177521,1,0,0:0:0:0:
256,192,178170,1,0,0:0:0:0:
256,192,178818,1,0,0:0:0:0:
256,192,179143,1,8,0:0:0:0:
256,192,179467,1,0,0:0:0:0:
256,192,180115,1,0,0:0:0:0:
256,192,180764,1,0,0:0:0:0:
256,192,181413,1,0,0:0:0:0:
256,192,181737,1,8,0:0:0:0:
256,192,182061,1,0,0:0:0:0:
256,192,182386,1,0,0:0:0:0:
256,192,182710,1,0,0:0:0:0:
256,192,183034,1,0,0:0:0:0:
256,192,183359,1,0,0:0:0:0:
256,192,183683,1,0,0:0:0:0:
256,192,184007,1,0,0:0:0:0:
256,192,184332,1,8,0:0:0:0:
256,192,184494,1,0,0:0:0:0:
256,192,184656,1,0,0:0:0:0:
256,192,184818,1,0,0:0:0:0:
256,192,184980,1,8,0:0:0:0:
256,192,185143,1,0,0:0:0:0:
256,192,185305,1,0,0:0:0:0:
256,192,185467,1,0,0:0:0:0:
256,192,185629,1,0,0:0:0:0:
256,192,185710,1,0,0:0:0:0:
256,192,185791,1,0,0:0:0:0:
256,192,185872,1,0,0:0:0:0:
256,192,185953,1,8,0:0:0:0:
256,192,186034,1,8,0:0:0:0:
256,192,186115,1,0,0:0:0:0:
256,192,186197,1,0,0:0:0:0:
256,192,186278,1,8,0:0:0:0:
256,192,186318,1,8,0:0:0:0:
256,192,186926,1,0,0:0:0:0:
256,192,187251,1,8,0:0:0:0:
256,192,187494,1,8,0:0:0:0:
256,192,187575,1,0,0:0:0:0:
256,192,187737,1,0,0:0:0:0:
256,192,187899,1,8,0:0:0:0:
256,192,188224,1,8,0:0:0:0:
256,192,188548,1,8,0:0:0:0:
256,192,188791,1,8,0:0:0:0:
256,192,188872,1,0,0:0:0:0:
256,192,189034,1,0,0:0:0:0:
256,192,189197,1,8,0:0:0:0:
256,192,189359,1,0,0:0:0:0:
256,192,189521,1,0,0:0:0:0:
256,192,189683,1,0,0:0:0:0:
256,192,189845,1,8,0:0:0:0:
256,192,190088,1,8,0:0:0:0:
256,192,190170,1,0,0:0:0:0:
256,192,190332,1,0,0:0:0:0:
256,192,190494,1,8,0:0:0:0:
256,192,190656,1,8,0:0:0:0:
256,192,190737,1,0,0:0:0:0:
256,192,190818,1,0,0:0:0:0:
256,192,191143,1,8,0:0:0:0:
256,192,191467,1,0,0:0:0:0:
256,192,191629,1,0,0:0:0:0:
256,192,191791,1,12,0:0:0:0:
256,192,191953,1,0,0:0:0:0:
256,192,192115,1,12,0:0:0:0:
256,192,192440,1,8,0:0:0:0:
256,192,192602,1,0,0:0:0:0:
256,192,192683,1,0,0:0:0:0:
256,192,192764,1,0,0:0:0:0:
256,192,192926,1,0,0:0:0:0:
256,192,193088,1,8,0:0:0:0:
256,192,193413,1,0,0:0:0:0:
256,192,193575,1,0,0:0:0:0:
256,192,193737,1,8,0:0:0:0:
256,192,193899,1,0,0:0:0:0:
256,192,194061,1,0,0:0:0:0:
256,192,194224,1,8,0:0:0:0:
256,192,194386,1,8,0:0:0:0:
256,192,194548,1,0,0:0:0:0:
256,192,194710,1,4,0:0:0:0:
256,192,195034,1,8,0:0:0:0:
256,192,195197,1,0,0:0:0:0:
256,192,195278,1,0,0:0:0:0:
256,192,195359,1,0,0:0:0:0:
256,192,195521,1,0,0:0:0:0:
256,192,195683,1,8,0:0:0:0:
256,192,195845,1,0,0:0:0:0:
256,192,195926,1,8,0:0:0:0:
256,192,196007,1,0,0:0:0:0:
256,192,196170,1,0,0:0:0:0:
256,192,196332,1,12,0:0:0:0:
256,192,196494,1,0,0:0:0:0:
256,192,196534,1,0,0:0:0:0:
256,192,196656,1,0,0:0:0:0:
256,192,196818,1,0,0:0:0:0:
256,192,196980,1,8,0:0:0:0:
256,192,197021,1,8,0:0:0:0:
256,192,197143,1,8,0:0:0:0:
256,192,197305,1,4,0:0:0:0:
256,192,197629,1,8,0:0:0:0:
256,192,197791,1,0,0:0:0:0:
256,192,197872,1,8,0:0:0:0:
256,192,197953,1,0,0:0:0:0:
256,192,198115,1,0,0:0:0:0:
256,192,198278,1,8,0:0:0:0:
256,192,198602,1,0,0:0:0:0:
256,192,198926,1,8,0:0:0:0:
256,192,199088,1,0,0:0:0:0:
256,192,199170,1,0,0:0:0:0:
256,192,199251,1,0,0:0:0:0:
256,192,199413,1,0,0:0:0:0:
256,192,199575,1,8,0:0:0:0:
256,192,199737,1,8,0:0:0:0:
256,192,199899,1,4,0:0:0:0:
256,192,200224,1,8,0:0:0:0:
256,192,200386,1,8,0:0:0:0:
256,192,200467,1,0,0:0:0:0:
256,192,200548,1,8,0:0:0:0:
256,192,200710,1,0,0:0:0:0:
256,192,200872,1,8,0:0:0:0:
256,192,201034,1,0,0:0:0:0:
256,192,201115,1,0,0:0:0:0:
256,192,201197,1,8,0:0:0:0:
256,192,201521,1,8,0:0:0:0:
256,192,201683,1,8,0:0:0:0:
256,192,201764,1,0,0:0:0:0:
256,192,201845,1,8,0:0:0:0:
256,192,202007,1,0,0:0:0:0:
256,192,202170,1,8,0:0:0:0:
256,192,202332,1,0,0:0:0:0:
256,192,202413,1,0,0:0:0:0:
256,192,202494,1,8,0:0:0:0:
256,192,202737,1,0,0:0:0:0:
256,192,202818,1,8,0:0:0:0:
256,192,202980,1,0,0:0:0:0:
256,192,203143,1,8,0:0:0:0:
256,192,203386,1,0,0:0:0:0:
256,192,203467,1,8,0:0:0:0:
256,192,203629,1,0,0:0:0:0:
256,192,203791,1,8,0:0:0:0:
256,192,204034,1,0,0:0:0:0:
256,192,204115,1,8,0:0:0:0:
256,192,204278,1,0,0:0:0:0:
256,192,204359,1,0,0:0:0:0:
256,192,204440,1,8,0:0:0:0:
256,192,204602,1,0,0:0:0:0:
256,192,204764,1,8,0:0:0:0:
256,192,204845,1,0,0:0:0:0:
256,192,204926,1,0,0:0:0:0:
256,192,205088,5,8,0:0:0:0:
256,192,205170,1,0,0:0:0:0:
256,192,205251,1,0,0:0:0:0:
256,192,205332,1,0,0:0:0:0:
256,192,205413,1,8,0:0:0:0:
256,192,205494,1,0,0:0:0:0:
256,192,205575,1,8,0:0:0:0:
256,192,205656,1,0,0:0:0:0:
256,192,205737,1,0,0:0:0:0:
256,192,205818,1,0,0:0:0:0:
256,192,205899,1,8,0:0:0:0:
256,192,205980,1,0,0:0:0:0:
256,192,206061,1,8,0:0:0:0:
256,192,206143,1,8,0:0:0:0:
256,192,206224,1,0,0:0:0:0:
256,192,206305,1,0,0:0:0:0:
256,192,206386,1,8,0:0:0:0:
256,192,206467,1,8,0:0:0:0:
256,192,206548,1,8,0:0:0:0:
256,192,206629,1,0,0:0:0:0:
256,192,206710,1,8,0:0:0:0:
256,192,206791,1,8,0:0:0:0:
256,192,206872,1,0,0:0:0:0:
256,192,206953,1,8,0:0:0:0:
256,192,207034,1,0,0:0:0:0:
256,192,207115,1,0,0:0:0:0:
256,192,207197,1,8,0:0:0:0:
256,192,207278,1,0,0:0:0:0:
256,192,207359,1,8,0:0:0:0:
256,192,207521,1,0,0:0:0:0:
256,192,207683,1,8,0:0:0:0:
256,192,207845,1,8,0:0:0:0:
256,192,210278,1,0,0:0:0:0:
256,192,210440,1,0,0:0:0:0:
256,192,212224,1,0,0:0:0:0:
256,192,212386,1,8,0:0:0:0:
256,192,212548,1,0,0:0:0:0:
256,192,212710,1,8,0:0:0:0:
256,192,212872,1,4,0:0:0:0:
256,192,213034,1,0,0:0:0:0:
256,192,213197,1,8,0:0:0:0:
256,192,213359,1,0,0:0:0:0:
256,192,213440,1,0,0:0:0:0:
256,192,213521,1,0,0:0:0:0:
256,192,213683,1,0,0:0:0:0:
256,192,213845,1,8,0:0:0:0:
256,192,214007,1,0,0:0:0:0:
256,192,214088,1,0,0:0:0:0:
256,192,214170,1,0,0:0:0:0:
256,192,214332,1,0,0:0:0:0:
256,192,214494,1,8,0:0:0:0:
256,192,214656,1,8,0:0:0:0:
256,192,214737,1,0,0:0:0:0:
256,192,214818,1,8,0:0:0:0:
256,192,214980,1,0,0:0:0:0:
256,192,215143,1,12,0:0:0:0:
256,192,215305,1,0,0:0:0:0:
256,192,215386,1,0,0:0:0:0:
256,192,215467,1,8,0:0:0:0:
256,192,215629,1,8,0:0:0:0:
256,192,215683,1,0,0:0:0:0:
256,192,215737,1,0,0:0:0:0:
256,192,215791,1,8,0:0:0:0:
256,192,215872,1,8,0:0:0:0:
256,192,215953,1,0,0:0:0:0:
256,192,216034,1,0,0:0:0:0:
256,192,216115,1,8,0:0:0:0:
256,192,216197,1,8,0:0:0:0:
256,192,216278,1,0,0:0:0:0:
256,192,216359,1,0,0:0:0:0:
256,192,216440,1,8,0:0:0:0:
256,192,216521,1,8,0:0:0:0:
256,192,216602,1,0,0:0:0:0:
256,192,216683,1,0,0:0:0:0:
256,192,216764,1,8,0:0:0:0:
256,192,216926,1,8,0:0:0:0:
256,192,217088,1,0,0:0:0:0:
256,192,217251,1,8,0:0:0:0:
256,192,217413,1,8,0:0:0:0:
256,192,217575,1,8,0:0:0:0:
256,192,217737,1,8,0:0:0:0:
256,192,217818,1,8,0:0:0:0:
256,192,217899,1,0,0:0:0:0:
256,192,217980,1,0,0:0:0:0:
256,192,218061,1,8,0:0:0:0:
256,192,218224,1,0,0:0:0:0:
256,192,218386,1,8,0:0:0:0:
256,192,218548,1,0,0:0:0:0:
256,192,218710,1,8,0:0:0:0:
256,192,218872,1,0,0:0:0:0:
256,192,219034,1,8,0:0:0:0:
256,192,219197,1,0,0:0:0:0:
256,192,219278,1,0,0:0:0:0:
256,192,219359,1,8,0:0:0:0:
256,192,219602,1,0,0:0:0:0:
256,192,219683,1,8,0:0:0:0:
256,192,219845,1,0,0:0:0:0:
256,192,220007,1,8,0:0:0:0:
256,192,220169,1,0,0:0:0:0:
256,192,220251,1,0,0:0:0:0:
256,192,220332,1,8,0:0:0:0:
256,192,220494,1,8,0:0:0:0:
256,192,220575,1,0,0:0:0:0:
256,192,220656,1,8,0:0:0:0:
256,192,220899,1,0,0:0:0:0:
256,192,220980,1,8,0:0:0:0:
256,192,221142,1,0,0:0:0:0:
256,192,221305,1,8,0:0:0:0:
256,192,221467,1,0,0:0:0:0:
256,192,221548,1,0,0:0:0:0:
256,192,221629,1,8,0:0:0:0:
256,192,221791,1,8,0:0:0:0:
256,192,221872,1,0,0:0:0:0:
256,192,221953,1,8,0:0:0:0:
256,192,222115,1,0,0:0:0:0:
256,192,222197,1,0,0:0:0:0:
256,192,222278,1,8,0:0:0:0:
256,192,222440,1,8,0:0:0:0:
256,192,222521,1,8,0:0:0:0:
256,192,222602,1,8,0:0:0:0:
256,192,222764,1,0,0:0:0:0:
256,192,222845,1,0,0:0:0:0:
256,192,222926,1,8,0:0:0:0:
256,192,223088,1,8,0:0:0:0:
256,192,223169,1,0,0:0:0:0:
256,192,223251,1,8,0:0:0:0:
256,192,223494,1,0,0:0:0:0:
256,192,223575,1,8,0:0:0:0:
256,192,223737,1,0,0:0:0:0:
256,192,223899,1,8,0:0:0:0:
256,192,224061,1,0,0:0:0:0:
256,192,224142,1,0,0:0:0:0:
256,192,224224,1,8,0:0:0:0:
256,192,224386,1,8,0:0:0:0:
256,192,224467,1,0,0:0:0:0:
256,192,224548,1,8,0:0:0:0:
256,192,224791,1,0,0:0:0:0:
256,192,224872,1,8,0:0:0:0:
256,192,225034,1,0,0:0:0:0:
256,192,225197,1,8,0:0:0:0:
256,192,225359,1,0,0:0:0:0:
256,192,225440,1,0,0:0:0:0:
256,192,225521,1,8,0:0:0:0:
256,192,225683,1,8,0:0:0:0:
256,192,225764,1,0,0:0:0:0:
256,192,225845,1,8,0:0:0:0:
256,192,226007,1,8,0:0:0:0:
256,192,226170,1,0,0:0:0:0:
256,192,226332,1,8,0:0:0:0:
256,192,226494,1,8,0:0:0:0:
256,192,226656,1,8,0:0:0:0:
256,192,226818,1,8,0:0:0:0:
256,192,226980,1,0,0:0:0:0:
256,192,227061,1,0,0:0:0:0:
256,192,227143,1,12,0:0:0:0:
256,192,227386,1,4,0:0:0:0:
256,192,227629,1,12,0:0:0:0:
256,192,228440,1,4,0:0:0:0:
256,192,228602,1,0,0:0:0:0:
256,192,228764,1,8,0:0:0:0:
256,192,228845,1,8,0:0:0:0:
256,192,228926,1,0,0:0:0:0:
256,192,229088,1,0,0:0:0:0:
256,192,229251,1,0,0:0:0:0:
256,192,229332,1,0,0:0:0:0:
256,192,229413,1,8,0:0:0:0:
256,192,229575,1,8,0:0:0:0:
256,192,229737,1,0,0:0:0:0:
256,192,229899,1,8,0:0:0:0:
256,192,229980,1,0,0:0:0:0:
256,192,230061,1,8,0:0:0:0:
256,192,230142,1,8,0:0:0:0:
256,192,230224,1,0,0:0:0:0:
256,192,230305,1,0,0:0:0:0:
256,192,230386,1,8,0:0:0:0:
256,192,230548,1,0,0:0:0:0:
256,192,230629,1,8,0:0:0:0:
256,192,230710,1,8,0:0:0:0:
256,192,230872,1,0,0:0:0:0:
256,192,230953,1,0,0:0:0:0:
256,192,231034,1,8,0:0:0:0:
256,192,231197,1,0,0:0:0:0:
256,192,231359,1,8,0:0:0:0:
256,192,231440,1,8,0:0:0:0:
256,192,231521,1,0,0:0:0:0:
256,192,231683,1,0,0:0:0:0:
256,192,231845,1,0,0:0:0:0:
256,192,231926,1,0,0:0:0:0:
256,192,232007,1,8,0:0:0:0:
256,192,232169,1,0,0:0:0:0:
256,192,232332,1,8,0:0:0:0:
256,192,232494,1,8,0:0:0:0:
256,192,232575,1,0,0:0:0:0:
256,192,232656,1,8,0:0:0:0:
256,192,232737,1,8,0:0:0:0:
256,192,232818,1,0,0:0:0:0:
256,192,232899,1,8,0:0:0:0:
256,192,232980,1,0,0:0:0:0:
256,192,233061,1,0,0:0:0:0:
256,192,233142,1,8,0:0:0:0:
256,192,233224,1,8,0:0:0:0:
256,192,233305,1,0,0:0:0:0:
256,192,233467,1,0,0:0:0:0:
256,192,233548,1,0,0:0:0:0:
256,192,233629,1,8,0:0:0:0:
256,192,233791,1,0,0:0:0:0:
256,192,233953,1,8,0:0:0:0:
256,192,234034,1,8,0:0:0:0:
256,192,234115,1,0,0:0:0:0:
256,192,234277,1,0,0:0:0:0:
256,192,234440,1,0,0:0:0:0:
256,192,234521,1,0,0:0:0:0:
256,192,234602,1,8,0:0:0:0:
256,192,234764,1,8,0:0:0:0:
256,192,234926,1,0,0:0:0:0:
256,192,235088,1,0,0:0:0:0:
256,192,235250,1,8,0:0:0:0:
256,192,235331,1,8,0:0:0:0:
256,192,235413,1,0,0:0:0:0:
256,192,235494,1,0,0:0:0:0:
256,192,235575,1,8,0:0:0:0:
256,192,235737,1,0,0:0:0:0:
256,192,235899,1,8,0:0:0:0:
256,192,236061,1,8,0:0:0:0:
256,192,236224,1,4,0:0:0:0:
256,192,236386,1,0,0:0:0:0:
256,192,236467,1,0,0:0:0:0:
256,192,236548,1,8,0:0:0:0:
256,192,236710,1,0,0:0:0:0:
256,192,236791,1,0,0:0:0:0:
256,192,236872,1,0,0:0:0:0:
256,192,237034,1,0,0:0:0:0:
256,192,237115,1,0,0:0:0:0:
256,192,237197,1,8,0:0:0:0:
256,192,237359,1,0,0:0:0:0:
256,192,237440,1,0,0:0:0:0:
256,192,237521,1,0,0:0:0:0:
256,192,237683,1,0,0:0:0:0:
256,192,237845,1,8,0:0:0:0:
256,192,238007,1,0,0:0:0:0:
256,192,238088,1,0,0:0:0:0:
256,192,238169,1,8,0:0:0:0:
256,192,238332,1,8,0:0:0:0:
256,192,238494,1,8,0:0:0:0:
256,192,238656,1,8,0:0:0:0:
256,192,238818,1,4,0:0:0:0:
256,192,238980,1,0,0:0:0:0:
256,192,239142,1,8,0:0:0:0:
256,192,239223,1,8,0:0:0:0:
256,192,239304,1,0,0:0:0:0:
256,192,239466,1,0,0:0:0:0:
256,192,239629,1,0,0:0:0:0:
256,192,239710,1,0,0:0:0:0:
256,192,239791,1,8,0:0:0:0:
256,192,239953,1,8,0:0:0:0:
256,192,240115,1,0,0:0:0:0:
256,192,240277,1,8,0:0:0:0:
256,192,240359,1,0,0:0:0:0:
256,192,240439,1,8,0:0:0:0:
256,192,240520,1,8,0:0:0:0:
256,192,240602,1,0,0:0:0:0:
256,192,240683,1,0,0:0:0:0:
256,192,240764,1,8,0:0:0:0:
256,192,240926,1,0,0:0:0:0:
256,192,241088,1,8,0:0:0:0:
256,192,241250,1,0,0:0:0:0:
256,192,241331,1,0,0:0:0:0:
256,192,241412,1,8,0:0:0:0:
256,192,241575,1,0,0:0:0:0:
256,192,241737,1,8,0:0:0:0:
256,192,241818,1,8,0:0:0:0:
256,192,241899,1,0,0:0:0:0:
256,192,242061,1,0,0:0:0:0:
256,192,242223,1,0,0:0:0:0:
256,192,242304,1,0,0:0:0:0:
256,192,242385,1,8,0:0:0:0:
256,192,242547,1,0,0:0:0:0:
256,192,242710,1,8,0:0:0:0:
256,192,242872,1,8,0:0:0:0:
256,192,242953,1,0,0:0:0:0:
256,192,243034,1,8,0:0:0:0:
256,192,243115,1,8,0:0:0:0:
256,192,243196,1,0,0:0:0:0:
256,192,243277,1,8,0:0:0:0:
256,192,243358,1,0,0:0:0:0:
256,192,243439,1,0,0:0:0:0:
256,192,243520,1,8,0:0:0:0:
256,192,243602,1,8,0:0:0:0:
256,192,243683,1,0,0:0:0:0:
256,192,243845,1,0,0:0:0:0:
256,192,243926,1,0,0:0:0:0:
256,192,244007,1,8,0:0:0:0:
256,192,244169,1,0,0:0:0:0:
256,192,244331,1,8,0:0:0:0:
256,192,244412,1,8,0:0:0:0:
256,192,244493,1,0,0:0:0:0:
256,192,244655,1,0,0:0:0:0:
256,192,244818,1,0,0:0:0:0:
256,192,244899,1,0,0:0:0:0:
256,192,244980,1,8,0:0:0:0:
256,192,245142,1,8,0:0:0:0:
256,192,245304,1,0,0:0:0:0:
256,192,245466,1,0,0:0:0:0:
256,192,245628,1,8,0:0:0:0:
256,192,245709,1,8,0:0:0:0:
256,192,245791,1,0,0:0:0:0:
256,192,245872,1,0,0:0:0:0:
256,192,245953,1,8,0:0:0:0:
256,192,246115,1,0,0:0:0:0:
256,192,246278,1,0,0:0:0:0:
256,192,246359,1,8,0:0:0:0:
256,192,246440,1,0,0:0:0:0:
256,192,246521,1,0,0:0:0:0:
256,192,246602,1,8,0:0:0:0:
256,192,246764,1,0,0:0:0:0:
256,192,246926,1,8,0:0:0:0:
256,192,247088,1,0,0:0:0:0:
256,192,247169,1,0,0:0:0:0:
256,192,247251,1,0,0:0:0:0:
256,192,247413,1,0,0:0:0:0:
256,192,247575,1,8,0:0:0:0:
256,192,247737,1,8,0:0:0:0:
256,192,247818,1,8,0:0:0:0:
256,192,247899,1,8,0:0:0:0:
256,192,248061,1,8,0:0:0:0:
256,192,248143,1,0,0:0:0:0:
256,192,248224,1,0,0:0:0:0:
256,192,248386,1,0,0:0:0:0:
256,192,248467,1,0,0:0:0:0:
256,192,248548,1,8,0:0:0:0:
256,192,248764,1,0,0:0:0:0:
256,192,248980,1,0,0:0:0:0:
256,192,249197,1,4,0:0:0:0:
256,192,249521,1,0,0:0:0:0:
256,192,249684,1,0,0:0:0:0:
256,192,249846,1,8,0:0:0:0:
256,192,250170,1,0,0:0:0:0:
256,192,250332,1,0,0:0:0:0:
256,192,250657,1,8,0:0:0:0:
256,192,250819,1,0,0:0:0:0:
256,192,250981,1,0,0:0:0:0:
256,192,251143,1,8,0:0:0:0:
256,192,251305,1,0,0:0:0:0:
256,192,251467,1,0,0:0:0:0:
256,192,251630,1,0,0:0:0:0:
256,192,251792,1,8,0:0:0:0:
256,192,252116,1,0,0:0:0:0:
256,192,252278,1,0,0:0:0:0:
256,192,252440,1,8,0:0:0:0:
256,192,252765,1,0,0:0:0:0:
256,192,252927,1,0,0:0:0:0:
256,192,253251,1,8,0:0:0:0:
256,192,253413,1,0,0:0:0:0:
256,192,253576,1,0,0:0:0:0:
256,192,253738,1,8,0:0:0:0:
256,192,253900,1,0,0:0:0:0:
256,192,254062,1,0,0:0:0:0:
256,192,254386,1,0,0:0:0:0:
256,192,254711,1,0,0:0:0:0:
256,192,254873,1,0,0:0:0:0:
256,192,255035,1,8,0:0:0:0:
256,192,255359,1,0,0:0:0:0:
256,192,255521,1,0,0:0:0:0:
256,192,255684,1,0,0:0:0:0:
256,192,255846,1,8,0:0:0:0:
256,192,256170,1,0,0:0:0:0:
256,192,256332,1,8,0:0:0:0:
256,192,256494,1,0,0:0:0:0:
256,192,256819,1,0,0:0:0:0:
256,192,256981,1,0,0:0:0:0:
256,192,257305,1,0,0:0:0:0:
256,192,257467,1,0,0:0:0:0:
256,192,257630,1,8,0:0:0:0:
256,192,257792,1,0,0:0:0:0:
256,192,257954,1,8,0:0:0:0:
256,192,258115,1,0,0:0:0:0:
256,192,258197,1,0,0:0:0:0:
256,192,258278,1,8,0:0:0:0:
256,192,258440,1,0,0:0:0:0:
256,192,258603,1,8,0:0:0:0:
256,192,258765,1,0,0:0:0:0:
256,192,258846,1,0,0:0:0:0:
256,192,258927,1,8,0:0:0:0:
256,192,259008,1,8,0:0:0:0:
256,192,259089,1,0,0:0:0:0:
256,192,259170,1,8,0:0:0:0:
256,192,259251,1,0,0:0:0:0:
256,192,259332,1,0,0:0:0:0:
256,192,259413,1,8,0:0:0:0:
256,192,259494,1,8,0:0:0:0:
256,192,259576,1,0,0:0:0:0:
256,192,259738,1,0,0:0:0:0:
256,192,259900,1,8,0:0:0:0:
256,192,260062,1,0,0:0:0:0:
256,192,260224,1,8,0:0:0:0:
256,192,260386,1,0,0:0:0:0:
256,192,260549,1,8,0:0:0:0:
256,192,260630,1,8,0:0:0:0:
256,192,260711,1,0,0:0:0:0:
256,192,260792,1,0,0:0:0:0:
256,192,260873,1,8,0:0:0:0:
256,192,261034,1,0,0:0:0:0:
256,192,261115,1,0,0:0:0:0:
256,192,261197,1,8,0:0:0:0:
256,192,261278,1,8,0:0:0:0:
256,192,261359,1,0,0:0:0:0:
256,192,261440,1,0,0:0:0:0:
256,192,261521,1,8,0:0:0:0:
256,192,261603,1,0,0:0:0:0:
256,192,261684,1,8,0:0:0:0:
256,192,261765,1,8,0:0:0:0:
256,192,261846,1,0,0:0:0:0:
256,192,261927,1,0,0:0:0:0:
256,192,262008,1,0,0:0:0:0:
256,192,262089,1,0,0:0:0:0:
256,192,262170,1,8,0:0:0:0:
256,192,262332,1,0,0:0:0:0:
256,192,262494,1,8,0:0:0:0:
256,192,262657,1,0,0:0:0:0:
256,192,262738,1,0,0:0:0:0:
256,192,262819,1,8,0:0:0:0:
256,192,262981,1,0,0:0:0:0:
256,192,263143,1,8,0:0:0:0:
256,192,263224,1,8,0:0:0:0:
256,192,263305,1,0,0:0:0:0:
256,192,263386,1,0,0:0:0:0:
256,192,263467,1,8,0:0:0:0:
256,192,263630,1,0,0:0:0:0:
256,192,263792,1,8,0:0:0:0:
256,192,263873,1,0,0:0:0:0:
256,192,263954,1,8,0:0:0:0:
256,192,264035,1,8,0:0:0:0:
256,192,264116,1,0,0:0:0:0:
256,192,264197,1,8,0:0:0:0:
256,192,264278,1,0,0:0:0:0:
256,192,264359,1,0,0:0:0:0:
256,192,264440,1,8,0:0:0:0:
256,192,264521,1,8,0:0:0:0:
256,192,264603,1,0,0:0:0:0:
256,192,264684,1,0,0:0:0:0:
256,192,264765,1,8,0:0:0:0:
256,192,264927,1,0,0:0:0:0:
256,192,265008,1,0,0:0:0:0:
256,192,265089,1,8,0:0:0:0:
256,192,265251,1,0,0:0:0:0:
256,192,265413,1,8,0:0:0:0:
256,192,265576,1,0,0:0:0:0:
256,192,265738,1,0,0:0:0:0:
256,192,265819,1,8,0:0:0:0:
256,192,265900,1,0,0:0:0:0:
256,192,265981,1,0,0:0:0:0:
256,192,266062,1,8,0:0:0:0:
256,192,266224,1,0,0:0:0:0:
256,192,266305,1,0,0:0:0:0:
256,192,266386,1,8,0:0:0:0:
256,192,266549,1,0,0:0:0:0:
256,192,266711,1,8,0:0:0:0:
256,192,266792,1,8,0:0:0:0:
256,192,266873,1,0,0:0:0:0:
256,192,266954,1,0,0:0:0:0:
256,192,267035,1,8,0:0:0:0:
256,192,267197,1,8,0:0:0:0:
256,192,267278,1,0,0:0:0:0:
256,192,267359,1,8,0:0:0:0:
256,192,267521,1,0,0:0:0:0:
256,192,267684,1,8,0:0:0:0:
256,192,267846,1,8,0:0:0:0:
256,192,267927,1,8,0:0:0:0:
256,192,268008,1,8,0:0:0:0:
256,192,268170,1,0,0:0:0:0:
256,192,268251,1,0,0:0:0:0:
256,192,268332,1,8,0:0:0:0:
256,192,268575,1,8,0:0:0:0:
256,192,268656,1,0,0:0:0:0:
256,192,268818,1,8,0:0:0:0:
256,192,268980,1,0,0:0:0:0:
256,192,269143,1,0,0:0:0:0:
256,192,269305,1,8,0:0:0:0:
256,192,269953,5,4,0:0:0:0:
256,192,270277,1,8,0:0:0:0:
256,192,270439,1,0,0:0:0:0:
256,192,270520,1,0,0:0:0:0:
256,192,270601,1,0,0:0:0:0:
256,192,270763,1,0,0:0:0:0:
256,192,270925,1,8,0:0:0:0:
256,192,271088,1,0,0:0:0:0:
256,192,271169,1,0,0:0:0:0:
256,192,271250,1,8,0:0:0:0:
256,192,271412,1,0,0:0:0:0:
256,192,271574,1,8,0:0:0:0:
256,192,271736,1,0,0:0:0:0:
256,192,271817,1,0,0:0:0:0:
256,192,271898,1,0,0:0:0:0:
256,192,272061,1,0,0:0:0:0:
256,192,272223,1,8,0:0:0:0:
256,192,272385,1,0,0:0:0:0:
256,192,272547,1,4,0:0:0:0:
256,192,272871,1,8,0:0:0:0:
256,192,273033,1,0,0:0:0:0:
256,192,273114,1,0,0:0:0:0:
256,192,273197,1,0,0:0:0:0:
256,192,273359,1,0,0:0:0:0:
256,192,273521,1,8,0:0:0:0:
256,192,273682,1,0,0:0:0:0:
256,192,273763,1,0,0:0:0:0:
256,192,273844,1,8,0:0:0:0:
256,192,274006,1,0,0:0:0:0:
256,192,274170,1,8,0:0:0:0:
256,192,274332,1,0,0:0:0:0:
256,192,274413,1,0,0:0:0:0:
256,192,274494,1,0,0:0:0:0:
256,192,274656,1,0,0:0:0:0:
256,192,274818,1,8,0:0:0:0:
256,192,274980,1,0,0:0:0:0:
256,192,275144,1,4,0:0:0:0:
256,192,275467,1,8,0:0:0:0:
256,192,275629,1,0,0:0:0:0:
256,192,275710,1,0,0:0:0:0:
256,192,275791,1,0,0:0:0:0:
256,192,275953,1,0,0:0:0:0:
256,192,276115,1,8,0:0:0:0:
256,192,276278,1,0,0:0:0:0:
256,192,276359,1,0,0:0:0:0:
256,192,276440,1,8,0:0:0:0:
256,192,276602,1,0,0:0:0:0:
256,192,276764,1,8,0:0:0:0:
256,192,276926,1,0,0:0:0:0:
256,192,277007,1,8,0:0:0:0:
256,192,277088,1,0,0:0:0:0:
256,192,277251,1,0,0:0:0:0:
256,192,277413,1,8,0:0:0:0:
256,192,277575,1,0,0:0:0:0:
256,192,277737,1,4,0:0:0:0:
256,192,278061,1,8,0:0:0:0:
256,192,278224,1,0,0:0:0:0:
256,192,278305,1,0,0:0:0:0:
256,192,278386,1,0,0:0:0:0:
256,192,278548,1,0,0:0:0:0:
256,192,278710,1,8,0:0:0:0:
256,192,278872,1,0,0:0:0:0:
256,192,278953,1,0,0:0:0:0:
256,192,279034,1,8,0:0:0:0:
256,192,279115,1,8,0:0:0:0:
256,192,279196,1,0,0:0:0:0:
256,192,279278,1,0,0:0:0:0:
256,192,279358,1,8,0:0:0:0:
256,192,279440,1,0,0:0:0:0:
256,192,279520,1,8,0:0:0:0:
256,192,279601,1,8,0:0:0:0:
256,192,279683,1,0,0:0:0:0:
256,192,279764,1,0,0:0:0:0:
256,192,279845,1,8,0:0:0:0:
256,192,279926,1,8,0:0:0:0:
256,192,280007,1,8,0:0:0:0:
256,192,280088,1,8,0:0:0:0:
256,192,280170,1,0,0:0:0:0:
256,192,280251,1,0,0:0:0:0:
256,192,280332,1,8,0:0:0:0:
256,192,280413,1,0,0:0:0:0:
256,192,280494,1,8,0:0:0:0:
256,192,280656,1,8,0:0:0:0:
256,192,280818,1,8,0:0:0:0:
256,192,280899,1,0,0:0:0:0:
256,192,280980,1,0,0:0:0:0:
256,192,281143,1,0,0:0:0:0:
256,192,281305,1,8,0:0:0:0:
256,192,281467,1,8,0:0:0:0:
256,192,281548,1,8,0:0:0:0:
256,192,281629,1,8,0:0:0:0:
256,192,281791,1,0,0:0:0:0:
256,192,281953,1,8,0:0:0:0:
256,192,282115,1,8,0:0:0:0:
256,192,282197,1,0,0:0:0:0:
256,192,282278,1,0,0:0:0:0:
256,192,282440,1,0,0:0:0:0:
256,192,282602,1,8,0:0:0:0:
256,192,282764,1,8,0:0:0:0:
256,192,282926,1,4,0:0:0:0:
256,192,283088,1,8,0:0:0:0:
256,192,283251,1,0,0:0:0:0:
256,192,283412,1,8,0:0:0:0:
256,192,283494,1,0,0:0:0:0:
256,192,283574,1,8,0:0:0:0:
256,192,283737,1,0,0:0:0:0:
256,192,283899,1,8,0:0:0:0:
256,192,284061,1,0,0:0:0:0:
256,192,284143,1,8,0:0:0:0:
256,192,284224,1,0,0:0:0:0:
256,192,284386,1,0,0:0:0:0:
256,192,284548,1,8,0:0:0:0:
256,192,284710,1,0,0:0:0:0:
256,192,284791,1,8,0:0:0:0:
256,192,284872,1,0,0:0:0:0:
256,192,284953,1,0,0:0:0:0:
256,192,285034,1,8,0:0:0:0:
256,192,285197,1,8,0:0:0:0:
256,192,285278,1,0,0:0:0:0:
256,192,285359,1,8,0:0:0:0:
256,192,285521,1,4,0:0:0:0:
256,192,285683,1,8,0:0:0:0:
256,192,285845,1,0,0:0:0:0:
256,192,286007,1,8,0:0:0:0:
256,192,286088,1,0,0:0:0:0:
256,192,286170,1,0,0:0:0:0:
256,192,286332,1,0,0:0:0:0:
256,192,286494,1,8,0:0:0:0:
256,192,286656,1,8,0:0:0:0:
256,192,286737,1,8,0:0:0:0:
256,192,286818,1,8,0:0:0:0:
256,192,286980,1,0,0:0:0:0:
256,192,287143,1,8,0:0:0:0:
256,192,287305,1,8,0:0:0:0:
256,192,287386,1,0,0:0:0:0:
256,192,287467,1,0,0:0:0:0:
256,192,287629,1,0,0:0:0:0:
256,192,287791,1,8,0:0:0:0:
256,192,287953,1,8,0:0:0:0:
256,192,288115,1,4,0:0:0:0:
256,192,288278,1,8,0:0:0:0:
256,192,288440,1,0,0:0:0:0:
256,192,288602,1,8,0:0:0:0:
256,192,288683,1,0,0:0:0:0:
256,192,288764,1,8,0:0:0:0:
256,192,288926,1,0,0:0:0:0:
256,192,289088,1,8,0:0:0:0:
256,192,289251,1,8,0:0:0:0:
256,192,289332,1,8,0:0:0:0:
256,192,289413,1,0,0:0:0:0:
256,192,289494,1,0,0:0:0:0:
256,192,289575,1,8,0:0:0:0:
256,192,289737,1,8,0:0:0:0:
256,192,289899,1,0,0:0:0:0:
256,192,289980,1,0,0:0:0:0:
256,192,290061,1,8,0:0:0:0:
256,192,290143,1,8,0:0:0:0:
256,192,290224,1,0,0:0:0:0:
256,192,290305,1,8,0:0:0:0:
256,192,290386,1,0,0:0:0:0:
256,192,290467,1,0,0:0:0:0:
256,192,290548,1,8,0:0:0:0:
256,192,290629,1,8,0:0:0:0:
256,192,290710,1,0,0:0:0:0:
256,192,291034,1,0,0:0:0:0:
256,192,291359,1,8,0:0:0:0:
256,192,291683,1,0,0:0:0:0:
256,192,292332,1,0,0:0:0:0:
256,192,292656,1,8,0:0:0:0:
256,192,292980,1,0,0:0:0:0:
256,192,293629,1,0,0:0:0:0:
256,192,293953,1,8,0:0:0:0:
256,192,294278,1,0,0:0:0:0:
256,192,294926,1,0,0:0:0:0:
256,192,295251,1,8,0:0:0:0:
256,192,295575,1,0,0:0:0:0:
256,192,295899,1,4,0:0:0:0:
256,192,296224,1,0,0:0:0:0:
256,192,296548,1,8,0:0:0:0:
256,192,296872,1,0,0:0:0:0:
256,192,297197,1,0,0:0:0:0:
256,192,297521,1,0,0:0:0:0:
256,192,297845,1,8,0:0:0:0:
256,192,298170,1,0,0:0:0:0:
256,192,298494,1,12,0:0:0:0:
256,192,298656,1,0,0:0:0:0:
256,192,298818,1,0,0:0:0:0:
256,192,298980,1,0,0:0:0:0:
256,192,299143,1,8,0:0:0:0:
256,192,299305,1,0,0:0:0:0:
256,192,299467,1,0,0:0:0:0:
256,192,299629,1,0,0:0:0:0:
256,192,299791,1,8,0:0:0:0:
256,192,299872,1,8,0:0:0:0:
256,192,299953,1,8,0:0:0:0:
256,192,300034,1,8,0:0:0:0:
256,192,300115,1,0,0:0:0:0:
256,192,300197,1,0,0:0:0:0:
256,192,300278,1,0,0:0:0:0:
256,192,300359,1,0,0:0:0:0:
256,192,300440,1,8,0:0:0:0:
256,192,300521,1,8,0:0:0:0:
256,192,300602,1,0,0:0:0:0:
256,192,300683,1,0,0:0:0:0:
256,192,300764,1,8,0:0:0:0:
256,192,300926,1,0,0:0:0:0:
256,192,301007,1,0,0:0:0:0:
256,192,301088,1,8,0:0:0:0:
256,192,301170,1,8,0:0:0:0:
256,192,301251,1,0,0:0:0:0:
256,192,301332,1,0,0:0:0:0:
256,192,301413,1,8,0:0:0:0:
256,192,301494,1,8,0:0:0:0:
256,192,301575,1,0,0:0:0:0:
256,192,301656,1,0,0:0:0:0:
256,192,301737,1,8,0:0:0:0:
256,192,301818,1,8,0:0:0:0:
256,192,301899,1,8,0:0:0:0:
