osu file format v14

[General]
AudioFilename: Nuclear Fusion.mp3
AudioLeadIn: 0
PreviewTime: 204207
Countdown: 0
SampleSet: None
StackLeniency: 0.3
Mode: 0
LetterboxInBreaks: 0
WidescreenStoryboard: 0

[Editor]
Bookmarks: 18666,96186
DistanceSpacing: 0.9
BeatDivisor: 4
GridSize: 4
TimelineZoom: 3.099999

[Metadata]
Title:Reichi no Taiyou Shinkou ~ Nuclear Fusion
TitleUnicode:霊知の太陽信仰 ~ Nuclear Fusion
Artist:Demetori
ArtistUnicode:Demetori
Creator:GoldenWolf
Version:Arpeggios from the Sun
Source:東方Project
Tags:Utsuho Reiuji th11 地霊殿 ~ Subterranean Animism 曼衍珠汝華 ~ Nada Upasana Pundarika
BeatmapID:692201
BeatmapSetID:309654

[Difficulty]
HPDrainRate:8
CircleSize:5
OverallDifficulty:10
ApproachRate:9
SliderMultiplier:1.6
SliderTickRate:1

[Events]
//Background and Video events
0,0,"orz103.jpg",0,0
//Break Periods
2,96866,98535
//Storyboard Layer 0 (Background)
//Storyboard Layer 1 (Fail)
//Storyboard Layer 2 (Pass)
//Storyboard Layer 3 (Foreground)
//Storyboard Sound Samples

[TimingPoints]
4266,480,4,2,1,5,1,0
34866,-100,4,2,1,100,0,0
35106,-100,4,2,1,5,0,0
40746,-100,4,2,1,40,0,0
41706,-100,4,2,1,100,0,0
42786,-100,4,2,1,5,0,0
50346,-100,4,2,1,100,0,0
50586,-100,4,2,4,100,0,0
58026,-100,4,2,1,100,0,0
58266,-100,4,2,4,100,0,0
64986,-200,4,2,3,100,0,0
65226,-200,4,2,3,20,0,0
65706,-100,4,2,1,100,0,0
65946,-100,4,2,4,100,0,0
72666,-100,4,2,10,100,0,0
73146,-100,4,2,4,100,0,0
73386,-100,4,2,1,100,0,0
73626,-100,4,2,4,100,0,0
80346,-200,4,2,3,100,0,0
80586,-200,4,2,3,20,0,0
81066,-200,4,2,15,100,0,0
96426,-200,4,3,10,100,0,0
98972,327.868852459016,4,3,1,70,1,0
99299,327.868852459016,4,3,1,70,1,0
99299,-100,4,3,1,90,0,0
99462,-100,4,3,1,70,0,0
99790,-100,4,3,3,90,0,0
99954,-100,4,3,1,70,0,0
100282,-100,4,3,2,90,0,0
100446,-100,4,3,1,70,0,0
100774,-100,4,3,3,90,0,0
100938,-100,4,3,2,70,0,0
101744,346.820809248555,4,3,1,80,1,0
101917,-100,4,3,13,80,0,0
102437,346.820809248555,4,3,3,90,1,0
102610,-100,4,3,4,70,0,0
107986,-100,4,3,2,90,0,0
108159,-100,4,3,4,70,0,0
112147,-100,4,3,3,80,0,0
112321,-100,4,3,4,70,0,0
113188,-100,4,3,12,85,0,0
113275,-100,4,3,10,85,0,0
113361,-100,4,3,4,70,0,0
113535,-100,4,3,1,90,0,0
113708,-100,4,3,6,70,0,0
119084,-100,4,3,3,90,0,0
119257,-100,4,3,6,70,0,0
124402,-100,4,3,10,85,0,0
124517,-100,4,3,12,85,0,0
124633,-100,4,3,2,90,0,0
124980,-100,4,3,2,40,0,0
125095,-100,4,3,2,60,0,0
125211,-100,4,3,10,85,0,0
125327,-100,4,3,12,85,0,0
125558,-100,4,3,10,85,0,0
125789,-100,4,3,11,85,0,0
126020,-100,4,3,1,90,0,0
126107,-100,4,3,13,70,0,0
127061,-100,4,3,2,90,0,0
127147,-100,4,3,2,70,0,0
127408,-76.9230769230769,4,3,1,90,0,0
127494,-76.9230769230769,4,3,4,70,0,0
131396,-76.9230769230769,4,3,2,90,0,0
131569,-76.9230769230769,4,3,4,70,0,0
132783,-76.9230769230769,4,3,3,90,0,0
132957,-76.9230769230769,4,3,4,70,0,0
136945,-76.9230769230769,4,3,2,90,0,0
137119,-76.9230769230769,4,3,4,70,0,0
138332,-76.9230769230769,4,3,3,90,0,0
138506,-76.9230769230769,4,3,4,70,0,0
142494,-76.9230769230769,4,3,2,90,0,0
142668,-76.9230769230769,4,3,4,70,0,0
143015,-76.9230769230769,4,3,3,70,0,0
143361,-76.9230769230769,4,3,4,70,0,0
143708,-76.9230769230769,4,3,2,70,0,0
143882,-76.9230769230769,4,3,3,90,0,0
144055,-76.9230769230769,4,3,4,70,0,0
146656,-76.9230769230769,4,3,3,85,0,0
146830,-76.9230769230769,4,3,4,70,0,0
148043,-76.9230769230769,4,3,2,85,0,0
148217,-76.9230769230769,4,3,4,70,0,0
148564,-76.9230769230769,4,3,3,85,0,0
148737,-76.9230769230769,4,3,4,70,0,0
149084,-76.9230769230769,4,3,12,85,0,0
149257,-76.9230769230769,4,3,11,85,0,0
149431,-76.9230769230769,4,3,10,85,0,0
149604,-100,4,3,1,90,0,0
149778,-100,4,3,4,70,0,0
152379,-100,4,3,2,70,0,0
152552,-100,4,3,4,70,0,0
154806,-100,4,3,5,85,0,0
155153,-100,4,3,3,90,0,0
155327,-100,4,3,4,70,0,0
157928,-100,4,3,3,90,0,0
158101,-100,4,3,4,70,0,0
159315,-100,4,3,2,70,0,0
160095,-100,4,3,12,85,0,0
160356,-100,4,3,11,85,0,0
160529,-100,4,3,10,85,0,0
160702,-76.9230769230769,4,3,1,90,0,0
160876,-76.9230769230769,4,3,4,70,0,0
164691,-76.9230769230769,4,3,2,70,0,0
164864,-76.9230769230769,4,3,4,70,0,0
166078,-76.9230769230769,4,3,3,90,0,0
166252,-76.9230769230769,4,3,4,70,0,0
170240,-76.9230769230769,4,3,2,70,0,0
170413,-76.9230769230769,4,3,4,70,0,0
171627,-76.9230769230769,4,3,3,90,0,0
171801,-76.9230769230769,4,3,4,70,0,0
175789,-76.9230769230769,4,3,2,70,0,0
175963,-76.9230769230769,4,3,4,70,0,0
177176,-76.9230769230769,4,3,3,90,0,0
177350,-76.9230769230769,4,3,4,70,0,0
179431,-100,4,3,7,70,0,0
179951,-76.9230769230769,4,3,1,90,0,0
180298,-76.9230769230769,4,3,1,70,0,0
181165,-76.9230769230769,4,3,3,90,0,0
181338,-76.9230769230769,4,3,2,90,0,0
181512,-76.9230769230769,4,3,4,75,0,0
181598,-76.9230769230769,4,3,12,85,0,0
181685,-76.9230769230769,4,3,4,75,0,0
181772,-76.9230769230769,4,3,12,85,0,0
181858,-76.9230769230769,4,3,6,85,0,0
182032,-76.9230769230769,4,3,11,85,0,0
182205,-76.9230769230769,4,3,6,75,0,0
182639,-133.333333333333,4,3,3,70,0,0
182812,-133.333333333333,4,3,13,80,0,0
182899,-105.263157894737,4,3,3,90,0,0
183072,-105.263157894737,4,3,4,70,0,0
184806,-105.263157894737,4,3,13,70,0,0
184980,-105.263157894737,4,3,4,70,0,0
188448,-105.263157894737,4,3,2,70,0,0
188621,-105.263157894737,4,3,4,70,0,0
188968,-105.263157894737,4,3,13,70,0,0
189142,-105.263157894737,4,3,4,70,0,0
191223,-86.9565217391304,4,3,2,70,0,0
191396,-86.9565217391304,4,3,4,70,0,0
191743,-86.9565217391304,4,3,2,90,0,0
191916,-86.9565217391304,4,3,4,70,0,0
192263,-86.9565217391304,4,3,3,90,0,0
192437,-86.9565217391304,4,3,4,70,0,0
192523,-86.9565217391304,4,3,11,85,0,0
192610,-86.9565217391304,4,3,4,70,0,0
192783,-86.9565217391304,4,3,3,90,0,0
193130,-86.9565217391304,4,3,4,70,0,0
193304,-86.9565217391304,4,3,12,85,0,0
193535,-86.9565217391304,4,3,11,85,0,0
193766,-86.9565217391304,4,3,10,85,0,0
193997,-76.9230769230769,4,3,1,90,0,0
194171,-76.9230769230769,4,3,6,70,0,0
198853,-76.9230769230769,4,3,2,70,0,0
199026,-76.9230769230769,4,3,4,70,0,0
199200,-76.9230769230769,4,3,7,70,0,0
199546,-76.9230769230769,4,3,3,90,0,0
199720,-76.9230769230769,4,3,6,70,0,0
201714,-76.9230769230769,4,3,11,85,0,0
201801,-76.9230769230769,4,3,6,70,0,0
201974,-76.9230769230769,4,3,3,90,0,0
202147,-76.9230769230769,4,3,4,70,0,0
202408,-76.9230769230769,4,3,12,85,0,0
202494,-76.9230769230769,4,3,4,70,0,0
202581,-76.9230769230769,4,3,12,85,0,0
202668,-76.9230769230769,4,3,4,70,0,0
202928,-76.9230769230769,4,3,11,85,0,0
203015,-76.9230769230769,4,3,4,70,0,0
203101,-76.9230769230769,4,3,11,85,0,0
203188,-76.9230769230769,4,3,4,70,0,0
203448,-76.9230769230769,4,3,10,85,0,0
203535,-76.9230769230769,4,3,4,70,0,0
203621,-76.9230769230769,4,3,10,85,0,0
203708,-76.9230769230769,4,3,4,70,0,0
204489,-76.9230769230769,4,3,11,85,0,0
204575,-76.9230769230769,4,3,4,70,0,0
204662,-76.9230769230769,4,3,10,85,0,0
204749,-76.9230769230769,4,3,4,70,0,0
204835,-76.9230769230769,4,3,10,85,0,0
204922,-76.9230769230769,4,3,4,70,0,0
205095,-86.9565217391304,4,3,1,100,0,1
205182,-86.9565217391304,4,3,4,70,0,1
209604,-86.9565217391304,4,3,4,90,0,1
209778,-86.9565217391304,4,3,4,70,0,1
209951,-86.9565217391304,4,3,4,90,0,1
210038,-86.9565217391304,4,3,4,70,0,1
210298,-86.9565217391304,4,3,4,90,0,1
210645,-86.9565217391304,4,3,1,100,0,1
210818,-86.9565217391304,4,3,4,70,0,1
214806,-117.647058823529,4,3,3,85,0,1
214980,-117.647058823529,4,3,4,70,0,1
215153,-117.647058823529,4,3,4,70,0,1
215500,-117.647058823529,4,3,2,85,0,1
215587,-117.647058823529,4,3,4,70,0,1
215847,-117.647058823529,4,3,2,85,0,1
215934,-117.647058823529,4,3,4,70,0,1
216194,-86.9565217391304,4,3,7,100,0,1
216367,-86.9565217391304,4,3,4,70,0,1
218968,-86.9565217391304,4,3,2,85,0,1
219055,-86.9565217391304,4,3,4,70,0,1
221049,-86.9565217391304,4,3,7,85,0,1
221136,-86.9565217391304,4,3,4,70,0,1
221396,-86.9565217391304,4,3,2,85,0,1
221483,-86.9565217391304,4,3,4,70,0,1
221743,-76.9230769230769,4,3,1,100,0,1
221916,-76.9230769230769,4,3,4,70,0,1
224517,-76.9230769230769,4,3,2,85,0,1
224604,-76.9230769230769,4,3,4,70,0,1
225991,-76.9230769230769,4,3,11,85,0,1
226078,-76.9230769230769,4,3,4,70,0,1
226165,-76.9230769230769,4,3,11,85,0,1
226252,-76.9230769230769,4,3,4,70,0,1
226512,-76.9230769230769,4,3,10,85,0,1
226598,-76.9230769230769,4,3,4,70,0,1
226685,-76.9230769230769,4,3,10,85,0,1
226772,-76.9230769230769,4,3,2,70,0,1
227292,346.820809248555,7,3,2,90,1,0
227292,-76.9230769230769,7,3,2,90,0,0
227465,-76.9230769230769,7,3,4,85,0,0
228159,-76.9230769230769,7,3,13,85,0,0
228505,-76.9230769230769,7,3,2,90,0,0
228679,-76.9230769230769,7,3,4,70,0,0
229372,-76.9230769230769,7,3,11,85,0,0
229488,-76.9230769230769,7,3,10,85,0,0
229719,-76.9230769230769,7,3,3,100,0,0
229893,-76.9230769230769,7,3,2,70,0,0
231974,346.820809248555,7,3,3,100,1,0
231974,-76.9230769230769,7,3,3,100,0,0
232147,-76.9230769230769,7,3,2,70,0,0
234401,-76.9230769230769,7,3,1,100,0,0
234575,-76.9230769230769,7,3,2,70,0,0
236656,346.820809248555,7,3,3,100,1,0
236656,-76.9230769230769,7,3,3,100,0,0
236829,-76.9230769230769,7,3,2,70,0,0
237349,-76.9230769230769,7,3,13,85,0,0
237523,-76.9230769230769,7,3,12,85,0,0
237580,-76.9230769230769,7,3,11,85,0,0
237638,-76.9230769230769,7,3,10,90,0,0
237696,-76.9230769230769,7,3,4,90,0,0
238216,346.820809248555,4,3,4,85,1,0
238302,-100,4,3,11,85,0,0
238389,-100,4,3,4,85,0,0
238822,-100,4,3,11,85,0,0
238909,-100,4,3,4,85,0,0
239256,-100,4,3,2,85,0,0
239603,-86.9565217391304,4,3,1,100,0,0
239689,-86.9565217391304,4,3,4,70,0,0
250007,-86.9565217391304,4,3,2,80,0,0
250094,-86.9565217391304,4,3,4,70,0,0
250354,-86.9565217391304,4,3,3,80,0,0
250441,-86.9565217391304,4,3,4,70,0,0
250701,-86.9565217391304,4,3,1,90,0,0
250788,-86.9565217391304,4,3,4,70,0,0
259025,-86.9565217391304,4,3,1,90,0,0
259111,-86.9565217391304,4,3,4,70,0,0
260412,-86.9565217391304,4,3,3,85,0,0
260932,-86.9565217391304,4,3,12,85,0,0
261106,-86.9565217391304,4,3,11,85,0,0
261279,-86.9565217391304,4,3,10,85,0,0
261453,346.820809248555,4,3,1,100,1,0
261626,-100,4,3,2,70,0,0
264227,-100,4,3,3,90,0,0
264400,-100,4,3,2,70,0,0
267002,-125,4,3,2,90,0,0
267175,-100,4,3,2,70,0,0
268216,-125,4,3,2,70,0,0
269083,-100,4,3,2,70,0,0
269776,-100,4,3,3,90,0,0
269950,-100,4,3,2,70,0,0
271857,-100,4,3,2,80,0,0
272031,-100,4,3,2,60,0,0
272204,-100,4,3,12,85,0,0
272377,-100,4,3,10,85,0,0
272551,-100,4,3,2,90,0,0
272724,-100,4,3,4,70,0,0
276713,-166.666666666667,4,3,4,70,0,0
277059,-125,4,3,4,70,0,0
277406,-100,4,3,4,70,0,0
278100,-100,4,3,1,85,0,0
278273,-100,4,3,4,70,0,0
279834,-100,4,3,4,85,0,0
280007,-100,4,3,12,85,0,0
280181,-100,4,3,10,85,0,0
280354,-100,4,3,4,70,0,0
280528,-100,4,3,2,85,0,0
280585,-100,4,3,4,70,0,0
280874,-100,4,3,1,90,0,0
281308,-100,4,3,12,85,0,0
281395,-100,4,3,1,70,0,0
281655,-100,4,3,10,85,0,0
281742,-100,4,3,1,70,0,0
281915,-100,4,3,11,85,0,0
282002,-100,4,3,1,70,0,0
282175,-100,4,3,10,85,0,0
282262,-100,4,3,1,70,0,0
282522,-100,4,3,10,85,0,0
282695,-100,4,3,1,70,0,0
282869,-100,4,3,11,85,0,0
282955,-100,4,3,1,70,0,0
283649,-86.9565217391304,4,3,1,100,0,1
283822,-86.9565217391304,4,3,4,70,0,1
288158,-86.9565217391304,4,3,4,90,0,1
288331,-86.9565217391304,4,3,4,70,0,1
288505,-86.9565217391304,4,3,4,90,0,1
288591,-86.9565217391304,4,3,4,70,0,1
288851,-86.9565217391304,4,3,4,90,0,1
289198,-76.9230769230769,4,3,1,100,0,1
289372,-86.9565217391304,4,3,4,70,0,1
293360,-117.647058823529,4,3,3,70,0,1
293707,-86.9565217391304,4,3,4,70,0,1
294054,-86.9565217391304,4,3,2,85,0,1
294140,-86.9565217391304,4,3,4,70,0,1
294400,-86.9565217391304,4,3,3,85,0,1
294487,-86.9565217391304,4,3,4,70,0,1
294747,-86.9565217391304,4,3,1,100,0,1
294921,-86.9565217391304,4,3,4,70,0,1
297522,-86.9565217391304,4,3,3,90,0,1
297609,-86.9565217391304,4,3,4,70,0,1
298909,-117.647058823529,4,3,4,100,0,1
298996,-117.647058823529,4,3,4,70,0,1
299603,-117.647058823529,4,3,2,100,0,1
299689,-117.647058823529,4,3,4,70,0,1
300296,-117.647058823529,4,3,1,100,0,1
300383,-117.647058823529,4,3,4,70,0,1
303071,-86.9565217391304,4,3,3,100,0,1
303158,-86.9565217391304,4,3,4,70,0,1
304198,-86.9565217391304,4,3,11,85,0,1
304285,-86.9565217391304,4,3,4,70,0,1
304458,-86.9565217391304,4,3,2,90,0,1
304545,-86.9565217391304,4,3,4,70,0,1
304805,-86.9565217391304,4,3,3,90,0,1
304892,-86.9565217391304,4,3,4,70,0,1
305152,-86.9565217391304,4,3,2,90,0,1
305239,-86.9565217391304,4,3,4,70,0,1
305499,-86.9565217391304,4,3,3,90,0,1
305585,-86.9565217391304,4,3,4,70,0,1
305846,-76.9230769230769,4,3,1,100,0,0
305932,-76.9230769230769,4,3,4,70,0,0
314169,-76.9230769230769,4,3,2,90,0,0
314256,-76.9230769230769,4,3,4,70,0,0
315557,-71.4285714285714,4,3,3,90,0,0
315643,-76.9230769230769,4,3,4,70,0,0
316597,-125,4,3,4,70,0,0
316944,-76.9230769230769,4,3,1,100,0,0
317031,-76.9230769230769,4,3,4,70,0,0
325268,-76.9230769230769,4,3,2,85,0,0
325354,-76.9230769230769,4,3,4,70,0,0
326481,-76.9230769230769,4,3,13,75,0,0
326655,-76.9230769230769,4,3,3,70,0,0
327002,-76.9230769230769,4,3,5,70,0,0
327522,-76.9230769230769,4,3,4,70,0,0
327695,-76.9230769230769,4,3,11,85,0,0
327869,-76.9230769230769,4,3,10,85,0,0
328042,-76.9230769230769,4,3,1,100,0,0
328216,-100,4,3,4,70,0,0
333591,-100,4,3,3,90,0,0
333765,-100,4,3,4,70,0,0
336366,-100,4,3,2,85,0,0
336453,-100,4,3,4,70,0,0
337753,-100,4,3,3,90,0,0
337840,-100,4,3,4,85,0,0
338533,-100,4,3,12,85,0,0
338707,-100,4,3,11,85,0,0
338880,-100,4,3,10,85,0,0
338967,-100,4,3,4,70,0,0
339140,-76.9230769230769,4,3,1,100,0,0
339314,-100,4,3,4,70,0,0
341915,-100,4,3,2,85,0,0
342088,-100,4,3,4,70,0,0
343996,-100,4,3,2,70,0,0
344689,-100,4,3,3,100,0,0
344776,-100,4,3,4,70,0,0
347464,-100,4,3,1,100,0,0
347551,-100,4,3,4,70,0,0
348851,-100,4,3,2,85,0,0
348938,-100,4,3,4,70,0,0
349198,-100,4,3,7,85,0,0
349285,-100,4,3,4,70,0,0
349892,-100,4,3,11,85,0,0
349979,-100,4,3,10,85,0,0
350065,-100,4,3,4,70,0,0
350239,-100,4,3,13,100,0,0

[Colours]
Combo1 : 240,200,80
Combo2 : 240,80,80
Combo3 : 240,160,80
Combo4 : 240,120,80

[HitObjects]
256,192,34986,5,2,0:3:0:0:
256,192,35106,12,2,40746,0:0:0:0:
256,192,41706,5,2,0:3:0:0:
256,192,42666,1,2,0:3:0:0:
256,192,42786,12,0,50226,0:0:0:0:
348,180,50346,5,6,0:3:0:0:
188,272,50586,1,4,0:3:0:0:
64,136,50826,6,0,P|59:97|68:56,1,80,2|0,0:3|0:0,0:0:0:0:
204,160,51306,1,10,0:3:0:0:
188,272,51546,1,0,0:0:0:0:
316,320,51786,2,0,L|312:240,1,80,2|0,0:3|0:0,0:0:0:0:
172,384,52266,5,6,0:3:0:0:
400,300,52506,1,4,0:3:0:0:
188,272,52746,6,0,L|108:280,1,80,2|0,0:3|0:0,0:0:0:0:
316,320,53226,1,10,0:3:0:0:
348,180,53466,1,0,0:0:0:0:
188,272,53706,2,0,P|184:312|196:352,1,80,2|0,0:3|0:0,0:0:0:0:
348,180,54186,5,6,0:3:0:0:
384,24,54426,1,4,0:3:0:0:
400,240,54666,6,0,P|364:256|320:252,1,80,2|0,0:3|0:0,0:0:0:0:
176,204,55146,1,10,0:3:0:0:
156,76,55386,1,0,0:0:0:0:
348,180,55626,2,0,L|356:260,1,80,2|0,0:3|0:0,0:0:0:0:
140,276,56106,5,6,0:3:0:0:
224,60,56346,1,4,0:3:0:0:
348,180,56586,2,0,L|428:168,1,80,2|0,0:3|0:0,0:0:0:0:
184,140,57066,5,10,0:3:0:0:
204,268,57306,1,4,0:3:0:0:
332,248,57546,1,2,0:3:0:0:
312,120,57786,2,0,L|296:84,1,40,4|4,0:3|0:3,0:0:0:0:
271,177,58026,6,0,P|308:188|347:179,1,80,6|4,0:3|0:3,0:0:0:0:
140,196,58506,6,0,L|136:276,1,80,2|0,0:3|0:0,0:0:0:0:
271,177,58986,1,10,0:3:0:0:
144,108,59226,1,0,0:0:0:0:
60,244,59466,2,0,L|64:324,1,80,2|0,0:3|0:0,0:0:0:0:
344,224,59946,5,6,0:3:0:0:
160,300,60186,1,4,0:3:0:0:
320,376,60426,2,0,P|360:380|400:368,1,80,2|0,0:3|0:0,0:0:0:0:
271,177,60906,5,10,0:3:0:0:
160,160,61146,1,0,0:3:0:0:
49,317,61386,1,6,0:3:0:0:
160,300,61626,1,0,0:3:0:0:
49,177,61866,5,6,0:3:0:0:
271,317,62106,1,4,0:3:0:0:
408,184,62346,6,0,P|416:144|408:104,1,80,2|0,0:3|0:0,0:0:0:0:
271,317,62826,1,10,0:3:0:0:
382,300,63066,1,0,0:3:0:0:
200,276,63306,2,0,P|192:316|200:356,1,80,2|0,0:3|0:0,0:0:0:0:
382,300,63786,5,6,0:3:0:0:
160,160,64026,1,4,0:3:0:0:
415,104,64266,6,0,L|407:184,1,80,2|0,0:3|0:0,0:0:0:0:
384,196,64586,2,0,L|388:224,2,26.6666666666667,4|4|10,0:3|0:3|0:3,0:0:0:0:
160,160,64986,6,0,P|124:152|40:148,1,120,6|6,0:3|0:3,0:0:0:0:
41,147,65946,1,4,0:3:0:0:
200,276,66186,6,0,L|280:264,1,80,2|0,0:3|0:0,0:0:0:0:
96,232,66666,1,10,0:3:0:0:
208,356,66906,1,0,0:0:0:0:
312,204,67146,2,0,P|316:164|304:124,1,80,2|0,0:3|0:0,0:0:0:0:
200,276,67626,5,6,0:3:0:0:
432,216,67866,1,4,0:3:0:0:
248,172,68106,5,2,0:3:0:0:
132,292,68346,2,0,L|136:332,1,40,4|4,0:3|0:3,0:0:0:0:
96,232,68586,1,10,0:3:0:0:
312,204,68826,1,4,0:3:0:0:
176,372,69066,2,0,P|136:384|100:376,1,80,2|4,0:3|0:3,0:0:0:0:
200,276,69546,5,6,0:3:0:0:
432,336,69786,1,4,0:3:0:0:
500,200,70026,6,0,L|508:120,1,80,2|0,0:3|0:0,0:0:0:0:
312,204,70506,1,10,0:3:0:0:
424,248,70746,1,0,0:0:0:0:
352,112,70986,2,0,P|312:104|272:112,1,80,2|0,0:3|0:0,0:0:0:0:
192,176,71466,5,6,0:3:0:0:
12,88,71706,1,4,0:3:0:0:
208,12,71946,6,0,L|200:96,1,80,2|0,0:3|0:0,0:0:0:0:
220,108,72266,2,0,L|212:136,2,26.6666666666667,4|4|10,0:3|0:3|0:3,0:0:0:0:
432,200,72666,5,8,0:3:0:0:
140,280,72906,1,4,0:3:0:0:
408,368,73146,2,0,L|448:360,1,40,4|4,0:3|0:3,0:0:0:0:
420,284,73386,5,6,0:3:0:0:
248,176,73626,1,4,0:3:0:0:
72,276,73866,6,0,L|64:356,1,80,2|0,0:3|0:0,0:0:0:0:
264,296,74346,1,10,0:3:0:0:
248,176,74586,1,0,0:0:0:0:
236,364,74826,2,0,P|276:368|312:352,1,80,2|0,0:3|0:0,0:0:0:0:
72,276,75306,5,6,0:3:0:0:
340,224,75546,1,4,0:3:0:0:
116,144,75786,6,0,L|36:156,1,80,2|0,0:3|0:0,0:0:0:0:
192,304,76266,1,10,0:3:0:0:
248,176,76506,1,0,0:0:0:0:
88,80,76746,1,6,0:3:0:0:
144,208,76986,1,0,0:0:0:0:
352,144,77226,5,6,0:3:0:0:
88,80,77466,1,4,0:3:0:0:
144,208,77706,6,0,P|180:228|220:236,1,80,2|0,0:3|0:0,0:0:0:0:
232,84,78186,1,10,0:3:0:0:
144,208,78426,1,0,0:0:0:0:
369,231,78666,2,0,P|334:212|296:204,1,80,2|0,0:3|0:0,0:0:0:0:
224,340,79146,5,6,0:3:0:0:
292,84,79386,1,4,0:3:0:0:
144,208,79626,2,0,L|64:220,1,80,2|0,0:3|0:0,0:0:0:0:
48,200,79946,2,0,L|20:192,2,26.6666666666667,4|4|10,0:3|0:3|0:3,0:0:0:0:
336,140,80346,6,0,P|396:152|452:176,1,120,6|0,0:3|0:0,0:0:0:0:
449,174,81306,1,0,0:0:0:0:
449,174,84906,6,0,L|444:216,1,40
380,220,88746,6,0,L|385:262,1,40
449,266,92586,6,0,L|444:308,1,40
380,312,96426,5,4,0:3:0:0:
449,174,96666,5,4,0:3:0:0:
256,184,99135,5,4,0:0:0:0:
256,188,99217,1,4,0:0:0:0:
256,192,99299,5,10,0:0:0:0:
328,316,99462,1,4,0:0:0:0:
184,316,99626,1,4,0:0:0:0:
256,192,99790,5,10,0:0:0:0:
328,68,99953,1,4,0:0:0:0:
184,68,100117,1,4,0:0:0:0:
256,192,100282,5,10,0:0:0:0:
328,316,100446,1,4,0:0:0:0:
400,192,100610,1,4,0:0:0:0:
256,192,100774,5,10,0:0:0:0:
112,192,100938,1,4,0:0:0:0:
184,68,101102,1,4,0:0:0:0:
256,192,101266,6,0,B|260:220|260:220|252:244|252:244|256:272,2,80,10|4|4,0:0|0:0|0:0,0:0:0:0:
298,62,101744,5,12,0:0:0:0:
298,321,101917,1,4,0:0:0:0:
145,111,102090,1,4,0:0:0:0:
392,192,102264,1,4,0:0:0:0:
145,271,102437,6,0,B|116:280|116:280|68:268,1,80,6|4,0:0|0:0,0:0:0:0:
204,148,102783,1,10,0:0:0:0:
208,152,102870,1,4,0:0:0:0:
348,260,103043,1,4,0:0:0:0:
344,264,103130,1,6,0:0:0:0:
180,332,103304,2,0,L|140:336,2,40,4|4|10,0:0|0:0|0:0,0:0:0:0:
184,328,103564,1,4,0:0:0:0:
188,324,103650,1,4,0:0:0:0:
136,188,103824,5,6,0:0:0:0:
132,164,103910,1,4,0:0:0:0:
272,204,104084,1,4,0:0:0:0:
268,228,104170,1,10,0:0:0:0:
116,84,104344,1,4,0:0:0:0:
116,84,104431,1,4,0:0:0:0:
116,84,104517,5,6,0:0:0:0:
132,94,104603,1,4,0:0:0:0:
152,99,104690,1,4,0:0:0:0:
171,99,104777,1,4,0:0:0:0:
190,92,104864,1,10,0:0:0:0:
208,85,104950,1,4,0:0:0:0:
228,84,105037,1,4,0:0:0:0:
247,90,105124,1,4,0:0:0:0:
264,100,105211,6,0,P|304:112|344:100,1,80,6|4,0:0|0:0,0:0:0:0:
304,40,105558,1,10,0:0:0:0:
304,40,105645,1,4,0:0:0:0:
220,156,105818,1,4,0:0:0:0:
220,156,105905,1,6,0:0:0:0:
364,172,106078,2,0,L|404:176,2,40,4|4|10,0:0|0:0|0:0,0:0:0:0:
360,176,106338,1,4,0:0:0:0:
356,180,106425,1,4,0:0:0:0:
280,288,106598,5,6,0:0:0:0:
280,288,106685,1,4,0:0:0:0:
280,288,106772,1,4,0:0:0:0:
261,281,106858,1,4,0:0:0:0:
241,279,106945,1,10,0:0:0:0:
222,284,107032,1,4,0:0:0:0:
205,295,107119,1,4,0:0:0:0:
187,305,107205,1,4,0:0:0:0:
168,310,107292,1,6,0:0:0:0:
148,308,107379,1,4,0:0:0:0:
130,302,107465,1,4,0:0:0:0:
114,289,107552,1,4,0:0:0:0:
102,272,107639,2,0,P|96:256|92:228,1,40,8|8,0:0|0:0,0:0:0:0:
152,200,107812,2,0,P|158:216|162:244,1,40,8|8,0:0|0:0,0:0:0:0:
52,336,107986,6,0,B|28:304|28:304|24:264,1,80,2|4,0:0|0:0,0:0:0:0:
140,56,108332,1,10,0:0:0:0:
164,60,108419,1,4,0:0:0:0:
96,148,108593,1,4,0:0:0:0:
72,152,108680,1,6,0:0:0:0:
256,132,108853,2,0,L|260:176,2,40,4|4|10,0:0|0:0|0:0,0:0:0:0:
260,128,109113,1,4,0:0:0:0:
264,124,109200,1,4,0:0:0:0:
392,64,109373,5,6,0:0:0:0:
416,60,109460,1,4,0:0:0:0:
360,156,109633,1,4,0:0:0:0:
336,152,109720,1,10,0:0:0:0:
244,24,109893,1,4,0:0:0:0:
244,24,109980,1,4,0:0:0:0:
244,24,110067,5,6,0:0:0:0:
252,41,110153,1,4,0:0:0:0:
256,61,110240,1,4,0:0:0:0:
253,81,110327,1,4,0:0:0:0:
244,99,110413,1,10,0:0:0:0:
235,117,110499,1,4,0:0:0:0:
232,136,110586,1,4,0:0:0:0:
235,156,110673,1,4,0:0:0:0:
244,174,110760,6,0,B|252:200|252:200|244:252,1,80,6|4,0:0|0:0,0:0:0:0:
136,348,111107,1,10,0:0:0:0:
108,352,111194,1,4,0:0:0:0:
152,248,111367,1,4,0:0:0:0:
180,252,111454,1,6,0:0:0:0:
280,344,111627,1,4,0:0:0:0:
308,340,111714,1,4,0:0:0:0:
336,336,111801,1,10,0:0:0:0:
416,236,111974,1,4,0:0:0:0:
444,240,112061,1,4,0:0:0:0:
472,243,112147,5,10,0:0:0:0:
399,368,112321,1,4,0:0:0:0:
275,296,112494,1,8,0:0:0:0:
347,171,112668,1,4,0:0:0:0:
328,372,112841,6,0,L|288:380,1,40,8|8,0:0|0:0,0:0:0:0:
184,340,113015,2,0,L|144:332,1,40,8|8,0:0|0:0,0:0:0:0:
73,242,113188,1,4,0:0:0:0:
74,232,113274,1,8,0:0:0:0:
74,222,113361,1,4,0:0:0:0:
75,212,113448,1,4,0:0:0:0:
75,202,113535,6,0,B|80:172|80:172|92:156|92:156|96:124,1,80,10|4,0:0|0:0,0:0:0:0:
196,32,113882,1,10,0:0:0:0:
200,60,113968,1,4,0:0:0:0:
288,140,114142,1,4,0:0:0:0:
292,112,114228,1,10,0:0:0:0:
396,24,114402,1,4,0:0:0:0:
400,44,114489,1,4,0:0:0:0:
404,64,114575,1,10,0:0:0:0:
408,84,114662,1,4,0:0:0:0:
412,104,114749,1,4,0:0:0:0:
364,240,114922,5,10,0:0:0:0:
368,268,115009,1,4,0:0:0:0:
264,356,115182,1,4,0:0:0:0:
268,328,115269,1,10,0:0:0:0:
250,336,115355,1,4,0:0:0:0:
230,340,115442,1,4,0:0:0:0:
210,340,115529,1,4,0:0:0:0:
191,334,115616,1,10,0:0:0:0:
174,325,115702,1,4,0:0:0:0:
159,311,115789,1,4,0:0:0:0:
144,297,115875,1,4,0:0:0:0:
127,287,115962,1,10,0:0:0:0:
107,282,116049,1,4,0:0:0:0:
87,281,116135,1,4,0:0:0:0:
68,285,116222,1,4,0:0:0:0:
50,294,116309,6,0,B|60:256|60:256|52:216,1,80,10|4,0:0|0:0,0:0:0:0:
24,92,116656,1,10,0:0:0:0:
28,68,116743,1,4,0:0:0:0:
132,144,116916,1,4,0:0:0:0:
136,168,117003,1,10,0:0:0:0:
216,68,117176,1,4,0:0:0:0:
234,59,117262,1,4,0:0:0:0:
253,55,117349,1,10,0:0:0:0:
273,56,117436,1,4,0:0:0:0:
293,61,117522,1,4,0:0:0:0:
310,69,117609,1,4,0:0:0:0:
326,82,117697,5,10,0:0:0:0:
361,98,117783,1,4,0:0:0:0:
400,93,117870,1,4,0:0:0:0:
431,68,117957,1,4,0:0:0:0:
428,29,118043,1,10,0:0:0:0:
398,3,118130,1,4,0:0:0:0:
360,4,118217,1,4,0:0:0:0:
333,32,118303,1,4,0:0:0:0:
333,71,118390,1,10,0:0:0:0:
361,98,118477,1,4,0:0:0:0:
378,134,118563,1,4,0:0:0:0:
377,173,118650,1,10,0:0:0:0:
356,207,118737,1,4,0:0:0:0:
321,225,118823,1,4,0:0:0:0:
284,213,118910,1,10,0:0:0:0:
266,178,118997,1,4,0:0:0:0:
278,141,119084,6,0,B|288:112|288:112|280:60,1,80,10|4,0:0|0:0,0:0:0:0:
184,184,119431,1,10,0:0:0:0:
180,208,119517,1,4,0:0:0:0:
88,120,119691,1,4,0:0:0:0:
84,96,119777,1,10,0:0:0:0:
8,200,119951,1,4,0:0:0:0:
9,211,120037,1,4,0:0:0:0:
10,223,120124,1,10,0:0:0:0:
11,235,120211,1,4,0:0:0:0:
12,247,120297,1,4,0:0:0:0:
13,259,120384,1,4,0:0:0:0:
15,271,120471,5,10,0:0:0:0:
48,293,120557,1,4,0:0:0:0:
87,300,120644,1,4,0:0:0:0:
125,289,120731,1,4,0:0:0:0:
155,264,120818,1,10,0:0:0:0:
185,238,120904,1,4,0:0:0:0:
223,227,120991,1,4,0:0:0:0:
262,234,121078,1,4,0:0:0:0:
295,256,121165,1,10,0:0:0:0:
304,294,121251,1,4,0:0:0:0:
289,331,121338,1,4,0:0:0:0:
256,352,121425,1,4,0:0:0:0:
217,349,121511,1,10,0:0:0:0:
186,324,121598,1,4,0:0:0:0:
176,286,121685,1,4,0:0:0:0:
190,249,121771,1,4,0:0:0:0:
223,227,121858,6,0,B|232:200|232:200|220:148,1,80,10|4,0:0|0:0,0:0:0:0:
196,36,122205,1,10,0:0:0:0:
196,36,122292,2,0,B|236:48|236:48|276:36,1,80,4|4,0:0|0:0,0:0:0:0:
276,33,122552,1,10,0:0:0:0:
315,29,122638,1,4,0:0:0:0:
349,49,122725,1,4,0:0:0:0:
366,85,122812,1,4,0:0:0:0:
359,124,122899,1,10,0:0:0:0:
352,162,122985,1,4,0:0:0:0:
368,198,123072,1,4,0:0:0:0:
402,218,123159,1,4,0:0:0:0:
442,215,123246,5,10,0:0:0:0:
470,188,123332,1,4,0:0:0:0:
478,149,123419,1,4,0:0:0:0:
461,113,123506,1,4,0:0:0:0:
427,93,123592,1,10,0:0:0:0:
388,97,123679,1,4,0:0:0:0:
359,124,123766,2,0,P|340:132|316:136,1,40,4|4,0:0|0:0,0:0:0:0:
164,92,123939,6,0,B|136:88|136:88|112:92,1,53.3333333333333,8|8,0:0|0:0,0:0:0:0:
220,156,124171,2,0,B|237:133|237:133|246:110,1,53.3333333333333,4|8,0:0|0:0,0:0:0:0:
136,168,124402,2,0,B|146:194|146:194|162:213,1,53.3333333333333,8|4,0:0|0:0,0:0:0:0:
164,92,124633,5,2,0:0:0:0:
136,168,124980,1,8,0:0:0:0:
132,172,125038,1,8,0:0:0:0:
128,176,125095,2,0,L|76:184,1,53.3333333333333,8|4,0:0|0:0,0:0:0:0:
24,248,125327,1,8,0:0:0:0:
18,301,125442,1,4,0:0:0:0:
12,354,125558,1,8,0:0:0:0:
60,332,125673,1,4,0:0:0:0:
111,318,125788,1,8,0:0:0:0:
163,327,125904,1,4,0:0:0:0:
206,358,126020,6,0,L|248:352,1,40,6|4,0:0|0:0,0:0:0:0:
372,380,126280,2,0,L|414:374,1,40,4|4,0:0|0:0,0:0:0:0:
220,288,126541,1,4,0:0:0:0:
248,284,126627,1,4,0:0:0:0:
376,312,126801,1,4,0:0:0:0:
404,308,126887,1,4,0:0:0:0:
184,172,127061,5,10,0:0:0:0:
184,172,127147,1,0,0:0:0:0:
184,172,127234,1,0,0:0:0:0:
184,172,127321,1,0,0:0:0:0:
184,172,127408,6,0,B|228:204|280:172|280:172|328:140|380:168,1,207.999990478516,6|10,0:0|0:0,0:0:0:0:
280,280,127928,2,0,P|228:288|176:276,1,103.999995239258,4|2,0:0|0:0,0:0:0:0:
232,108,128275,1,4,0:0:0:0:
332,228,128448,1,10,0:0:0:0:
244,356,128621,1,4,0:0:0:0:
232,356,128708,1,4,0:0:0:0:
220,356,128795,6,0,B|168:356|168:356|128:320,1,103.999995239258,6|4,0:0|0:0,0:0:0:0:
120,312,129055,1,4,0:0:0:0:
112,304,129142,1,10,0:0:0:0:
280,168,129315,2,0,B|304:140|304:140|304:72,1,103.999995239258,4|2,0:0|0:0,0:0:0:0:
200,192,129662,1,4,0:0:0:0:
204,204,129749,1,4,0:0:0:0:
208,216,129835,1,10,0:0:0:0:
380,288,130009,5,4,0:0:0:0:
500,228,130182,1,6,0:0:0:0:
384,292,130356,1,4,0:0:0:0:
496,224,130529,1,10,0:0:0:0:
404,84,130702,1,4,0:0:0:0:
392,80,130789,1,4,0:0:0:0:
380,76,130876,2,0,B|340:68|340:68|276:80,1,103.999995239258,6|4,0:0|0:0,0:0:0:0:
266,83,131136,1,4,0:0:0:0:
254,87,131223,1,10,0:0:0:0:
260,324,131396,6,0,P|360:356|444:300,1,207.999990478516,6|4,0:0|0:0,0:0:0:0:
344,240,131916,1,10,0:0:0:0:
212,372,132090,1,4,0:0:0:0:
200,368,132176,1,4,0:0:0:0:
188,364,132263,1,6,0:0:0:0:
272,252,132437,1,6,0:0:0:0:
104,184,132610,1,8,0:0:0:0:
328,76,132783,6,0,B|376:56|376:56|464:56|504:132,1,207.999990478516,6|4,0:0|0:0,0:0:0:0:
484,276,133304,1,10,0:0:0:0:
352,336,133477,1,4,0:0:0:0:
336,336,133564,1,4,0:0:0:0:
320,336,133650,2,0,B|282:335|282:335|220:305,1,103.999995239258,6|4,0:0|0:0,0:0:0:0:
184,144,133997,1,10,0:0:0:0:
300,24,134171,1,4,0:0:0:0:
300,24,134257,1,4,0:0:0:0:
300,24,134344,5,6,0:0:0:0:
343,184,134518,1,4,0:0:0:0:
182,227,134691,1,10,0:0:0:0:
139,67,134865,1,4,0:0:0:0:
139,67,134951,1,4,0:0:0:0:
139,67,135038,1,6,0:0:0:0:
299,109,135212,1,4,0:0:0:0:
255,270,135385,1,10,0:0:0:0:
95,227,135558,6,0,B|88:192|88:192|96:160|96:160|88:124,2,103.999995239258,4|2|4,0:0|0:0|0:0,0:0:0:0:
255,270,136078,1,10,0:0:0:0:
416,228,136252,1,4,0:0:0:0:
420,216,136338,1,4,0:0:0:0:
424,204,136425,1,6,0:0:0:0:
299,109,136598,1,4,0:0:0:0:
296,96,136685,1,4,0:0:0:0:
292,84,136772,1,10,0:0:0:0:
288,72,136858,1,4,0:0:0:0:
284,60,136945,6,0,B|240:32|240:32|156:24|104:96,1,207.999990478516,6|4,0:0|0:0,0:0:0:0:
120,268,137465,1,10,0:0:0:0:
149,292,137551,1,4,0:0:0:0:
187,301,137638,1,4,0:0:0:0:
224,293,137725,1,4,0:0:0:0:
254,269,137812,1,6,0:0:0:0:
284,244,137898,1,4,0:0:0:0:
321,236,137985,1,4,0:0:0:0:
359,245,138072,1,4,0:0:0:0:
388,270,138158,1,10,0:0:0:0:
120,268,138332,6,0,B|112:200|112:200|140:136|140:136|132:64,1,207.999990478516,6|4,0:0|0:0,0:0:0:0:
44,120,138853,1,10,0:0:0:0:
192,216,139026,1,4,0:0:0:0:
204,212,139113,1,4,0:0:0:0:
216,208,139200,2,0,B|268:224|268:224|316:208,1,103.999995239258,6|4,0:0|0:0,0:0:0:0:
460,156,139546,1,10,0:0:0:0:
376,24,139720,1,4,0:0:0:0:
360,20,139806,1,4,0:0:0:0:
344,16,139893,5,6,0:0:0:0:
248,112,140067,1,4,0:0:0:0:
248,112,140153,1,4,0:0:0:0:
248,112,140240,2,0,B|220:128|220:128|192:128|152:108,1,103.999995239258,10|4,0:0|0:0,0:0:0:0:
256,24,140587,1,6,0:0:0:0:
332,136,140760,1,4,0:0:0:0:
216,208,140934,1,10,0:0:0:0:
140,96,141107,6,0,P|88:88|36:96,2,103.999995239258,4|2|4,0:0|0:0|0:0,0:0:0:0:
216,208,141627,1,10,0:0:0:0:
152,328,141801,1,4,0:0:0:0:
152,328,141887,1,4,0:0:0:0:
152,328,141974,2,0,B|128:340|128:340|92:332|76:288,1,103.999995239258,6|4,0:0|0:0,0:0:0:0:
80,276,142234,1,4,0:0:0:0:
84,264,142321,1,10,0:0:0:0:
288,332,142494,6,0,P|388:352|464:288,1,207.999990478516,6|4,0:0|0:0,0:0:0:0:
352,152,143015,2,0,P|340:204|360:248,1,103.999995239258,10|4,0:0|0:0,0:0:0:0:
360,248,143275,1,4,0:0:0:0:
360,248,143361,1,6,0:0:0:0:
472,112,143535,1,4,0:0:0:0:
316,32,143708,1,10,0:0:0:0:
232,188,143882,6,0,B|184:204|184:204|132:192|132:192|80:192|36:232,1,207.999990478516,6|4,0:0|0:0,0:0:0:0:
208,384,144402,1,10,0:0:0:0:
420,300,144575,1,4,0:0:0:0:
420,300,144662,1,4,0:0:0:0:
420,300,144749,2,0,B|444:276|444:276|452:240|428:208,1,103.999995239258,6|4,0:0|0:0,0:0:0:0:
176,132,145095,2,0,B|152:156|152:156|144:192|168:224,1,103.999995239258,10|4,0:0|0:0,0:0:0:0:
316,329,145442,5,6,0:0:0:0:
448,196,145616,1,4,0:0:0:0:
267,147,145789,1,10,0:0:0:0:
420,300,145963,1,4,0:0:0:0:
371,119,146137,1,6,0:0:0:0:
240,252,146310,1,4,0:0:0:0:
228,256,146396,1,4,0:0:0:0:
216,260,146483,1,10,0:0:0:0:
204,264,146569,1,4,0:0:0:0:
192,268,146656,6,0,B|140:264|140:264|76:216|88:124,1,207.999990478516,6|4,0:0|0:0,0:0:0:0:
228,0,147176,1,10,0:0:0:0:
371,119,147350,1,4,0:0:0:0:
371,119,147437,1,4,0:0:0:0:
371,119,147523,1,6,0:0:0:0:
196,184,147697,1,4,0:0:0:0:
176,180,147783,1,4,0:0:0:0:
156,176,147870,1,10,0:0:0:0:
136,172,147957,1,4,0:0:0:0:
116,168,148043,6,0,B|66:185|66:185|17:248|52:334,1,207.999990478516,6|4,0:0|0:0,0:0:0:0:
56,336,148477,1,4,0:0:0:0:
60,340,148564,1,10,0:0:0:0:
232,380,148737,1,4,0:0:0:0:
244,376,148824,1,4,0:0:0:0:
256,372,148910,1,10,0:0:0:0:
268,368,148997,1,4,0:0:0:0:
280,364,149084,5,8,0:0:0:0:
294,332,149170,1,4,0:0:0:0:
293,298,149257,1,8,0:0:0:0:
276,268,149344,1,4,0:0:0:0:
259,238,149430,1,8,0:0:0:0:
258,203,149517,1,4,0:0:0:0:
272,172,149604,6,0,P|280:132|272:92,1,80,10|4,0:0|0:0,0:0:0:0:
172,16,149951,1,10,0:0:0:0:
172,16,150038,1,4,0:0:0:0:
64,84,150211,1,4,0:0:0:0:
64,84,150298,1,10,0:0:0:0:
120,200,150471,1,4,0:0:0:0:
120,200,150558,1,4,0:0:0:0:
120,200,150645,1,10,0:0:0:0:
139,194,150731,1,4,0:0:0:0:
158,192,150818,1,4,0:0:0:0:
178,193,150905,1,4,0:0:0:0:
198,199,150991,6,0,P|216:208|232:220,1,40,10|0,0:0|0:0,0:0:0:0:
304,328,151165,1,4,0:0:0:0:
323,333,151251,1,4,0:0:0:0:
342,336,151338,1,10,0:0:0:0:
362,334,151425,1,4,0:0:0:0:
382,328,151511,2,0,P|399:319|415:307,1,40,4|0,0:0|0:0,0:0:0:0:
468,188,151685,1,10,0:0:0:0:
472,168,151771,1,4,0:0:0:0:
472,148,151858,1,4,0:0:0:0:
466,129,151945,1,4,0:0:0:0:
456,112,152032,1,10,0:0:0:0:
445,94,152118,1,4,0:0:0:0:
440,75,152205,1,4,0:0:0:0:
439,55,152292,1,4,0:0:0:0:
444,36,152379,6,0,B|416:24|416:24|364:28,1,80,10|4,0:0|0:0,0:0:0:0:
272,116,152726,1,10,0:0:0:0:
272,116,152812,1,4,0:0:0:0:
168,40,152986,1,4,0:0:0:0:
168,40,153072,1,10,0:0:0:0:
64,116,153246,1,4,0:0:0:0:
64,116,153332,1,4,0:0:0:0:
64,116,153419,1,10,0:0:0:0:
72,134,153505,1,4,0:0:0:0:
75,153,153592,1,4,0:0:0:0:
74,173,153679,1,4,0:0:0:0:
69,192,153766,5,10,0:0:0:0:
65,232,153852,1,4,0:0:0:0:
86,265,153939,1,4,0:0:0:0:
122,280,154026,1,4,0:0:0:0:
160,271,154113,1,10,0:0:0:0:
198,260,154199,1,4,0:0:0:0:
238,263,154286,1,4,0:0:0:0:
274,279,154373,1,4,0:0:0:0:
303,307,154460,2,0,L|344:316,1,40,8|8,0:0|0:0,0:0:0:0:
404,264,154633,2,0,L|444:255,1,40,8|8,0:0|0:0,0:0:0:0:
485,187,154806,1,2,0:0:0:0:
486,177,154892,1,2,0:0:0:0:
487,167,154979,1,2,0:0:0:0:
488,157,155066,1,2,0:0:0:0:
489,147,155153,6,0,B|484:124|484:124|464:112|428:112,1,80,6|4,0:0|0:0,0:0:0:0:
300,152,155500,1,10,0:0:0:0:
272,144,155587,1,4,0:0:0:0:
198,260,155760,1,4,0:0:0:0:
170,268,155847,1,10,0:0:0:0:
72,152,156020,1,4,0:0:0:0:
72,152,156107,1,4,0:0:0:0:
72,152,156194,1,10,0:0:0:0:
100,159,156280,1,4,0:0:0:0:
130,157,156367,1,4,0:0:0:0:
158,147,156454,1,4,0:0:0:0:
182,129,156541,6,0,P|196:116|212:104,1,40,10|0,0:0|0:0,0:0:0:0:
336,68,156714,1,4,0:0:0:0:
365,63,156800,1,4,0:0:0:0:
395,67,156887,1,10,0:0:0:0:
422,80,156974,1,4,0:0:0:0:
444,100,157061,2,0,P|456:120|464:144,1,40,4|0,0:0|0:0,0:0:0:0:
456,264,157234,1,10,0:0:0:0:
438,288,157320,1,4,0:0:0:0:
412,303,157407,1,4,0:0:0:0:
383,306,157494,1,4,0:0:0:0:
354,297,157581,1,10,0:0:0:0:
328,283,157667,1,4,0:0:0:0:
299,276,157754,1,4,0:0:0:0:
269,277,157841,1,4,0:0:0:0:
241,287,157928,6,0,B|212:296|212:296|164:284,1,80,10|4,0:0|0:0,0:0:0:0:
156,124,158275,1,10,0:0:0:0:
156,124,158361,2,0,B|185:115|185:115|233:127,1,80,4|4,0:0|0:0,0:0:0:0:
237,131,158621,1,14,0:0:0:0:
266,136,158707,1,4,0:0:0:0:
296,131,158794,1,4,0:0:0:0:
322,118,158881,1,4,0:0:0:0:
343,96,158968,1,10,0:0:0:0:
366,77,159054,1,4,0:0:0:0:
395,69,159141,1,4,0:0:0:0:
424,72,159228,1,4,0:0:0:0:
450,86,159315,5,10,0:0:0:0:
470,120,159401,1,4,0:0:0:0:
465,159,159488,1,4,0:0:0:0:
436,185,159575,1,4,0:0:0:0:
397,188,159662,1,10,0:0:0:0:
358,179,159748,1,4,0:0:0:0:
319,184,159835,1,4,0:0:0:0:
283,202,159922,1,4,0:0:0:0:
256,231,160009,5,8,0:0:0:0:
206,214,160095,1,8,0:0:0:0:
154,201,160182,1,8,0:0:0:0:
101,192,160269,1,4,0:0:0:0:
67,233,160356,1,8,0:0:0:0:
85,283,160442,1,4,0:0:0:0:
137,292,160529,1,8,0:0:0:0:
172,251,160615,1,4,0:0:0:0:
154,201,160702,6,0,B|144:148|144:148|176:72|256:48,1,207.999990478516,6|10,0:0|0:0,0:0:0:0:
358,179,161223,1,4,0:0:0:0:
358,179,161309,1,4,0:0:0:0:
358,179,161396,2,0,B|338:203|338:203|306:215|266:207,1,103.999995239258,6|4,0:0|0:0,0:0:0:0:
352,64,161743,1,10,0:0:0:0:
460,192,161916,1,4,0:0:0:0:
460,192,162003,1,4,0:0:0:0:
460,192,162090,6,0,B|456:228|456:228|440:256|440:256|436:296,1,103.999995239258,6|4,0:0|0:0,0:0:0:0:
436,291,162350,1,4,0:0:0:0:
436,291,162437,1,10,0:0:0:0:
270,239,162610,2,0,P|222:231|170:251,1,103.999995239258,4|2,0:0|0:0,0:0:0:0:
232,332,162957,1,4,0:0:0:0:
296,180,163130,1,10,0:0:0:0:
132,200,163304,6,0,B|96:196|96:196|68:180|68:180|32:176,2,103.999995239258,4|2|4,0:0|0:0|0:0,0:0:0:0:
236,112,163824,1,10,0:0:0:0:
152,8,163997,1,4,0:0:0:0:
136,4,164084,1,4,0:0:0:0:
120,0,164171,1,6,0:0:0:0:
236,112,164344,1,4,0:0:0:0:
252,108,164431,1,4,0:0:0:0:
268,104,164517,1,10,0:0:0:0:
284,100,164604,1,4,0:0:0:0:
300,96,164691,6,0,B|352:84|352:84|400:104|400:104|456:104|496:64,1,207.999990478516,6|4,0:0|0:0,0:0:0:0:
248,40,165211,2,0,B|216:36|216:36|184:44|160:80,1,103.999995239258,10|4,0:0|0:0,0:0:0:0:
160,79,165471,1,4,0:0:0:0:
160,79,165558,1,6,0:0:0:0:
288,168,165731,1,6,0:0:0:0:
100,232,165905,1,8,0:0:0:0:
348,336,166078,6,0,B|400:320|400:320|440:244|400:172,1,207.999990478516,6|4,0:0|0:0,0:0:0:0:
224,120,166598,1,10,0:0:0:0:
184,284,166772,1,4,0:0:0:0:
184,284,166858,1,4,0:0:0:0:
184,284,166945,1,6,0:0:0:0:
344,240,167118,1,4,0:0:0:0:
301,80,167291,1,10,0:0:0:0:
140,123,167465,5,4,0:0:0:0:
140,123,167552,1,4,0:0:0:0:
140,123,167639,1,6,0:0:0:0:
257,240,167812,1,4,0:0:0:0:
208,54,167986,1,10,0:0:0:0:
324,172,168159,1,4,0:0:0:0:
324,172,168246,1,4,0:0:0:0:
324,172,168332,1,6,0:0:0:0:
164,215,168506,1,4,0:0:0:0:
301,80,168680,1,10,0:0:0:0:
257,240,168853,6,0,B|264:276|264:276|256:308|256:308|264:344,2,103.999995239258,4|2|4,0:0|0:0|0:0,0:0:0:0:
140,123,169373,2,0,B|112:116|112:116|80:120|48:152,1,103.999995239258,10|4,0:0|0:0,0:0:0:0:
47,152,169633,1,4,0:0:0:0:
47,152,169720,1,6,0:0:0:0:
112,312,169893,1,4,0:0:0:0:
137,312,169979,1,4,0:0:0:0:
162,304,170066,1,10,0:0:0:0:
183,289,170153,1,4,0:0:0:0:
199,269,170240,6,0,B|212:240|212:216|212:216|232:204|248:184|248:184|236:132|264:84,1,207.999990478516,6|4,0:0|0:0,0:0:0:0:
296,64,170673,1,4,0:0:0:0:
330,73,170759,1,10,0:0:0:0:
354,100,170846,1,4,0:0:0:0:
357,135,170933,1,4,0:0:0:0:
340,167,171019,1,4,0:0:0:0:
308,183,171106,1,6,0:0:0:0:
273,178,171193,1,4,0:0:0:0:
247,153,171280,1,4,0:0:0:0:
215,136,171366,1,4,0:0:0:0:
179,129,171453,1,10,0:0:0:0:
88,276,171627,6,0,B|112:312|112:312|204:340|260:268,1,207.999990478516,6|4,0:0|0:0,0:0:0:0:
179,129,172147,1,10,0:0:0:0:
28,236,172321,1,4,0:0:0:0:
28,236,172408,1,4,0:0:0:0:
28,236,172494,2,0,B|12:260|12:260|8:296|36:336,1,103.999995239258,6|4,0:0|0:0,0:0:0:0:
192,376,172841,1,10,0:0:0:0:
336,296,173015,1,4,0:0:0:0:
332,280,173101,1,4,0:0:0:0:
328,264,173188,5,6,0:0:0:0:
452,156,173361,1,4,0:0:0:0:
500,316,173535,2,0,B|492:344|492:344|464:364|420:360,1,103.999995239258,10|4,0:0|0:0,0:0:0:0:
420,360,173795,1,4,0:0:0:0:
420,360,173882,1,6,0:0:0:0:
248,244,174055,1,4,0:0:0:0:
288,104,174228,1,10,0:0:0:0:
388,212,174402,5,4,0:0:0:0:
204,308,174575,1,2,0:0:0:0:
108,124,174749,1,4,0:0:0:0:
292,28,174922,1,10,0:0:0:0:
328,168,175095,1,4,0:0:0:0:
324,184,175182,1,4,0:0:0:0:
320,200,175269,1,6,0:0:0:0:
124,188,175442,1,4,0:0:0:0:
120,172,175529,1,4,0:0:0:0:
116,156,175616,1,10,0:0:0:0:
112,140,175702,1,4,0:0:0:0:
108,124,175789,6,0,B|108:76|108:76|168:8|252:24,1,207.999990478516,6|4,0:0|0:0,0:0:0:0:
328,168,176309,1,10,0:0:0:0:
332,176,176396,1,4,0:0:0:0:
336,184,176483,2,0,L|388:192,1,51.999997619629,4|4,0:0|0:0,0:0:0:0:
236,264,176656,1,6,0:0:0:0:
232,272,176743,1,4,0:0:0:0:
228,280,176830,2,0,L|176:288,1,51.999997619629,4|4,0:0|0:0,0:0:0:0:
348,352,177003,1,10,0:0:0:0:
492,252,177176,6,0,P|512:152|448:76,1,207.999990478516,6|4,0:0|0:0,0:0:0:0:
288,28,177697,1,10,0:0:0:0:
136,96,177870,1,4,0:0:0:0:
136,96,177957,1,4,0:0:0:0:
136,96,178043,2,0,B|120:120|120:120|116:160|148:196,1,103.999995239258,6|4,0:0|0:0,0:0:0:0:
372,220,178390,2,0,B|388:196|388:196|392:156|365:126,1,103.999995239258,10|4,0:0|0:0,0:0:0:0:
365,126,178649,1,4,0:0:0:0:
365,126,178736,5,6,0:0:0:0:
136,96,178910,1,4,0:0:0:0:
106,325,179084,1,10,0:0:0:0:
335,355,179257,1,4,0:0:0:0:
294,83,179430,1,10,0:0:0:0:
81,252,179604,2,0,P|84:288|108:328,1,80,10|4,0:0|0:0,0:0:0:0:
397,306,179951,6,0,P|421:202|365:126,1,207.999990478516,6|4,0:0|0:0,0:0:0:0:
365,126,180384,1,4,0:0:0:0:
365,126,180471,1,10,0:0:0:0:
224,212,180645,1,4,0:0:0:0:
80,128,180818,1,10,0:0:0:0:
77,102,180904,1,4,0:0:0:0:
74,76,180991,1,4,0:0:0:0:
71,50,181078,1,4,0:0:0:0:
68,24,181165,6,0,P|96:30|120:32,1,51.999997619629,10|4,0:0|0:0,0:0:0:0:
240,24,181338,1,6,0:0:0:0:
365,126,181512,6,0,L|360:180,1,51.999997619629,8|8,0:0|0:0,0:0:0:0:
432,252,181685,2,0,L|413:302,1,51.999997619629,8|8,0:0|0:0,0:0:0:0:
308,372,181858,1,6,0:0:0:0:
270,380,181945,1,6,0:0:0:0:
233,370,182032,1,8,0:0:0:0:
204,344,182119,1,4,0:0:0:0:
191,307,182205,6,0,L|188:272,2,34.6666650797527,4|4|4,0:0|0:0|0:0,0:0:0:0:
272,300,182379,2,0,B|304:292|304:292|323:264|320:216,1,103.999995239258,10|4,0:0|0:0,0:0:0:0:
304,208,182639,6,0,L|296:148,1,60.0000022888184,10|4,0:0|0:0,0:0:0:0:
312,124,182899,6,0,P|348:112|388:112,1,75.9999979705811,6|0,0:0|0:0,0:0:0:0:
240,192,183246,2,0,P|202:191|166:179,1,75.9999979705811,2|4,0:0|0:0,0:0:0:0:
163,176,183506,1,4,0:0:0:0:
160,173,183593,2,0,P|122:173|86:185,1,75.9999979705811,10|4,0:0|0:0,0:0:0:0:
216,272,183939,2,0,P|253:271|289:259,1,75.9999979705811,2|4,0:0|0:0,0:0:0:0:
312,124,184286,6,0,P|244:100|164:112,1,151.999995941162,2|2,0:0|0:0,0:0:0:0:
80,228,184806,1,4,0:0:0:0:
78,236,184863,1,0,0:0:0:0:
77,244,184921,1,0,0:0:0:0:
76,253,184980,2,0,B|84:272|84:272|112:284|144:272,1,75.9999979705811,10|4,0:0|0:0,0:0:0:0:
228,200,185327,2,0,B|220:181|220:181|192:169|160:181,1,75.9999979705811,6|0,0:0|0:0,0:0:0:0:
244,292,185673,6,0,P|284:296|320:288,1,75.9999979705811,6|0,0:0|0:0,0:0:0:0:
140,344,186020,2,0,P|100:340|64:348,1,75.9999979705811,6|0,0:0|0:0,0:0:0:0:
0,176,186367,2,0,P|40:180|76:172,1,75.9999979705811,10|4,0:0|0:0,0:0:0:0:
252,112,186714,2,0,P|212:108|176:116,1,75.9999979705811,2|4,0:0|0:0,0:0:0:0:
328,296,187061,6,0,P|364:300|404:292,1,75.9999979705811,2|0,0:0|0:0,0:0:0:0:
360,200,187408,2,0,P|324:195|284:203,1,75.9999979705811,2|4,0:0|0:0,0:0:0:0:
282,204,187668,1,4,0:0:0:0:
279,206,187754,2,0,P|243:210|203:202,1,75.9999979705811,10|4,0:0|0:0,0:0:0:0:
177,108,188101,2,0,P|213:104|253:112,1,75.9999979705811,2|4,0:0|0:0,0:0:0:0:
156,256,188448,6,0,P|100:288|24:244,1,151.999995941162,6|2,0:0|0:0,0:0:0:0:
92,184,188968,1,4,0:0:0:0:
92,192,189025,1,0,0:0:0:0:
93,200,189083,1,0,0:0:0:0:
94,209,189142,2,0,P|92:252|84:288,1,75.9999979705811,10|4,0:0|0:0,0:0:0:0:
212,156,189489,2,0,P|214:113|222:77,1,75.9999979705811,2|4,0:0|0:0,0:0:0:0:
208,320,189835,6,0,P|176:336|136:336,1,75.9999979705811,2|0,0:0|0:0,0:0:0:0:
260,220,190182,2,0,P|297:219|331:236,1,75.9999979705811,6|0,0:0|0:0,0:0:0:0:
40,260,190529,1,10,0:0:0:0:
27,240,190615,1,4,0:0:0:0:
20,217,190702,1,4,0:0:0:0:
20,193,190789,1,4,0:0:0:0:
28,171,190875,1,6,0:0:0:0:
41,152,190962,1,4,0:0:0:0:
60,137,191049,1,4,0:0:0:0:
82,129,191135,1,4,0:0:0:0:
106,127,191223,6,0,B|132:136|132:136|152:160|144:200,1,92.0000017547608,10|4,0:0|0:0,0:0:0:0:
112,284,191569,1,4,0:0:0:0:
248,141,191743,2,0,B|269:157|269:157|279:186|258:221,1,92.0000017547608,10|4,0:0|0:0,0:0:0:0:
176,316,192089,1,4,0:0:0:0:
376,201,192263,5,10,0:0:0:0:
228,364,192437,1,4,0:0:0:0:
232,368,192523,1,8,0:0:0:0:
236,372,192610,1,4,0:0:0:0:
160,156,192783,1,10,0:0:0:0:
376,201,192957,1,10,0:0:0:0:
260,240,193130,5,4,0:0:0:0:
256,248,193217,1,4,0:0:0:0:
252,256,193304,2,0,L|248:288,2,30.6666672515869,4|4|4,0:0|0:0|0:0,0:0:0:0:
176,316,193535,2,0,P|144:320|116:328,1,61.3333345031739,4|4,0:0|0:0,0:0:0:0:
316,364,193766,2,0,P|348:360|376:352,1,61.3333345031739,8|8,0:0|0:0,0:0:0:0:
251,164,193997,6,0,B|235:144|235:144|199:136|159:156,1,103.999995239258,6|4,0:0|0:0,0:0:0:0:
323,276,194344,2,0,B|348:272|348:272|373:244|375:200,1,103.999995239258,10|4,0:0|0:0,0:0:0:0:
190,282,194691,2,0,B|180:305|180:305|191:341|229:365,1,103.999995239258,10|4,0:0|0:0,0:0:0:0:
396,364,195038,2,0,B|424:336|424:336|428:268,1,103.999995239258,10|4,0:0|0:0,0:0:0:0:
80,308,195384,2,0,B|90:346|90:346|147:383,1,103.999995239258,10|4,0:0|0:0,0:0:0:0:
268,69,195731,2,0,B|229:58|229:58|168:89,1,103.999995239258,10|4,0:0|0:0,0:0:0:0:
23,298,196078,5,10,0:0:0:0:
61,332,196164,1,4,0:0:0:0:
111,341,196251,1,4,0:0:0:0:
159,322,196338,1,4,0:0:0:0:
190,282,196425,1,10,0:0:0:0:
219,239,196511,1,4,0:0:0:0:
267,220,196598,1,4,0:0:0:0:
317,230,196685,1,4,0:0:0:0:
355,264,196772,6,0,B|368:292|368:292|368:332|336:356,1,103.999995239258,10|4,0:0|0:0,0:0:0:0:
268,69,197119,2,0,B|286:45|286:45|321:25|358:40,1,103.999995239258,10|4,0:0|0:0,0:0:0:0:
143,242,197465,2,0,B|113:238|113:238|78:218|73:179,1,103.999995239258,10|4,0:0|0:0,0:0:0:0:
408,88,197812,2,0,P|424:140|408:188,1,103.999995239258,10|4,0:0|0:0,0:0:0:0:
88,112,198159,2,0,P|125:72|174:62,1,103.999995239258,10|4,0:0|0:0,0:0:0:0:
270,375,198506,2,0,P|217:363|183:325,1,103.999995239258,10|4,0:0|0:0,0:0:0:0:
268,69,198853,5,10,0:0:0:0:
290,100,198939,1,4,0:0:0:0:
296,138,199026,1,6,0:0:0:0:
284,175,199113,1,4,0:0:0:0:
257,203,199200,1,10,0:0:0:0:
230,230,199286,1,4,0:0:0:0:
218,267,199373,1,4,0:0:0:0:
223,305,199460,1,4,0:0:0:0:
246,337,199546,6,0,P|296:352|348:340,1,103.999995239258,10|4,0:0|0:0,0:0:0:0:
268,69,199893,2,0,P|218:54|168:68,1,103.999995239258,10|4,0:0|0:0,0:0:0:0:
404,304,200240,2,0,B|423:288|423:288|432:252|412:212,1,103.999995239258,10|4,0:0|0:0,0:0:0:0:
108,104,200587,2,0,B|88:119|88:119|80:156|100:195,1,103.999995239258,10|4,0:0|0:0,0:0:0:0:
364,156,200934,2,0,B|328:140|328:140|264:144,1,103.999995239258,10|4,0:0|0:0,0:0:0:0:
144,256,201280,5,10,0:0:0:0:
175,278,201366,1,4,0:0:0:0:
212,291,201453,1,4,0:0:0:0:
251,292,201540,1,4,0:0:0:0:
288,281,201626,1,8,0:0:0:0:
320,260,201713,1,8,0:0:0:0:
345,230,201800,1,4,0:0:0:0:
360,194,201886,1,4,0:0:0:0:
364,156,201973,5,10,0:0:0:0:
144,68,202147,1,4,0:0:0:0:
144,68,202234,1,4,0:0:0:0:
144,68,202321,2,0,L|140:120,1,51.999997619629,8|8,0:0|0:0,0:0:0:0:
236,68,202494,2,0,L|232:16,1,51.999997619629,8|4,0:0|0:0,0:0:0:0:
134,204,202668,1,4,0:0:0:0:
134,204,202755,1,4,0:0:0:0:
134,204,202842,2,0,L|143:255,1,51.999997619629,8|8,0:0|0:0,0:0:0:0:
222,180,203015,2,0,L|204:130,1,51.999997619629,8|4,0:0|0:0,0:0:0:0:
164,336,203188,1,4,0:0:0:0:
164,336,203275,1,4,0:0:0:0:
164,336,203362,2,0,L|186:383,1,51.999997619629,8|8,0:0|0:0,0:0:0:0:
242,290,203535,2,0,L|212:246,1,51.999997619629,8|4,0:0|0:0,0:0:0:0:
276,384,203708,5,0,0:0:0:0:
276,384,203795,1,0,0:0:0:0:
276,384,203882,1,8,0:0:0:0:
317,353,203968,1,8,0:0:0:0:
338,306,204055,1,8,0:0:0:0:
334,255,204142,1,8,0:0:0:0:
305,213,204228,6,0,P|276:208|252:208,1,51.999997619629,4|4,0:0|0:0,0:0:0:0:
147,243,204402,2,0,P|173:229|192:215,1,51.999997619629,8|4,0:0|0:0,0:0:0:0:
257,126,204575,2,0,P|243:152|235:174,1,51.999997619629,4|8,0:0|0:0,0:0:0:0:
242,290,204749,2,0,P|237:260|230:238,1,51.999997619629,4|4,0:0|0:0,0:0:0:0:
160,144,204922,2,0,P|180:165|199:179,1,51.999997619629,4|4,0:0|0:0,0:0:0:0:
372,196,205095,6,0,B|412:172|412:172|440:104|400:40,1,184.000003509522,2|10,0:0|0:0,0:0:0:0:
257,126,205616,1,4,0:0:0:0:
334,255,205789,1,6,0:0:0:0:
356,260,205876,1,4,0:0:0:0:
380,264,205963,1,4,0:0:0:0:
224,356,206136,1,10,0:0:0:0:
92,284,206309,1,4,0:0:0:0:
92,284,206396,1,4,0:0:0:0:
92,284,206483,6,0,B|80:260|80:260|76:232|92:196,1,92.0000017547608,6|4,0:0|0:0,0:0:0:0:
200,88,206830,1,10,0:0:0:0:
316,176,207003,1,4,0:0:0:0:
340,172,207090,1,4,0:0:0:0:
364,168,207176,1,6,0:0:0:0:
388,164,207263,1,4,0:0:0:0:
412,160,207350,1,4,0:0:0:0:
440,52,207523,1,10,0:0:0:0:
340,0,207697,1,4,0:0:0:0:
264,80,207870,5,6,0:0:0:0:
232,84,207957,1,4,0:0:0:0:
200,88,208043,1,4,0:0:0:0:
164,232,208217,1,10,0:0:0:0:
132,228,208304,1,4,0:0:0:0:
100,224,208390,1,4,0:0:0:0:
56,84,208564,1,6,0:0:0:0:
188,20,208737,1,4,0:0:0:0:
220,16,208824,1,4,0:0:0:0:
252,12,208910,1,10,0:0:0:0:
364,168,209084,5,4,0:0:0:0:
340,164,209171,1,4,0:0:0:0:
316,160,209257,1,6,0:0:0:0:
292,156,209344,1,4,0:0:0:0:
268,152,209431,1,4,0:0:0:0:
164,232,209604,1,10,0:0:0:0:
244,336,209778,1,4,0:0:0:0:
348,256,209951,1,10,0:0:0:0:
372,252,210038,1,4,0:0:0:0:
396,248,210124,1,4,0:0:0:0:
420,244,210211,1,4,0:0:0:0:
444,240,210298,1,10,0:0:0:0:
328,380,210471,1,8,0:0:0:0:
212,240,210645,6,0,B|187:233|164:232|164:232|144:252|128:260|128:260|88:240|40:240,1,184.000003509522,2|10,0:0|0:0,0:0:0:0:
104,376,211165,1,4,0:0:0:0:
244,336,211338,1,6,0:0:0:0:
248,312,211425,1,4,0:0:0:0:
252,288,211512,1,4,0:0:0:0:
180,160,211685,1,10,0:0:0:0:
320,120,211858,1,4,0:0:0:0:
324,96,211945,1,4,0:0:0:0:
328,72,212032,6,0,B|344:52|344:52|376:48|412:60,1,92.0000017547608,6|4,0:0|0:0,0:0:0:0:
464,196,212379,1,10,0:0:0:0:
320,228,212552,1,4,0:0:0:0:
296,224,212639,1,4,0:0:0:0:
272,220,212726,1,6,0:0:0:0:
248,216,212812,1,4,0:0:0:0:
224,212,212899,1,4,0:0:0:0:
112,356,213072,1,10,0:0:0:0:
144,352,213159,1,4,0:0:0:0:
176,348,213246,1,4,0:0:0:0:
300,292,213419,5,6,0:0:0:0:
324,296,213506,1,4,0:0:0:0:
348,300,213593,1,4,0:0:0:0:
464,196,213766,1,10,0:0:0:0:
320,136,213939,1,4,0:0:0:0:
296,140,214026,1,4,0:0:0:0:
272,144,214113,1,6,0:0:0:0:
152,244,214286,1,4,0:0:0:0:
32,144,214460,1,10,0:0:0:0:
28,120,214546,1,4,0:0:0:0:
24,96,214633,1,4,0:0:0:0:
172,24,214806,6,0,B|204:32|204:32|228:80|204:136,1,136.000002593994,10|4,0:0|0:0,0:0:0:0:
152,244,215327,1,4,0:0:0:0:
232,336,215500,1,10,0:0:0:0:
256,332,215587,1,4,0:0:0:0:
280,328,215673,1,4,0:0:0:0:
400,376,215847,1,10,0:0:0:0:
422,365,215934,1,4,0:0:0:0:
444,355,216020,1,4,0:0:0:0:
512,224,216194,6,0,B|520:180|520:180|488:112|408:108,1,184.000003509522,10|6,0:0|0:0,0:0:0:0:
228,136,216714,1,4,0:0:0:0:
228,136,216801,1,4,0:0:0:0:
228,136,216887,1,10,0:0:0:0:
152,244,217061,1,4,0:0:0:0:
52,160,217234,1,6,0:0:0:0:
48,136,217321,1,4,0:0:0:0:
44,112,217408,1,4,0:0:0:0:
40,88,217494,1,4,0:0:0:0:
36,64,217581,6,0,B|56:64|80:76|80:76|95:60|116:48|116:48|160:60|208:48,1,184.000003509522,10|6,0:0|0:0,0:0:0:0:
352,8,218101,1,4,0:0:0:0:
352,8,218188,1,4,0:0:0:0:
352,8,218275,1,10,0:0:0:0:
480,80,218448,1,4,0:0:0:0:
476,104,218535,1,4,0:0:0:0:
472,128,218621,1,6,0:0:0:0:
468,152,218708,1,4,0:0:0:0:
464,176,218795,1,4,0:0:0:0:
336,248,218968,5,10,0:0:0:0:
304,252,219055,1,4,0:0:0:0:
272,256,219142,1,4,0:0:0:0:
176,132,219315,1,6,0:0:0:0:
144,128,219402,1,4,0:0:0:0:
112,124,219489,1,4,0:0:0:0:
16,248,219662,1,10,0:0:0:0:
156,316,219835,1,4,0:0:0:0:
188,312,219922,1,4,0:0:0:0:
220,308,220009,1,6,0:0:0:0:
336,176,220182,5,4,0:0:0:0:
367,183,220268,1,4,0:0:0:0:
392,203,220355,1,10,0:0:0:0:
406,231,220442,1,4,0:0:0:0:
406,263,220528,1,4,0:0:0:0:
393,292,220615,1,4,0:0:0:0:
368,313,220702,1,6,0:0:0:0:
337,321,220788,1,4,0:0:0:0:
306,315,220875,1,4,0:0:0:0:
256,156,221049,1,10,0:0:0:0:
252,120,221136,1,4,0:0:0:0:
248,84,221223,1,4,0:0:0:0:
480,172,221396,1,10,0:0:0:0:
476,208,221483,1,4,0:0:0:0:
472,244,221570,1,4,0:0:0:0:
256,372,221743,6,0,B|231:369|204:376|204:376|164:344|164:344|116:364|60:336,1,207.999990478516,10|10,0:0|0:0,0:0:0:0:
4,160,222263,1,4,0:0:0:0:
8,128,222350,1,4,0:0:0:0:
12,96,222437,1,10,0:0:0:0:
144,196,222610,1,4,0:0:0:0:
148,228,222697,1,4,0:0:0:0:
152,260,222784,1,10,0:0:0:0:
84,72,222957,1,4,0:0:0:0:
117,59,223043,1,4,0:0:0:0:
154,55,223130,5,10,0:0:0:0:
292,152,223304,1,4,0:0:0:0:
324,148,223390,1,4,0:0:0:0:
356,144,223477,1,10,0:0:0:0:
216,268,223650,1,4,0:0:0:0:
184,264,223736,1,4,0:0:0:0:
152,260,223823,1,10,0:0:0:0:
72,136,223997,1,4,0:0:0:0:
224,44,224171,1,10,0:0:0:0:
248,40,224257,1,4,0:0:0:0:
272,36,224344,1,4,0:0:0:0:
296,32,224431,1,4,0:0:0:0:
320,28,224517,6,0,B|348:36|348:36|372:60|368:108,1,103.999995239258,10|4,0:0|0:0,0:0:0:0:
288,252,224864,1,10,0:0:0:0:
416,360,225038,1,4,0:0:0:0:
448,356,225124,1,4,0:0:0:0:
480,352,225211,1,10,0:0:0:0:
512,188,225384,1,4,0:0:0:0:
368,105,225558,1,10,0:0:0:0:
344,100,225645,1,4,0:0:0:0:
320,96,225731,1,4,0:0:0:0:
296,92,225818,1,4,0:0:0:0:
272,88,225905,6,0,L|220:92,1,51.999997619629,10|8,0:0|0:0,0:0:0:0:
224,168,226078,2,0,L|172:164,1,51.999997619629,10|4,0:0|0:0,0:0:0:0:
72,216,226252,1,4,0:0:0:0:
72,216,226338,1,4,0:0:0:0:
72,216,226425,2,0,L|76:268,1,51.999997619629,10|8,0:0|0:0,0:0:0:0:
152,264,226598,2,0,L|148:316,1,51.999997619629,10|4,0:0|0:0,0:0:0:0:
248,368,226772,1,4,0:0:0:0:
248,368,226858,1,4,0:0:0:0:
248,368,226945,1,10,0:0:0:0:
376,280,227119,1,4,0:0:0:0:
376,280,227205,1,4,0:0:0:0:
376,280,227292,5,10,0:0:0:0:
334,47,227466,1,4,0:0:0:0:
155,198,227639,1,4,0:0:0:0:
420,151,227813,1,8,0:0:0:0:
201,71,227986,1,4,0:0:0:0:
242,301,228159,1,4,0:0:0:0:
242,301,228505,5,10,0:0:0:0:
201,71,228679,1,4,0:0:0:0:
420,151,228852,1,4,0:0:0:0:
242,301,229026,6,0,B|220:312|220:312|176:308,1,69.3333301595054,8|8,0:0|0:0,0:0:0:0:
155,198,229257,2,0,B|177:187|177:187|221:191,1,69.3333301595054,8|8,0:0|0:0,0:0:0:0:
312,260,229488,1,4,0:0:0:0:
377,279,229603,1,4,0:0:0:0:
440,255,229719,6,0,B|460:232|460:232|464:196|440:164,1,103.999995239258,6|4,0:0|0:0,0:0:0:0:
240,208,230066,2,0,B|220:231|220:231|216:267|240:299,1,103.999995239258,6|4,0:0|0:0,0:0:0:0:
341,33,230413,1,10,0:0:0:0:
201,71,230586,1,4,0:0:0:0:
303,174,230760,1,6,0:0:0:0:
267,33,230933,1,4,0:0:0:0:
163,135,231106,1,6,0:0:0:0:
303,174,231280,1,8,0:0:0:0:
201,71,231453,1,6,0:0:0:0:
161,211,231626,1,4,0:0:0:0:
303,174,231800,1,10,0:0:0:0:
163,135,231974,6,0,B|132:128|132:128|100:136|72:176,1,103.999995239258,6|4,0:0|0:0,0:0:0:0:
296,256,232320,2,0,B|327:263|327:263|359:255|387:215,1,103.999995239258,6|4,0:0|0:0,0:0:0:0:
108,324,232667,1,10,0:0:0:0:
248,360,232841,1,4,0:0:0:0:
108,324,233014,1,6,0:0:0:0:
303,174,233187,1,4,0:0:0:0:
161,211,233361,1,6,0:0:0:0:
303,174,233534,1,8,0:0:0:0:
108,24,233708,1,6,0:0:0:0:
248,60,233882,1,4,0:0:0:0:
276,52,233968,1,4,0:0:0:0:
304,44,234054,1,6,0:0:0:0:
332,36,234141,1,4,0:0:0:0:
360,28,234228,1,8,0:0:0:0:
500,64,234401,6,0,B|512:88|512:88|512:128|476:152,1,103.999995239258,6|4,0:0|0:0,0:0:0:0:
248,200,234748,2,0,B|236:176|236:176|236:136|272:112,1,103.999995239258,6|4,0:0|0:0,0:0:0:0:
388,332,235095,1,10,0:0:0:0:
144,376,235268,2,0,B|104:380|104:380|44:348,1,103.999995239258,4|6,0:0|0:0,0:0:0:0:
388,332,235615,1,4,0:0:0:0:
154,248,235788,2,0,B|117:231|117:231|81:173,1,103.999995239258,6|8,0:0|0:0,0:0:0:0:
388,332,236135,1,6,0:0:0:0:
227,142,236308,2,0,B|203:109|203:109|201:41,1,103.999995239258,4|10,0:0|0:0,0:0:0:0:
444,288,236656,6,0,B|464:308|464:308|472:344|444:380,1,103.999995239258,6|4,0:0|0:0,0:0:0:0:
168,180,237002,2,0,B|148:160|148:160|140:124|168:88,1,103.999995239258,6|4,0:0|0:0,0:0:0:0:
304,40,237349,5,12,0:0:0:0:
396,152,237523,1,8,0:0:0:0:
395,162,237580,1,8,0:0:0:0:
394,172,237638,1,8,0:0:0:0:
393,182,237696,1,4,0:0:0:0:
292,288,237869,1,10,0:0:0:0:
292,288,238216,6,0,L|252:292,1,40,8|8,0:0|0:0,0:0:0:0:
24,208,238389,1,4,0:0:0:0:
28,212,238476,1,4,0:0:0:0:
32,216,238562,1,4,0:0:0:0:
36,220,238649,1,4,0:0:0:0:
40,224,238736,2,0,L|80:228,1,40,8|4,0:0|0:0,0:0:0:0:
292,160,238909,1,4,0:0:0:0:
288,164,238996,1,4,0:0:0:0:
284,168,239082,1,4,0:0:0:0:
280,172,239169,1,4,0:0:0:0:
252,172,239256,5,10,0:0:0:0:
252,172,239603,5,10,0:0:0:0:
219,161,239689,1,0,0:0:0:0:
184,159,239776,1,0,0:0:0:0:
151,165,239863,1,0,0:0:0:0:
119,180,239950,5,10,0:0:0:0:
75,185,240036,1,0,0:0:0:0:
41,155,240123,1,0,0:0:0:0:
41,110,240210,1,0,0:0:0:0:
74,80,240296,1,10,0:0:0:0:
118,84,240383,1,0,0:0:0:0:
162,97,240469,1,0,0:0:0:0:
206,87,240556,1,0,0:0:0:0:
239,56,240643,5,10,0:0:0:0:
262,31,240729,1,0,0:0:0:0:
293,16,240816,1,0,0:0:0:0:
327,15,240903,1,0,0:0:0:0:
360,28,240990,1,10,0:0:0:0:
384,51,241076,1,0,0:0:0:0:
396,83,241163,1,0,0:0:0:0:
392,117,241250,1,0,0:0:0:0:
373,146,241337,5,10,0:0:0:0:
355,187,241423,1,0,0:0:0:0:
372,228,241510,1,0,0:0:0:0:
413,244,241597,1,0,0:0:0:0:
454,225,241684,1,10,0:0:0:0:
472,184,241770,1,0,0:0:0:0:
455,142,241857,1,0,0:0:0:0:
413,126,241944,1,0,0:0:0:0:
373,146,242031,5,10,0:0:0:0:
341,158,242117,1,0,0:0:0:0:
307,158,242204,1,0,0:0:0:0:
275,147,242291,1,0,0:0:0:0:
248,124,242377,1,10,0:0:0:0:
221,101,242463,1,0,0:0:0:0:
189,90,242550,1,0,0:0:0:0:
155,90,242637,1,0,0:0:0:0:
123,102,242724,5,10,0:0:0:0:
98,141,242810,1,0,0:0:0:0:
98,186,242897,1,0,0:0:0:0:
122,224,242984,1,0,0:0:0:0:
163,244,243070,1,10,0:0:0:0:
208,239,243157,1,0,0:0:0:0:
244,211,243244,1,0,0:0:0:0:
259,168,243330,1,0,0:0:0:0:
248,124,243418,5,10,0:0:0:0:
242,90,243504,1,0,0:0:0:0:
251,57,243591,1,0,0:0:0:0:
273,30,243678,1,0,0:0:0:0:
304,15,243765,1,10,0:0:0:0:
338,11,243851,1,0,0:0:0:0:
370,21,243938,1,0,0:0:0:0:
396,43,244025,1,0,0:0:0:0:
411,74,244111,5,10,0:0:0:0:
415,119,244197,1,0,0:0:0:0:
388,155,244284,1,0,0:0:0:0:
344,165,244371,1,0,0:0:0:0:
304,144,244458,1,10,0:0:0:0:
270,115,244544,1,0,0:0:0:0:
226,102,244631,1,0,0:0:0:0:
181,110,244718,1,0,0:0:0:0:
143,136,244805,5,10,0:0:0:0:
124,164,244891,1,0,0:0:0:0:
120,198,244978,1,0,0:0:0:0:
131,231,245065,1,0,0:0:0:0:
155,255,245152,1,10,0:0:0:0:
178,279,245238,1,0,0:0:0:0:
189,311,245325,1,0,0:0:0:0:
185,345,245412,1,0,0:0:0:0:
166,374,245499,5,10,0:0:0:0:
122,384,245585,1,0,0:0:0:0:
81,364,245672,1,0,0:0:0:0:
62,323,245759,1,0,0:0:0:0:
74,279,245845,1,10,0:0:0:0:
110,253,245932,1,0,0:0:0:0:
155,255,246019,1,0,0:0:0:0:
199,263,246105,1,0,0:0:0:0:
244,255,246192,5,10,0:0:0:0:
277,246,246278,1,0,0:0:0:0:
302,223,246365,1,0,0:0:0:0:
313,190,246452,1,0,0:0:0:0:
308,157,246539,1,10,0:0:0:0:
287,129,246625,1,0,0:0:0:0:
257,114,246712,1,0,0:0:0:0:
222,115,246799,1,0,0:0:0:0:
193,132,246886,5,10,0:0:0:0:
165,168,246972,1,0,0:0:0:0:
165,213,247059,1,0,0:0:0:0:
192,249,247146,1,0,0:0:0:0:
236,261,247232,1,10,0:0:0:0:
277,246,247320,1,0,0:0:0:0:
318,226,247406,1,0,0:0:0:0:
364,225,247493,1,0,0:0:0:0:
406,243,247580,5,10,0:0:0:0:
438,256,247666,1,0,0:0:0:0:
471,249,247753,1,0,0:0:0:0:
496,226,247840,1,0,0:0:0:0:
504,193,247926,1,10,0:0:0:0:
496,159,248012,1,0,0:0:0:0:
471,136,248099,1,0,0:0:0:0:
438,130,248186,1,0,0:0:0:0:
406,142,248273,5,10,0:0:0:0:
363,131,248359,1,0,0:0:0:0:
337,94,248446,1,0,0:0:0:0:
342,50,248533,1,0,0:0:0:0:
375,19,248619,1,10,0:0:0:0:
420,18,248706,1,0,0:0:0:0:
455,47,248793,1,0,0:0:0:0:
462,91,248879,1,0,0:0:0:0:
438,129,248966,5,10,0:0:0:0:
406,142,249054,1,0,0:0:0:0:
379,164,249140,1,0,0:0:0:0:
364,194,249227,1,0,0:0:0:0:
363,228,249314,1,10,0:0:0:0:
364,263,249400,1,0,0:0:0:0:
349,293,249487,1,0,0:0:0:0:
321,314,249574,1,0,0:0:0:0:
287,319,249661,5,10,0:0:0:0:
245,306,249747,1,0,0:0:0:0:
223,267,249834,1,0,0:0:0:0:
237,224,249921,1,0,0:0:0:0:
276,203,250007,2,0,L|284:156,1,46.0000008773804,10|0,0:0|0:0,0:0:0:0:
349,293,250180,1,0,0:0:0:0:
349,293,250267,1,0,0:0:0:0:
349,293,250354,6,0,L|357:340,1,46.0000008773804,10|0,0:0|0:0,0:0:0:0:
215,312,250527,1,0,0:0:0:0:
215,312,250614,1,0,0:0:0:0:
215,312,250701,2,0,L|223:265,1,46.0000008773804,10|0,0:0|0:0,0:0:0:0:
120,164,250874,1,0,0:0:0:0:
116,160,250961,1,0,0:0:0:0:
112,156,251048,5,10,0:0:0:0:
66,167,251134,1,0,0:0:0:0:
37,201,251221,1,0,0:0:0:0:
32,247,251308,1,0,0:0:0:0:
54,286,251394,1,10,0:0:0:0:
95,306,251481,1,0,0:0:0:0:
139,299,251568,1,0,0:0:0:0:
172,267,251654,1,0,0:0:0:0:
182,222,251742,5,10,0:0:0:0:
191,189,251828,1,0,0:0:0:0:
214,164,251915,1,0,0:0:0:0:
246,152,252002,1,0,0:0:0:0:
280,156,252088,1,10,0:0:0:0:
313,165,252174,1,0,0:0:0:0:
347,160,252261,1,0,0:0:0:0:
375,140,252348,1,0,0:0:0:0:
391,110,252435,5,10,0:0:0:0:
431,89,252521,1,0,0:0:0:0:
475,100,252608,1,0,0:0:0:0:
500,137,252695,1,0,0:0:0:0:
495,182,252781,1,10,0:0:0:0:
462,212,252868,1,0,0:0:0:0:
417,213,252955,1,0,0:0:0:0:
382,184,253041,1,0,0:0:0:0:
375,140,253129,5,10,0:0:0:0:
366,107,253215,1,0,0:0:0:0:
343,81,253302,1,0,0:0:0:0:
312,68,253389,1,0,0:0:0:0:
278,71,253476,1,10,0:0:0:0:
248,88,253562,1,0,0:0:0:0:
230,117,253649,1,0,0:0:0:0:
226,151,253736,1,0,0:0:0:0:
238,183,253822,5,10,0:0:0:0:
242,228,253908,1,0,0:0:0:0:
221,268,253995,1,0,0:0:0:0:
181,290,254082,1,0,0:0:0:0:
136,286,254168,1,10,0:0:0:0:
100,258,254255,1,0,0:0:0:0:
86,215,254342,1,0,0:0:0:0:
98,172,254428,1,0,0:0:0:0:
131,141,254516,5,10,0:0:0:0:
150,113,254602,1,0,0:0:0:0:
147,79,254689,1,0,0:0:0:0:
125,54,254776,1,0,0:0:0:0:
92,47,254863,1,10,0:0:0:0:
59,56,254949,1,0,0:0:0:0:
39,84,255036,1,0,0:0:0:0:
40,118,255123,1,0,0:0:0:0:
62,144,255210,5,10,0:0:0:0:
97,172,255296,1,0,0:0:0:0:
112,215,255383,1,0,0:0:0:0:
101,259,255470,1,0,0:0:0:0:
67,290,255557,1,10,0:0:0:0:
25,278,255643,1,0,0:0:0:0:
13,236,255730,1,0,0:0:0:0:
43,204,255817,1,0,0:0:0:0:
86,215,255903,5,10,0:0:0:0:
117,229,255989,1,0,0:0:0:0:
152,230,256076,1,0,0:0:0:0:
184,219,256163,1,0,0:0:0:0:
210,197,256250,1,10,0:0:0:0:
236,174,256336,1,0,0:0:0:0:
268,163,256423,1,0,0:0:0:0:
302,165,256510,1,0,0:0:0:0:
334,178,256597,5,10,0:0:0:0:
374,199,256683,1,0,0:0:0:0:
419,192,256770,1,0,0:0:0:0:
451,159,256857,1,0,0:0:0:0:
457,115,256943,1,10,0:0:0:0:
436,75,257030,1,0,0:0:0:0:
396,55,257117,1,0,0:0:0:0:
351,62,257203,1,0,0:0:0:0:
320,95,257291,5,10,0:0:0:0:
290,112,257377,1,0,0:0:0:0:
256,114,257464,1,0,0:0:0:0:
225,101,257551,1,0,0:0:0:0:
203,75,257637,1,10,0:0:0:0:
181,48,257723,1,0,0:0:0:0:
149,35,257810,1,0,0:0:0:0:
115,37,257897,1,0,0:0:0:0:
86,54,257984,5,10,0:0:0:0:
59,91,258070,1,0,0:0:0:0:
56,137,258157,1,0,0:0:0:0:
75,178,258244,1,0,0:0:0:0:
113,203,258330,1,10,0:0:0:0:
159,205,258417,1,0,0:0:0:0:
199,184,258504,1,0,0:0:0:0:
223,145,258590,1,0,0:0:0:0:
225,101,258678,5,10,0:0:0:0:
229,67,258764,1,0,0:0:0:0:
252,42,258851,1,0,0:0:0:0:
285,35,258938,1,0,0:0:0:0:
316,48,259025,1,10,0:0:0:0:
332,77,259111,1,0,0:0:0:0:
328,111,259198,1,0,0:0:0:0:
305,136,259285,1,0,0:0:0:0:
268,141,259372,5,10,0:0:0:0:
224,146,259458,1,0,0:0:0:0:
199,184,259545,1,0,0:0:0:0:
211,227,259632,1,0,0:0:0:0:
251,246,259718,1,10,0:0:0:0:
291,230,259805,1,0,0:0:0:0:
333,213,259891,1,0,0:0:0:0:
373,233,259978,1,0,0:0:0:0:
385,276,260065,1,10,0:0:0:0:
360,313,260151,1,0,0:0:0:0:
316,320,260238,1,0,0:0:0:0:
276,296,260325,1,0,0:0:0:0:
232,284,260412,6,0,P|206:284|184:288,1,46.0000008773804,8|8,0:0|0:0,0:0:0:0:
136,212,260585,2,0,P|118:229|104:248,1,46.0000008773804,8|8,0:0|0:0,0:0:0:0:
17,229,260759,2,0,P|17:254|21:277,1,46.0000008773804,6|4,0:0|0:0,0:0:0:0:
56,364,260932,5,8,0:0:0:0:
96,383,261018,1,4,0:0:0:0:
141,376,261106,1,8,0:0:0:0:
174,345,261192,1,4,0:0:0:0:
207,314,261278,1,8,0:0:0:0:
252,307,261365,1,4,0:0:0:0:
292,326,261453,6,0,B|324:352|360:352|360:352|388:328|424:320|424:320|472:344|520:332,1,240,2|4,2:3|2:3,2:3:0:0:
424,156,262146,2,0,P|384:160|348:176,1,80,8|0,2:3|2:3,2:3:0:0:
236,240,262493,2,0,P|216:244|192:244,1,40,4|0,2:3|2:3,2:3:0:0:
188,308,262666,2,0,P|168:301|147:289,1,40,4|0,2:3|2:3,2:3:0:0:
112,342,262840,2,0,P|98:326|86:305,1,40,0|0,2:3|2:3,2:3:0:0:
60,248,263013,2,0,P|80:244|104:244,1,40,8|0,2:3|2:3,2:3:0:0:
108,180,263186,2,0,P|127:186|148:198,1,40,0|0,2:3|2:3,2:3:0:0:
184,146,263360,5,4,2:3:0:0:
200,152,263447,1,4,2:3:0:0:
216,152,263533,2,0,B|240:148|240:148|256:128|256:96,1,80,8|8,2:3|2:3,2:3:0:0:
88,40,263880,2,0,P|72:40|34:32,1,40,4|0,0:3|0:0,0:0:0:0:
136,88,264054,2,0,P|152:88|190:80,1,40,0|2,0:0|2:0,0:0:0:0:
211,28,264227,6,0,B|240:16|272:16|272:16|296:32|328:40|328:40|380:16|444:24,1,240,2|4,2:3|2:3,2:3:0:0:
472,156,264921,2,0,P|404:200|332:172,1,160,8|4,2:3|2:3,2:3:0:0:
176,104,265441,2,0,B|136:100|136:100|96:116|96:116|60:104|16:104,2,160,4|8|4,2:3|2:3|2:3,2:3:0:0:
176,104,266221,1,4,2:3:0:0:
176,104,266308,1,8,2:3:0:0:
260,200,266481,2,0,B|272:252|272:252|308:284|308:284|320:344,1,160,4|4,2:3|2:3,2:3:0:0:
88,312,267002,6,0,P|48:220|144:256,1,256,2|8,2:3|2:3,2:3:0:0:
160,360,267869,2,0,B|168:380|168:380|200:384|228:376,1,80,0|0,2:3|2:3,2:3:0:0:
360,300,268216,2,0,P|416:284|488:288,2,128,4|8|4,2:3|2:3|2:3,2:3:0:0:
225,376,269083,1,10,2:3:0:0:
143,254,269256,2,0,P|139:218|155:178,1,80,4|0,2:3|2:3,2:3:0:0:
172,156,269516,1,2,2:0:0:0:
187,132,269602,1,2,2:0:0:0:
194,105,269689,1,2,2:0:0:0:
192,78,269776,6,0,B|172:44|172:44|120:24|52:48,1,160,2|0,2:3|2:3,2:3:0:0:
96,184,270296,1,4,2:3:0:0:
224,248,270470,2,0,B|263:241|263:241|293:212|293:212|332:206|371:225,1,160,8|4,2:3|2:3,2:3:0:0:
400,344,271163,2,0,P|360:340|320:344,1,80,0|8,2:3|2:3,2:3:0:0:
100,300,271510,2,0,P|140:304|180:300,1,80,4|4,2:3|2:3,2:3:0:0:
264,192,271857,5,8,0:0:0:0:
268,152,271943,1,8,0:0:0:0:
249,118,272030,1,8,0:0:0:0:
214,99,272117,1,8,0:0:0:0:
175,104,272204,2,0,P|156:112|132:128,1,40,8|4,0:0|0:0,0:0:0:0:
276,260,272377,2,0,P|295:252|319:236,1,40,8|4,0:0|0:0,0:0:0:0:
384,144,272551,6,0,B|392:125|396:108|396:108|378:92|372:72|372:72|396:44|396:0,2,160,6|10|6,2:3|2:3|2:3,2:3:0:0:
264,192,273418,1,4,2:3:0:0:
176,104,273591,2,0,P|168:64|180:28,1,80,10|4,2:3|2:3,2:3:0:0:
368,128,273938,5,2,2:3:0:0:
372,132,274025,1,0,2:3:0:0:
376,136,274111,1,4,2:3:0:0:
380,140,274198,1,0,2:3:0:0:
384,144,274285,1,10,2:3:0:0:
398,180,274372,1,2,2:0:0:0:
386,217,274458,1,2,2:0:0:0:
353,238,274545,1,2,2:0:0:0:
314,233,274632,1,6,2:3:0:0:
269,216,274718,1,2,2:0:0:0:
222,211,274805,1,2,2:0:0:0:
175,219,274892,1,2,2:0:0:0:
131,239,274979,6,0,L|103:235,2,26.6666666666667,10|2|2,2:3|2:0|2:0,2:3:0:0:
112,308,275152,2,0,L|84:312,2,26.6666666666667,4|2|2,2:3|2:0|2:0,2:3:0:0:
180,288,275325,2,0,P|204:296|220:304,1,40,6|0,2:3|2:3,2:3:0:0:
264,352,275499,2,0,L|260:380,2,26.6666666666667,2|2|2,2:0|2:0|2:0,2:3:0:0:
324,320,275672,2,0,P|342:311|361:305,1,40,10|0,2:3|2:3,2:3:0:0:
428,304,275845,1,0,2:3:0:0:
452,303,275932,1,0,2:3:0:0:
475,295,276019,5,6,2:3:0:0:
485,283,276105,1,0,2:3:0:0:
492,269,276192,1,4,2:3:0:0:
495,253,276279,1,0,2:3:0:0:
494,237,276366,1,10,2:3:0:0:
492,230,276452,1,0,2:3:0:0:
490,222,276539,1,4,2:3:0:0:
490,214,276626,1,0,2:3:0:0:
490,206,276713,6,0,P|491:181|495:157,1,47.9999985351563,2|4,2:3|2:3,2:3:0:0:
368,56,277059,2,0,P|368:88|364:120,1,64,10|4,2:3|2:3,2:3:0:0:
277,295,277406,2,0,P|277:255|269:215,1,80,6|4,2:3|2:3,2:3:0:0:
116,88,277753,1,10,2:3:0:0:
77,101,277840,1,2,2:0:0:0:
77,141,277926,1,2,2:0:0:0:
116,153,278013,1,2,2:0:0:0:
139,121,278100,6,0,P|164:92|200:68,1,80,6|0,2:3|2:3,2:3:0:0:
332,60,278447,1,10,2:3:0:0:
370,68,278533,1,0,2:3:0:0:
396,98,278620,1,0,2:3:0:0:
400,137,278707,1,0,2:3:0:0:
380,171,278794,2,0,L|376:216,1,40,6|0,2:3|2:3,2:3:0:0:
312,188,278967,2,0,L|307:232,1,40,4|0,2:3|2:3,2:3:0:0:
184,303,279140,5,10,2:3:0:0:
212,343,279226,1,0,2:3:0:0:
255,366,279313,1,4,2:3:0:0:
305,367,279400,1,0,2:3:0:0:
349,345,279487,2,0,L|359:318,2,26.6666666666667,2|2|2,2:3|2:0|2:0,2:3:0:0:
312,267,279661,2,0,L|308:227,1,40,4|2,2:3|2:3,2:3:0:0:
232,168,279834,5,10,0:0:0:0:
213,132,279921,1,8,0:0:0:0:
208,93,280007,1,8,0:0:0:0:
215,54,280094,1,4,0:0:0:0:
236,19,280181,2,0,L|276:24,1,40,8|4,0:0|0:0,0:0:0:0:
312,188,280354,2,0,L|352:192,1,40,4|4,0:0|0:0,0:0:0:0:
212,343,280528,2,0,L|184:348,2,26.6666666666667,10|2|2,0:0|2:0|2:0,2:3:0:0:
148,288,280701,2,0,L|108:284,1,40,4|4,0:0|0:0,0:0:0:0:
100,216,280874,1,6,0:0:0:0:
100,216,281221,5,8,0:3:0:0:
127,204,281307,1,4,0:3:0:0:
157,203,281394,1,4,0:3:0:0:
186,210,281481,1,4,0:3:0:0:
211,227,281568,1,12,0:3:0:0:
235,243,281654,1,8,0:3:0:0:
264,251,281741,1,4,0:3:0:0:
294,249,281828,1,8,0:3:0:0:
322,238,281915,2,0,L|360:220,1,40,8|4,0:3|0:3,0:3:0:0:
328,164,282088,2,0,L|365:145,1,40,4|4,0:3|0:3,0:3:0:0:
333,89,282262,5,8,0:3:0:0:
326,61,282348,1,4,0:3:0:0:
310,39,282435,1,4,0:3:0:0:
287,24,282522,1,8,0:3:0:0:
259,18,282608,1,4,0:3:0:0:
232,23,282695,1,4,0:3:0:0:
209,38,282782,1,4,0:3:0:0:
192,61,282868,1,4,0:3:0:0:
186,88,282955,1,4,0:3:0:0:
190,116,283042,1,4,0:3:0:0:
204,140,283129,5,8,0:3:0:0:
220,188,283215,1,8,0:3:0:0:
201,235,283302,1,8,0:3:0:0:
155,256,283389,1,8,0:3:0:0:
106,242,283475,1,8,0:3:0:0:
80,198,283562,1,8,0:3:0:0:
89,148,283649,6,0,B|116:108|116:108|188:84|252:104,1,184.000003509522,2|10,0:3|0:3,0:3:0:0:
368,204,284169,1,4,0:3:0:0:
272,328,284343,1,6,0:3:0:0:
248,324,284430,1,4,0:3:0:0:
224,320,284517,1,4,0:3:0:0:
152,184,284689,1,10,0:3:0:0:
284,100,284863,1,4,0:3:0:0:
284,100,284950,1,4,0:3:0:0:
284,100,285036,6,0,B|308:80|308:80|312:52|300:16,1,92.0000017547608,6|4,0:3|0:3,0:3:0:0:
200,116,285383,1,10,0:3:0:0:
272,220,285557,1,4,0:3:0:0:
296,216,285643,1,4,0:3:0:0:
320,212,285730,1,6,0:3:0:0:
344,208,285817,1,4,0:3:0:0:
368,204,285903,1,4,0:3:0:0:
392,360,286077,1,10,0:3:0:0:
236,384,286250,1,4,0:3:0:0:
212,228,286424,5,6,0:3:0:0:
216,196,286510,1,4,0:3:0:0:
220,164,286597,1,4,0:3:0:0:
92,116,286770,1,10,0:3:0:0:
88,84,286856,1,4,0:3:0:0:
84,52,286943,1,4,0:3:0:0:
16,224,287117,1,6,0:3:0:0:
180,308,287291,1,4,0:3:0:0:
212,304,287377,1,4,0:3:0:0:
244,300,287464,1,10,0:3:0:0:
392,192,287637,5,4,0:3:0:0:
399,170,287723,1,4,0:3:0:0:
400,147,287810,1,6,0:3:0:0:
395,124,287897,1,4,0:3:0:0:
384,104,287983,1,4,0:3:0:0:
328,156,288158,1,10,0:3:0:0:
456,228,288331,1,4,0:3:0:0:
244,300,288505,1,10,0:3:0:0:
220,296,288591,1,4,0:3:0:0:
196,292,288678,1,4,0:3:0:0:
172,288,288765,1,4,0:3:0:0:
148,284,288851,1,10,0:3:0:0:
96,108,289025,1,8,0:3:0:0:
252,8,289198,6,0,B|280:0|304:0|304:0|320:20|344:32|344:32|388:12|448:20,1,207.999990478516,2|10,0:3|0:3,0:3:0:0:
512,152,289718,1,4,0:3:0:0:
376,204,289892,1,6,0:3:0:0:
352,200,289979,1,4,0:3:0:0:
328,196,290065,1,4,0:3:0:0:
240,76,290239,1,10,0:3:0:0:
96,108,290412,1,4,0:3:0:0:
96,108,290499,1,4,0:3:0:0:
96,108,290585,6,0,B|76:128|76:128|68:156|80:192,1,92.0000017547608,6|4,0:3|0:3,0:3:0:0:
172,316,290932,1,10,0:3:0:0:
320,264,291106,1,4,0:3:0:0:
344,268,291192,1,4,0:3:0:0:
368,272,291279,1,6,0:3:0:0:
392,276,291366,1,4,0:3:0:0:
416,280,291453,1,4,0:3:0:0:
312,372,291626,1,10,0:3:0:0:
280,376,291713,1,4,0:3:0:0:
248,380,291799,1,4,0:3:0:0:
96,252,291973,5,6,0:3:0:0:
92,228,292059,1,4,0:3:0:0:
88,204,292146,1,4,0:3:0:0:
180,112,292320,1,10,0:3:0:0:
228,232,292493,1,4,0:3:0:0:
224,256,292579,1,4,0:3:0:0:
220,280,292666,1,6,0:3:0:0:
312,372,292840,1,4,0:3:0:0:
392,276,293013,1,10,0:3:0:0:
388,252,293099,1,4,0:3:0:0:
384,228,293187,1,4,0:3:0:0:
308,113,293360,6,0,P|241:93|177:113,1,136.000002593994,10|6,0:3|0:3,0:3:0:0:
88,204,293880,1,4,0:3:0:0:
144,320,294054,1,10,0:3:0:0:
168,324,294140,1,4,0:3:0:0:
192,328,294227,1,4,0:3:0:0:
312,372,294400,1,10,0:3:0:0:
336,368,294486,1,4,0:3:0:0:
360,364,294573,1,4,0:3:0:0:
460,280,294747,6,0,B|480:240|480:240|468:168|400:132,1,184.000003509522,10|6,0:3|0:3,0:3:0:0:
224,76,295268,1,4,0:3:0:0:
224,76,295354,1,4,0:3:0:0:
224,76,295441,1,10,0:3:0:0:
120,180,295614,1,4,0:3:0:0:
212,296,295788,1,6,0:3:0:0:
236,292,295874,1,4,0:3:0:0:
260,288,295961,1,4,0:3:0:0:
284,284,296048,1,4,0:3:0:0:
308,280,296135,6,0,B|336:276|356:280|356:280|375:264|388:248|388:248|440:260|480:248,1,184.000003509522,10|6,0:3|0:3,0:3:0:0:
512,104,296655,1,4,0:3:0:0:
512,104,296742,1,4,0:3:0:0:
512,104,296828,1,10,0:3:0:0:
388,24,297002,1,4,0:3:0:0:
364,20,297088,1,4,0:3:0:0:
340,16,297175,1,6,0:3:0:0:
316,12,297262,1,4,0:3:0:0:
292,8,297348,1,4,0:3:0:0:
132,100,297522,5,10,0:3:0:0:
164,96,297609,1,4,0:3:0:0:
196,92,297695,1,4,0:3:0:0:
320,204,297869,1,6,0:3:0:0:
288,200,297956,1,4,0:3:0:0:
256,196,298042,1,4,0:3:0:0:
108,276,298216,1,10,0:3:0:0:
264,332,298389,1,4,0:3:0:0:
296,328,298476,1,4,0:3:0:0:
328,324,298562,1,6,0:3:0:0:
480,220,298736,1,4,0:3:0:0:
480,220,298822,1,4,0:3:0:0:
480,220,298909,6,0,B|508:197|508:197|511:149|477:104,1,136.000002593994,10|6,0:3|0:3,0:3:0:0:
32,164,299603,2,0,B|3:186|3:186|0:234|34:279,1,136.000002593994,10|6,0:3|0:3,0:3:0:0:
256,257,300296,6,0,B|272:220|256:192|256:192|240:160|256:124,1,136.000002593994,10|6,0:3|0:3,0:3:0:0:
300,40,300817,1,4,0:3:0:0:
300,40,300903,1,4,0:3:0:0:
300,40,300990,1,10,0:3:0:0:
392,60,301163,1,4,0:3:0:0:
396,68,301250,1,4,0:3:0:0:
400,76,301337,1,6,0:3:0:0:
404,84,301424,1,4,0:3:0:0:
408,92,301510,1,4,0:3:0:0:
392,188,301684,6,0,B|380:200|364:208|364:208|349:200|332:196|332:196|300:204|264:196,1,136.000002593994,10|6,0:3|0:3,0:3:0:0:
180,152,302204,1,4,0:3:0:0:
180,152,302291,1,4,0:3:0:0:
180,152,302377,1,10,0:3:0:0:
100,204,302551,1,4,0:3:0:0:
124,296,302724,2,0,B|140:312|140:312|188:316,1,68.0000012969971,6|4,0:3|0:3,0:3:0:0:
312,208,303071,6,0,B|356:192|356:192|428:196|468:260,1,184.000003509522,10|6,0:3|0:3,0:3:0:0:
380,368,303591,1,4,0:3:0:0:
356,364,303678,1,4,0:3:0:0:
332,360,303765,1,10,0:3:0:0:
208,264,303938,1,4,0:3:0:0:
60,316,304111,1,8,0:3:0:0:
56,328,304198,1,8,0:3:0:0:
52,340,304285,1,4,0:3:0:0:
48,352,304372,1,4,0:3:0:0:
44,364,304458,6,0,P|88:376|132:368,1,92.0000017547608,10|4,0:3|0:3,0:3:0:0:
344,204,304805,2,0,P|300:192|256:200,1,92.0000017547608,10|4,0:3|0:3,0:3:0:0:
472,356,305152,5,10,0:3:0:0:
473,340,305238,1,4,0:3:0:0:
474,325,305325,1,4,0:3:0:0:
475,310,305412,1,4,0:3:0:0:
456,292,305499,1,10,0:3:0:0:
454,276,305585,1,4,0:3:0:0:
453,261,305672,1,4,0:3:0:0:
452,246,305759,1,4,0:3:0:0:
472,220,305846,5,10,0:3:0:0:
482,196,305932,1,4,0:3:0:0:
484,170,306019,1,4,0:3:0:0:
477,145,306106,1,4,0:3:0:0:
463,123,306192,2,0,P|444:112|416:104,1,51.999997619629,10|2,0:3|0:2,0:3:0:0:
260,124,306366,1,4,0:3:0:0:
235,166,306452,1,4,0:3:0:0:
261,208,306539,1,10,0:3:0:0:
310,204,306626,1,4,0:3:0:0:
329,158,306713,2,0,P|332:132|324:104,1,51.999997619629,4|2,0:3|0:2,0:3:0:0:
176,68,306886,1,10,0:3:0:0:
147,110,306972,1,4,0:3:0:0:
135,161,307059,1,4,0:3:0:0:
142,212,307146,1,4,0:3:0:0:
166,258,307233,6,0,P|188:276|212:284,1,51.999997619629,10|2,0:3|0:2,0:3:0:0:
364,280,307406,1,4,0:3:0:0:
413,286,307492,1,4,0:3:0:0:
431,332,307579,1,10,0:3:0:0:
400,371,307666,1,4,0:3:0:0:
351,363,307753,2,0,P|323:355|295:355,1,51.999997619629,4|2,0:3|0:2,0:3:0:0:
148,380,307926,1,10,0:3:0:0:
97,384,308012,1,4,0:3:0:0:
53,357,308099,1,4,0:3:0:0:
32,311,308186,1,4,0:3:0:0:
43,260,308273,2,0,P|48:236|44:208,1,51.999997619629,10|2,0:3|0:2,0:3:0:0:
8,56,308447,1,4,0:3:0:0:
8,56,308533,1,4,0:3:0:0:
8,56,308620,6,0,B|31:63|56:76|56:76|81:69|104:56|104:56|148:88|204:84,1,207.999990478516,10|10,0:3|0:3,0:3:0:0:
376,56,309140,2,0,P|404:52|428:56,1,51.999997619629,4|2,0:0|0:2,0:0:0:0:
404,120,309314,2,0,P|430:130|449:146,1,51.999997619629,10|2,0:3|0:2,0:0:0:0:
396,189,309487,2,0,P|413:211|422:234,1,51.999997619629,4|2,0:0|0:2,0:0:0:0:
354,244,309661,5,10,0:3:0:0:
323,260,309747,1,4,0:3:0:0:
289,263,309834,1,4,0:3:0:0:
256,252,309921,1,4,0:3:0:0:
223,241,310007,1,10,0:3:0:0:
189,244,310094,1,4,0:3:0:0:
158,260,310181,2,0,P|144:280|136:308,1,51.999997619629,4|2,0:3|0:2,0:3:0:0:
148,372,310354,5,10,0:3:0:0:
176,360,310440,1,4,0:3:0:0:
197,337,310527,1,4,0:3:0:0:
205,307,310614,1,4,0:3:0:0:
200,277,310700,1,10,0:3:0:0:
182,252,310787,1,4,0:3:0:0:
155,237,310874,1,4,0:3:0:0:
124,236,310960,1,4,0:3:0:0:
96,248,311048,2,0,P|68:236|44:232,1,51.999997619629,10|2,0:3|0:2,0:3:0:0:
0,176,311221,2,0,P|28:163|52:159,1,51.999997619629,4|2,0:3|0:2,0:3:0:0:
160,172,311395,5,10,0:3:0:0:
185,178,311481,1,4,0:3:0:0:
211,178,311568,1,4,0:3:0:0:
236,173,311655,1,4,0:3:0:0:
259,162,311741,1,10,0:3:0:0:
279,145,311828,1,4,0:3:0:0:
295,124,311915,2,0,P|320:128|348:128,1,51.999997619629,4|2,0:3|0:2,0:3:0:0:
472,116,312088,1,10,0:3:0:0:
469,141,312174,1,4,0:3:0:0:
466,167,312261,1,4,0:3:0:0:
463,193,312348,1,4,0:3:0:0:
460,219,312435,6,0,P|432:232|412:244,1,51.999997619629,10|2,0:3|0:2,0:3:0:0:
304,332,312609,1,4,0:3:0:0:
300,336,312695,1,4,0:3:0:0:
296,340,312782,2,0,P|268:336|244:336,1,51.999997619629,10|2,0:3|0:2,0:3:0:0:
88,264,312955,1,4,0:3:0:0:
92,268,313041,1,4,0:3:0:0:
96,272,313129,2,0,P|124:268|148:268,1,51.999997619629,10|2,0:3|0:2,0:3:0:0:
348,224,313302,1,4,0:3:0:0:
344,228,313388,1,4,0:3:0:0:
340,232,313475,2,0,P|312:228|288:228,1,51.999997619629,10|2,0:3|0:2,0:3:0:0:
56,136,313648,1,4,0:3:0:0:
60,140,313736,1,4,0:3:0:0:
64,144,313822,6,0,B|84:156|104:160|104:160|132:144|132:144|164:164|212:160,1,155.999992858887,10|0,0:3|0:3,0:3:0:0:
268,124,314169,6,0,P|276:72|252:28,1,103.999995239258,10|4,0:3|0:3,0:3:0:0:
208,232,314516,2,0,P|200:284|224:328,1,103.999995239258,10|4,0:3|0:3,0:3:0:0:
432,308,314863,2,0,B|444:260|444:260|436:224|436:224|448:172,2,138.666660319011,10|2|2,0:3|0:2|0:2,0:0:0:0:
212,348,315557,6,0,B|181:356|160:368|160:368|132:353|116:332|116:332|60:364|0:340,2,223.999993164063,10|10|10,0:3|0:3|0:3,0:3:0:0:
484,212,316424,6,0,P|480:188|464:164,1,51.999997619629,2|0,0:2|0:0,0:0:0:0:
419,213,316597,2,0,B|426:254|426:254|424:262|424:262|432:308,1,96,10|0,0:3|0:3,0:3:0:0:
384,352,316944,6,0,P|332:340|280:340,1,103.999995239258,10|4,0:3|0:3,0:3:0:0:
277,336,317204,1,4,0:3:0:0:
273,332,317291,1,10,0:3:0:0:
269,328,317377,1,4,0:3:0:0:
265,324,317464,2,0,B|244:312|244:312|216:308,1,51.999997619629,4|2,0:3|0:2,0:3:0:0:
80,256,317637,1,10,0:3:0:0:
84,248,317724,1,4,0:3:0:0:
88,240,317811,1,4,0:3:0:0:
92,232,317898,1,4,0:3:0:0:
96,224,317984,2,0,B|120:216|120:216|140:196,1,51.999997619629,10|2,0:3|0:2,0:3:0:0:
256,108,318158,5,4,0:3:0:0:
272,112,318244,1,4,0:3:0:0:
288,116,318331,1,10,0:3:0:0:
304,120,318418,1,4,0:3:0:0:
320,124,318505,2,0,B|344:120|344:120|372:124,1,51.999997619629,4|2,0:3|0:2,0:3:0:0:
468,232,318678,1,10,0:3:0:0:
464,252,318765,1,4,0:3:0:0:
460,272,318851,1,4,0:3:0:0:
456,292,318938,1,4,0:3:0:0:
452,312,319025,2,0,B|424:316|424:316|400:328,1,51.999997619629,10|2,0:3|0:2,0:3:0:0:
248,304,319198,5,4,0:3:0:0:
224,292,319285,1,4,0:3:0:0:
200,272,319372,1,10,0:3:0:0:
184,240,319458,1,4,0:3:0:0:
184,200,319545,1,4,0:3:0:0:
208,160,319632,1,2,0:0:0:0:
252,136,319718,6,0,P|280:132|304:132,1,51.999997619629,10|2,0:3|0:2,0:0:0:0:
496,164,319892,1,4,0:3:0:0:
496,164,319979,1,4,0:3:0:0:
496,164,320065,1,10,0:3:0:0:
496,164,320152,1,4,0:3:0:0:
496,164,320239,2,0,P|470:163|444:159,1,51.999997619629,4|2,0:3|0:2,0:0:0:0:
264,48,320412,1,10,0:3:0:0:
264,48,320499,1,4,0:3:0:0:
264,48,320585,1,4,0:3:0:0:
264,48,320672,1,4,0:3:0:0:
264,48,320759,2,0,P|289:54|312:65,1,51.999997619629,10|2,0:3|0:2,0:0:0:0:
456,248,320932,5,4,0:3:0:0:
456,248,321019,1,4,0:3:0:0:
456,248,321106,1,10,0:3:0:0:
456,248,321192,1,4,0:3:0:0:
456,248,321279,2,0,P|433:234|413:218,1,51.999997619629,4|2,0:3|0:2,0:0:0:0:
348,4,321453,1,10,0:3:0:0:
348,4,321539,1,4,0:3:0:0:
348,4,321626,1,4,0:3:0:0:
348,4,321713,1,4,0:3:0:0:
348,4,321799,1,10,0:3:0:0:
362,25,321885,1,4,0:3:0:0:
367,50,321972,1,4,0:3:0:0:
364,76,322059,1,4,0:3:0:0:
352,99,322146,1,10,0:3:0:0:
333,132,322232,1,4,0:3:0:0:
327,171,322319,1,4,0:3:0:0:
334,209,322406,1,4,0:3:0:0:
354,242,322493,6,0,B|364:266|368:292|368:292|304:348|220:328,1,207.999990478516,10|10,0:3|0:3,0:3:0:0:
108,192,323013,1,4,0:3:0:0:
104,160,323100,1,4,0:3:0:0:
100,128,323187,1,10,0:3:0:0:
240,200,323360,1,4,0:3:0:0:
236,232,323447,1,4,0:3:0:0:
232,264,323534,1,10,0:3:0:0:
56,244,323707,1,4,0:3:0:0:
56,244,323794,1,4,0:3:0:0:
56,244,323880,6,0,P|20:144|68:60,1,207.999990478516,10|10,0:3|0:3,0:3:0:0:
236,12,324400,1,4,0:3:0:0:
236,12,324487,1,4,0:3:0:0:
236,12,324574,1,10,0:3:0:0:
392,92,324747,1,4,0:3:0:0:
392,92,324834,1,4,0:3:0:0:
392,92,324921,1,10,0:3:0:0:
432,264,325094,1,4,0:3:0:0:
428,296,325181,1,4,0:3:0:0:
424,328,325268,6,0,B|399:344|376:348|376:348|358:326|336:316|336:316|292:344|236:336,1,207.999990478516,10|10,0:3|0:3,0:3:0:0:
64,268,325788,2,0,B|44:252|44:252|36:216|64:176,1,103.999995239258,4|10,0:3|0:3,0:3:0:0:
288,152,326135,2,0,B|308:168|308:168|316:204|288:244,1,103.999995239258,4|10,0:3|0:3,0:3:0:0:
124,104,326481,1,4,0:0:0:0:
123,97,326538,1,4,0:0:0:0:
122,90,326596,1,4,0:0:0:0:
121,82,326655,6,0,B|156:86|156:86|184:78|184:78|224:82,1,103.999995239258,10|10,0:3|0:3,0:3:0:0:
428,116,327002,1,4,0:3:0:0:
428,116,327088,1,4,0:3:0:0:
428,116,327175,1,10,0:3:0:0:
364,280,327348,1,10,0:3:0:0:
204,204,327522,1,8,0:3:0:0:
172,190,327608,1,8,0:3:0:0:
138,189,327695,1,8,0:3:0:0:
106,202,327782,1,8,0:3:0:0:
74,214,327868,1,8,0:3:0:0:
39,214,327955,1,8,0:3:0:0:
8,200,328042,6,0,B|1:182|0:164|0:164|16:140|24:96,1,103.999995239258,6|4,0:0|0:0,0:0:0:0:
156,28,328389,1,10,0:0:0:0:
184,32,328476,1,4,0:0:0:0:
272,136,328649,1,4,0:0:0:0:
244,140,328736,1,6,0:0:0:0:
348,40,328909,1,4,0:0:0:0:
376,36,328996,1,4,0:0:0:0:
404,32,329083,1,10,0:0:0:0:
432,28,329169,1,4,0:0:0:0:
460,24,329256,1,4,0:0:0:0:
504,164,329429,5,6,0:0:0:0:
500,192,329516,1,4,0:0:0:0:
376,136,329689,1,4,0:0:0:0:
372,108,329776,1,10,0:0:0:0:
440,272,329950,1,4,0:0:0:0:
440,272,330036,1,4,0:0:0:0:
440,272,330123,1,6,0:0:0:0:
410,298,330209,1,4,0:0:0:0:
372,307,330296,1,4,0:0:0:0:
333,298,330383,1,4,0:0:0:0:
304,272,330470,1,10,0:0:0:0:
274,245,330556,1,4,0:0:0:0:
236,236,330643,1,4,0:0:0:0:
197,245,330730,1,4,0:0:0:0:
168,272,330817,6,0,P|156:308|168:348,1,80,6|4,0:0|0:0,0:0:0:0:
304,272,331163,1,10,0:0:0:0:
308,244,331250,1,4,0:0:0:0:
224,136,331424,1,4,0:0:0:0:
220,108,331511,1,6,0:0:0:0:
372,88,331684,1,4,0:0:0:0:
376,68,331770,1,4,0:0:0:0:
380,48,331857,1,10,0:0:0:0:
384,28,331944,1,4,0:0:0:0:
388,8,332031,1,4,0:0:0:0:
296,96,332204,5,6,0:0:0:0:
310,132,332290,1,4,0:0:0:0:
342,156,332377,1,4,0:0:0:0:
381,161,332464,1,4,0:0:0:0:
417,145,332551,1,10,0:0:0:0:
453,131,332637,1,4,0:0:0:0:
491,144,332724,1,4,0:0:0:0:
510,177,332811,1,4,0:0:0:0:
504,216,332897,1,6,0:0:0:0:
474,241,332984,1,4,0:0:0:0:
435,241,333071,1,4,0:0:0:0:
400,224,333158,1,4,0:0:0:0:
384,188,333244,2,0,L|376:148,1,40,8|8,0:0|0:0,0:0:0:0:
292,236,333418,2,0,L|284:276,1,40,8|8,0:0|0:0,0:0:0:0:
204,184,333591,6,0,B|176:176|176:176|124:180,1,80,10|4,0:0|0:0,0:0:0:0:
24,292,333938,1,10,0:0:0:0:
20,320,334025,1,4,0:0:0:0:
172,276,334198,1,4,0:0:0:0:
168,248,334285,1,6,0:0:0:0:
296,340,334458,1,4,0:0:0:0:
316,344,334545,1,4,0:0:0:0:
336,348,334632,1,10,0:0:0:0:
356,352,334718,1,4,0:0:0:0:
376,356,334805,1,4,0:0:0:0:
492,248,334979,5,6,0:0:0:0:
496,220,335065,1,4,0:0:0:0:
364,128,335239,1,4,0:0:0:0:
360,100,335325,1,10,0:0:0:0:
216,28,335499,1,4,0:0:0:0:
216,28,335585,1,4,0:0:0:0:
216,28,335672,1,6,0:0:0:0:
242,57,335758,1,4,0:0:0:0:
252,95,335845,1,4,0:0:0:0:
242,134,335932,1,4,0:0:0:0:
216,163,336019,1,6,0:0:0:0:
189,192,336105,1,4,0:0:0:0:
180,230,336192,1,4,0:0:0:0:
189,269,336279,1,4,0:0:0:0:
216,298,336366,6,0,P|252:312|292:304,1,80,10|4,0:0|0:0,0:0:0:0:
324,280,336626,1,4,0:0:0:0:
358,261,336712,1,6,0:0:0:0:
398,263,336799,1,4,0:0:0:0:
430,286,336886,1,4,0:0:0:0:
439,324,336972,1,4,0:0:0:0:
424,361,337059,1,10,0:0:0:0:
390,381,337146,1,4,0:0:0:0:
351,379,337232,1,4,0:0:0:0:
321,354,337319,1,4,0:0:0:0:
310,316,337406,1,6,0:0:0:0:
324,280,337493,1,4,0:0:0:0:
335,242,337579,1,4,0:0:0:0:
328,203,337666,1,4,0:0:0:0:
304,172,337753,5,10,0:0:0:0:
270,151,337839,1,4,0:0:0:0:
231,147,337926,1,4,0:0:0:0:
194,162,338013,1,4,0:0:0:0:
168,191,338100,2,0,B|128:200|128:200|92:188|92:188|52:196,1,120,8|8,0:0|0:0,0:0:0:0:
28,228,338447,2,0,L|20:268,2,40,8|8|4,0:0|0:0|0:0,0:0:0:0:
88,256,338707,1,8,0:0:0:0:
96,278,338793,1,4,0:0:0:0:
99,302,338880,1,8,0:0:0:0:
98,326,338967,1,4,0:0:0:0:
92,349,339053,1,4,0:0:0:0:
81,370,339140,6,0,B|108:368|132:356|132:356|156:368|176:384|176:384|224:352|276:352,1,207.999990478516,10|10,0:0|0:0,0:0:0:0:
312,356,339574,1,4,0:0:0:0:
468,260,339747,1,4,0:0:0:0:
428,264,339834,1,10,0:0:0:0:
236,184,340007,1,4,0:0:0:0:
260,188,340094,1,4,0:0:0:0:
284,192,340181,1,10,0:0:0:0:
308,196,340268,1,4,0:0:0:0:
332,200,340354,1,4,0:0:0:0:
444,120,340528,5,10,0:0:0:0:
444,120,340614,1,4,0:0:0:0:
364,8,340788,1,4,0:0:0:0:
364,8,340874,1,10,0:0:0:0:
260,96,341048,1,4,0:0:0:0:
226,116,341134,1,4,0:0:0:0:
187,111,341221,1,10,0:0:0:0:
159,83,341308,1,4,0:0:0:0:
158,44,341394,1,4,0:0:0:0:
182,13,341481,1,4,0:0:0:0:
220,4,341568,1,10,0:0:0:0:
255,22,341654,1,4,0:0:0:0:
271,58,341741,1,4,0:0:0:0:
260,95,341828,1,4,0:0:0:0:
226,116,341915,6,0,B|216:136|216:136|216:160|240:188,1,80,10|4,0:0|0:0,0:0:0:0:
384,256,342262,1,10,0:0:0:0:
388,296,342348,1,4,0:0:0:0:
260,364,342522,1,4,0:0:0:0:
264,324,342608,1,10,0:0:0:0:
128,240,342782,1,4,0:0:0:0:
132,260,342869,1,4,0:0:0:0:
136,280,342955,1,10,0:0:0:0:
140,300,343042,1,4,0:0:0:0:
144,320,343129,1,4,0:0:0:0:
272,256,343302,5,10,0:0:0:0:
276,216,343389,1,4,0:0:0:0:
388,296,343562,1,4,0:0:0:0:
392,336,343649,1,10,0:0:0:0:
496,236,343822,1,4,0:0:0:0:
496,236,343909,1,4,0:0:0:0:
496,236,343996,1,10,0:0:0:0:
504,197,344082,1,4,0:0:0:0:
490,160,344169,1,4,0:0:0:0:
458,137,344256,1,4,0:0:0:0:
419,136,344343,1,10,0:0:0:0:
379,134,344429,1,4,0:0:0:0:
347,111,344516,1,4,0:0:0:0:
333,74,344603,1,4,0:0:0:0:
342,36,344689,6,0,B|356:20|356:20|388:16|420:28,1,80,10|4,0:0|0:0,0:0:0:0:
440,200,345036,1,10,0:0:0:0:
400,204,345123,1,4,0:0:0:0:
300,308,345296,1,4,0:0:0:0:
260,304,345383,1,10,0:0:0:0:
168,192,345557,1,4,0:0:0:0:
140,196,345643,1,4,0:0:0:0:
112,200,345730,1,10,0:0:0:0:
84,204,345817,1,4,0:0:0:0:
56,208,345903,1,4,0:0:0:0:
140,72,346077,5,10,0:0:0:0:
180,76,346163,1,4,0:0:0:0:
140,264,346337,1,4,0:0:0:0:
100,268,346423,1,10,0:0:0:0:
220,140,346597,1,4,0:0:0:0:
220,140,346684,1,4,0:0:0:0:
220,140,346770,1,10,0:0:0:0:
238,175,346856,1,4,0:0:0:0:
236,214,346943,1,4,0:0:0:0:
215,248,347031,1,4,0:0:0:0:
193,280,347117,1,10,0:0:0:0:
200,319,347204,1,4,0:0:0:0:
231,342,347291,1,4,0:0:0:0:
270,338,347377,1,4,0:0:0:0:
295,309,347464,6,0,B|308:292|308:292|336:284|372:296,1,80,10|4,0:0|0:0,0:0:0:0:
492,320,347811,1,10,0:0:0:0:
500,280,347898,1,4,0:0:0:0:
392,184,348071,1,4,0:0:0:0:
388,144,348158,1,10,0:0:0:0:
492,32,348331,5,4,0:0:0:0:
492,32,348418,1,4,0:0:0:0:
492,32,348505,1,10,0:0:0:0:
471,53,348591,1,4,0:0:0:0:
443,64,348678,1,4,0:0:0:0:
413,65,348765,1,4,0:0:0:0:
386,53,348851,1,10,0:0:0:0:
358,41,348937,1,4,0:0:0:0:
328,41,349024,1,4,0:0:0:0:
301,53,349111,1,4,0:0:0:0:
280,74,349198,5,10,0:0:0:0:
261,109,349284,1,4,0:0:0:0:
260,149,349371,1,4,0:0:0:0:
276,185,349458,1,4,0:0:0:0:
306,211,349545,1,8,0:0:0:0:
336,236,349631,1,8,0:0:0:0:
352,272,349718,1,4,0:0:0:0:
350,312,349805,1,4,0:0:0:0:
332,347,349892,1,8,0:0:0:0:
307,363,349978,1,4,0:0:0:0:
278,358,350065,1,4,0:0:0:0:
258,336,350152,1,4,0:0:0:0:
258,307,350239,5,4,0:0:0:0:
336,236,350412,1,4,0:0:0:0:
200,168,350585,1,4,0:0:0:0:
386,53,350759,1,4,0:0:0:0:
