osu file format v14

[General]
AudioFilename: audio.mp3
AudioLeadIn: 0
PreviewTime: 108094
Countdown: 0
SampleSet: Normal
StackLeniency: 0.4
Mode: 0
LetterboxInBreaks: 0
WidescreenStoryboard: 1

[Editor]
Bookmarks: 300802
DistanceSpacing: 1
BeatDivisor: 4
GridSize: 4
TimelineZoom: 1.9

[Metadata]
Title:Pure Furies ~ Vengeance is Mine
TitleUnicode:ピュアヒューリーズ ~ Vengeance is Mine
Artist:Demetori
ArtistUnicode:Demetori
Creator:jonathanlfj
Version:happy30's Lunatic
Source:東方紺珠伝 ~ Legacy of Lunatic Kingdom.
Tags:happy30 Touhou Kanjuden 東方Project Determinism&DestruKction 純狐 Junko ピュアヒューリーズ ~ 心の在処 Pure Furies ~ Whereabouts of the Heart Stage 6 ZUN c92 comiket 92
BeatmapID:1829146
BeatmapSetID:796330

[Difficulty]
HPDrainRate:6
CircleSize:4
OverallDifficulty:8
ApproachRate:9
SliderMultiplier:1.8
SliderTickRate:1

[Events]
//Background and Video events
0,0,"junko.jpg",0,0
//Break Periods
//Storyboard Layer 0 (Background)
//Storyboard Layer 1 (Fail)
//Storyboard Layer 2 (Pass)
//Storyboard Layer 3 (Foreground)
//Storyboard Sound Samples

[TimingPoints]
136,333.333333333333,4,2,1,40,1,0
136,-200,4,2,1,40,0,0
10802,-100,4,1,1,50,0,0
21469,-100,4,1,1,60,0,0
32135,-80,4,1,1,65,0,0
42802,-100,4,1,1,55,0,0
53469,-90.9090909090909,4,1,1,50,0,0
64135,-100,4,1,1,55,0,0
69469,-100,4,1,1,60,0,0
74802,-111.111111111111,4,1,1,60,0,0
79385,-111.111111111111,4,1,1,5,0,0
79469,-111.111111111111,4,1,1,55,0,0
85469,-90.9090909090909,4,1,1,60,0,0
98135,-90.9090909090909,4,1,1,50,0,0
98469,-90.9090909090909,4,1,1,40,0,0
98802,-111.111111111111,4,1,1,50,0,0
107135,-100,4,1,1,55,0,0
107469,-90.9090909090909,4,1,1,60,0,0
107802,-83.3333333333333,4,1,1,65,0,0
108135,-333.333333333333,4,2,1,30,0,0
108302,-333.333333333333,4,2,1,5,0,0
108358,-333.333333333333,4,2,1,35,0,0
108524,-333.333333333333,4,2,1,5,0,0
108580,-333.333333333333,4,2,1,40,0,0
108747,-333.333333333333,4,2,1,5,0,0
108802,-333.333333333333,4,2,1,45,0,0
108969,-333.333333333333,4,2,1,5,0,0
109024,-333.333333333333,4,2,1,50,0,0
109191,-333.333333333333,4,2,1,5,0,0
109247,-333.333333333333,4,2,1,55,0,0
109413,-333.333333333333,4,2,1,5,0,0
109469,-86.9565217391304,4,1,1,70,0,1
152135,-100,4,1,1,50,0,0
160469,-100,4,1,1,55,0,0
160802,-100,4,1,1,60,0,0
161135,-100,4,1,1,65,0,0
161469,-100,4,1,1,60,0,0
162635,-125,4,1,1,50,0,0
173302,-100,4,1,1,50,0,0
175969,-100,4,1,1,55,0,0
178635,-100,4,1,1,60,0,0
181302,-100,4,1,1,65,0,0
183969,-100,4,1,1,60,0,0
192635,-100,4,1,1,65,0,0
193302,-100,4,1,1,70,0,0
194635,-100,4,1,1,60,0,0
198635,-76.9230769230769,4,1,1,60,0,0
208135,-125,4,1,1,50,0,0
213719,-125,4,1,1,5,0,0
213802,-125,4,1,1,40,0,0
214135,-125,4,1,1,45,0,0
214469,-125,4,1,1,50,0,0
214802,-100,4,1,1,55,0,0
215135,-90.9090909090909,4,1,1,60,0,0
215469,-83.3333333333333,4,1,1,65,0,0
215802,-83.3333333333333,4,1,1,70,0,0
216135,-100,4,1,1,70,0,0
218802,-86.9565217391304,4,1,1,70,0,1
266802,-100,4,1,1,50,0,0
271219,-100,4,1,1,5,0,0
271302,-100,4,1,1,60,0,0
271469,-100,4,1,1,60,0,0
282802,-90.9090909090909,4,1,1,70,0,1
293469,-86.9565217391304,4,1,1,80,0,1
296635,-80,4,1,1,80,0,1
297135,-74.0740740740741,4,1,1,80,0,1
297635,-68.9655172413793,4,1,1,80,0,1
298802,-68.9655172413793,4,1,1,80,0,0
298885,-68.9655172413793,4,2,1,10,0,0
300802,-68.9655172413793,4,2,1,5,0,0

[Colours]
Combo1 : 223,2,102
Combo2 : 213,0,0
Combo3 : 244,73,0
Combo4 : 242,188,0

[HitObjects]
160,344,136,6,0,B|144:325|144:325|146:292|162:262,1,90,2|0,0:0|0:0,0:0:0:0:
348,288,635,2,0,B|371:259|371:259|368:211|345:166,1,135,2|2,0:0|0:0,0:0:0:0:
386,238,1469,6,0,P|377:200|354:150,1,90,2|0,0:0|0:0,0:0:0:0:
88,272,1969,2,0,B|64:243|64:243|67:195|90:150,1,135,2|2,0:0|0:0,0:0:0:0:
46,239,2802,6,0,P|55:201|78:151,1,90,2|0,0:0|0:0,0:0:0:0:
424,344,3302,2,0,B|447:315|447:315|444:267|421:222,1,135,2|2,0:0|0:0,0:0:0:0:
463,300,4135,6,0,P|454:262|431:212,1,90,2|0,0:0|0:0,0:0:0:0:
256,200,4635,2,0,B|240:160|240:160|260:112|256:64,1,135,2|2,0:0|0:0,0:0:0:0:
162,262,5469,6,0,B|146:292|144:325|144:325|160:344,1,90,2|0,0:0|0:0,0:0:0:0:
348,288,5969,2,0,B|371:259|371:259|368:211|345:166,1,135,2|2,0:0|0:0,0:0:0:0:
355,157,6802,6,0,P|373:197|384:241,1,90,2|0,0:0|0:0,0:0:0:0:
88,272,7302,2,0,B|64:243|64:243|67:195|90:150,1,135,2|2,0:0|0:0,0:0:0:0:
80,140,8135,6,0,P|61:180|50:224,1,90,2|0,0:0|0:0,0:0:0:0:
424,344,8635,2,0,B|447:315|447:315|444:267|421:222,1,135,2|2,0:0|0:0,0:0:0:0:
433,211,9469,6,0,P|451:251|462:295,1,90,2|0,0:0|0:0,0:0:0:0:
240,296,9969,1,2,0:0:0:0:
340,224,10135,1,0,0:0:0:0:
360,340,10302,1,2,0:0:0:0:
240,296,10469,1,2,0:0:0:0:
212,212,10635,1,0,0:0:0:0:
248,128,10802,6,0,L|256:32,1,90,4|0,0:0|0:0,0:0:0:0:
77,152,11135,1,0,0:0:0:0:
352,96,11302,2,0,P|378:160|360:224,1,135,10|0,0:2|2:0,0:0:0:0:
354,235,11635,1,0,0:0:0:0:
140,204,11802,1,10,0:2:0:0:
236,288,11969,1,0,0:0:0:0:
256,160,12135,6,0,L|264:64,1,90,0|0,0:0|0:0,0:0:0:0:
452,212,12468,1,0,0:0:0:0:
68,152,12635,2,0,P|42:216|60:280,1,135,10|0,0:2|2:0,0:0:0:0:
67,291,12968,1,0,0:0:0:0:
364,252,13135,2,0,P|374:207|364:164,1,90,10|0,0:2|0:0,0:0:0:0:
164,280,13469,6,0,P|154:325|164:368,1,90
348,244,13802,1,0,0:0:0:0:
68,152,13969,2,0,L|212:164,1,135,10|0,0:2|2:0,0:0:0:0:
195,150,14302,1,0,0:0:0:0:
376,32,14469,2,0,P|367:81|360:124,1,90,10|0,0:2|0:0,0:0:0:0:
264,344,14802,5,0,0:0:0:0:
172,172,14969,1,0,0:0:0:0:
148,368,15135,1,0,0:0:0:0:
424,228,15302,1,10,0:2:0:0:
276,212,15469,1,0,0:0:0:0:
376,320,15636,1,2,0:2:0:0:
424,228,15802,1,10,0:2:0:0:
397,203,15885,1,8,0:0:0:0:
384,168,15969,1,8,0:0:0:0:
394,133,16052,1,8,0:0:0:0:
416,104,16135,6,0,B|460:92|460:92|504:104,1,90,4|0,0:0|0:0,0:0:0:0:
278,337,16469,1,0,0:0:0:0:
92,186,16635,2,0,L|104:42,1,135,10|0,0:2|2:0,0:0:0:0:
92,58,16968,1,0,0:0:0:0:
180,165,17135,2,0,P|236:175|271:164,1,90,10|0,0:2|0:0,0:0:0:0:
187,83,17469,5,0,0:0:0:0:
64,199,17635,1,0,0:0:0:0:
173,330,17802,1,0,0:0:0:0:
314,232,17969,2,0,L|326:88,1,135,10|0,0:2|2:0,0:0:0:0:
314,104,18302,1,0,0:0:0:0:
395,265,18469,2,0,L|388:364,1,90,10|0,0:2|0:0,0:0:0:0:
455,199,18802,5,0,0:0:0:0:
308,316,18969,1,0,0:0:0:0:
221,127,19135,1,0,0:0:0:0:
185,352,19302,2,0,P|121:378|57:360,1,135,10|0,0:2|2:0,0:0:0:0:
46,353,19635,1,0,0:0:0:0:
119,126,19802,2,0,P|164:116|207:126,1,90,10|0,0:2|0:0,0:0:0:0:
292,246,20135,6,0,P|247:256|204:246,1,90
360,73,20469,1,2,0:2:0:0:
469,228,20635,1,10,0:2:0:0:
469,228,21469,6,0,B|478:258|478:258|463:318,1,90,4|2,0:0|0:0,0:0:0:0:
216,212,21802,1,10,0:0:0:0:
487,148,21969,1,0,0:0:0:0:
264,288,22135,1,0,0:0:0:0:
407,175,22302,6,2,L|415:72,1,90,10|0,0:0|0:0,0:0:0:0:
399,161,22635,1,10,0:0:0:0:
159,141,22802,6,0,B|150:111|150:111|165:51,1,90,0|2,0:0|0:0,0:0:0:0:
347,256,23135,1,10,0:0:0:0:
173,312,23302,1,0,0:0:0:0:
350,239,23469,1,0,0:0:0:0:
68,247,23635,6,2,L|60:350,1,90,10|0,0:0|0:0,0:0:0:0:
76,261,23968,1,10,0:0:0:0:
353,141,24135,6,0,B|362:111|362:111|347:51,1,90,0|2,0:0|0:0,0:0:0:0:
72,124,24469,1,10,0:0:0:0:
268,196,24635,1,0,0:0:0:0:
60,137,24802,1,0,0:0:0:0:
229,111,24969,1,10,0:0:0:0:
125,32,25135,1,0,0:0:0:0:
154,270,25302,1,10,0:0:0:0:
353,140,25469,6,0,B|362:110|362:110|347:50,1,90,0|2,0:0|0:0,0:0:0:0:
244,215,25802,1,10,0:0:0:0:
395,294,25969,1,0,0:0:0:0:
462,89,26135,2,0,L|466:45,3,30,0|0|0|8,0:0|0:0|0:0|0:0,0:0:0:0:
493,312,26469,2,0,L|497:356,3,30,0|0|0|8,0:0|0:0|0:0|0:0,0:0:0:0:
364,181,26802,5,0,0:0:0:0:
296,338,26969,1,2,0:0:0:0:
142,205,27135,2,2,B|135:178|135:178|139:153|151:119,1,90,10|0,0:0|0:0,0:0:0:0:
328,260,27469,1,0,0:0:0:0:
480,120,27635,6,2,B|487:93|487:93|483:68|471:34,1,90,10|0,0:0|0:0,0:0:0:0:
471,108,27969,1,10,0:0:0:0:
269,162,28135,5,0,0:0:0:0:
408,316,28302,1,2,0:0:0:0:
409,174,28469,2,2,P|364:211|342:243,1,90,10|0,0:0|0:0,0:0:0:0:
240,340,28802,1,0,0:0:0:0:
77,266,28969,6,2,B|62:230|62:230|74:171,1,90,10|0,0:0|0:0,0:0:0:0:
64,248,29302,1,10,0:0:0:0:
240,340,29469,5,0,0:0:0:0:
440,276,29635,1,2,0:0:0:0:
344,136,29802,1,10,0:0:0:0:
320,288,29969,1,0,0:0:0:0:
480,180,30135,1,0,0:0:0:0:
194,142,30302,6,2,P|156:116|101:65,1,90,10|0,0:0|0:0,0:0:0:0:
209,141,30635,1,10,0:0:0:0:
163,338,30802,5,0,0:0:0:0:
397,241,30969,1,12,0:2:0:0:
397,241,31135,1,12,0:2:0:0:
336,372,31302,1,0,0:0:0:0:
133,227,31469,1,8,0:0:0:0:
106,204,31552,1,8,0:0:0:0:
92,172,31635,1,8,0:0:0:0:
93,136,31719,1,8,0:0:0:0:
109,104,31802,1,8,0:0:0:0:
135,80,31885,1,8,0:0:0:0:
169,70,31969,1,8,0:0:0:0:
204,74,32052,1,8,0:0:0:0:
234,97,32135,6,0,P|256:148|289:208,1,112.5,4|0,0:0|0:0,0:0:0:0:
439,313,32469,1,8,0:0:0:0:
443,138,32635,2,0,P|421:87|388:27,1,112.5,0|0,0:0|0:0,0:0:0:0:
182,228,32969,2,0,P|233:206|293:173,1,112.5,0|8,0:0|0:0,0:0:0:0:
387,35,33302,1,0,0:0:0:0:
341,354,33469,6,2,P|291:327|239:305,1,112.5,2|0,0:0|0:0,0:0:0:0:
137,124,33802,2,0,P|186:97|238:75,1,112.5,8|2,0:0|0:0,0:0:0:0:
365,225,34135,2,0,P|414:198|466:176,1,112.5,0|2,0:0|0:0,0:0:0:0:
139,339,34469,2,2,P|89:312|37:290,1,112.5,8|0,0:0|0:0,0:0:0:0:
14,116,34802,5,0,0:0:0:0:
14,116,34969,1,0,0:0:0:0:
221,195,35135,1,8,0:0:0:0:
297,116,35302,2,0,P|249:52|168:94,1,168.75,0|0,0:0|2:0,0:0:0:0:
176,92,35635,1,0,0:0:0:0:
399,249,35802,2,0,P|420:200|403:134,1,112.5,8|0,0:0|0:0,0:0:0:0:
203,194,36135,6,2,P|182:243|199:309,1,112.5,2|0,0:0|0:0,0:0:0:0:
408,143,36469,2,0,P|429:94|412:28,1,112.5,8|2,0:0|0:0,0:0:0:0:
100,225,36802,1,0,0:0:0:0:
335,271,36969,1,0,0:0:0:0:
117,337,37135,2,2,L|3:352,1,112.5,10|0,0:0|0:0,0:0:0:0:
340,280,37469,6,0,L|454:265,1,112.5,4|0,0:0|0:0,0:0:0:0:
130,142,37802,1,8,0:0:0:0:
247,255,37969,1,0,0:0:0:0:
413,79,38135,2,0,P|387:40|305:25,1,112.5,0|0,0:0|0:0,0:0:0:0:
235,262,38469,2,0,L|226:376,1,112.5,8|0,0:0|0:0,0:0:0:0:
41,297,38802,6,2,L|32:183,1,112.5,2|0,0:0|0:0,0:0:0:0:
167,214,39135,2,0,L|158:100,1,112.5,8|0,0:0|0:0,0:0:0:0:
470,185,39469,2,2,L|461:299,1,112.5,2|0,0:0|0:0,0:0:0:0:
340,220,39802,2,0,L|331:334,1,112.5,8|0,0:0|0:0,0:0:0:0:
159,99,40135,5,2,0:0:0:0:
159,99,40302,1,0,0:0:0:0:
247,246,40468,1,8,0:0:0:0:
411,104,40635,2,2,P|363:40|282:82,1,168.75,2|0,0:0|2:0,0:0:0:0:
290,80,40968,1,0,0:0:0:0:
294,343,41135,2,2,P|348:354|399:333,1,112.5,10|0,0:0|0:0,0:0:0:0:
144,92,41469,5,2,0:0:0:0:
60,197,41635,1,0,0:0:0:0:
78,331,41802,1,8,0:0:0:0:
181,243,41969,1,0,0:0:0:0:
52,204,42135,1,0,0:0:0:0:
191,361,42302,1,8,0:0:0:0:
340,210,42469,1,8,0:0:0:0:
134,156,42635,1,8,0:0:0:0:
304,360,42802,6,2,B|348:371|348:371|391:363,1,90,6|0,0:0|0:0,0:0:0:0:
434,80,43135,2,0,B|348:59|348:59|260:81,1,180,10|0,0:0|0:0,0:0:0:0:
304,340,43635,2,2,B|348:351|348:351|391:343,1,90,10|0,0:0|0:0,0:0:0:0:
256,167,43969,1,10,0:0:0:0:
455,271,44135,6,2,P|472:225|466:186,1,90,2|0,0:0|0:0,0:0:0:0:
244,168,44469,2,0,L|230:309,1,135,10|0,0:0|2:0,0:0:0:0:
229,320,44802,1,0,0:0:0:0:
335,120,44969,2,2,L|342:21,1,90,10|0,0:0|0:0,0:0:0:0:
141,197,45302,2,2,L|148:98,1,90,10|2,0:0|0:0,0:0:0:0:
371,281,45635,5,0,0:0:0:0:
480,182,45802,2,0,P|417:120|325:137,1,180,10|0,0:0|0:0,0:0:0:0:
105,231,46302,2,2,P|165:220|205:244,1,90,10|0,0:0|0:0,0:0:0:0:
299,362,46635,2,2,P|239:351|199:375,1,90,10|0,0:0|0:0,0:0:0:0:
310,356,46969,5,0,0:0:0:0:
434,281,47135,2,2,P|448:233|447:183,1,90,10|0,0:0|0:0,0:0:0:0:
247,146,47469,1,0,0:0:0:0:
451,275,47635,2,0,P|465:227|464:177,1,90,10|0,0:0|0:0,0:0:0:0:
488,159,47885,1,0,0:0:0:0:
499,124,47969,1,8,0:0:0:0:
487,90,48052,1,8,0:0:0:0:
465,61,48135,5,6,0:0:0:0:
257,153,48302,1,0,0:0:0:0:
367,287,48469,2,2,L|372:385,1,90,10|0,0:0|0:0,0:0:0:0:
188,282,48802,1,0,0:0:0:0:
89,251,48969,2,2,L|94:153,1,90,10|0,0:0|0:0,0:0:0:0:
185,271,49302,1,10,0:0:0:0:
380,286,49469,6,2,L|385:384,1,90,2|0,0:0|0:0,0:0:0:0:
74,248,49802,2,2,L|79:150,1,90,10|0,0:0|0:0,0:0:0:0:
302,136,50135,1,0,0:0:0:0:
455,201,50302,2,2,L|450:103,1,90,10|0,0:0|0:0,0:0:0:0:
194,191,50635,1,10,0:0:0:0:
373,372,50802,6,2,P|385:329|379:285,1,90,2|0,0:0|0:0,0:0:0:0:
144,278,51135,2,2,P|131:320|137:364,1,90,10|0,0:0|0:0,0:0:0:0:
278,244,51469,1,0,0:0:0:0:
90,149,51635,2,2,L|-18:139,1,90,10|0,0:0|0:0,0:0:0:0:
289,98,51969,5,10,0:0:0:0:
289,98,52052,1,0,0:0:0:0:
289,98,52135,2,0,L|387:85,1,90,4|0,0:0|0:0,0:0:0:0:
219,37,52469,2,0,L|121:24,1,90,8|0,0:0|0:0,0:0:0:0:
348,171,52802,1,8,0:0:0:0:
372,197,52885,1,0,0:0:0:0:
382,231,52969,1,0,0:0:0:0:
376,266,53052,1,0,0:0:0:0:
359,293,53135,2,0,L|354:341,3,45,0|0|0|0,0:0|0:0|0:0|0:0,0:0:0:0:
361,311,53469,6,2,P|405:341|478:308,1,99.0000030212403,6|0,0:0|0:0,0:0:0:0:
251,233,53802,2,0,P|201:232|161:262,1,99.0000030212403,8|0,0:0|0:0,0:0:0:0:
256,224,54135,2,2,P|243:152|233:71,1,148.50000453186,2|0,0:0|2:0,0:0:0:0:
248,63,54469,1,8,0:0:0:0:
393,134,54635,1,2,0:0:0:0:
179,367,54802,6,2,P|129:368|89:338,1,99.0000030212403,2|0,0:0|0:0,0:0:0:0:
339,262,55135,2,0,P|378:233|427:235,1,99.0000030212403,8|0,0:0|0:0,0:0:0:0:
134,205,55469,2,0,P|108:134|90:53,2,148.50000453186,2|2|2,0:0|0:0|0:0,0:0:0:0:
387,149,56135,6,2,P|401:91|403:37,1,99.0000030212403,2|0,0:0|0:0,0:0:0:0:
227,172,56469,2,2,P|213:230|211:284,1,99.0000030212403,10|0,0:0|0:0,0:0:0:0:
340,255,56802,1,0,0:0:0:0:
132,202,56969,2,2,L|20:194,1,99.0000030212403,2|8,0:0|0:0,0:0:0:0:
122,186,57302,1,2,0:0:0:0:
283,334,57469,5,0,0:0:0:0:
487,145,57635,2,2,P|494:84|484:40,1,99.0000030212403,2|8,0:0|0:0,0:0:0:0:
335,184,57969,2,2,P|303:131|269:101,1,99.0000030212403,2|0,0:0|0:0,0:0:0:0:
374,279,58302,1,2,0:0:0:0:
151,311,58469,1,8,0:0:0:0:
151,311,58552,1,0,0:0:0:0:
151,311,58635,1,0,0:0:0:0:
151,311,58719,1,0,0:0:0:0:
151,311,58802,6,2,P|107:341|34:308,1,99.0000030212403,6|2,0:0|0:0,0:0:0:0:
261,233,59135,2,0,P|311:232|351:262,1,99.0000030212403,8|0,0:0|0:0,0:0:0:0:
256,224,59469,2,2,P|269:152|279:71,1,148.50000453186,2|0,0:0|2:0,0:0:0:0:
264,63,59802,1,8,0:0:0:0:
119,134,59968,1,2,0:0:0:0:
403,189,60135,6,2,P|419:137|404:89,1,99.0000030212403,2|0,0:0|0:0,0:0:0:0:
124,254,60469,2,0,P|108:306|123:354,1,99.0000030212403,8|0,0:0|0:0,0:0:0:0:
347,323,60802,2,0,P|418:297|499:279,2,148.50000453186,2|2|2,0:0|0:0|0:0,0:0:0:0:
201,181,61469,6,2,P|130:159|92:154,1,99.0000030212403,6|0,0:0|0:0,0:0:0:0:
209,168,61802,1,8,0:0:0:0:
303,75,61969,2,2,P|374:53|412:48,1,99.0000030212403,2|0,0:0|0:0,0:0:0:0:
296,94,62302,1,0,0:0:0:0:
161,71,62469,1,10,0:0:0:0:
366,179,62635,1,0,0:0:0:0:
126,242,62802,5,10,0:0:0:0:
32,207,62969,2,0,L|-1:203,3,33.0000010070801
116,258,63302,1,0,0:0:0:0:
377,301,63469,1,8,0:0:0:0:
160,353,63635,1,8,0:0:0:0:
160,353,64135,6,0,B|151:323|151:323|166:263,1,90,12|0,0:0|0:0,0:0:0:0:
176,240,64385,1,0,0:0:0:0:
176,240,64468,1,8,0:0:0:0:
444,260,64635,1,0,0:0:0:0:
260,312,64801,1,8,0:0:0:0:
432,156,64968,6,0,L|421:49,1,90,0|8,0:0|0:0,0:0:0:0:
416,168,65301,1,0,0:0:0:0:
164,124,65468,6,0,B|155:94|155:94|170:34,1,90,8|0,0:0|0:0,0:0:0:0:
180,8,65719,1,0,0:0:0:0:
180,8,65801,1,8,0:0:0:0:
292,168,65968,1,0,0:0:0:0:
124,216,66135,1,8,0:0:0:0:
124,216,66219,1,0,0:0:0:0:
260,268,66385,1,0,0:0:0:0:
260,268,66469,1,8,0:0:0:0:
88,320,66635,1,0,0:0:0:0:
356,344,66802,6,0,B|365:314|365:314|350:254,1,90,8|0,0:0|0:0,0:0:0:0:
344,228,67052,1,0,0:0:0:0:
344,228,67135,1,8,0:0:0:0:
172,356,67301,1,0,0:0:0:0:
192,148,67468,1,8,0:0:0:0:
264,312,67635,1,0,0:0:0:0:
108,232,67801,1,8,0:0:0:0:
280,72,67968,1,0,0:0:0:0:
44,20,68135,6,0,B|35:50|35:50|50:110,1,90,8|0,0:0|0:0,0:0:0:0:
60,136,68385,1,0,0:0:0:0:
60,136,68468,1,8,0:0:0:0:
348,212,68635,1,0,0:0:0:0:
348,212,68719,1,0,0:0:0:0:
348,212,68802,2,0,L|372:116,1,90,8|0,0:0|0:0,0:0:0:0:
160,304,69135,2,0,L|184:208,1,90,8|0,0:0|0:0,0:0:0:0:
328,328,69468,5,8,0:0:0:0:
48,340,69635,1,0,0:0:0:0:
48,340,69719,1,0,0:0:0:0:
48,340,69802,2,2,B|41:313|41:313|45:288|57:254,1,90,10|0,0:0|0:0,0:0:0:0:
324,204,70135,1,10,0:0:0:0:
176,20,70302,6,2,B|169:47|169:47|173:72|185:106,1,90,2|8,0:0|0:0,0:0:0:0:
185,32,70635,1,2,0:0:0:0:
348,204,70801,5,8,0:0:0:0:
92,192,70968,1,0,0:0:0:0:
92,192,71052,1,0,0:0:0:0:
92,192,71135,2,2,P|136:216|180:228,1,90,10|0,0:0|0:0,0:0:0:0:
316,104,71468,1,10,0:0:0:0:
316,104,71552,1,0,0:0:0:0:
185,32,71719,1,0,0:0:0:0:
185,32,71802,1,8,0:0:0:0:
292,208,71968,1,2,0:0:0:0:
436,60,72135,5,8,0:0:0:0:
188,144,72301,1,0,0:0:0:0:
188,144,72385,1,0,0:0:0:0:
188,144,72469,2,2,P|136:132|88:104,1,90,10|0,0:0|0:0,0:0:0:0:
300,68,72801,1,10,0:0:0:0:
48,260,72968,6,2,P|92:244|156:236,1,90,2|8,0:0|0:0,0:0:0:0:
396,316,73301,1,2,0:0:0:0:
236,340,73469,5,8,0:0:0:0:
240,324,73552,1,0,0:0:0:0:
244,308,73635,1,0,0:0:0:0:
248,292,73719,1,8,0:3:0:0:
252,276,73802,1,8,0:3:0:0:
256,260,73885,1,0,0:0:0:0:
260,244,73969,1,0,0:0:0:0:
264,228,74052,1,8,0:3:0:0:
268,212,74135,1,8,0:3:0:0:
272,196,74219,1,0,0:0:0:0:
276,180,74302,6,0,B|248:148|248:148|104:164,1,180,8|0,0:0|2:0,0:0:0:0:
40,320,74802,5,4,0:0:0:0:
40,320,74885,1,0,0:0:0:0:
40,320,74969,1,0,0:0:0:0:
40,320,75052,1,0,0:0:0:0:
40,320,75135,2,0,P|84:312|128:332,1,80.9999975280763,8|0,0:0|2:0,0:0:0:0:
348,260,75469,1,0,0:0:0:0:
248,212,75635,2,0,P|240:308|296:352,1,161.999995056153,4|8,0:2|0:0,0:0:0:0:
480,364,76135,5,0,0:0:0:0:
480,364,76219,1,0,0:0:0:0:
480,364,76302,1,0,0:0:0:0:
480,364,76385,1,0,0:0:0:0:
480,364,76469,2,0,P|480:316|464:280,1,80.9999975280763,8|0,0:0|2:0,0:0:0:0:
304,112,76802,1,0,0:0:0:0:
160,224,76969,2,0,P|224:252|308:184,1,161.999995056153,4|8,0:2|0:0,0:0:0:0:
440,84,77469,5,4,0:0:0:0:
440,84,77552,1,0,0:0:0:0:
440,84,77635,1,0,0:0:0:0:
440,84,77719,1,0,0:0:0:0:
440,84,77802,2,0,P|428:116|436:176,1,80.9999975280763,8|0,0:0|2:0,0:0:0:0:
308,312,78135,1,0,0:0:0:0:
104,124,78302,2,0,P|144:184|120:272,1,161.999995056153,4|8,0:2|0:0,0:0:0:0:
280,92,78802,5,0,0:0:0:0:
300,88,78885,1,0,0:0:0:0:
320,84,78969,1,0,0:0:0:0:
340,80,79052,1,0,0:0:0:0:
360,76,79135,2,0,P|380:120|376:160,1,80.9999975280763,4|0,0:2|0:0,0:0:0:0:
232,292,79469,5,0,0:0:0:0:
212,296,79552,1,0,0:0:0:0:
192,300,79636,1,0,0:0:0:0:
172,304,79719,1,0,0:0:0:0:
152,308,79802,2,0,P|132:264|136:224,1,80.9999975280763,8|2,0:2|2:0,0:0:0:0:
352,292,80135,5,4,0:0:0:0:
352,292,80219,1,0,0:0:0:0:
352,292,80302,1,0,0:0:0:0:
352,292,80385,1,0,0:0:0:0:
352,292,80469,2,0,P|392:280|440:292,1,80.9999975280763,8|0,0:0|2:0,0:0:0:0:
228,368,80802,1,0,0:0:0:0:
40,232,80969,2,0,P|8:164|48:80,1,161.999995056153,4|8,0:2|0:0,0:0:0:0:
304,24,81469,5,0,0:0:0:0:
304,24,81552,1,0,0:0:0:0:
304,24,81635,1,0,0:0:0:0:
304,24,81719,1,0,0:0:0:0:
304,24,81802,2,0,P|320:72|312:112,1,80.9999975280763,8|0,0:0|2:0,0:0:0:0:
212,272,82135,1,0,0:0:0:0:
468,284,82302,2,0,P|500:216|460:132,1,161.999995056153,4|8,0:2|0:0,0:0:0:0:
208,76,82802,5,4,0:0:0:0:
208,76,82885,1,0,0:0:0:0:
208,76,82968,1,0,0:0:0:0:
208,76,83052,1,0,0:0:0:0:
208,76,83135,2,0,P|192:124|200:164,1,80.9999975280763,8|0,0:0|2:0,0:0:0:0:
320,312,83469,1,0,0:0:0:0:
68,304,83635,2,0,P|128:256|216:260,1,161.999995056153,4|8,0:2|0:0,0:0:0:0:
404,348,84135,5,0,0:0:0:0:
388,92,84302,1,8,0:0:0:0:
388,92,84469,1,8,0:0:0:0:
332,240,84635,1,0,0:0:0:0:
500,120,84802,2,0,L|492:32,1,80.9999975280763,12|0,0:2|0:0,0:0:0:0:
432,276,85135,2,0,L|423:189,1,80.9999975280763,8|8,0:3|0:3,0:0:0:0:
168,260,85469,6,2,P|124:230|51:263,1,99.0000030212403,6|0,0:0|0:0,0:0:0:0:
261,151,85802,2,0,P|311:152|351:122,1,99.0000030212403,8|0,0:0|0:0,0:0:0:0:
256,160,86135,2,2,P|269:232|279:313,1,148.50000453186,2|0,0:0|2:0,0:0:0:0:
264,321,86469,1,8,0:0:0:0:
80,235,86635,1,0,0:0:0:0:
332,28,86802,6,2,P|382:27|422:57,1,99.0000030212403,2|0,0:0|0:0,0:0:0:0:
168,112,87135,2,0,P|129:141|80:139,1,99.0000030212403,8|0,0:0|0:0,0:0:0:0:
380,182,87469,2,0,P|406:253|424:334,2,148.50000453186,2|2|2,0:0|0:0|0:0,0:0:0:0:
125,235,88135,6,2,P|111:293|109:347,1,99.0000030212403,2|0,0:0|0:0,0:0:0:0:
285,212,88469,2,0,P|299:154|301:100,1,99.0000030212403,8|0,0:0|0:0,0:0:0:0:
172,129,88802,1,0,0:0:0:0:
380,182,88969,2,0,L|492:190,1,99.0000030212403,0|8,0:0|0:0,0:0:0:0:
390,198,89302,1,0,0:0:0:0:
180,272,89469,6,0,P|128:280|84:308,1,99.0000030212403,0|0,0:0|0:0,0:0:0:0:
308,316,89802,2,0,P|315:255|305:211,1,99.0000030212403,8|0,0:0|0:0,0:0:0:0:
232,16,90135,1,0,0:0:0:0:
184,180,90302,1,0,0:0:0:0:
361,73,90469,1,8,0:0:0:0:
361,73,90552,1,0,0:0:0:0:
361,73,90635,1,0,0:0:0:0:
361,73,90719,1,0,0:0:0:0:
361,73,90802,6,2,P|408:64|464:96,1,99.0000030212403,6|0,0:0|0:0,0:0:0:0:
251,151,91135,2,0,P|201:152|161:122,1,99.0000030212403,8|0,0:0|0:0,0:0:0:0:
256,160,91469,2,2,P|243:232|233:313,1,148.50000453186,2|0,0:0|2:0,0:0:0:0:
248,321,91802,1,8,0:0:0:0:
393,250,91968,1,0,0:0:0:0:
109,195,92135,6,0,P|93:247|108:295,1,99.0000030212403,2|0,0:0|0:0,0:0:0:0:
388,130,92469,2,0,P|404:78|389:30,1,99.0000030212403,8|0,0:0|0:0,0:0:0:0:
165,61,92802,2,0,P|94:87|12:92,2,148.50000453186,2|2|2,0:0|0:0|0:0,0:0:0:0:
308,188,93469,6,0,P|379:210|417:215,1,99.0000030212403,4|0,0:0|0:0,0:0:0:0:
300,201,93802,1,8,0:0:0:0:
206,294,93969,2,2,P|135:316|97:321,1,99.0000030212403,2|0,0:0|0:0,0:0:0:0:
213,275,94302,1,0,0:0:0:0:
348,298,94469,1,10,0:0:0:0:
143,190,94635,1,0,0:0:0:0:
325,73,94802,6,2,B|333:101|333:101|321:173,1,99.0000030212403,2|0,0:0|0:0,0:0:0:0:
305,57,95135,1,8,0:0:0:0:
181,153,95302,2,2,B|173:181|173:181|185:253,1,99.0000030212403,2|0,0:0|0:0,0:0:0:0:
201,137,95635,1,0,0:0:0:0:
349,257,95802,2,2,B|357:285|357:285|345:357,1,99.0000030212403,10|0,0:0|0:0,0:0:0:0:
345,353,96052,1,0,0:0:0:0:
345,353,96135,5,12,0:0:0:0:
152,256,96302,2,0,L|48:248,1,99.0000030212403,0|0,0:0|0:0,0:0:0:0:
240,328,96635,1,8,0:0:0:0:
388,164,96802,2,0,L|492:156,1,99.0000030212403,0|0,0:0|0:0,0:0:0:0:
316,248,97135,1,8,0:0:0:0:
252,112,97302,5,0,0:0:0:0:
252,112,97385,1,0,0:0:0:0:
252,112,97469,2,0,P|252:80|260:40,2,66.0000020141602,8|8|8,0:0|0:0|0:0,0:0:0:0:
164,228,97802,2,0,P|136:244|97:257,2,66.0000020141602,8|8|8,0:3|0:3|0:3,0:0:0:0:
176,144,98135,2,0,P|148:128|117:101,2,66.0000020141602,8|8|8,0:3|0:3|0:3,0:0:0:0:
236,276,98468,2,0,P|236:308|227:348,2,66.0000020141602,8|8|8,0:3|0:3|0:3,0:0:0:0:
316,248,98802,6,0,P|380:224|476:208,1,161.999995056153,4|2,0:2|2:0,0:0:0:0:
264,120,99302,2,0,P|184:116|84:92,1,161.999995056153,0|0,0:0|0:0,0:0:0:0:
171,324,99802,1,10,0:0:0:0:
44,237,99969,1,0,0:0:0:0:
280,220,100135,6,2,P|280:168|272:132,1,80.9999975280763,2|0,0:0|2:0,0:0:0:0:
264,244,100469,1,0,2:0:0:0:
456,188,100635,2,0,P|460:104|428:16,1,161.999995056153,2|2,0:0|1:2,0:0:0:0:
274,139,101135,1,10,0:0:0:0:
420,272,101302,1,2,2:0:0:0:
184,292,101469,6,0,P|172:240|184:200,1,80.9999975280763,4|0,0:2|0:0,0:0:0:0:
360,92,101802,2,0,P|372:144|360:184,1,80.9999975280763,2|0,2:0|0:0,0:0:0:0:
204,300,102135,1,2,2:0:0:0:
24,116,102302,2,2,P|18:76|30:37,1,80.9999975280763,2|8,0:0|0:0,0:0:0:0:
192,172,102635,1,0,2:0:0:0:
84,320,102802,6,2,L|0:332,1,80.9999975280763,2|0,0:0|2:0,0:0:0:0:
276,272,103135,2,2,L|184:260,1,80.9999975280763,2|0,0:0|2:0,0:0:0:0:
440,348,103469,2,2,L|356:360,1,80.9999975280763,2|0,0:0|2:0,0:0:0:0:
260,168,103802,1,10,0:0:0:0:
432,256,103969,1,0,0:0:0:0:
228,372,104135,6,0,P|188:336|212:236,1,161.999995056153,6|0,0:0|2:0,0:0:0:0:
395,169,104635,2,0,P|307:169|275:109,1,161.999995056153,0|0,0:0|0:0,0:0:0:0:
112,44,105135,2,0,P|132:92|120:136,1,80.9999975280763,8|0,0:0|2:0,0:0:0:0:
20,260,105469,5,2,0:0:0:0:
136,360,105635,2,0,P|136:312|112:272,1,80.9999975280763,2|0,0:2|2:0,0:0:0:0:
276,112,105969,2,0,P|236:172|272:256,1,161.999995056153,2|0,0:0|0:0,0:0:0:0:
368,188,106469,1,8,0:0:0:0:
172,56,106635,5,0,0:0:0:0:
172,56,106719,1,0,0:0:0:0:
172,56,106802,2,0,P|128:40|76:32,1,80.9999975280763,8|0,0:0|0:0,0:0:0:0:
356,172,107135,2,0,P|396:156|468:148,1,90,0|8,0:0|0:0,0:0:0:0:
132,252,107469,2,2,P|84:236|28:228,1,99.0000030212403,8|10,0:0|0:0,0:0:0:0:
400,356,107802,2,2,P|440:340|520:328,1,107.999996704102,8|2,0:0|0:0,0:0:0:0:
256,324,108135,6,0,B|247:290|247:290|261:255|261:255|246:224|246:224|261:193|261:193|255:155,1,179.999994506836,2|2,0:0|0:1,0:0:0:0:
352,216,109469,6,2,B|352:160|352:160|393:118,1,103.500001974106,6|0,0:0|0:0,0:0:0:0:
464,232,109802,1,8,0:0:0:0:
384,336,109969,1,0,0:0:0:0:
384,336,110052,1,0,0:0:0:0:
384,336,110135,2,0,B|270:336,1,103.500001974106,0|0,0:0|0:0,0:0:0:0:
152,248,110469,2,0,B|265:248,1,103.500001974106,8|0,0:0|0:0,0:0:0:0:
104,336,110802,6,2,B|40:280|40:280|40:158,1,207.000003948212,2|8,0:0|0:0,0:0:0:0:
152,248,111302,2,2,B|216:192|216:192|216:68,1,207.000003948212,2|0,0:0|0:0,0:0:0:0:
124,40,111802,2,0,B|124:152,1,103.500001974106,8|0,0:0|0:0,0:0:0:0:
248,296,112135,5,2,0:0:0:0:
376,320,112302,1,0,0:0:0:0:
376,320,112385,1,0,0:0:0:0:
376,320,112469,1,8,0:0:0:0:
456,224,112635,1,0,0:0:0:0:
408,104,112802,1,0,0:0:0:0:
408,104,112885,1,0,0:0:0:0:
408,104,112969,1,0,0:0:0:0:
280,136,113135,1,8,0:0:0:0:
280,136,113219,1,0,0:0:0:0:
280,136,113302,1,0,0:0:0:0:
256,256,113469,5,2,0:0:0:0:
152,312,113635,1,0,0:0:0:0:
152,312,113719,1,0,0:0:0:0:
152,312,113802,1,8,0:0:0:0:
24,206,113969,1,0,0:0:0:0:
271,362,114135,2,0,B|322:352|322:352|381:325,1,103.500001974106,2|0,0:0|0:0,0:0:0:0:
156,141,114469,2,0,B|105:131|105:131|46:104,1,103.500001974106,10|0,0:0|0:0,0:0:0:0:
346,20,114802,1,4,0:2:0:0:
399,161,114969,5,0,0:0:0:0:
407,177,115052,1,0,0:0:0:0:
415,193,115135,1,8,0:0:0:0:
376,312,115302,1,0,0:0:0:0:
264,352,115469,1,2,0:0:0:0:
264,352,115552,1,0,0:0:0:0:
264,352,115635,2,0,B|156:352,1,103.500001974106,0|10,0:0|0:0,0:0:0:0:
56,272,115969,5,0,0:0:0:0:
56,272,116052,1,0,0:0:0:0:
56,272,116135,2,2,B|164:272,1,103.500001974106,2|0,0:0|0:0,0:0:0:0:
120,160,116469,1,10,0:0:0:0:
136,160,116552,1,0,0:0:0:0:
152,160,116635,1,0,0:0:0:0:
176,64,116802,1,2,0:0:0:0:
192,64,116885,1,0,0:0:0:0:
208,64,116969,2,0,B|316:64,1,103.500001974106,0|10,0:0|0:0,0:0:0:0:
296,160,117302,1,0,0:0:0:0:
416,128,117469,5,2,0:0:0:0:
472,232,117635,1,0,0:0:0:0:
464,248,117719,1,0,0:0:0:0:
456,264,117802,1,8,0:0:0:0:
360,304,117969,1,0,0:0:0:0:
352,320,118052,1,0,0:0:0:0:
344,336,118135,1,0,0:0:0:0:
264,280,118302,1,0,0:0:0:0:
184,336,118469,1,8,0:0:0:0:
168,320,118552,1,0,0:0:0:0:
152,304,118635,1,0,0:0:0:0:
56,272,118802,5,2,0:2:0:0:
80,176,118969,1,0,0:0:0:0:
88,160,119052,1,0,0:0:0:0:
96,144,119135,1,8,0:0:0:0:
176,200,119302,1,0,0:0:0:0:
208,104,119469,1,2,0:2:0:0:
216,88,119552,1,0,0:0:0:0:
224,72,119635,1,0,0:0:0:0:
320,104,119802,5,8,0:0:0:0:
328,120,119885,1,0,0:0:0:0:
336,136,119969,1,0,0:0:0:0:
344,152,120052,1,0,0:0:0:0:
352,168,120135,2,2,B|396:268,1,103.500001974106,6|0,0:0|0:0,0:0:0:0:
304,344,120469,1,8,0:0:0:0:
192,296,120635,1,0,0:0:0:0:
200,280,120719,1,0,0:0:0:0:
208,264,120802,2,0,B|260:168,1,103.500001974106,0|0,0:0|0:0,0:0:0:0:
136,168,121135,2,0,B|188:72,1,103.500001974106,8|0,0:0|0:0,0:0:0:0:
56,112,121469,6,2,B|32:156|32:156|56:232,1,103.500001974106,2|0,0:0|0:0,0:0:0:0:
56,228,121719,1,0,0:0:0:0:
64,248,121802,1,8,0:0:0:0:
152,192,121969,2,2,B|388:192,1,207.000003948212,2|0,0:0|0:0,0:0:0:0:
424,268,122469,1,8,0:0:0:0:
356,340,122635,1,0,0:0:0:0:
248,304,122802,5,2,0:0:0:0:
344,184,122969,1,0,0:0:0:0:
328,168,123052,1,0,0:0:0:0:
312,152,123135,1,8,0:0:0:0:
168,112,123302,1,0,0:0:0:0:
288,16,123469,1,0,0:0:0:0:
304,24,123552,1,0,0:0:0:0:
320,32,123635,1,0,0:0:0:0:
456,88,123802,5,8,0:0:0:0:
448,104,123885,1,0,0:0:0:0:
440,120,123969,1,0,0:0:0:0:
432,136,124052,1,0,0:0:0:0:
424,152,124135,1,2,0:0:0:0:
280,192,124302,1,0,0:0:0:0:
368,312,124469,1,8,0:0:0:0:
352,328,124552,1,0,0:0:0:0:
336,344,124635,1,0,0:0:0:0:
216,256,124802,1,2,0:0:0:0:
80,312,124969,5,0,0:0:0:0:
88,296,125052,1,0,0:0:0:0:
96,280,125135,2,2,B|144:172,1,103.500001974106,12|0,0:2|0:0,0:0:0:0:
104,24,125469,2,2,P|44:64|24:192,1,207.000003948212,2|8,0:0|0:0,0:0:0:0:
144,144,125969,1,0,0:0:0:0:
144,144,126052,1,0,0:0:0:0:
144,144,126135,2,2,B|256:144,1,103.500001974106,2|0,0:0|0:0,0:0:0:0:
368,240,126469,2,2,B|260:240,1,103.500001974106,10|0,0:0|0:0,0:0:0:0:
408,360,126802,6,2,P|468:320|488:192,1,207.000003948212,2|10,0:0|0:0,0:0:0:0:
408,88,127302,1,0,0:0:0:0:
408,88,127385,1,0,0:0:0:0:
408,88,127469,2,2,B|300:88,1,103.500001974106,2|0,0:0|0:0,0:0:0:0:
248,192,127802,2,0,B|132:192,1,103.500001974106,12|0,0:0|0:0,0:0:0:0:
21,262,128135,6,0,P|38:354|161:326,1,207.000003948212,12|8,0:0|0:0,0:0:0:0:
313,244,128635,2,0,P|295:151|173:180,1,207.000003948212,12|8,0:0|0:0,0:0:0:0:
229,334,129135,1,8,0:0:0:0:
340,354,129302,1,2,0:0:0:0:
432,288,129469,5,10,0:0:0:0:
440,272,129552,1,8,0:0:0:0:
448,256,129635,1,8,0:0:0:0:
456,240,129719,1,8,0:0:0:0:
464,224,129802,1,8,0:3:0:0:
456,208,129885,1,0,0:0:0:0:
448,192,129969,1,8,0:3:0:0:
440,176,130052,1,8,0:3:0:0:
432,160,130135,1,8,0:3:0:0:
440,144,130219,1,0,0:0:0:0:
448,128,130302,1,8,0:3:0:0:
456,112,130385,1,8,0:3:0:0:
464,96,130469,1,8,0:3:0:0:
456,80,130552,1,0,0:0:0:0:
448,64,130635,1,0,0:0:0:0:
440,48,130719,1,0,0:0:0:0:
432,32,130802,6,2,B|316:32,1,103.500001974106,6|8,0:0|0:0,0:0:0:0:
208,136,131135,2,0,B|312:136,1,103.500001974106,0|8,0:0|0:0,0:0:0:0:
184,32,131469,2,0,B|68:32,1,103.500001974106,0|8,0:0|0:0,0:0:0:0:
64,184,131802,1,0,0:0:0:0:
56,168,131885,1,0,0:0:0:0:
48,152,131969,1,8,0:0:0:0:
80,328,132135,6,2,B|196:328,1,103.500001974106,2|8,0:0|0:0,0:0:0:0:
304,224,132469,2,0,B|200:224,1,103.500001974106,0|8,0:0|0:0,0:0:0:0:
328,328,132802,2,0,B|444:328,1,103.500001974106,0|8,0:0|0:0,0:0:0:0:
448,176,133135,1,0,0:0:0:0:
456,192,133219,1,0,0:0:0:0:
464,208,133302,1,8,0:0:0:0:
336,128,133469,5,2,0:0:0:0:
272,264,133635,1,8,0:0:0:0:
272,264,133719,1,0,0:0:0:0:
272,264,133802,1,0,0:0:0:0:
224,152,133969,1,8,0:0:0:0:
112,192,134135,1,0,0:0:0:0:
112,192,134219,1,0,0:0:0:0:
112,192,134302,1,8,0:0:0:0:
72,80,134469,5,0,0:0:0:0:
72,80,134552,1,0,0:0:0:0:
72,80,134635,1,8,0:0:0:0:
72,80,134719,1,0,0:0:0:0:
72,80,134802,1,2,0:0:0:0:
184,32,134969,1,8,0:0:0:0:
184,32,135052,1,0,0:0:0:0:
184,32,135135,1,0,0:0:0:0:
224,152,135302,1,8,0:0:0:0:
152,332,135469,2,2,B|152:264|152:264|112:232|112:232|112:144,1,207.000003948212
224,152,135969,1,8,0:0:0:0:
304,64,136135,6,2,B|436:64,1,103.500001974106,6|8,0:0|0:0,0:0:0:0:
352,176,136469,1,0,0:0:0:0:
456,232,136635,1,8,0:0:0:0:
456,232,136719,1,0,0:0:0:0:
456,232,136802,2,2,B|416:336,1,103.500001974106,2|8,0:0|0:0,0:0:0:0:
304,280,137135,2,2,B|264:384,1,103.500001974106,2|8,0:0|0:0,0:0:0:0:
192,280,137469,5,2,0:0:0:0:
80,328,137635,1,8,0:0:0:0:
80,328,137719,1,0,0:0:0:0:
80,328,137802,2,2,B|48:224,1,103.500001974106,2|8,0:0|0:0,0:0:0:0:
136,144,138135,1,2,0:0:0:0:
72,40,138302,1,8,0:0:0:0:
72,40,138385,1,0,0:0:0:0:
72,40,138469,2,2,B|196:40,1,103.500001974106,2|8,0:0|0:0,0:0:0:0:
256,120,138802,5,2,0:0:0:0:
344,40,138969,1,8,0:0:0:0:
344,40,139052,1,0,0:0:0:0:
344,40,139135,1,0,0:0:0:0:
432,128,139302,1,8,0:0:0:0:
344,208,139469,1,0,0:0:0:0:
344,208,139552,1,0,0:0:0:0:
344,208,139635,1,8,0:0:0:0:
256,120,139802,1,0,0:0:0:0:
256,120,139885,1,0,0:0:0:0:
256,120,139969,1,8,0:0:0:0:
376,144,140135,5,2,0:2:0:0:
344,256,140302,1,8,0:0:0:0:
344,256,140385,1,0,0:0:0:0:
344,256,140469,1,0,0:0:0:0:
224,240,140635,1,8,0:0:0:0:
256,120,140802,1,10,0:2:0:0:
276,124,140885,1,8,0:0:0:0:
296,128,140969,1,8,0:0:0:0:
316,132,141052,1,8,0:0:0:0:
336,136,141135,1,8,0:3:0:0:
356,140,141219,1,0,0:0:0:0:
376,144,141302,1,8,0:3:0:0:
396,148,141385,1,8,0:3:0:0:
416,152,141469,1,6,0:0:0:0:
464,40,141635,5,8,0:0:0:0:
464,40,141719,1,0,0:0:0:0:
464,40,141802,2,0,B|356:40,1,103.500001974106,0|8,0:0|0:0,0:0:0:0:
256,132,142135,2,0,B|364:132,1,103.500001974106,0|8,0:0|0:0,0:0:0:0:
248,40,142469,5,0,0:0:0:0:
224,40,142552,1,0,0:0:0:0:
200,40,142635,1,8,0:0:0:0:
176,40,142719,1,0,0:0:0:0:
152,40,142802,2,2,B|120:128|120:128|72:128|72:128|24:224,1,207.000003948212,2|0,0:0|0:0,0:0:0:0:
64,352,143302,2,2,B|96:264|96:264|144:264|144:264|192:168,1,207.000003948212,10|8,0:0|0:0,0:0:0:0:
128,88,143802,1,0,0:0:0:0:
42,186,143969,1,8,0:0:0:0:
200,336,144135,5,2,0:0:0:0:
288,232,144302,1,8,0:0:0:0:
304,232,144385,1,0,0:0:0:0:
320,232,144469,2,0,B|436:232,1,103.500001974106,0|8,0:0|0:0,0:0:0:0:
352,352,144802,1,0,0:0:0:0:
336,336,144885,1,0,0:0:0:0:
320,320,144969,1,8,0:0:0:0:
200,336,145135,5,0,0:0:0:0:
184,320,145219,1,0,0:0:0:0:
168,304,145302,1,8,0:0:0:0:
152,288,145385,1,0,0:0:0:0:
136,272,145469,1,2,0:0:0:0:
184,136,145635,1,8,0:0:0:0:
168,120,145719,1,0,0:0:0:0:
152,104,145802,2,0,B|20:104,1,103.500001974106,0|8,0:0|0:0,0:0:0:0:
24,240,146135,1,2,0:0:0:0:
40,256,146219,1,0,0:0:0:0:
56,272,146302,1,8,0:0:0:0:
256,264,146469,5,2,0:0:0:0:
272,248,146552,1,0,0:0:0:0:
288,232,146635,1,8,0:0:0:0:
304,216,146719,1,0,0:0:0:0:
320,200,146802,2,2,B|428:200,1,103.500001974106,6|8,0:0|0:0,0:0:0:0:
468,344,147135,2,0,B|364:344,1,103.500001974106,0|8,0:0|0:0,0:0:0:0:
204,264,147469,2,2,B|308:264,1,103.500001974106,2|8,0:0|0:0,0:0:0:0:
144,344,147802,2,2,B|40:344,1,103.500001974106,2|8,0:0|0:0,0:0:0:0:
69,185,148135,6,2,B|173:185,1,103.500001974106,2|8,0:0|0:0,0:0:0:0:
141,22,148469,2,2,B|37:22,1,103.500001974106,2|8,0:0|0:0,0:0:0:0:
201,102,148802,2,2,B|305:102,1,103.500001974106,2|8,0:0|0:0,0:0:0:0:
469,22,149135,2,0,B|365:22,1,103.500001974106,0|8,0:0|0:0,0:0:0:0:
408,192,149469,5,2,0:0:0:0:
468,328,149635,1,8,0:0:0:0:
468,328,149719,1,0,0:0:0:0:
468,328,149802,2,0,B|352:328,1,103.500001974106,0|10,0:0|0:0,0:0:0:0:
204,240,150135,2,0,B|308:240,1,103.500001974106,0|8,0:0|0:0,0:0:0:0:
148,328,150469,2,2,B|44:328,1,103.500001974106,2|8,0:0|0:0,0:0:0:0:
96,184,150802,5,12,0:0:0:0:
104,168,150885,1,0,0:0:0:0:
112,152,150969,1,0,0:0:0:0:
120,136,151052,1,0,0:0:0:0:
128,120,151135,1,8,0:3:0:0:
136,104,151219,1,0,0:0:0:0:
144,88,151302,1,8,0:0:0:0:
152,104,151385,1,0,0:0:0:0:
160,120,151469,1,8,0:3:0:0:
168,136,151552,1,0,0:0:0:0:
176,152,151635,1,0,0:0:0:0:
184,168,151719,1,0,0:0:0:0:
192,184,151802,2,0,B|272:184|272:184|300:156|300:156|388:156,1,207.000003948212,12|4,0:0|0:2,0:0:0:0:
387,156,153469,5,4,0:2:0:0:
387,156,154802,5,4,0:2:0:0:
387,156,156135,5,4,0:2:0:0:
387,156,156969,1,0,0:0:0:0:
327,222,157135,1,4,0:3:0:0:
238,240,157302,1,4,0:3:0:0:
150,218,157469,5,4,0:2:0:0:
327,222,157802,1,0,0:0:0:0:
178,42,158135,5,0,0:0:0:0:
238,240,158469,1,0,0:0:0:0:
295,26,158802,5,4,0:2:0:0:
150,218,159135,1,0,0:0:0:0:
386,110,159469,5,0,0:0:0:0:
90,152,159802,1,0,0:0:0:0:
188,92,159969,5,0,0:0:0:0:
188,92,160052,1,0,0:0:0:0:
188,92,160135,2,0,L|198:185,1,90,12|0,0:0|0:0,0:0:0:0:
120,316,160469,1,0,0:0:0:0:
90,152,160635,1,0,0:0:0:0:
203,212,160802,1,8,0:0:0:0:
16,248,160969,1,8,0:0:0:0:
24,76,161135,1,8,0:0:0:0:
196,44,161302,1,8,0:0:0:0:
288,191,161469,5,8,0:0:0:0:
291,213,161552,1,0,0:0:0:0:
294,235,161635,1,0,0:0:0:0:
297,257,161719,1,0,0:0:0:0:
299,279,161802,2,0,L|291:340,3,45,8|8|0|0,0:3|0:3|0:0|0:0,0:0:0:0:
257,347,162135,5,8,0:3:0:0:
229,331,162219,1,8,0:3:0:0:
198,323,162302,1,0,0:0:0:0:
166,322,162385,1,0,0:0:0:0:
135,332,162469,1,0,0:0:0:0:
106,345,162552,1,0,0:0:0:0:
84,367,162635,6,2,B|52:337|52:337|47:288|74:232,1,144,6|0,0:0|0:0,0:0:0:0:
374,255,163135,2,0,P|370:206|360:174,1,72,2|0,0:2|2:0,0:0:0:0:
233,100,163469,1,10,0:0:0:0:
116,120,163635,2,2,P|117:84|126:49,1,72,2|0,0:0|2:0,0:0:0:0:
374,34,163969,6,2,B|406:64|406:64|411:113|384:169,1,144,0|2,0:0|0:0,0:0:0:0:
116,156,164469,2,0,P|123:209|142:246,1,72,2|0,0:2|2:0,0:0:0:0:
368,313,164802,1,10,0:0:0:0:
254,330,164969,2,2,P|261:283|272:248,1,72,2|0,0:0|2:0,0:0:0:0:
143,98,165302,6,2,B|111:128|111:128|106:177|133:233,1,144,6|0,0:0|0:0,0:0:0:0:
379,242,165802,2,0,P|377:277|367:312,1,72,2|0,0:2|2:0,0:0:0:0:
224,160,166135,1,10,0:0:0:0:
129,225,166302,2,2,P|131:261|141:299,1,72,2|0,0:0|0:0,0:0:0:0:
325,184,166635,6,0,B|333:135|303:91|303:91|321:49,2,144,4|0|8,0:0|0:0|0:0,0:0:0:0:
325,184,167635,1,0,0:0:0:0:
229,163,167802,5,0,0:0:0:0:
229,163,167885,1,0,0:0:0:0:
229,163,167969,2,2,B|85:176,1,144,6|0,0:0|0:0,0:0:0:0:
281,267,168469,2,0,L|194:277,1,72,2|0,0:2|2:0,0:0:0:0:
363,161,168802,1,10,0:0:0:0:
248,140,168969,2,2,L|176:129,1,72,2|0,0:0|2:0,0:0:0:0:
28,324,169302,6,2,L|177:347,1,144,4|2,0:0|0:0,0:0:0:0:
394,268,169802,2,0,L|296:253,1,72,2|0,0:2|2:0,0:0:0:0:
413,137,170135,1,10,0:0:0:0:
443,35,170302,2,2,L|352:48,1,72,2|0,0:0|2:0,0:0:0:0:
169,146,170635,6,2,L|320:123,1,144,6|0,0:0|0:0,0:0:0:0:
396,272,171135,2,0,L|313:290,1,72,2|0,0:2|2:0,0:0:0:0:
139,154,171469,1,10,0:0:0:0:
127,267,171635,2,2,L|210:249,1,72,2|0,0:0|0:0,0:0:0:0:
329,37,171969,2,0,B|277:31|277:31|242:52|242:52|183:46,2,144,4|0|2,0:0|0:0|0:0,0:0:0:0:
399,128,172802,1,0,0:0:0:0:
375,150,172885,1,0,0:0:0:0:
365,181,172969,1,0,0:0:0:0:
366,213,173052,1,0,0:0:0:0:
382,240,173135,1,8,0:0:0:0:
327,348,173302,6,2,B|289:309|289:309|224:302|178:367,1,180,6|0,0:0|0:0,0:0:0:0:
464,292,173802,2,0,P|468:240|461:194,1,90,8|0,0:0|0:0,0:0:0:0:
256,204,174135,1,0,0:0:0:0:
104,248,174302,2,0,P|100:196|107:150,1,90,0|8,0:0|0:0,0:0:0:0:
284,112,174635,1,0,0:0:0:0:
352,264,174802,6,2,B|364:288|380:300|380:300|363:311|352:336,1,90,2|0,0:0|0:0,0:0:0:0:
160,384,175135,2,0,B|148:360|132:348|132:348|149:337|160:312,1,90,8|0,0:0|0:0,0:0:0:0:
360,256,175469,1,0,0:0:0:0:
256,352,175635,1,2,0:0:0:0:
256,352,175802,1,8,0:0:0:0:
256,352,175969,6,2,L|260:240,1,90,6|0,0:0|2:0,0:0:0:0:
160,64,176302,1,0,0:0:0:0:
248,128,176469,1,8,0:0:0:0:
148,168,176635,1,0,0:0:0:0:
272,344,176802,2,0,L|276:232,1,90
168,44,177135,1,8,0:0:0:0:
380,192,177302,6,0,P|452:196|508:104,1,180,4|0,0:0|0:0,0:0:0:0:
368,176,177802,1,8,0:0:0:0:
176,264,177969,2,2,P|152:312|160:356,1,90,2|0,0:0|2:0,0:0:0:0:
368,176,178302,2,2,P|370:131|348:93,1,90,2|8,0:0|2:0,0:0:0:0:
168,168,178635,6,2,B|116:188|88:220|88:220|52:200|-16:192,1,180,6|0,0:0|0:0,0:0:0:0:
68,44,179135,1,8,0:0:0:0:
168,156,179302,1,0,0:0:0:0:
40,296,179469,2,0,P|28:356|28:384,1,90,0|0,0:0|0:0,0:0:0:0:
188,288,179802,1,8,0:0:0:0:
360,140,179969,6,2,P|372:80|372:52,1,90,2|0,0:0|2:0,0:0:0:0:
352,276,180302,2,2,P|340:336|340:364,1,90,2|8,0:0|2:0,0:0:0:0:
452,252,180635,1,0,0:0:0:0:
276,192,180802,1,2,0:0:0:0:
488,128,180969,1,0,0:0:0:0:
489,121,181135,1,8,0:0:0:0:
491,114,181302,6,2,P|451:66|323:98,1,180,6|0,0:0|0:0,0:0:0:0:
192,276,181802,2,0,P|240:300|276:288,1,90,8|0,0:0|0:0,0:0:0:0:
272,290,182052,1,0,0:0:0:0:
272,290,182135,1,8,0:0:0:0:
136,200,182302,1,2,0:0:0:0:
80,344,182469,1,0,0:0:0:0:
40,204,182635,6,2,P|32:161|28:104,1,90,10|0,0:0|2:0,0:0:0:0:
216,128,182969,2,0,P|223:85|228:28,1,90,0|8,0:0|2:0,0:0:0:0:
96,40,183302,1,0,0:0:0:0:
96,40,183385,1,0,0:0:0:0:
96,40,183469,1,8,0:0:0:0:
320,132,183635,1,8,0:0:0:0:
136,200,183802,1,8,0:0:0:0:
298,264,183969,6,2,B|319:303|319:303|353:374,1,90,6|0,0:0|2:0,0:0:0:0:
246,341,184302,1,0,0:0:0:0:
399,230,184469,2,0,B|420:191|420:191|454:120,1,90,8|0,0:0|2:0,0:0:0:0:
279,177,184802,1,0,0:0:0:0:
422,312,184969,1,0,0:0:0:0:
203,256,185135,1,8,0:0:0:0:
0,154,185302,6,2,P|63:155|190:162,1,180
255,46,185802,1,8,0:0:0:0:
422,312,185969,2,2,P|362:369|260:354,1,180,2|0,0:0|0:0,0:0:0:0:
177,150,186469,1,8,0:0:0:0:
2,247,186635,6,2,P|65:248|192:255,1,180,6|2,0:0|0:0,0:0:0:0:
186,263,187135,2,2,P|194:317|196:360,1,90,10|0,0:0|0:0,0:0:0:0:
316,142,187469,2,2,P|308:196|306:239,1,90,0|2,0:0|0:0,0:0:0:0:
151,133,187802,1,10,0:0:0:0:
312,243,187969,1,0,0:0:0:0:
493,204,188135,6,2,P|439:196|396:194,1,90,2|0,0:0|0:0,0:0:0:0:
185,45,188469,2,2,P|239:53|282:55,1,90,10|0,0:0|0:0,0:0:0:0:
176,246,188802,2,2,P|131:248|86:255,1,90
86,255,189052,1,0,0:0:0:0:
86,255,189135,1,10,0:0:0:0:
14,80,189302,6,2,P|83:26|168:45,1,180,6|0,0:0|0:0,0:0:0:0:
318,268,189802,2,0,P|328:316|315:359,1,90,8|2,0:0|0:0,0:0:0:0:
182,329,190135,2,2,P|172:281|185:238,1,90,2|4,0:0|0:2,0:0:0:0:
258,188,190469,1,8,0:0:0:0:
504,253,190635,6,2,P|441:254|314:261,1,180,6|0,0:0|0:0,0:0:0:0:
169,123,191135,1,10,0:0:0:0:
379,18,191302,2,2,P|426:75|392:189,1,180,2|0,0:0|0:0,0:0:0:0:
162,117,191802,1,8,0:0:0:0:
123,357,191969,6,2,P|186:358|313:365,1,180,6|0,0:0|0:0,0:0:0:0:
161,237,192469,1,8,0:0:0:0:
425,131,192635,2,2,P|362:132|235:139,1,180,4|2,0:0|0:0,0:0:0:0:
318,266,193135,1,8,0:0:0:0:
80,68,193302,6,2,P|137:21|251:55,1,180,6|2,0:0|0:0,0:0:0:0:
259,127,193802,1,8,0:0:0:0:
395,309,193969,1,2,0:0:0:0:
365,342,194052,1,0,0:0:0:0:
323,359,194135,1,8,0:3:0:0:
277,353,194219,1,8,0:3:0:0:
241,325,194302,2,2,B|231:284|231:284|252:226,1,90,2|8,0:0|2:3,0:0:0:0:
450,51,194635,6,2,B|460:92|460:92|439:150,1,90,6|0,0:0|0:0,0:0:0:0:
166,153,194969,1,2,0:0:0:0:
73,121,195135,2,2,B|56:165|56:165|66:206,1,90,8|2,0:0|0:0,0:0:0:0:
259,119,195469,2,2,B|275:74|275:74|265:33,1,90,2|0,0:0|0:0,0:0:0:0:
61,105,195802,1,10,0:0:0:0:
243,345,195969,6,2,B|202:363|202:363|161:346,1,90,2|0,0:0|2:0,0:0:0:0:
325,164,196302,1,0,0:0:0:0:
374,242,196469,2,2,B|415:259|415:259|456:241,1,90,10|0,0:0|0:0,0:0:0:0:
360,29,196802,2,2,B|318:11|318:11|278:30,1,90
213,162,197135,1,8,0:0:0:0:
221,358,197302,6,2,P|186:298|129:241,1,135,0|0,0:0|2:0,0:0:0:0:
127,237,197635,1,2,0:0:0:0:
220,178,197802,2,0,P|208:131|190:85,1,90,8|2,0:0|1:0,0:0:0:0:
317,100,198135,2,2,P|324:52|325:2,1,90,0|2,0:0|1:0,0:0:0:0:
471,18,198469,1,8,0:0:0:0:
301,229,198635,6,2,P|291:293|291:354,1,116.999994644165,6|0,0:0|2:0,0:0:0:0:
479,249,198969,1,0,0:0:0:0:
295,211,199135,1,8,0:0:0:0:
176,349,199302,2,2,P|122:356|55:360,1,116.999994644165,2|0,0:0|2:0,0:0:0:0:
181,157,199635,1,0,0:0:0:0:
393,338,199802,1,8,0:0:0:0:
76,272,199969,6,2,P|33:225|62:62,1,233.999989288331,4|2,0:0|0:0,0:0:0:0:
293,23,200469,2,0,L|311:142,1,116.999994644165,8|0,0:0|0:0,0:0:0:0:
232,353,200802,2,0,L|214:234,1,116.999994644165,0|2,0:0|0:0,0:0:0:0:
386,70,201135,1,8,0:0:0:0:
477,168,201302,6,2,P|494:262|406:371,1,233.999989288331
126,241,201802,2,0,L|112:118,1,116.999994644165,8|0,0:0|0:0,0:0:0:0:
321,188,202135,2,0,L|335:311,1,116.999994644165,0|4,0:0|0:2,0:0:0:0:
73,354,202469,1,8,0:0:0:0:
218,94,202635,6,2,P|302:58|438:144,1,233.999989288331,6|0,0:0|0:0,0:0:0:0:
423,116,203052,1,0,0:0:0:0:
423,116,203135,1,10,0:0:0:0:
191,317,203385,1,0,0:0:0:0:
196,338,203469,2,0,P|266:345|299:311,1,116.999994644165,8|2,0:0|0:0,0:0:0:0:
200,93,203802,2,0,P|130:86|97:120,1,116.999994644165,8|2,0:0|0:0,0:0:0:0:
96,222,204135,6,2,P|166:229|199:195,1,116.999994644165,10|0,0:0|0:0,0:0:0:0:
0,147,204469,1,8,0:0:0:0:
142,372,204635,1,0,0:0:0:0:
142,372,204719,1,0,0:0:0:0:
142,372,204802,2,2,P|190:322|234:288,1,116.999994644165,10|0,0:0|0:0,0:0:0:0:
224,124,205135,1,8,0:0:0:0:
392,220,205302,5,6,0:0:0:0:
392,220,205385,1,0,0:0:0:0:
392,220,205469,2,2,P|453:245|515:275,1,116.999994644165,0|0,0:0|0:0,0:0:0:0:
416,45,205802,1,8,0:0:0:0:
344,299,205969,1,0,0:0:0:0:
344,299,206052,1,0,0:0:0:0:
344,299,206136,2,0,P|286:321|230:297,1,116.999994644165,8|8,0:0|0:3,0:0:0:0:
218,214,206469,1,8,0:3:0:0:
316,48,206635,6,2,L|451:38,1,116.999994644165,6|0,0:0|0:0,0:0:0:0:
192,128,206969,1,0,0:0:0:0:
192,128,207052,1,0,0:0:0:0:
192,128,207135,2,0,L|57:118,1,116.999994644165,8|0,0:0|0:0,0:0:0:0:
75,119,207385,1,0,0:0:0:0:
75,119,207469,5,8,0:3:0:0:
316,48,207691,1,0,0:0:0:0:
395,286,207913,1,0,0:0:0:0:
154,357,208135,5,4,0:2:0:0:
223,307,210802,5,4,0:2:0:0:
140,300,211969,5,0,0:0:0:0:
140,300,212052,1,0,0:0:0:0:
140,300,212135,2,0,B|110:271|110:271|106:220|131:163,1,144,8|0,0:0|0:0,0:0:0:0:
372,84,212635,2,0,B|402:113|402:113|406:164|381:221,1,144,8|8,0:3|0:3,0:0:0:0:
256,280,213135,1,0,0:0:0:0:
256,136,213302,5,0,0:0:0:0:
256,136,213385,1,0,0:0:0:0:
256,136,213469,2,0,L|256:24,1,108,12|0,0:0|2:0,0:0:0:0:
256,4,213802,1,8,0:0:0:0:
176,112,213969,1,8,0:0:0:0:
336,160,214135,1,8,0:0:0:0:
164,240,214302,1,8,0:0:0:0:
348,288,214469,1,8,0:0:0:0:
152,368,214635,1,8,0:0:0:0:
428,320,214802,6,0,P|432:268|404:216,1,90,8|8,0:0|0:0,0:0:0:0:
88,152,215135,2,0,P|84:204|116:260,1,99.0000030212403,8|8,0:0|0:0,0:0:0:0:
396,116,215469,2,0,P|400:64|372:8,1,107.999996704102,8|8,0:0|0:0,0:0:0:0:
172,96,215802,1,12,0:2:0:0:
129,263,215969,5,0,0:0:0:0:
129,263,216052,1,0,0:0:0:0:
129,263,216135,2,0,P|202:248|314:254,1,180,8|0,0:0|0:0,0:0:0:0:
431,198,216635,1,8,0:0:0:0:
416,64,216802,6,0,P|351:114|253:93,1,180,8|8,0:3|0:3,0:0:0:0:
153,14,217302,1,8,0:0:0:0:
80,128,217469,5,8,0:0:0:0:
96,136,217552,1,0,0:0:0:0:
112,144,217635,1,8,0:3:0:0:
128,152,217719,1,8,0:3:0:0:
144,160,217802,1,0,0:0:0:0:
160,168,217885,1,0,0:0:0:0:
176,176,217969,1,8,0:3:0:0:
192,184,218052,1,8,0:3:0:0:
208,192,218135,1,8,0:3:0:0:
224,200,218219,1,0,0:0:0:0:
240,208,218302,1,8,0:3:0:0:
256,216,218385,1,8,0:3:0:0:
272,224,218469,1,8,0:3:0:0:
288,232,218552,1,0,0:0:0:0:
304,240,218635,1,0,0:0:0:0:
320,248,218719,1,0,0:0:0:0:
336,256,218802,6,2,B|400:152,1,103.500001974106,6|8,0:0|0:0,0:0:0:0:
432,288,219135,1,0,0:0:0:0:
424,304,219219,1,0,0:0:0:0:
416,320,219302,1,8,0:0:0:0:
264,288,219469,2,0,B|328:188,1,103.500001974106,0|8,0:0|0:0,0:0:0:0:
360,320,219802,1,0,0:0:0:0:
352,336,219885,1,0,0:0:0:0:
344,352,219969,1,8,0:0:0:0:
192,328,220135,6,2,B|160:220,1,103.500001974106,2|8,0:0|0:0,0:0:0:0:
56,304,220469,1,0,0:0:0:0:
64,288,220552,1,0,0:0:0:0:
72,272,220635,1,8,0:0:0:0:
40,144,220802,1,0,0:0:0:0:
160,84,220969,1,8,0:0:0:0:
160,84,221052,1,0,0:0:0:0:
256,180,221219,1,0,0:0:0:0:
256,180,221302,1,8,0:0:0:0:
192,328,221469,6,2,B|160:220,1,103.500001974106,2|8,0:0|0:0,0:0:0:0:
272,64,221802,1,0,0:0:0:0:
276,84,221885,1,0,0:0:0:0:
280,104,221969,1,8,0:0:0:0:
448,160,222135,2,0,B|424:268,1,103.500001974106,0|8,0:0|0:0,0:0:0:0:
296,284,222469,1,0,0:0:0:0:
300,264,222552,1,0,0:0:0:0:
304,244,222635,1,8,0:0:0:0:
336,372,222802,6,2,B|280:376|280:376|232:352,1,103.500001974106,2|8,0:0|0:0,0:0:0:0:
152,260,223135,1,0,0:0:0:0:
144,240,223219,1,0,0:0:0:0:
136,220,223302,1,8,0:0:0:0:
248,144,223469,1,2,0:0:0:0:
256,164,223552,1,0,0:0:0:0:
264,184,223635,1,8,0:0:0:0:
224,328,223802,1,2,0:0:0:0:
232,304,223885,1,0,0:0:0:0:
240,280,223969,1,8,0:0:0:0:
56,228,224135,5,6,0:0:0:0:
80,60,224302,2,0,L|136:160,1,103.500001974106,8|0,0:0|0:0,0:0:0:0:
140,168,224552,1,0,0:0:0:0:
148,184,224635,1,8,0:0:0:0:
268,200,224802,2,2,L|216:100,1,103.500001974106,2|8,0:0|0:0,0:0:0:0:
296,32,225135,1,2,0:0:0:0:
304,48,225219,1,0,0:0:0:0:
312,64,225303,1,8,0:0:0:0:
432,232,225469,6,2,L|472:132,1,103.500001974106,2|8,0:0|0:0,0:0:0:0:
360,96,225801,1,2,0:0:0:0:
352,112,225885,1,0,0:0:0:0:
344,128,225969,1,8,0:0:0:0:
184,124,226135,1,2,0:0:0:0:
234,233,226302,1,8,0:0:0:0:
234,233,226385,1,0,0:0:0:0:
84,184,226552,1,0,0:0:0:0:
84,184,226635,1,8,0:0:0:0:
136,40,226802,6,2,B|240:56|240:56|280:156,1,207.000003948212,2|0,0:0|0:0,0:0:0:0:
376,344,227302,2,2,B|272:328|272:328|232:228,1,207.000003948212,10|8,0:0|0:0,0:0:0:0:
344,108,227802,1,0,0:0:0:0:
344,108,227885,1,0,0:0:0:0:
344,108,227969,1,8,0:0:0:0:
464,212,228135,5,2,0:2:0:0:
376,344,228302,1,8,0:0:0:0:
264,304,228469,1,0,0:0:0:0:
256,288,228552,1,0,0:0:0:0:
248,272,228635,1,8,0:0:0:0:
128,288,228801,1,2,0:2:0:0:
120,272,228885,1,0,0:0:0:0:
112,256,228969,2,0,B|68:148,1,103.500001974106,8|0,0:0|0:0,0:0:0:0:
200,160,229302,5,8,0:0:0:0:
208,180,229385,1,0,0:0:0:0:
216,200,229469,1,6,0:0:0:0:
32,288,229635,1,8,0:0:0:0:
144,352,229801,1,0,0:0:0:0:
160,352,229885,1,0,0:0:0:0:
176,352,229970,1,8,0:0:0:0:
292,240,230135,2,0,L|180:240,1,103.500001974106,0|8,0:0|0:0,0:0:0:0:
376,304,230469,1,0,0:0:0:0:
392,304,230552,1,0,0:0:0:0:
408,304,230635,1,8,0:0:0:0:
280,328,230802,6,2,B|240:292|240:292|228:240,1,103.500001974106,2|8,0:0|0:0,0:0:0:0:
332,120,231135,1,0,0:0:0:0:
328,136,231219,1,0,0:0:0:0:
324,152,231302,1,8,0:0:0:0:
224,224,231469,1,0,0:0:0:0:
124,128,231635,1,8,0:0:0:0:
124,128,231719,1,0,0:0:0:0:
56,252,231885,1,0,0:0:0:0:
56,252,231969,1,8,0:0:0:0:
164,340,232135,5,2,0:0:0:0:
256,224,232302,1,8,0:0:0:0:
384,316,232469,1,0,0:0:0:0:
384,316,232552,1,0,0:0:0:0:
384,316,232635,1,8,0:0:0:0:
456,180,232802,1,0,0:0:0:0:
324,100,232969,1,8,0:0:0:0:
332,252,233135,1,0,0:0:0:0:
332,252,233219,1,0,0:0:0:0:
332,252,233302,1,8,0:0:0:0:
404,116,233469,5,2,0:0:0:0:
280,32,233635,1,8,0:0:0:0:
204,164,233802,1,0,0:0:0:0:
204,164,233885,1,0,0:0:0:0:
204,164,233969,1,8,0:0:0:0:
344,172,234135,1,2,0:0:0:0:
344,172,234219,1,0,0:0:0:0:
344,172,234302,1,8,0:0:0:0:
220,84,234469,1,2,0:0:0:0:
220,84,234552,1,0,0:0:0:0:
220,84,234635,1,8,0:0:0:0:
300,252,234802,6,2,B|352:264|352:264|424:236,1,103.500001974106,6|8,0:0|0:0,0:0:0:0:
392,64,235135,1,0,0:0:0:0:
384,80,235219,1,0,0:0:0:0:
376,96,235302,1,8,0:0:0:0:
336,272,235469,2,2,B|312:148,1,103.500001974106,2|8,0:0|0:0,0:0:0:0:
256,80,235802,1,2,0:0:0:0:
248,96,235885,1,0,0:0:0:0:
240,112,235969,1,8,0:0:0:0:
232,264,236135,5,2,0:0:0:0:
144,336,236302,2,0,B|104:228,1,103.500001974106,8|2,0:0|0:0,0:0:0:0:
100,220,236552,1,0,0:0:0:0:
92,200,236635,1,8,0:0:0:0:
168,72,236802,1,2,0:0:0:0:
204,228,236969,1,8,0:0:0:0:
204,228,237052,1,0,0:0:0:0:
52,188,237219,1,0,0:0:0:0:
52,188,237302,1,8,0:0:0:0:
224,140,237469,6,2,B|304:140|304:140|340:176|340:176|420:176,1,207.000003948212,14|8,0:0|0:3,0:0:0:0:
496,68,237969,2,2,B|416:68|416:68|380:32|380:32|300:32,1,207.000003948212,2|0,0:0|0:0,0:0:0:0:
184,248,238469,2,2,L|292:248,1,103.500001974106,2|8,0:0|0:3,0:0:0:0:
392,352,238802,5,10,0:0:0:0:
376,352,238885,1,8,0:0:0:0:
360,352,238969,1,8,0:0:0:0:
344,352,239052,1,8,0:0:0:0:
328,352,239135,1,8,0:3:0:0:
312,352,239219,1,8,0:3:0:0:
296,352,239302,1,0,0:0:0:0:
280,352,239385,1,0,0:0:0:0:
264,352,239469,1,8,0:3:0:0:
248,352,239552,1,8,0:3:0:0:
232,352,239635,1,0,0:0:0:0:
216,352,239719,1,0,0:0:0:0:
200,352,239802,1,8,0:3:0:0:
184,352,239885,1,8,0:3:0:0:
168,352,239969,1,0,0:0:0:0:
152,352,240052,1,0,0:0:0:0:
136,352,240135,6,2,B|88:312|88:312|88:232,1,103.500001974106,6|8,0:0|0:0,0:0:0:0:
240,248,240469,2,0,B|288:208|288:208|288:124,1,103.500001974106,0|8,0:0|0:0,0:0:0:0:
144,120,240802,2,0,B|96:80|96:80|96:0,1,103.500001974106,0|8,0:0|0:0,0:0:0:0:
4,96,241135,1,0,0:0:0:0:
56,192,241302,5,10,0:0:0:0:
72,200,241385,1,0,0:0:0:0:
88,208,241469,2,2,B|143:236|143:236|164:324,1,103.500001974106,2|8,0:0|0:0,0:0:0:0:
288,344,241802,2,0,B|296:307|296:307|356:276,1,103.500001974106,0|8,0:0|0:0,0:0:0:0:
368,80,242135,2,0,B|359:116|359:116|296:148,1,103.500001974106,0|8,0:0|0:0,0:0:0:0:
192,48,242469,1,0,0:0:0:0:
216,192,242635,5,10,0:0:0:0:
224,208,242719,1,0,0:0:0:0:
232,224,242802,1,2,0:0:0:0:
112,320,242969,1,8,0:0:0:0:
104,304,243052,1,0,0:0:0:0:
96,288,243135,1,0,0:0:0:0:
112,136,243301,1,8,0:0:0:0:
120,152,243385,1,0,0:0:0:0:
128,168,243469,2,0,B|180:268,1,103.500001974106,0|8,0:0|0:0,0:0:0:0:
72,376,243802,6,0,B|20:276,1,103.500001974106,0|10,0:0|0:0,0:0:0:0:
28,264,244052,1,0,0:0:0:0:
32,244,244135,1,2,0:0:0:0:
200,304,244302,1,8,0:0:0:0:
216,304,244385,1,0,0:0:0:0:
232,304,244469,2,0,B|356:304,1,103.500001974106,0|8,0:0|0:0,0:0:0:0:
392,168,244802,2,2,B|268:168,1,103.500001974106,2|8,0:0|0:0,0:0:0:0:
448,272,245135,1,2,0:0:0:0:
480,128,245302,1,8,0:0:0:0:
360,32,245469,6,2,B|252:64,1,103.500001974106,6|8,0:0|0:0,0:0:0:0:
312,208,245802,1,0,0:0:0:0:
312,208,245885,1,0,0:0:0:0:
312,208,245969,1,8,0:0:0:0:
80,120,246135,2,2,B|188:152,1,103.500001974106,2|8,0:0|0:0,0:0:0:0:
128,296,246469,1,2,0:0:0:0:
128,296,246552,1,0,0:0:0:0:
128,296,246635,1,8,0:0:0:0:
272,344,246802,6,2,B|380:344,1,103.500001974106,2|8,0:0|0:0,0:0:0:0:
408,200,247135,1,2,0:0:0:0:
192,216,247302,1,8,0:0:0:0:
192,216,247385,1,0,0:0:0:0:
192,216,247469,2,2,B|68:216,1,103.500001974106,2|8,0:0|0:0,0:0:0:0:
264,264,247802,2,2,B|380:264,1,103.500001974106,2|8,0:0|0:0,0:0:0:0:
256,136,248135,5,2,0:0:0:0:
128,296,248302,1,8,0:0:0:0:
128,296,248385,1,0,0:0:0:0:
128,296,248469,2,0,B|156:336|156:336|240:336,1,103.500001974106,0|10,0:0|0:0,0:0:0:0:
400,240,248802,2,0,B|372:200|372:200|288:200,1,103.500001974106,0|8,0:0|0:0,0:0:0:0:
416,344,249135,1,2,0:0:0:0:
488,192,249302,1,8,0:0:0:0:
400,48,249469,5,2,0:2:0:0:
232,80,249635,1,8,0:0:0:0:
232,80,249719,1,0,0:0:0:0:
232,80,249802,2,0,B|248:188,1,103.500001974106,2|8,0:2|0:2,0:0:0:0:
140,344,250135,2,2,B|124:232,1,103.500001974106,2|0,0:0|0:0,0:0:0:0:
104,64,250469,1,0,0:0:0:0:
20,236,250635,1,0,0:0:0:0:
216,280,250802,6,2,B|332:280,1,103.500001974106,6|8,0:0|0:0,0:0:0:0:
440,168,251135,1,0,0:0:0:0:
424,168,251219,1,0,0:0:0:0:
408,168,251302,1,8,0:0:0:0:
272,44,251469,2,0,L|380:44,1,103.500001974106,0|8,0:0|0:0,0:0:0:0:
164,80,251802,1,0,0:0:0:0:
192,184,251969,5,10,0:0:0:0:
208,200,252052,1,0,0:0:0:0:
224,216,252135,2,2,B|312:300,1,103.500001974106,2|8,0:0|0:0,0:0:0:0:
152,344,252469,1,0,0:0:0:0:
48,240,252635,2,2,P|24:136|104:48,1,207.000003948212,10|8,0:0|0:0,0:0:0:0:
232,96,253135,1,0,0:0:0:0:
368,40,253302,5,10,0:0:0:0:
368,40,253385,1,0,0:0:0:0:
368,40,253469,1,2,0:0:0:0:
424,176,253635,1,8,0:0:0:0:
288,248,253801,1,0,0:0:0:0:
312,104,253968,1,8,0:0:0:0:
376,240,254135,1,0,0:0:0:0:
256,336,254301,1,8,0:0:0:0:
124,232,254469,6,0,B|140:128,1,103.500001974106,0|10,0:0|0:0,0:0:0:0:
144,108,254719,1,0,0:0:0:0:
148,88,254802,1,2,0:0:0:0:
296,140,254969,1,8,0:0:0:0:
203,245,255135,1,0,0:0:0:0:
44,220,255302,1,8,0:0:0:0:
100,100,255469,2,2,B|172:116|172:116|204:248,1,207.000003948212
228,344,255969,1,8,0:0:0:0:
392,368,256135,6,2,B|320:352|320:352|288:220,1,207.000003948212,6|0,0:0|0:0,0:0:0:0:
360,72,256635,1,8,0:0:0:0:
365,91,256719,1,0,0:0:0:0:
370,110,256802,1,2,0:0:0:0:
264,240,256969,1,8,0:0:0:0:
259,221,257052,1,0,0:0:0:0:
254,202,257135,1,2,0:0:0:0:
416,240,257302,1,8,0:0:0:0:
288,352,257469,6,2,P|184:348|104:280,1,207.000003948212
168,72,257969,1,8,0:0:0:0:
163,91,258052,1,0,0:0:0:0:
158,110,258135,1,2,0:0:0:0:
264,240,258302,1,8,0:0:0:0:
269,221,258385,1,0,0:0:0:0:
274,202,258469,1,0,0:0:0:0:
104,216,258635,1,8,0:0:0:0:
208,352,258802,6,2,B|424:336,1,207.000003948212,6|0,0:0|0:0,0:0:0:0:
464,192,259302,2,2,L|348:200,1,103.500001974106,10|0,0:0|0:0,0:0:0:0:
152,80,259635,1,8,0:0:0:0:
292,16,259802,2,2,B|324:72|292:148,1,103.500001974106,2|8,0:0|0:0,0:0:0:0:
260,224,260135,5,10,0:0:0:0:
260,224,260219,1,0,0:0:0:0:
260,224,260302,1,0,0:0:0:0:
332,320,260469,5,8,0:3:0:0:
332,320,260552,1,8,0:3:0:0:
332,320,260635,1,0,0:0:0:0:
376,216,260802,1,8,0:3:0:0:
220,328,260969,1,0,0:0:0:0:
216,344,261052,1,0,0:0:0:0:
212,360,261135,1,12,0:2:0:0:
144,48,261469,5,14,0:0:0:0:
88,152,261635,1,0,0:0:0:0:
80,136,261719,1,0,0:0:0:0:
72,120,261802,1,8,0:0:0:0:
176,184,261969,1,0,0:0:0:0:
168,168,262052,1,0,0:0:0:0:
160,152,262135,1,8,0:0:0:0:
264,216,262302,1,0,0:0:0:0:
256,200,262385,1,0,0:0:0:0:
248,184,262469,1,8,0:0:0:0:
352,248,262635,5,2,0:0:0:0:
344,232,262719,1,0,0:0:0:0:
336,216,262802,1,10,0:0:0:0:
440,280,262969,1,0,0:0:0:0:
432,264,263052,1,0,0:0:0:0:
424,248,263135,1,8,0:0:0:0:
344,336,263302,1,0,0:0:0:0:
232,304,263469,2,0,B|192:204,1,103.500001974106,8|0,0:0|0:0,0:0:0:0:
312,160,263802,6,0,L|351:63,1,103.500001974106,8|2,0:0|0:0,0:0:0:0:
352,64,264052,1,0,0:0:0:0:
352,64,264135,1,10,0:0:0:0:
408,168,264302,1,0,0:0:0:0:
416,152,264385,1,0,0:0:0:0:
424,136,264469,1,8,0:0:0:0:
320,200,264635,1,0,0:0:0:0:
328,184,264719,1,0,0:0:0:0:
336,168,264802,1,8,0:0:0:0:
232,232,264969,1,0,0:0:0:0:
240,216,265052,1,0,0:0:0:0:
248,200,265135,1,8,0:0:0:0:
144,264,265302,5,2,0:0:0:0:
152,248,265385,1,0,0:0:0:0:
160,232,265469,1,10,0:0:0:0:
56,296,265635,1,0,0:0:0:0:
64,280,265719,1,0,0:0:0:0:
72,264,265802,1,8,0:0:0:0:
152,352,265969,1,0,0:0:0:0:
264,320,266135,2,0,B|288:236,2,69.0000013160706,10|8|8,0:0|0:0|0:0,0:0:0:0:
218,159,266469,2,0,B|244:72,2,69.0000013160706,8|8|8,0:3|0:3|0:3,0:0:0:0:
108,196,266802,5,6,0:0:0:0:
436,256,268135,5,6,0:0:0:0:
92,328,269469,5,6,0:0:0:0:
256,192,269552,12,0,271302,0:0:0:0:
256,192,271469,5,8,0:0:0:0:
256,192,271635,1,8,0:0:0:0:
43,156,272135,6,0,B|34:126|34:126|49:66,1,90,4|2,0:0|0:0,0:0:0:0:
256,192,272468,1,10,0:0:0:0:
25,251,272635,1,0,0:0:0:0:
237,86,272801,1,0,0:0:0:0:
121,219,272968,6,2,L|113:322,1,90,2|8,0:0|0:0,0:0:0:0:
106,231,273301,1,2,0:0:0:0:
353,243,273468,6,0,B|362:273|362:273|347:333,1,90,0|2,0:0|0:0,0:0:0:0:
165,128,273801,1,10,0:0:0:0:
331,71,273968,1,0,0:0:0:0:
261,279,274135,1,0,0:0:0:0:
428,127,274302,6,2,L|436:24,1,90,2|8,0:0|0:0,0:0:0:0:
420,113,274634,1,2,0:0:0:0:
159,243,274802,6,0,B|150:273|150:273|165:333,1,90,0|2,0:0|0:0,0:0:0:0:
434,246,275135,1,10,0:0:0:0:
244,188,275301,1,0,0:0:0:0:
446,233,275468,1,0,0:0:0:0:
261,279,275635,1,2,0:0:0:0:
386,345,275801,1,8,0:0:0:0:
352,108,275968,1,2,0:0:0:0:
159,244,276135,6,0,B|150:274|150:274|165:334,1,90,0|2,0:0|0:0,0:0:0:0:
268,169,276468,1,10,0:0:0:0:
117,90,276635,1,0,0:0:0:0:
166,266,276801,1,0,0:0:0:0:
361,213,276969,6,2,B|373:187|373:187|368:121,1,90,2|8,0:0|0:0,0:0:0:0:
141,21,277301,1,2,0:0:0:0:
206,184,277468,5,4,0:0:0:0:
273,22,277635,1,2,0:0:0:0:
370,179,277802,2,2,B|377:206|377:206|373:231|361:265,1,90,10|0,0:0|0:0,0:0:0:0:
184,108,278135,1,0,0:0:0:0:
32,264,278302,6,2,B|25:291|25:291|29:316|41:350,1,90,2|8,0:0|0:0,0:0:0:0:
41,276,278635,1,2,0:0:0:0:
243,222,278801,5,0,0:0:0:0:
88,106,278968,1,2,0:0:0:0:
191,308,279135,2,2,B|221:294|221:294|237:272|241:240,1,90,10|0,0:0|0:0,0:0:0:0:
272,44,279468,1,0,0:0:0:0:
449,156,279635,6,2,B|464:192|464:192|452:251,1,90,2|8,0:0|0:0,0:0:0:0:
462,174,279968,1,2,0:0:0:0:
272,44,280135,5,0,0:0:0:0:
111,152,280301,1,2,0:0:0:0:
328,157,280468,1,10,0:0:0:0:
167,65,280635,1,0,0:0:0:0:
107,250,280801,1,0,0:0:0:0:
318,242,280968,6,2,P|356:268|411:319,1,90,2|8,0:0|0:0,0:0:0:0:
209,202,281301,1,0,0:0:0:0:
211,184,281385,1,0,0:0:0:0:
213,166,281469,6,0,P|204:121|183:75,1,90,12|0,0:2|0:0,0:0:0:0:
292,112,281719,1,0,0:0:0:0:
291,87,281802,2,0,P|302:42|322:-1,1,90,12|0,0:2|0:0,0:0:0:0:
375,203,282135,1,12,0:2:0:0:
350,230,282219,1,0,0:0:0:0:
315,240,282302,1,0,0:0:0:0:
279,241,282385,1,0,0:0:0:0:
245,226,282469,2,0,L|191:218,3,45,8|0|0|0,0:3|0:0|0:0|0:0,0:0:0:0:
164,239,282802,6,2,B|147:286|147:286|162:346,1,99.0000030212403,14|0,0:0|0:0,0:0:0:0:
164,350,283052,1,0,0:0:0:0:
169,367,283135,1,8,0:0:0:0:
416,260,283302,2,2,P|421:189|383:99,1,148.50000453186,2|0,0:0|2:0,0:0:0:0:
317,70,283635,1,2,0:0:0:0:
317,70,283719,1,0,0:0:0:0:
317,70,283802,2,2,P|268:61|206:76,1,99.0000030212403,8|2,0:0|0:0,0:0:0:0:
92,344,284135,6,2,B|134:327|134:327|204:366|296:348,1,198.000006042481,10|8,0:0|0:0,0:0:0:0:
428,240,284635,1,2,0:0:0:0:
424,220,284719,1,0,0:0:0:0:
420,200,284802,1,10,0:0:0:0:
240,128,284969,1,0,0:0:0:0:
244,148,285053,1,0,0:0:0:0:
248,168,285136,1,10,0:0:0:0:
392,36,285302,1,2,0:0:0:0:
128,36,285469,6,2,B|116:84|116:84|132:136,1,99.0000030212403,10|0,0:0|0:0,0:0:0:0:
140,148,285719,1,0,0:0:0:0:
148,164,285802,1,8,0:0:0:0:
432,24,285969,2,2,P|352:8|280:24,1,148.50000453186,2|0,0:0|2:0,0:0:0:0:
224,88,286302,1,2,0:0:0:0:
224,88,286385,1,0,0:0:0:0:
224,88,286469,2,2,L|232:188,1,99.0000030212403,10|2,0:0|0:0,0:0:0:0:
68,312,286802,5,10,0:0:0:0:
40,288,286885,1,0,0:0:0:0:
28,256,286969,1,2,0:0:0:0:
32,220,287052,1,0,0:0:0:0:
52,192,287135,1,10,0:0:0:0:
221,368,287302,2,2,P|281:340|425:340,1,198.000006042481
433,344,287719,1,0,0:0:0:0:
453,356,287802,1,8,0:0:0:0:
507,184,287969,1,2,0:0:0:0:
352,34,288135,6,2,P|356:90|368:146,1,99.0000030212403,14|0,0:0|0:0,0:0:0:0:
372,154,288385,1,0,0:0:0:0:
380,174,288469,1,8,0:0:0:0:
144,344,288635,2,2,B|168:320|168:320|176:272|148:204,1,148.50000453186,2|0,0:0|2:0,0:0:0:0:
68,156,288969,1,2,0:0:0:0:
68,156,289052,1,0,0:0:0:0:
68,156,289135,2,2,B|52:204|52:204|64:256,1,99.0000030212403,8|2,0:0|0:0,0:0:0:0:
432,304,289469,6,2,B|460:208|460:208|436:104,1,198.000006042481,10|8,0:0|0:0,0:0:0:0:
224,24,289969,1,2,0:0:0:0:
220,44,290052,1,0,0:0:0:0:
216,64,290135,1,10,0:0:0:0:
328,200,290302,1,0,0:0:0:0:
324,180,290385,1,0,0:0:0:0:
320,160,290469,1,10,0:0:0:0:
172,272,290635,1,2,0:0:0:0:
340,344,290802,5,10,0:0:0:0:
360,340,290885,1,0,0:0:0:0:
380,336,290969,1,0,0:0:0:0:
400,332,291052,1,0,0:0:0:0:
420,328,291135,2,0,L|432:268,3,49.5000015106202,8|0|0|0,0:0|0:0|0:0|0:0,0:0:0:0:
436,240,291469,1,8,0:0:0:0:
416,236,291552,1,0,0:0:0:0:
396,232,291635,1,0,0:0:0:0:
376,228,291719,1,0,0:0:0:0:
356,224,291802,2,0,L|344:160,3,49.5000015106202,8|0|0|0,0:0|0:0|0:0|0:0,0:0:0:0:
340,136,292135,5,10,0:0:0:0:
324,124,292219,1,0,0:0:0:0:
304,120,292302,1,0,0:0:0:0:
284,120,292385,1,0,0:0:0:0:
264,128,292469,1,8,0:0:0:0:
248,140,292552,1,0,0:0:0:0:
236,156,292635,1,0,0:0:0:0:
228,176,292719,1,0,0:0:0:0:
228,196,292802,2,0,L|236:252,3,49.5000015106202,8|8|8|8,0:0|0:0|0:0|0:0,0:0:0:0:
312,280,293135,2,0,L|320:344,3,49.5000015106202,8|0|8|8,0:0|0:0|0:3|0:3,0:0:0:0:
236,372,293469,6,2,B|184:380|184:380|132:360,1,103.500001974106,14|0,0:0|0:0,0:0:0:0:
116,352,293719,1,0,0:0:0:0:
96,344,293802,1,0,0:0:0:0:
272,184,293969,2,2,B|324:176|324:176|376:196,1,103.500001974106,10|0,0:0|0:0,0:0:0:0:
392,204,294219,1,0,0:0:0:0:
412,212,294302,1,0,0:0:0:0:
168,256,294469,6,2,B|148:232|148:232|156:144,1,103.500001974106,10|0,0:0|0:0,0:0:0:0:
157,129,294719,1,0,0:0:0:0:
161,98,294802,1,0,0:0:0:0:
351,205,294969,2,2,B|371:229|371:229|363:317,1,103.500001974106,10|0,0:0|0:0,0:0:0:0:
362,332,295219,1,0,0:0:0:0:
359,363,295302,1,0,0:0:0:0:
65,253,295469,6,2,P|121:249|173:257,1,103.500001974106,10|0,0:0|0:0,0:0:0:0:
436,108,295802,2,0,P|384:112|332:128,1,103.500001974106,8|8,0:0|0:3,0:0:0:0:
64,44,296135,6,2,P|116:68|160:96,1,103.500001974106,10|0,0:0|0:0,0:0:0:0:
177,115,296385,1,0,0:0:0:0:
177,115,296469,1,0,0:0:0:0:
456,84,296635,6,2,P|404:108|356:140,1,112.5,10|0,0:0|0:0,0:0:0:0:
335,164,296885,1,0,0:0:0:0:
335,164,296969,1,0,0:0:0:0:
24,200,297135,6,2,P|72:220|132:260,1,121.500000463486,10|0,0:0|0:0,0:0:0:0:
155,285,297385,1,0,0:0:0:0:
155,285,297469,1,0,0:0:0:0:
496,276,297635,6,2,P|468:284|384:340,1,130.500003982544,10|0,0:0|0:0,0:0:0:0:
363,373,297885,1,0,0:0:0:0:
363,373,297969,1,0,0:0:0:0:
256,244,298135,5,10,0:0:0:0:
276,220,298219,1,8,0:0:0:0:
284,188,298302,1,8,0:0:0:0:
276,156,298385,1,8,0:0:0:0:
256,128,298469,1,8,0:0:0:0:
236,104,298552,1,8,0:0:0:0:
228,72,298635,1,8,0:0:0:0:
236,40,298719,1,8,0:0:0:0:
256,16,298802,1,0,0:0:0:0:
256,192,298885,12,0,300802,0:0:0:0:
