osu file format v14

[General]
AudioFilename: audio.mp3
AudioLeadIn: 0
PreviewTime: 108094
Countdown: 0
SampleSet: Normal
StackLeniency: 0.4
Mode: 0
LetterboxInBreaks: 0
WidescreenStoryboard: 0

[Editor]
Bookmarks: 300802
DistanceSpacing: 1
BeatDivisor: 4
GridSize: 4
TimelineZoom: 1.2

[Metadata]
Title:Pure Furies ~ Vengeance is Mine
TitleUnicode:ピュアヒューリーズ ~ Vengeance is Mine
Artist:Demetori
ArtistUnicode:Demetori
Creator:jonathanlfj
Version:Extra Stage
Source:東方紺珠伝 ~ Legacy of Lunatic Kingdom.
Tags:happy30 Touhou Kanjuden 東方Project Determinism&DestruKction 純狐 Junko ピュアヒューリーズ ~ 心の在処 Pure Furies ~ Whereabouts of the Heart Stage 6 ZUN c92 comiket 92
BeatmapID:1672204
BeatmapSetID:796330

[Difficulty]
HPDrainRate:6.5
CircleSize:4
OverallDifficulty:9
ApproachRate:9.3
SliderMultiplier:1.8
SliderTickRate:1

[Events]
//Background and Video events
0,0,"junko.jpg",0,0
//Break Periods
//Storyboard Layer 0 (Background)
//Storyboard Layer 1 (Fail)
//Storyboard Layer 2 (Pass)
//Storyboard Layer 3 (Foreground)
//Storyboard Sound Samples

[TimingPoints]
136,333.333333333333,4,2,1,40,1,0
136,-125,4,2,1,40,0,0
10802,-105.263157894737,4,1,1,50,0,0
21469,-90.9090909090909,4,1,1,60,0,0
32135,-86.9565217391304,4,1,1,65,0,0
42802,-100,4,1,1,55,0,0
53469,-105.263157894737,4,1,1,50,0,0
64135,-100,4,1,1,55,0,0
68969,-83.3333333333333,4,1,1,55,0,0
69302,-71.4285714285714,4,1,1,55,0,0
69469,-90.9090909090909,4,1,1,60,0,0
74302,-166.666666666667,4,1,1,60,0,0
74802,-125,4,1,1,60,0,0
79385,-125,4,1,1,5,0,0
79469,-100,4,1,1,55,0,0
80135,-125,4,1,1,55,0,0
84135,-111.111111111111,4,1,1,55,0,0
85469,-100,4,1,1,60,0,0
98135,-100,4,1,1,50,0,0
98469,-100,4,1,1,40,0,0
98802,-111.111111111111,4,1,1,50,0,0
106802,-100,4,1,1,50,0,0
107135,-80,4,1,1,55,0,0
107469,-66.6666666666667,4,1,1,60,0,0
107802,-57.1428571428571,4,1,1,65,0,0
108135,-166.666666666667,4,2,1,30,0,0
108302,-166.666666666667,4,2,1,5,0,0
108358,-125,4,2,1,35,0,0
108524,-125,4,2,1,5,0,0
108580,-100,4,2,1,40,0,0
108747,-100,4,2,1,5,0,0
108802,-83.3333333333333,4,2,1,45,0,0
108969,-83.3333333333333,4,2,1,5,0,0
109024,-71.4285714285714,4,2,1,50,0,0
109191,-71.4285714285714,4,2,1,5,0,0
109247,-62.5,4,2,1,55,0,0
109413,-62.5,4,2,1,5,0,0
109469,-83.3333333333333,4,1,1,70,0,1
114135,-76.9230769230769,4,1,1,70,0,1
114469,-71.4285714285714,4,1,1,70,0,1
114802,-66.6666666666667,4,1,1,70,0,1
117469,-83.3333333333333,4,1,1,70,0,1
124802,-76.9230769230769,4,1,1,70,0,1
125135,-71.4285714285714,4,1,1,70,0,1
125469,-66.6666666666667,4,1,1,70,0,1
130719,-66.6666666666667,4,1,1,70,0,0
130802,-76.9230769230769,4,1,1,70,0,1
152135,-100,4,1,1,50,0,0
160469,-100,4,1,1,55,0,0
160802,-100,4,1,1,60,0,0
161135,-100,4,1,1,65,0,0
161469,-100,4,1,1,60,0,0
162635,-125,4,1,1,50,0,0
173302,-100,4,1,1,50,0,0
175969,-90.9090909090909,4,1,1,55,0,0
178635,-83.3333333333333,4,1,1,60,0,0
181302,-76.9230769230769,4,1,1,65,0,0
183969,-90.9090909090909,4,1,1,60,0,0
192635,-86.9565217391304,4,1,1,65,0,0
193302,-83.3333333333333,4,1,1,70,0,0
194635,-90.9090909090909,4,1,1,60,0,0
206635,-100,4,1,1,60,0,0
208135,-125,4,1,1,50,0,0
213302,-100,4,1,1,50,0,0
213719,-100,4,1,1,5,0,0
213802,-100,4,1,1,40,0,0
214135,-100,4,1,1,45,0,0
214469,-100,4,1,1,50,0,0
214802,-100,4,1,1,55,0,0
215135,-100,4,1,1,60,0,0
215469,-100,4,1,1,65,0,0
215802,-80,4,1,1,70,0,0
218802,-83.3333333333333,4,1,1,70,0,1
240052,-83.3333333333333,4,1,1,70,0,0
240135,-76.9230769230769,4,1,1,70,0,1
245135,-71.4285714285714,4,1,1,70,0,1
245469,-66.6666666666667,4,1,1,70,0,1
249469,-90.9090909090909,4,1,1,70,0,1
249635,-76.9230769230769,4,1,1,70,0,1
249802,-66.6666666666667,4,1,1,70,0,1
249969,-58.8235294117647,4,1,1,70,0,1
250135,-76.9230769230769,4,1,1,70,0,1
255802,-71.4285714285714,4,1,1,70,0,1
256135,-66.6666666666667,4,1,1,70,0,1
258802,-76.9230769230769,4,1,1,70,0,1
261385,-142.857142857143,4,1,1,70,0,0
261469,-80,4,1,1,70,0,1
262802,-76.9230769230769,4,1,1,70,0,1
264135,-74.0740740740741,4,1,1,70,0,1
265469,-71.4285714285714,4,1,1,70,0,1
266802,-125,4,1,1,50,0,0
269469,-125,4,1,1,50,0,0
271219,-125,4,1,1,5,0,0
271302,-83.3333333333333,4,1,1,60,0,0
282802,-76.9230769230769,4,1,1,70,0,1
292802,-74.0740740740741,4,1,1,70,0,1
293469,-71.4285714285714,4,1,1,80,0,1
296135,-66.6666666666667,4,1,1,80,0,1
296635,-62.5,4,1,1,80,0,1
297135,-58.8235294117647,4,1,1,80,0,1
297635,-55.5555555555556,4,1,1,80,0,1
298135,-52.6315789473684,4,1,1,80,0,1
298802,-52.6315789473684,4,1,1,80,0,0
298885,-83.3333333333333,4,2,1,10,0,0
300802,-83.3333333333333,4,2,1,5,0,0

[Colours]
Combo1 : 223,2,102
Combo2 : 213,0,0
Combo3 : 244,73,0
Combo4 : 242,188,0

[HitObjects]
67,226,136,22,0,P|135:218|179:154,1,144,2|0,0:0|0:0,0:0:0:0:
263,30,635,2,0,L|283:174,1,144,2|0,0:0|0:0,0:0:0:0:
227,334,1135,2,0,L|243:246,1,72,2|0,0:0|0:0,0:0:0:0:
459,206,1469,6,0,P|419:254|331:246,1,144,2|0,0:0|0:0,0:0:0:0:
140,183,1969,2,0,P|191:170|291:174,1,144,2|0,0:0|0:0,0:0:0:0:
417,101,2469,2,0,P|354:92|325:80,1,72,2|0,0:0|0:0,0:0:0:0:
239,263,2802,6,0,P|280:269|320:262,1,72,2|0,0:0|0:0,0:0:0:0:
403,219,3135,1,0,0:0:0:0:
251,358,3302,2,0,P|183:346|93:377,1,144,2|0,0:0|0:0,0:0:0:0:
85,200,3802,2,0,P|116:248|121:281,1,72,2|0,0:0|0:0,0:0:0:0:
255,152,4135,6,0,P|259:85|320:29,1,144,2|0,0:0|0:0,0:0:0:0:
336,215,4635,2,0,P|305:239|186:231,1,144,2|0,0:0|0:0,0:0:0:0:
79,147,5135,2,0,L|173:153,1,72,2|0,0:0|0:0,0:0:0:0:
287,339,5469,6,0,L|135:354,1,144,2|0,0:0|0:0,0:0:0:0:
339,249,5969,2,0,B|351:209|351:209|331:102,1,144,2|0,0:0|0:0,0:0:0:0:
167,59,6469,2,0,B|202:68|202:68|252:61,1,72,2|0,0:0|0:0,0:0:0:0:
449,13,6802,6,0,B|437:53|437:53|457:160,1,144,2|0,0:0|0:0,0:0:0:0:
388,309,7302,2,0,L|396:225,1,72,2|0,0:0|0:0,0:0:0:0:
486,351,7635,1,2,0:0:0:0:
290,260,7802,2,0,L|298:176,1,72,2|0,0:0|0:0,0:0:0:0:
128,315,8135,6,0,B|165:307|165:307|219:316,1,72,2|0,0:0|0:0,0:0:0:0:
294,366,8469,1,0,0:0:0:0:
161,210,8635,2,0,L|152:42,1,144,2|0,0:0|0:0,0:0:0:0:
334,216,9135,2,0,B|300:231|300:231|256:229,1,72,2|0,0:0|0:0,0:0:0:0:
55,197,9469,5,2,0:0:0:0:
55,197,9969,1,2,0:0:0:0:
281,126,10135,1,0,0:0:0:0:
55,197,10302,1,2,0:0:0:0:
214,235,10469,5,2,0:0:0:0:
136,92,10635,1,0,0:0:0:0:
120,279,10802,6,0,L|113:368,1,85.4999977169037,4|0,0:0|0:0,0:0:0:0:
55,197,11135,1,0,0:0:0:0:
213,340,11302,2,0,P|275:350|352:281,1,170.999995433807,10|0,0:2|0:0,0:0:0:0:
194,138,11802,2,0,L|201:233,1,85.4999977169037,10|0,0:2|0:0,0:0:0:0:
298,89,12135,6,0,L|308:-6,1,85.4999977169037
381,157,12469,1,0,0:0:0:0:
206,36,12635,2,0,P|144:41|78:124,1,170.999995433807,10|0,0:2|0:0,0:0:0:0:
240,235,13135,2,0,P|292:228|329:235,1,85.4999977169037,10|0,0:2|0:0,0:0:0:0:
410,299,13469,5,0,0:0:0:0:
215,255,13635,1,0,0:0:0:0:
355,139,13802,1,0,0:0:0:0:
134,188,13969,2,0,P|110:249|162:345,1,170.999995433807,10|0,0:2|0:0,0:0:0:0:
380,329,14469,2,0,L|284:322,1,85.4999977169037,10|0,0:2|0:0,0:0:0:0:
440,246,14802,5,0,0:0:0:0:
253,184,14969,1,0,0:0:0:0:
397,110,15135,1,0,0:0:0:0:
341,300,15302,5,10,0:2:0:0:
276,57,15469,1,0,0:0:0:0:
501,166,15635,1,2,0:2:0:0:
440,246,15802,1,10,0:2:0:0:
411,214,15885,1,8,0:0:0:0:
398,174,15968,1,8,0:0:0:0:
404,132,16052,1,8,0:0:0:0:
426,96,16135,6,0,P|386:103|315:102,1,85.4999977169037,4|0,0:0|0:0,0:0:0:0:
236,76,16469,1,0,0:0:0:0:
66,163,16635,2,0,P|158:150|228:183,1,170.999995433807,10|0,0:2|0:0,0:0:0:0:
288,360,17135,2,0,P|286:302|295:260,1,85.4999977169037,10|0,0:2|0:0,0:0:0:0:
414,135,17469,6,0,P|428:190|427:233,1,85.4999977169037
397,324,17802,1,0,0:0:0:0:
159,222,17969,2,0,B|177:204|187:189|187:189|252:170|328:202,1,170.999995433807,10|0,0:2|0:0,0:0:0:0:
92,134,18469,2,0,P|82:97|85:42,1,85.4999977169037,10|0,0:2|0:0,0:0:0:0:
195,83,18802,5,0,0:0:0:0:
0,193,18969,1,0,0:0:0:0:
230,257,19135,1,0,0:0:0:0:
9,362,19302,2,0,P|92:381|177:345,1,170.999995433807,10|0,0:2|0:0,0:0:0:0:
365,355,19802,2,0,P|302:360|258:351,1,85.4999977169037,10|0,0:2|0:0,0:0:0:0:
168,111,20135,5,0,0:0:0:0:
321,258,20302,1,0,0:0:0:0:
106,252,20469,1,2,0:2:0:0:
376,127,20635,1,10,0:2:0:0:
376,127,21469,6,2,L|488:132,1,99.0000030212403,4|2,0:0|0:0,0:0:0:0:
290,205,21802,2,0,P|247:170|154:188,1,148.50000453186,10|0,0:0|0:0,0:0:0:0:
106,252,22135,1,0,0:0:0:0:
131,86,22302,1,10,0:0:0:0:
216,244,22469,1,0,0:0:0:0:
134,67,22635,1,10,0:0:0:0:
331,107,22802,6,2,P|280:119|222:116,1,99.0000030212403,0|2,0:0|0:0,0:0:0:0:
28,209,23135,2,0,P|88:168|159:182,1,148.50000453186,10|0,0:0|0:0,0:0:0:0:
216,244,23469,1,0,0:0:0:0:
56,321,23636,1,10,0:0:0:0:
228,260,23803,1,0,0:0:0:0:
78,129,23969,1,10,0:0:0:0:
308,223,24135,6,2,P|310:269|294:321,1,99.0000030212403,0|2,0:0|0:0,0:0:0:0:
80,279,24469,2,0,L|247:257,1,148.50000453186,10|0,0:0|0:0,0:0:0:0:
295,318,24802,1,0,0:0:0:0:
193,146,24969,1,10,0:0:0:0:
321,317,25135,1,0,0:0:0:0:
123,376,25302,1,10,0:0:0:0:
308,223,25469,6,2,L|416:230,1,99.0000030212403,0|2,0:0|0:0,0:0:0:0:
251,51,25802,2,0,P|232:112|241:155,1,99.0000030212403,10|0,0:0|0:0,0:0:0:0:
321,317,26135,2,0,L|368:319,2,33.0000010070801
290,316,26302,1,8,0:0:0:0:
158,249,26469,2,0,L|111:251,2,33.0000010070801
188,248,26635,1,8,0:0:0:0:
349,210,26802,6,2,P|353:157|338:106,1,99.0000030212403,0|2,0:0|0:0,0:0:0:0:
113,91,27135,2,0,P|203:109|220:100,1,99.0000030212403,10|0,0:0|0:0,0:0:0:0:
276,59,27385,1,0,0:0:0:0:
276,59,27469,1,0,0:0:0:0:
203,208,27635,1,10,0:0:0:0:
172,27,27802,1,0,0:0:0:0:
207,232,27969,1,10,0:0:0:0:
379,141,28135,6,2,L|279:151,1,99.0000030212403,0|2,0:0|0:0,0:0:0:0:
109,232,28469,2,0,B|155:222|155:222|210:232,1,99.0000030212403,10|0,0:0|0:0,0:0:0:0:
292,247,28719,1,0,0:0:0:0:
292,247,28802,1,0,0:0:0:0:
102,328,28969,1,10,0:0:0:0:
292,372,29135,1,0,0:0:0:0:
76,322,29302,1,10,0:0:0:0:
200,135,29469,6,2,P|213:196|204:234,1,99.0000030212403,0|2,0:0|0:0,0:0:0:0:
387,319,29802,2,0,P|372:269|376:211,1,99.0000030212403,10|0,0:0|0:0,0:0:0:0:
418,148,30052,1,0,0:0:0:0:
418,148,30135,1,0,0:0:0:0:
281,284,30302,1,10,0:0:0:0:
480,259,30469,1,0,0:0:0:0:
271,263,30635,1,10,0:0:0:0:
405,350,30802,5,0,0:0:0:0:
172,336,30969,1,12,0:2:0:0:
504,356,31135,2,0,L|405:350,1,99.0000030212403,12|0,0:2|0:0,0:0:0:0:
71,330,31469,1,8,0:0:0:0:
88,284,31552,1,8,0:0:0:0:
124,250,31635,1,8,0:0:0:0:
171,238,31718,1,8,0:0:0:0:
219,248,31802,1,8,0:0:0:0:
257,279,31885,1,8,0:0:0:0:
304,294,31969,1,8,0:0:0:0:
353,290,32052,1,8,0:0:0:0:
396,262,32135,6,0,P|420:214|423:155,1,103.500001974106,4|0,0:0|0:0,0:0:0:0:
319,8,32469,1,8,0:0:0:0:
244,96,32635,2,0,L|255:207,1,103.500001974106
164,355,32969,1,0,0:0:0:0:
72,275,33135,2,0,L|82:172,1,103.500001974106,8|0,0:0|0:0,0:0:0:0:
86,137,33385,1,0,0:0:0:0:
86,137,33469,6,0,B|135:121|135:121|188:137,1,103.500001974106,2|0,0:0|0:0,0:0:0:0:
351,274,33802,1,8,0:0:0:0:
151,240,33969,2,2,L|262:227,1,103.500001974106,2|0,0:0|0:0,0:0:0:0:
488,183,34302,2,2,L|382:169,1,103.500001974106,2|10,0:0|0:0,0:0:0:0:
187,44,34635,1,0,0:0:0:0:
187,44,34719,1,0,0:0:0:0:
187,44,34802,6,0,P|246:26|306:36,1,103.500001974106
153,198,35135,1,8,0:0:0:0:
354,149,35302,2,0,P|278:136|241:147,1,103.500001974106
409,260,35635,1,0,0:0:0:0:
193,298,35802,2,0,L|311:277,1,103.500001974106,8|0,0:0|0:0,0:0:0:0:
385,263,36052,1,0,0:0:0:0:
409,260,36135,6,0,P|431:311|423:361,1,103.500001974106,2|0,0:0|0:0,0:0:0:0:
330,184,36469,1,8,0:0:0:0:
226,224,36635,2,2,P|204:275|212:325,1,103.500001974106
330,184,36969,1,0,0:0:0:0:
176,128,37135,2,2,P|95:152|23:147,1,155.250002961159,10|0,0:0|0:0,0:0:0:0:
0,70,37469,6,0,P|60:55|113:57,1,103.500001974106,4|0,0:0|0:0,0:0:0:0:
255,158,37802,1,8,0:0:0:0:
431,76,37969,2,0,P|362:78|320:92,1,103.500001974106
217,254,38302,1,0,0:0:0:0:
26,198,38469,2,0,P|89:190|142:195,1,103.500001974106,8|0,0:0|0:0,0:0:0:0:
179,129,38719,1,0,0:0:0:0:
179,129,38802,6,2,L|167:23,1,103.500001974106,2|0,0:0|0:0,0:0:0:0:
311,189,39135,2,0,L|331:73,1,103.500001974106,8|0,0:0|0:0,0:0:0:0:
217,254,39469,1,2,0:0:0:0:
413,236,39635,1,0,0:0:0:0:
217,254,39802,1,8,0:0:0:0:
311,189,39969,1,0,0:0:0:0:
311,189,40052,1,0,0:0:0:0:
311,189,40135,6,2,L|322:300,1,103.500001974106,2|0,0:0|0:0,0:0:0:0:
148,363,40469,1,8,0:0:0:0:
83,277,40635,2,2,B|133:257|133:257|196:264,1,103.500001974106
427,298,40969,1,0,0:0:0:0:
308,235,41135,2,0,L|303:344,1,103.500001974106,10|0,0:0|0:0,0:0:0:0:
224,162,41469,5,2,0:0:0:0:
269,60,41635,1,0,0:0:0:0:
407,181,41802,1,8,0:0:0:0:
308,235,41969,1,0,0:0:0:0:
382,65,42135,1,0,0:0:0:0:
375,314,42302,5,8,0:0:0:0:
122,240,42469,1,8,0:0:0:0:
438,166,42635,1,8,0:0:0:0:
97,113,42802,6,2,L|-1:127,1,90,6|0,0:0|0:0,0:0:0:0:
191,64,43135,2,0,P|234:134|224:231,1,180,10|0,0:0|0:0,0:0:0:0:
39,312,43635,2,2,P|99:282|135:281,1,90,10|0,0:0|0:0,0:0:0:0:
301,312,43969,1,10,0:0:0:0:
370,226,44135,6,0,L|362:121,1,90,2|0,0:0|0:0,0:0:0:0:
229,36,44469,2,0,P|210:116|276:193,1,180,10|0,0:0|0:0,0:0:0:0:
432,148,44969,1,10,0:0:0:0:
399,134,45052,1,0,0:0:0:0:
363,136,45135,1,0,0:0:0:0:
272,297,45302,1,10,0:0:0:0:
178,174,45469,6,0,P|223:174|266:188,1,90,2|0,0:0|0:0,0:0:0:0:
466,280,45802,2,0,L|365:288,1,90,10|0,0:0|0:0,0:0:0:0:
156,307,46135,1,0,0:0:0:0:
156,307,46302,2,2,L|266:317,1,90,10|0,0:0|0:0,0:0:0:0:
400,170,46635,6,0,B|336:174|336:174|287:199|287:199|218:205,1,180,10|0,0:0|0:0,0:0:0:0:
348,73,47135,2,0,B|305:76|305:76|256:102,1,90,10|0,0:0|0:0,0:0:0:0:
226,204,47469,1,0,0:0:0:0:
190,19,47635,1,10,0:0:0:0:
102,81,47802,1,0,0:0:0:0:
136,110,47885,1,0,0:0:0:0:
179,123,47969,1,8,0:0:0:0:
223,118,48052,1,8,0:0:0:0:
263,97,48135,5,6,0:0:0:0:
192,307,48302,1,0,0:0:0:0:
100,252,48469,2,0,P|189:203|275:240,1,180,10|0,0:0|0:0,0:0:0:0:
380,360,48969,2,2,L|279:351,1,90,10|0,0:0|0:0,0:0:0:0:
458,284,49302,1,10,0:0:0:0:
312,152,49469,5,2,0:0:0:0:
312,152,49635,1,0,0:0:0:0:
392,84,49802,2,0,P|416:156|360:248,1,180,10|0,0:0|0:0,0:0:0:0:
224,96,50302,1,10,0:0:0:0:
224,96,50385,1,0,0:0:0:0:
224,96,50469,2,0,L|236:4,1,90,0|10,0:0|0:0,0:0:0:0:
81,116,50802,6,0,L|93:220,1,90,2|0,0:0|0:0,0:0:0:0:
221,306,51135,2,0,B|176:290|132:306|132:306|86:322|42:301,1,180,10|0,0:0|0:0,0:0:0:0:
259,170,51635,2,2,P|308:161|353:166,1,90,10|0,0:0|0:0,0:0:0:0:
436,226,51969,1,10,0:0:0:0:
201,87,52135,6,0,L|100:79,1,90,4|0,0:0|0:0,0:0:0:0:
303,42,52469,2,0,B|312:86|312:86|301:138,1,90,8|0,0:0|0:0,0:0:0:0:
145,246,52802,1,8,0:0:0:0:
180,219,52885,1,0,0:0:0:0:
224,211,52968,1,0,0:0:0:0:
267,222,53052,1,0,0:0:0:0:
301,252,53135,6,0,P|311:271|319:300,1,45
213,352,53302,2,0,P|216:324|225:299,1,45
393,243,53469,6,2,L|480:250,1,85.4999977169037,6|0,0:0|0:0,0:0:0:0:
357,143,53802,2,0,P|309:173|187:186,1,170.999995433807,8|0,0:0|0:0,0:0:0:0:
71,152,54302,2,2,P|89:210|91:242,1,85.4999977169037,2|8,0:0|0:0,0:0:0:0:
3,63,54635,1,2,0:0:0:0:
165,89,54802,6,0,P|220:83|261:72,1,85.4999977169037,2|0,0:0|0:0,0:0:0:0:
439,38,55135,2,0,P|401:28|348:25,1,85.4999977169037,8|0,0:0|0:0,0:0:0:0:
215,185,55469,2,2,L|223:322,1,128.249996575356
306,322,55802,2,0,P|264:311|222:312,1,85.4999977169037,10|2,0:0|0:0,0:0:0:0:
35,269,56135,6,0,P|90:268|129:257,1,85.4999977169037,2|0,0:0|0:0,0:0:0:0:
301,124,56469,2,0,P|222:86|136:119,1,170.999995433807,10|0,0:0|0:0,0:0:0:0:
215,185,56969,1,2,0:0:0:0:
177,5,57135,1,8,0:0:0:0:
46,146,57302,6,0,P|32:205|33:247,1,85.4999977169037,2|0,0:0|0:0,0:0:0:0:
284,364,57635,2,2,P|285:306|275:259,1,85.4999977169037,2|8,0:0|0:0,0:0:0:0:
369,59,57969,2,2,P|381:120|390:145,1,85.4999977169037,2|0,0:0|0:0,0:0:0:0:
142,319,58302,2,2,P|138:269|144:228,1,85.4999977169037,2|8,0:0|0:0,0:0:0:0:
166,197,58552,1,0,0:0:0:0:
124,208,58635,1,0,0:0:0:0:
81,205,58719,1,0,0:0:0:0:
43,185,58802,5,6,0:0:0:0:
209,71,58969,1,2,0:0:0:0:
113,26,59135,2,0,P|104:68|111:110,1,85.4999977169037,8|0,0:0|0:0,0:0:0:0:
285,168,59469,2,2,L|370:159,1,85.4999977169037
482,146,59802,1,8,0:0:0:0:
314,63,59969,1,2,0:0:0:0:
360,243,60135,6,0,L|369:158,1,85.4999977169037,2|0,0:0|0:0,0:0:0:0:
166,264,60469,2,0,L|258:255,1,85.4999977169037,8|0,0:0|0:0,0:0:0:0:
481,263,60802,2,2,P|406:236|352:247,1,128.249996575356
335,324,61135,2,0,P|354:286|359:244,1,85.4999977169037,8|2,0:0|0:0,0:0:0:0:
249,75,61469,5,6,0:0:0:0:
169,157,61635,2,0,L|173:244,1,85.4999977169037,0|8,0:0|0:0,0:0:0:0:
32,344,61969,2,2,P|34:297|47:245,1,85.4999977169037,2|0,0:0|0:0,0:0:0:0:
265,96,62302,1,0,0:0:0:0:
348,206,62469,2,2,P|355:267|356:311,1,85.4999977169037,10|0,0:0|0:0,0:0:0:0:
169,157,62802,5,10,0:0:0:0:
386,52,62969,2,0,P|405:52|423:57,2,28.4999992389679
357,58,63135,1,0,0:0:0:0:
229,244,63302,1,0,0:0:0:0:
255,17,63469,5,8,0:0:0:0:
309,311,63635,1,8,0:0:0:0:
309,311,64135,6,0,P|251:298|211:298,1,90,12|0,0:0|0:0,0:0:0:0:
184,303,64385,1,0,0:0:0:0:
152,322,64469,1,8,0:0:0:0:
202,148,64635,1,0,0:0:0:0:
21,214,64802,2,0,P|97:217|138:202,1,90,8|0,0:0|0:0,0:0:0:0:
290,161,65135,2,0,P|229:147|191:148,1,90,8|0,0:0|0:0,0:0:0:0:
325,261,65469,6,0,L|416:245,1,90,8|0,0:0|0:0,0:0:0:0:
452,256,65719,1,0,0:0:0:0:
491,266,65802,1,8,0:0:0:0:
392,360,65969,1,0,0:0:0:0:
353,160,66135,1,8,0:0:0:0:
353,160,66219,1,0,0:0:0:0:
253,338,66385,1,0,0:0:0:0:
253,338,66469,1,8,0:0:0:0:
413,245,66635,1,0,0:0:0:0:
260,105,66802,6,0,B|215:94|215:94|162:106,1,90,8|0,0:0|0:0,0:0:0:0:
139,134,67052,1,0,0:0:0:0:
130,178,67135,1,8,0:0:0:0:
357,162,67302,1,0,0:0:0:0:
264,13,67469,2,0,P|211:3|161:13,1,90,8|0,0:0|0:0,0:0:0:0:
11,160,67802,2,0,P|66:145|114:149,1,90,8|0,0:0|0:0,0:0:0:0:
270,318,68135,6,0,P|227:318|168:303,1,90,8|0,0:0|0:0,0:0:0:0:
143,284,68385,1,0,0:0:0:0:
118,246,68469,1,8,0:0:0:0:
299,147,68635,2,0,P|321:159|345:179,1,45
373,310,68802,1,8,0:0:0:0:
505,196,68969,6,0,P|485:199|453:217,1,53.9999983520508
381,354,69135,1,8,0:0:0:0:
203,228,69302,6,0,P|236:236|275:236,1,62.9999980773926
447,123,69469,1,8,0:0:0:0:
245,26,69635,5,0,0:0:0:0:
245,26,69719,1,0,0:0:0:0:
245,26,69802,2,2,L|258:126,1,99.0000030212403,10|0,0:0|0:0,0:0:0:0:
122,247,70135,1,10,0:0:0:0:
358,287,70302,2,2,L|366:177,1,99.0000030212403,2|8,0:0|0:0,0:0:0:0:
137,107,70635,1,2,0:0:0:0:
360,60,70802,5,8,0:0:0:0:
258,222,70969,1,0,0:0:0:0:
258,222,71052,1,0,0:0:0:0:
258,222,71135,2,2,P|251:165|259:117,1,99.0000030212403,10|0,0:0|0:0,0:0:0:0:
465,9,71469,1,10,0:0:0:0:
465,9,71552,1,0,0:0:0:0:
368,171,71719,1,0,0:0:0:0:
368,171,71802,1,8,0:0:0:0:
233,4,71969,1,2,0:0:0:0:
153,225,72135,5,8,0:0:0:0:
30,71,72302,1,0,0:0:0:0:
30,71,72385,1,0,0:0:0:0:
30,71,72469,2,2,B|79:62|79:62|139:74,1,99.0000030212403,10|0,0:0|0:0,0:0:0:0:
223,89,72719,1,0,0:0:0:0:
257,82,72802,2,2,L|361:65,1,99.0000030212403,10|2,0:0|0:0,0:0:0:0:
336,166,73052,1,0,0:0:0:0:
370,159,73135,2,0,L|474:142,1,99.0000030212403,8|2,0:0|0:0,0:0:0:0:
451,244,73385,1,0,0:0:0:0:
485,237,73469,5,8,0:0:0:0:
476,285,73552,1,0,0:0:0:0:
443,320,73635,1,0,0:0:0:0:
395,331,73718,1,8,0:3:0:0:
350,313,73802,1,8,0:3:0:0:
322,273,73885,1,0,0:0:0:0:
278,251,73968,1,0,0:0:0:0:
228,253,74051,1,8,0:3:0:0:
185,279,74135,2,0,P|169:305|162:339,1,49.5000015106202,8|0,0:3|0:0,0:0:0:0:
161,179,74302,6,0,P|170:126|155:61,1,107.999996704102,8|0,0:0|2:0,0:0:0:0:
21,273,74802,5,4,0:0:0:0:
53,258,74885,1,0,0:0:0:0:
89,257,74969,1,0,0:0:0:0:
121,273,75052,1,0,0:0:0:0:
142,301,75135,2,0,L|221:295,1,72,8|0,0:0|2:0,0:0:0:0:
386,206,75469,1,0,0:0:0:0:
300,156,75635,2,0,P|286:219|330:288,1,144,4|8,0:2|0:0,0:0:0:0:
478,161,76135,5,0,0:0:0:0:
489,126,76219,1,0,0:0:0:0:
486,90,76302,1,0,0:0:0:0:
472,56,76385,1,0,0:0:0:0:
444,32,76469,2,0,L|361:53,1,72,8|0,0:0|2:0,0:0:0:0:
170,94,76802,1,0,0:0:0:0:
104,5,76969,2,0,L|257:17,1,144,4|8,0:2|0:0,0:0:0:0:
162,192,77469,5,4,0:0:0:0:
129,175,77552,1,0,0:0:0:0:
93,173,77635,1,0,0:0:0:0:
59,187,77719,1,0,0:0:0:0:
35,213,77802,2,0,P|43:260|41:303,1,72,8|0,0:0|2:0,0:0:0:0:
226,325,78135,1,0,0:0:0:0:
158,240,78302,2,0,P|160:166|198:93,1,144,4|8,0:2|0:0,0:0:0:0:
356,102,78802,5,0,0:0:0:0:
376,131,78885,1,0,0:0:0:0:
376,167,78969,1,0,0:0:0:0:
355,196,79052,1,0,0:0:0:0:
320,204,79135,2,0,P|281:177|281:120,1,108,4|0,0:2|2:0,0:0:0:0:
356,102,79469,5,0,0:0:0:0:
393,128,79552,1,0,0:0:0:0:
409,172,79636,1,0,0:0:0:0:
396,217,79719,1,0,0:0:0:0:
357,242,79802,2,0,P|335:237|304:235,1,45,10|0,0:2|2:0,0:0:0:0:
231,191,79969,2,0,P|212:196|182:197,1,45,2|0,2:0|2:0,2:0:0:0:
85,150,80135,5,4,0:0:0:0:
94,184,80219,1,0,0:0:0:0:
95,219,80302,1,0,0:0:0:0:
81,252,80385,1,0,0:0:0:0:
55,277,80469,2,0,P|115:268|144:268,1,72,8|0,0:0|2:0,0:0:0:0:
300,352,80802,1,0,0:0:0:0:
374,269,80969,2,0,B|391:228|391:228|380:112,1,144,4|8,0:2|0:0,0:0:0:0:
263,36,81469,5,0,0:0:0:0:
228,47,81552,1,0,0:0:0:0:
194,59,81635,1,0,0:0:0:0:
160,71,81719,1,0,0:0:0:0:
126,83,81802,2,0,L|41:78,1,72,8|0,0:0|2:0,0:0:0:0:
203,170,82135,1,0,0:0:0:0:
295,106,82302,2,0,L|456:86,1,144,4|8,0:2|0:0,0:0:0:0:
305,214,82802,5,4,0:0:0:0:
273,196,82885,1,0,0:0:0:0:
236,192,82969,1,0,0:0:0:0:
201,202,83052,1,0,0:0:0:0:
172,223,83135,2,0,L|181:141,1,72,8|0,0:0|2:0,0:0:0:0:
250,297,83469,1,0,0:0:0:0:
358,271,83635,2,0,P|380:221|340:146,1,144,4|8,0:2|0:0,0:0:0:0:
250,297,84135,5,0,0:0:0:0:
478,230,84302,1,8,0:0:0:0:
224,205,84469,2,0,L|309:214,1,80.9999975280763,8|0,0:0|0:0,0:0:0:0:
148,275,84802,5,12,0:2:0:0:
366,141,84969,1,0,0:0:0:0:
73,179,85135,2,0,P|97:182|120:182,1,40.4999987640381,8|0,0:3|2:0,0:0:0:0:
253,123,85302,2,0,P|228:119|206:120,1,40.4999987640381,8|0,0:3|2:0,0:0:0:0:
148,275,85469,6,2,P|214:266|247:274,1,90,6|0,0:0|0:0,0:0:0:0:
438,253,85802,2,0,P|400:294|385:328,1,90,8|0,0:0|0:0,0:0:0:0:
336,141,86135,2,2,P|345:92|346:50,1,90,2|0,0:0|0:0,0:0:0:0:
138,163,86469,2,0,P|185:143|235:140,1,90,8|0,0:0|0:0,0:0:0:0:
435,182,86802,6,2,P|369:240|273:220,1,180,2|8,0:0|0:0,0:0:0:0:
223,139,87302,1,0,0:0:0:0:
46,225,87469,2,2,P|109:205|169:234,1,135
184,321,87802,2,2,P|169:274|169:229,1,90,8|2,0:0|0:0,0:0:0:0:
321,81,88135,6,2,L|422:68,1,90,2|0,0:0|0:0,0:0:0:0:
152,33,88469,2,0,L|53:26,1,90,8|0,0:0|0:0,0:0:0:0:
381,196,88802,2,0,L|483:208,1,90
129,270,89135,2,0,L|30:285,1,90,8|0,0:0|0:0,0:0:0:0:
256,328,89469,5,0,0:0:0:0:
256,328,89635,1,0,0:0:0:0:
335,228,89802,2,0,P|346:182|345:122,1,90,8|0,0:0|0:0,0:0:0:0:
194,2,90135,1,0,0:0:0:0:
250,171,90302,1,0,0:0:0:0:
157,144,90469,1,8,0:0:0:0:
170,111,90552,1,0,0:0:0:0:
195,85,90635,1,0,0:0:0:0:
229,73,90718,1,0,0:0:0:0:
265,73,90802,6,2,P|323:85|356:85,1,90,6|0,0:0|0:0,0:0:0:0:
92,67,91135,2,0,P|25:50|-8:51,1,90,8|0,0:0|0:0,0:0:0:0:
155,265,91469,2,0,P|164:197|163:168,1,90,2|0,0:0|0:0,0:0:0:0:
275,6,91802,2,0,P|275:50|283:95,1,90,8|0,0:0|0:0,0:0:0:0:
442,216,92135,6,2,B|384:211|384:211|336:236|336:236|268:233,1,180,2|8,0:0|0:0,0:0:0:0:
268,233,92635,1,0,0:0:0:0:
73,139,92802,2,2,P|141:122|202:143,1,135
289,126,93135,2,2,P|248:140|183:140,1,90,8|2,0:0|0:0,0:0:0:0:
19,49,93469,5,4,0:0:0:0:
139,222,93635,1,0,0:0:0:0:
228,34,93802,1,8,0:0:0:0:
56,153,93969,2,0,P|150:121|223:159,1,180,2|0,0:0|0:0,0:0:0:0:
413,190,94469,2,2,P|368:192|328:212,1,90,10|0,0:0|0:0,0:0:0:0:
185,370,94802,5,2,0:0:0:0:
397,293,94969,1,0,0:0:0:0:
218,154,95135,1,8,0:0:0:0:
296,368,95302,2,0,L|314:183,1,180,2|0,0:0|0:0,0:0:0:0:
181,334,95802,2,2,L|173:239,1,90,10|0,0:0|0:0,0:0:0:0:
166,165,96052,1,0,0:0:0:0:
166,165,96135,5,12,0:0:0:0:
350,212,96302,1,0,0:0:0:0:
356,22,96469,1,0,0:0:0:0:
163,136,96635,5,8,0:0:0:0:
357,298,96802,1,0,0:0:0:0:
438,59,96969,1,0,0:0:0:0:
160,109,97135,6,0,B|204:123|204:123|258:114,1,90,8|0,0:0|0:0,0:0:0:0:
271,77,97385,1,0,0:0:0:0:
267,32,97469,6,8,P|239:23|206:17,2,60
363,97,97802,2,8,P|393:86|429:84,2,60,8|8|8,0:3|0:3|0:3,0:3:0:0:
312,169,98135,5,8,0:3:0:0:
400,177,98247,1,8,0:3:0:0:
363,97,98358,1,8,0:3:0:0:
322,165,98469,5,8,0:3:0:0:
392,171,98581,1,8,0:3:0:0:
362,107,98692,1,8,0:3:0:0:
358,147,98802,6,0,L|351:236,1,80.9999975280763,4|0,0:2|2:0,0:0:0:0:
183,337,99135,1,2,2:0:0:0:
249,203,99302,2,0,L|270:299,1,80.9999975280763,0|2,0:0|2:0,0:0:0:0:
171,140,99635,1,0,0:0:0:0:
287,127,99802,2,0,B|250:147|250:147|160:138,1,121.499996292114,10|0,0:0|2:0,0:0:0:0:
142,114,100135,6,2,L|137:23,1,80.9999975280763,2|0,0:0|2:0,0:0:0:0:
72,195,100469,1,0,2:0:0:0:
255,250,100635,2,0,P|193:230|146:230,1,80.9999975280763,2|0,0:0|2:0,0:0:0:0:
44,291,100969,1,2,1:2:0:0:
259,362,101135,2,2,P|303:340|353:336,1,80.9999975280763,10|2,0:0|2:0,0:0:0:0:
492,258,101469,6,0,P|445:250|410:235,1,80.9999975280763,4|0,0:2|0:0,0:0:0:0:
394,62,101802,2,0,P|441:33|471:25,1,80.9999975280763,2|0,2:0|0:0,0:0:0:0:
344,160,102135,1,2,2:0:0:0:
420,338,102302,2,0,P|480:360|512:362,1,80.9999975280763,2|8,0:0|0:0,0:0:0:0:
414,237,102635,1,0,2:0:0:0:
246,308,102802,6,2,L|331:292,1,80.9999975280763,2|0,0:0|2:0,0:0:0:0:
144,201,103135,2,2,L|229:215,1,80.9999975280763,2|0,0:0|2:0,0:0:0:0:
88,66,103469,2,2,L|163:108,1,80.9999975280763,2|0,0:0|2:0,0:0:0:0:
317,193,103802,1,10,0:0:0:0:
103,288,103969,1,0,0:0:0:0:
301,89,104135,6,0,P|374:105|419:184,1,161.999995056153,6|0,0:0|2:0,0:0:0:0:
224,183,104635,2,0,P|140:190|98:249,1,161.999995056153
307,354,105135,2,0,P|323:302|319:257,1,80.9999975280763,8|0,0:0|2:0,0:0:0:0:
248,59,105469,5,2,0:0:0:0:
143,192,105635,2,0,L|241:181,1,80.9999975280763,2|0,0:2|2:0,0:0:0:0:
453,127,105969,2,0,P|392:99|325:121,1,121.499996292114,2|0,0:0|2:0,0:0:0:0:
312,138,106302,1,0,0:0:0:0:
496,220,106469,1,8,0:0:0:0:
404,327,106635,1,0,0:0:0:0:
404,327,106719,1,0,0:0:0:0:
404,327,106802,6,0,L|410:273,1,45,8|0,0:0|0:0,0:0:0:0:
342,111,106969,2,0,L|349:162,1,45
299,338,107135,6,0,L|305:273,1,56.25
238,97,107302,2,0,L|247:171,1,56.25,8|0,0:0|0:0,0:0:0:0:
191,353,107469,6,0,L|198:283,1,67.5000025749208,8|0,0:0|0:0,0:0:0:0:
133,83,107635,2,0,L|143:154,1,67.5000025749208,10|0,0:0|0:0,0:0:0:0:
84,369,107802,6,0,P|74:338|72:286,1,78.7500007510185,8|0,0:0|0:0,0:0:0:0:
111,34,107969,1,2,0:0:0:0:
111,34,108052,1,0,0:0:0:0:
111,34,108135,6,0,P|123:54|135:99,1,53.9999983520508,2|0,0:0|0:0,0:0:0:0:
163,20,108358,2,0,P|153:54|132:83,1,72
215,67,108580,2,0,P|176:88|132:83,1,90
206,150,108802,2,2,P|157:129|131:83,1,107.999996704102,0|0,0:1|0:1,0:1:0:0:
118,198,109024,2,2,P|103:138|131:83,1,125.999996154785,0|0,0:1|0:1,0:1:0:0:
14,147,109247,2,2,P|62:95|132:84,1,144,2|0,0:1|0:1,0:1:0:0:
206,150,109469,5,6,0:0:0:0:
244,169,109552,1,0,0:0:0:0:
284,152,109635,1,0,0:0:0:0:
300,111,109719,1,0,0:0:0:0:
281,71,109802,2,0,P|259:62|217:65,3,53.9999983520508,8|0|0|0,0:0|0:0|0:0|0:0,0:0:0:0:
131,83,110135,1,0,0:0:0:0:
108,120,110219,1,0,0:0:0:0:
106,163,110302,1,0,0:0:0:0:
125,201,110385,1,0,0:0:0:0:
161,225,110469,2,0,L|155:288,3,53.9999983520508,8|0|0|0,0:0|0:0|0:0|0:0,0:0:0:0:
97,348,110802,5,2,0:0:0:0:
135,327,110885,1,0,0:0:0:0:
178,323,110969,1,0,0:0:0:0:
218,337,111052,1,0,0:0:0:0:
248,366,111135,2,0,P|277:372|308:369,3,53.9999983520508,8|0|0|0,0:0|0:0|0:0|0:0,0:0:0:0:
375,309,111469,1,0,0:0:0:0:
350,273,111552,1,0,0:0:0:0:
362,231,111635,1,0,0:0:0:0:
401,212,111719,1,0,0:0:0:0:
441,225,111802,2,0,P|456:248|458:281,3,53.9999983520508,8|0|0|0,0:0|0:0|0:0|0:0,0:0:0:0:
375,309,112135,5,2,0:0:0:0:
331,307,112219,1,0,0:0:0:0:
293,285,112302,1,0,0:0:0:0:
271,247,112385,1,0,0:0:0:0:
270,203,112469,2,0,L|278:133,3,53.9999983520508,8|0|0|0,0:0|0:0|0:0|0:0,0:0:0:0:
188,111,112802,1,0,0:0:0:0:
210,74,112885,1,0,0:0:0:0:
198,31,112969,1,0,0:0:0:0:
159,12,113052,1,0,0:0:0:0:
119,28,113135,2,0,P|107:52|108:89,3,53.9999983520508,8|0|0|0,0:0|0:0|0:0|0:0,0:0:0:0:
144,191,113469,5,2,0:0:0:0:
166,228,113552,1,0,0:0:0:0:
154,271,113636,1,0,0:0:0:0:
115,290,113719,1,0,0:0:0:0:
75,274,113803,2,0,P|62:250|61:223,3,53.9999983520508,8|0|0|0,0:0|0:0|0:0|0:0,0:0:0:0:
103,107,114135,6,0,L|179:96,3,58.4999973220826,2|0|0|0,0:0|0:0|0:0|0:0,0:0:0:0:
260,195,114469,6,0,L|329:206,3,62.9999980773926,10|0|0|0,0:0|0:0|0:0|0:0,0:0:0:0:
387,54,114802,6,0,L|474:44,7,67.5000025749208,2|0|0|0|8|0|0|0,0:0|0:0|0:0|0:0|0:0|0:0|0:0|0:0,0:0:0:0:
497,143,115469,5,2,0:0:0:0:
497,143,115552,1,0,0:0:0:0:
497,143,115635,2,0,P|486:177|486:219,1,67.5000025749208
370,316,115802,1,10,0:0:0:0:
370,316,115885,1,0,0:0:0:0:
370,316,115968,2,0,P|368:282|357:250,1,67.5000025749208
169,241,116135,5,2,0:0:0:0:
138,256,116219,1,0,0:0:0:0:
108,272,116302,2,0,L|187:293,1,67.5000025749208
334,217,116469,1,10,0:0:0:0:
365,202,116553,1,0,0:0:0:0:
395,186,116636,2,0,L|316:165,1,67.5000025749208
160,124,116802,5,2,0:0:0:0:
175,93,116886,1,0,0:0:0:0:
191,63,116969,2,0,L|212:142,1,67.5000025749208
303,316,117135,1,10,0:0:0:0:
312,349,117219,1,0,0:0:0:0:
322,381,117302,2,0,L|356:306,1,67.5000025749208
256,220,117469,5,2,0:0:0:0:
230,212,117552,1,0,0:0:0:0:
203,212,117635,1,0,0:0:0:0:
177,221,117719,1,0,0:0:0:0:
156,238,117802,1,8,0:0:0:0:
143,262,117885,1,0,0:0:0:0:
122,280,117969,1,0,0:0:0:0:
97,290,118052,1,0,0:0:0:0:
70,289,118135,1,0,0:0:0:0:
43,280,118219,1,0,0:0:0:0:
23,261,118302,1,0,0:0:0:0:
13,236,118385,1,0,0:0:0:0:
12,208,118469,1,8,0:0:0:0:
20,182,118552,1,0,0:0:0:0:
37,161,118635,1,0,0:0:0:0:
61,148,118719,1,0,0:0:0:0:
87,143,118802,5,2,0:2:0:0:
108,165,118885,1,0,0:0:0:0:
143,178,118969,1,0,0:0:0:0:
180,175,119052,1,0,0:0:0:0:
213,158,119135,1,8,0:0:0:0:
234,126,119219,1,0,0:0:0:0:
238,88,119302,1,0,0:0:0:0:
225,52,119385,1,0,0:0:0:0:
196,26,119469,5,2,0:2:0:0:
188,68,119552,1,0,0:0:0:0:
204,107,119635,1,0,0:0:0:0:
239,132,119719,1,0,0:0:0:0:
281,138,119802,1,8,0:0:0:0:
320,121,119885,1,0,0:0:0:0:
347,87,119969,1,0,0:0:0:0:
351,44,120052,1,0,0:0:0:0:
332,5,120135,6,0,L|393:10,3,53.9999983520508,6|0|0|0,0:0|0:0|0:0|0:0,0:0:0:0:
444,83,120469,1,8,0:0:0:0:
434,125,120552,1,0,0:0:0:0:
424,167,120635,1,0,0:0:0:0:
415,209,120719,1,0,0:0:0:0:
406,251,120802,6,0,L|467:246,3,53.9999983520508
413,343,121135,1,8,0:0:0:0:
372,325,121219,1,0,0:0:0:0:
328,325,121302,1,0,0:0:0:0:
287,339,121385,1,0,0:0:0:0:
255,369,121469,6,0,P|225:373|175:365,3,53.9999983520508,2|0|0|0,0:0|0:0|0:0|0:0,0:0:0:0:
142,302,121802,1,8,0:0:0:0:
145,259,121885,1,0,0:0:0:0:
171,224,121969,1,0,0:0:0:0:
210,206,122052,1,0,0:0:0:0:
252,208,122135,2,0,P|280:220|304:247,3,53.9999983520508
339,323,122469,1,8,0:0:0:0:
369,354,122552,1,0,0:0:0:0:
412,365,122636,1,0,0:0:0:0:
453,353,122719,1,0,0:0:0:0:
484,325,122802,6,0,P|497:297|498:261,3,53.9999983520508,2|0|0|0,0:0|0:0|0:0|0:0,0:0:0:0:
441,193,123135,1,8,0:0:0:0:
398,202,123219,1,0,0:0:0:0:
355,198,123302,1,0,0:0:0:0:
314,184,123385,1,0,0:0:0:0:
279,157,123469,2,0,L|207:162,3,53.9999983520508
172,235,123802,1,8,0:0:0:0:
177,192,123885,1,0,0:0:0:0:
182,148,123969,1,0,0:0:0:0:
187,105,124052,1,0,0:0:0:0:
193,62,124135,6,0,L|123:65,3,53.9999983520508,2|0|0|0,0:0|0:0|0:0|0:0,0:0:0:0:
41,27,124469,1,8,0:0:0:0:
57,66,124552,1,0,0:0:0:0:
56,109,124635,1,0,0:0:0:0:
40,149,124719,1,0,0:0:0:0:
10,179,124802,6,0,P|19:207|26:249,3,58.4999973220826,2|0|0|0,0:0|0:0|0:0|0:0,0:0:0:0:
173,279,125135,6,0,P|161:309|158:351,3,62.9999980773926,12|0|0|0,0:2|0:0|0:0|0:0,0:0:0:0:
334,238,125469,6,0,B|339:205|339:205|330:163,7,67.5000025749208,2|0|0|0|8|0|0|0,0:0|0:0|0:0|0:0|0:0|0:0|0:0|0:0,0:0:0:0:
202,111,126135,5,2,0:0:0:0:
202,111,126219,1,0,0:0:0:0:
202,111,126302,2,0,L|114:116,1,67.5000025749208
321,23,126469,1,10,0:0:0:0:
321,23,126553,1,0,0:0:0:0:
321,23,126636,2,0,L|409:28,1,67.5000025749208
488,156,126802,5,2,0:0:0:0:
457,171,126885,1,0,0:0:0:0:
439,200,126969,2,0,P|439:233|448:278,1,67.5000025749208
308,242,127135,1,10,0:0:0:0:
288,277,127218,1,0,0:0:0:0:
289,318,127302,2,0,P|305:346|335:381,1,67.5000025749208
191,291,127469,5,2,0:0:0:0:
144,282,127552,1,0,0:0:0:0:
97,291,127635,1,0,0:0:0:0:
62,324,127719,1,0,0:0:0:0:
42,367,127802,2,0,B|26:339|26:339|38:225,1,135.000005149842,12|0,0:0|0:0,0:0:0:0:
120,121,128052,1,0,0:0:0:0:
120,121,128135,5,12,0:0:0:0:
157,134,128218,1,0,0:0:0:0:
194,149,128302,1,0,0:0:0:0:
231,134,128385,1,0,0:0:0:0:
268,119,128468,2,0,L|259:46,1,67.5000025749208,8|0,0:0|0:0,0:0:0:0:
283,218,128635,5,8,0:0:0:0:
323,232,128718,1,0,0:0:0:0:
364,248,128802,1,0,0:0:0:0:
405,232,128885,1,0,0:0:0:0:
445,215,128968,2,0,L|435:134,1,67.5000025749208,8|0,0:0|0:0,0:0:0:0:
362,9,129135,6,0,P|352:43|350:84,1,67.5000025749208,8|0,0:0|0:0,0:0:0:0:
292,284,129302,2,0,P|289:249|278:203,1,67.5000025749208,2|0,0:0|0:0,0:0:0:0:
107,159,129469,5,10,0:0:0:0:
53,167,129552,1,8,0:0:0:0:
17,206,129635,1,8,0:0:0:0:
9,259,129719,1,8,0:0:0:0:
29,309,129802,1,8,0:3:0:0:
74,338,129885,1,0,0:0:0:0:
128,338,129969,1,8,0:3:0:0:
174,312,130052,1,8,0:3:0:0:
197,263,130135,5,8,0:3:0:0:
224,243,130219,1,0,0:0:0:0:
256,234,130302,1,8,0:3:0:0:
289,234,130385,1,8,0:3:0:0:
320,245,130469,1,8,0:3:0:0:
344,267,130552,1,0,0:0:0:0:
361,295,130635,1,0,0:0:0:0:
369,327,130719,1,0,0:0:0:0:
361,361,130802,5,6,0:0:0:0:
195,229,130969,2,0,P|122:221|73:222,1,116.999994644165,8|0,0:0|0:0,0:0:0:0:
49,229,131219,1,0,0:0:0:0:
21,242,131302,1,8,0:0:0:0:
283,151,131469,2,0,P|350:160|413:161,1,116.999994644165,0|8,0:0|0:0,0:0:0:0:
216,60,131802,1,0,0:0:0:0:
184,86,131885,1,0,0:0:0:0:
143,92,131969,1,8,0:0:0:0:
103,80,132052,1,0,0:0:0:0:
75,49,132135,5,2,0:0:0:0:
214,191,132302,1,8,0:0:0:0:
230,228,132385,1,0,0:0:0:0:
227,269,132469,1,0,0:0:0:0:
120,246,132635,1,8,0:0:0:0:
343,165,132802,1,0,0:0:0:0:
162,36,132969,2,0,L|169:161,1,116.999994644165,8|0,0:0|0:0,0:0:0:0:
129,144,133219,1,0,0:0:0:0:
93,161,133302,1,8,0:0:0:0:
53,155,133385,1,0,0:0:0:0:
23,126,133469,5,2,0:0:0:0:
256,86,133635,1,8,0:0:0:0:
138,238,133802,1,0,0:0:0:0:
138,238,133885,1,0,0:0:0:0:
138,238,133969,1,8,0:0:0:0:
367,136,134135,1,0,0:0:0:0:
163,22,134302,2,0,P|146:89|160:142,1,116.999994644165,8|0,0:0|0:0,0:0:0:0:
190,167,134552,1,0,0:0:0:0:
233,183,134635,2,0,L|300:178,1,58.4999973220826,8|0,0:0|0:0,0:0:0:0:
492,117,134802,6,2,B|441:94|441:94|372:109,1,116.999994644165,2|8,0:0|0:0,0:0:0:0:
355,253,135052,1,0,0:0:0:0:
392,281,135135,2,0,L|514:274,1,116.999994644165,0|8,0:0|0:0,0:0:0:0:
262,345,135469,5,2,0:0:0:0:
470,197,135635,2,0,P|447:189|391:190,1,58.4999973220826,8|0,0:0|0:0,0:0:0:0:
215,241,135802,1,2,0:0:0:0:
481,370,135969,2,0,L|408:361,1,58.4999973220826,8|0,0:0|0:0,0:0:0:0:
151,334,136135,5,6,0:0:0:0:
319,187,136302,1,8,0:0:0:0:
331,231,136385,1,0,0:0:0:0:
324,277,136469,1,0,0:0:0:0:
135,137,136635,1,8,0:0:0:0:
84,253,136802,6,2,P|141:234|203:242,1,116.999994644165,2|8,0:0|0:0,0:0:0:0:
251,123,137052,1,0,0:0:0:0:
251,123,137136,2,2,L|133:137,1,116.999994644165,2|8,0:0|0:0,0:0:0:0:
355,107,137469,5,2,0:0:0:0:
170,16,137635,1,8,0:0:0:0:
213,34,137719,1,0,0:0:0:0:
258,25,137802,1,2,0:0:0:0:
282,228,137969,1,8,0:0:0:0:
327,135,138135,5,2,0:0:0:0:
280,125,138219,1,0,0:0:0:0:
234,136,138302,1,8,0:0:0:0:
196,164,138385,1,0,0:0:0:0:
178,207,138469,1,2,0:0:0:0:
393,217,138635,1,8,0:0:0:0:
393,217,138719,1,0,0:0:0:0:
393,217,138802,6,0,L|518:206,1,116.999994644165,2|8,0:0|0:0,0:0:0:0:
282,228,139135,1,0,0:0:0:0:
438,88,139302,2,0,L|313:83,1,116.999994644165,8|0,0:0|0:0,0:0:0:0:
101,148,139635,1,8,0:0:0:0:
145,159,139719,1,0,0:0:0:0:
190,147,139802,1,0,0:0:0:0:
377,206,139969,2,0,P|347:204|312:211,1,58.4999973220826,8|0,0:0|0:0,0:0:0:0:
212,306,140135,5,2,0:2:0:0:
192,319,140219,1,0,0:0:0:0:
170,328,140302,1,8,0:0:0:0:
147,333,140385,1,0,0:0:0:0:
123,334,140469,1,0,0:0:0:0:
99,333,140552,1,0,0:0:0:0:
76,328,140635,1,8,0:0:0:0:
54,318,140719,1,0,0:0:0:0:
36,302,140802,5,10,0:2:0:0:
56,260,140885,1,8,0:0:0:0:
98,239,140969,1,8,0:0:0:0:
144,237,141052,1,8,0:0:0:0:
185,257,141135,1,8,0:3:0:0:
214,293,141219,1,0,0:0:0:0:
259,301,141302,1,8,0:3:0:0:
303,286,141385,1,8,0:3:0:0:
330,247,141469,5,6,0:0:0:0:
256,21,141635,2,0,P|230:85|234:154,1,116.999994644165,8|0,0:0|0:0,0:0:0:0:
237,163,141885,1,0,0:0:0:0:
252,192,141969,1,8,0:0:0:0:
512,248,142135,2,0,P|445:202|398:189,1,116.999994644165,0|8,0:0|0:0,0:0:0:0:
232,310,142469,1,0,0:0:0:0:
191,311,142552,1,0,0:0:0:0:
156,289,142635,1,8,0:0:0:0:
134,253,142719,1,0,0:0:0:0:
132,212,142802,5,2,0:0:0:0:
323,257,142969,1,8,0:0:0:0:
339,294,143052,1,0,0:0:0:0:
339,334,143135,1,0,0:0:0:0:
61,377,143302,1,8,0:0:0:0:
232,310,143469,1,0,0:0:0:0:
46,167,143635,1,8,0:0:0:0:
46,167,143719,1,0,0:0:0:0:
46,167,143802,2,0,P|38:198|37:235,1,58.4999973220826
225,213,143969,2,0,P|221:185|203:146,1,58.4999973220826,8|0,0:0|0:0,0:0:0:0:
133,291,144135,5,2,0:0:0:0:
336,194,144302,1,8,0:0:0:0:
336,194,144385,1,0,0:0:0:0:
336,194,144469,1,0,0:0:0:0:
152,58,144635,1,8,0:0:0:0:
257,299,144802,1,0,0:0:0:0:
67,175,144969,2,0,B|127:159|127:159|194:169,1,116.999994644165,8|0,0:0|0:0,0:0:0:0:
218,185,145219,1,0,0:0:0:0:
258,181,145302,1,8,0:0:0:0:
298,178,145385,1,0,0:0:0:0:
339,175,145469,5,2,0:0:0:0:
152,58,145635,2,0,L|283:38,1,116.999994644165,8|0,0:0|0:0,0:0:0:0:
480,105,145969,1,8,0:0:0:0:
441,91,146052,1,0,0:0:0:0:
400,98,146135,6,0,L|412:169,1,58.4999973220826,2|0,0:0|0:0,0:0:0:0:
298,178,146302,2,0,L|310:249,1,58.4999973220826,8|0,0:0|0:0,0:0:0:0:
60,95,146469,6,0,L|69:37,1,58.4999973220826,2|0,0:0|0:0,0:0:0:0:
162,175,146636,2,0,L|171:117,1,58.4999973220826,8|0,0:0|0:0,0:0:0:0:
78,274,146802,5,6,0:0:0:0:
298,178,146969,1,8,0:0:0:0:
298,178,147052,1,0,0:0:0:0:
298,178,147135,1,0,0:0:0:0:
170,117,147302,1,8,0:0:0:0:
300,345,147469,5,2,0:0:0:0:
101,251,147635,2,0,P|136:237|169:235,1,58.4999973220826,8|0,0:0|0:0,0:0:0:0:
376,260,147802,1,2,0:0:0:0:
210,87,147969,2,0,P|206:118|211:157,1,58.4999973220826,8|0,0:0|0:0,0:0:0:0:
300,345,148135,6,2,P|286:276|261:237,1,116.999994644165,2|8,0:0|0:0,0:0:0:0:
378,135,148385,1,0,0:0:0:0:
383,178,148469,2,2,L|399:305,1,116.999994644165,2|8,0:0|0:0,0:0:0:0:
141,254,148802,1,2,0:0:0:0:
234,324,148969,1,8,0:0:0:0:
259,284,149052,1,0,0:0:0:0:
261,237,149135,1,0,0:0:0:0:
244,192,149219,1,0,0:0:0:0:
209,160,149302,1,8,0:0:0:0:
24,120,149469,5,2,0:0:0:0:
64,127,149552,1,0,0:0:0:0:
102,113,149635,1,8,0:0:0:0:
2,224,149802,1,0,0:0:0:0:
102,113,149969,5,10,0:0:0:0:
148,116,150052,1,0,0:0:0:0:
187,141,150135,1,0,0:0:0:0:
52,14,150302,1,8,0:0:0:0:
187,141,150469,5,2,0:0:0:0:
239,141,150552,1,0,0:0:0:0:
282,112,150635,1,8,0:0:0:0:
113,224,150802,5,12,0:0:0:0:
90,277,150885,1,0,0:0:0:0:
113,331,150969,1,0,0:0:0:0:
169,346,151052,1,0,0:0:0:0:
219,316,151135,1,8,0:3:0:0:
230,258,151219,1,0,0:0:0:0:
194,211,151302,2,0,L|263:205,1,58.4999973220826,8|0,0:0|0:0,0:0:0:0:
364,260,151469,5,8,0:3:0:0:
392,254,151552,1,0,0:0:0:0:
420,249,151635,1,0,0:0:0:0:
449,244,151719,1,0,0:0:0:0:
477,238,151802,2,0,B|497:199|497:199|470:108|470:108|448:141,1,175.499991966248,12|0,0:0|2:0,0:0:0:0:
364,260,152135,5,4,0:2:0:0:
287,183,153469,5,4,0:2:0:0:
180,204,154802,5,4,0:2:0:0:
138,303,156135,5,4,0:2:0:0:
138,303,156969,1,0,0:0:0:0:
180,204,157135,1,4,0:3:0:0:
287,183,157302,1,4,0:3:0:0:
364,260,157469,5,4,0:2:0:0:
287,183,157802,1,0,0:0:0:0:
364,260,158135,1,0,0:0:0:0:
365,110,158469,1,0,0:0:0:0:
364,260,158802,5,4,0:2:0:0:
188,134,159135,1,0,0:0:0:0:
364,260,159469,1,0,0:0:0:0:
495,37,159802,1,0,0:0:0:0:
395,7,159969,1,0,0:0:0:0:
391,51,160052,1,0,0:0:0:0:
408,92,160135,5,12,0:0:0:0:
501,221,160302,1,0,0:0:0:0:
357,355,160469,5,0,0:0:0:0:
411,187,160635,1,0,0:0:0:0:
263,30,160802,5,8,0:0:0:0:
321,232,160969,1,8,0:0:0:0:
142,380,161135,5,8,0:0:0:0:
245,164,161302,1,8,0:0:0:0:
24,20,161469,5,8,0:0:0:0:
18,64,161552,1,0,0:0:0:0:
41,101,161635,1,0,0:0:0:0:
84,112,161719,1,0,0:0:0:0:
124,95,161802,1,8,0:3:0:0:
145,55,161885,1,8,0:3:0:0:
188,40,161969,1,0,0:0:0:0:
230,53,162052,1,0,0:0:0:0:
255,90,162135,5,8,0:3:0:0:
229,138,162219,1,8,0:3:0:0:
203,185,162302,1,0,0:0:0:0:
175,231,162385,1,0,0:0:0:0:
148,278,162469,1,0,0:0:0:0:
121,324,162552,1,0,0:0:0:0:
93,370,162635,6,2,L|241:353,1,144,6|0,0:0|0:0,0:0:0:0:
412,351,163135,2,0,L|340:344,1,72,2|0,0:2|2:0,0:0:0:0:
175,231,163469,1,10,0:0:0:0:
280,217,163635,2,2,L|364:207,1,72,2|0,0:0|2:0,0:0:0:0:
175,231,163969,6,2,P|123:205|34:235,1,144,0|2,0:0|0:0,0:0:0:0:
217,139,164469,2,0,P|203:93|202:56,1,72,2|0,0:2|2:0,0:0:0:0:
280,217,164802,1,10,0:0:0:0:
450,196,164969,2,2,L|379:205,1,72,2|0,0:0|2:0,0:0:0:0:
308,84,165302,6,2,P|365:57|437:107,1,144,6|0,0:0|0:0,0:0:0:0:
217,139,165802,2,0,L|131:135,1,72,2|0,0:2|2:0,0:0:0:0:
280,217,166136,1,10,0:0:0:0:
122,279,166302,2,2,L|206:269,1,72,2|0,0:0|0:0,0:0:0:0:
350,349,166635,6,0,P|302:372|251:360,1,108,4|0,0:0|2:0,0:0:0:0:
293,294,166969,2,0,P|340:270|391:282,1,108,0|0,0:0|2:0,0:0:0:0:
430,352,167302,2,0,L|414:202,1,144,8|0,0:0|0:0,0:0:0:0:
315,113,167802,5,0,0:0:0:0:
315,113,167885,1,0,0:0:0:0:
315,113,167969,2,2,B|346:130|382:117|382:117|419:105|455:121,1,144,6|0,0:0|0:0,0:0:0:0:
349,26,168469,2,0,P|311:20|276:27,1,72,2|0,0:2|2:0,0:0:0:0:
227,155,168803,1,10,0:0:0:0:
383,131,168969,2,2,P|350:117|314:112,1,72,2|0,0:0|2:0,0:0:0:0:
153,220,169302,6,2,P|192:246|285:235,1,144,4|2,0:0|0:0,0:0:0:0:
54,226,169802,2,0,P|61:185|84:144,1,72,2|0,0:2|2:0,0:0:0:0:
212,74,170135,1,10,0:0:0:0:
153,220,170302,2,2,P|153:259|171:305,1,72,2|0,0:0|2:0,0:0:0:0:
393,262,170635,6,2,B|367:247|367:247|245:242,1,144,6|0,0:0|0:0,0:0:0:0:
339,341,171135,2,0,L|253:337,1,72,2|0,0:2|2:0,0:0:0:0:
165,187,171469,1,10,0:0:0:0:
38,284,171635,2,2,B|73:288|73:288|122:274,1,72,2|0,0:0|0:0,0:0:0:0:
263,145,171969,6,0,L|253:35,1,108,4|0,0:0|2:0,0:0:0:0:
182,126,172303,2,0,L|169:4,1,108,0|0,0:0|2:0,0:0:0:0:
99,107,172635,5,2,0:0:0:0:
263,145,172802,1,0,0:0:0:0:
302,128,172885,1,0,0:0:0:0:
316,87,172969,1,0,0:0:0:0:
295,48,173052,1,0,0:0:0:0:
253,37,173135,1,8,0:0:0:0:
137,287,173302,6,2,P|216:244|308:291,1,180,6|0,0:0|0:0,0:0:0:0:
342,371,173802,1,8,0:0:0:0:
263,145,173969,1,0,0:0:0:0:
418,281,174135,1,0,0:0:0:0:
186,235,174302,1,0,0:0:0:0:
380,167,174469,1,8,0:0:0:0:
224,347,174635,1,0,0:0:0:0:
57,191,174802,6,2,P|49:152|48:95,1,90,2|0,0:0|0:0,0:0:0:0:
257,32,175135,2,0,P|246:101|247:132,1,90,8|0,0:0|0:0,0:0:0:0:
339,291,175469,1,0,0:0:0:0:
459,189,175635,2,2,P|451:123|441:91,1,90,2|8,0:0|0:0,0:0:0:0:
178,210,175969,6,2,P|245:231|349:162,1,198.000006042481,6|0,0:0|0:0,0:0:0:0:
246,120,176469,1,8,0:0:0:0:
50,328,176636,1,0,0:0:0:0:
106,88,176802,1,0,0:0:0:0:
191,362,176969,1,0,0:0:0:0:
9,192,177136,1,8,0:0:0:0:
286,257,177302,6,0,P|340:241|396:239,1,99.0000030212403,4|0,0:0|0:0,0:0:0:0:
201,110,177635,2,0,P|146:91|85:89,1,99.0000030212403,0|8,0:0|0:0,0:0:0:0:
436,40,177969,2,2,P|379:56|336:60,1,99.0000030212403,2|0,0:0|0:0,0:0:0:0:
25,195,178302,2,2,P|79:198|125:215,1,99.0000030212403,2|8,0:0|0:0,0:0:0:0:
454,255,178635,6,2,P|353:229|251:272,1,215.999993408203,4|0,0:0|0:0,0:0:0:0:
186,377,179135,1,8,0:0:0:0:
301,90,179302,1,0,0:0:0:0:
91,254,179469,1,0,0:0:0:0:
395,211,179635,1,0,0:0:0:0:
147,111,179802,1,8,0:0:0:0:
337,352,179969,6,2,P|361:273|353:177,1,161.999995056153,2|0,0:0|0:0,0:0:0:0:
289,105,180302,2,0,P|251:120|176:124,1,107.999996704102,2|8,0:0|0:0,0:0:0:0:
446,129,180635,1,0,0:0:0:0:
216,22,180802,2,2,P|146:8|94:12,1,107.999996704102,2|0,0:0|0:0,0:0:0:0:
391,7,181135,1,8,0:0:0:0:
184,125,181302,6,2,B|173:199|173:199|204:273|204:273|191:350,1,233.999989288331,6|0,0:0|0:0,0:0:0:0:
69,296,181802,1,8,0:0:0:0:
308,179,181969,1,0,0:0:0:0:
308,179,182052,1,0,0:0:0:0:
308,179,182135,1,8,0:0:0:0:
53,180,182302,1,2,0:0:0:0:
345,286,182469,1,0,0:0:0:0:
215,18,182635,6,2,L|196:148,1,116.999994644165,10|0,0:0|0:0,0:0:0:0:
421,201,182969,1,0,0:0:0:0:
69,296,183135,2,0,L|53:179,1,116.999994644165,8|0,0:0|0:0,0:0:0:0:
98,73,183385,1,0,0:0:0:0:
98,73,183469,6,0,P|125:89|152:118,1,58.4999973220826,8|0,0:0|0:0,0:0:0:0:
183,251,183635,2,0,P|184:222|191:194,1,58.4999973220826,8|0,0:0|0:0,0:0:0:0:
296,86,183802,2,0,P|271:100|243:108,1,58.4999973220826,8|0,0:0|0:0,0:0:0:0:
101,220,183969,6,2,B|145:205|145:205|179:227|179:227|242:214|292:240,1,198.000006042481,6|0,0:0|0:0,0:0:0:0:
463,147,184469,2,0,P|403:151|358:168,1,99.0000030212403,8|0,0:0|0:0,0:0:0:0:
260,338,184802,1,0,0:0:0:0:
441,249,184969,1,0,0:0:0:0:
263,135,185135,1,8,0:0:0:0:
366,327,185302,6,2,P|284:239|199:253,1,198.000006042481
366,163,185802,1,8,0:0:0:0:
149,332,185969,2,0,P|117:296|105:233,1,99.0000030212403,2|0,0:0|0:0,0:0:0:0:
198,37,186302,1,0,0:0:0:0:
214,244,186469,1,8,0:0:0:0:
53,134,186635,6,2,B|100:113|149:132|149:132|196:149|246:134,1,198.000006042481,6|2,0:0|0:0,0:0:0:0:
382,32,187135,2,2,P|386:81|401:140,1,99.0000030212403,10|0,0:0|0:0,0:0:0:0:
387,343,187469,2,2,P|357:297|324:265,1,99.0000030212403,0|2,0:0|0:0,0:0:0:0:
72,246,187802,2,2,P|133:236|178:219,1,99.0000030212403,10|0,0:0|0:0,0:0:0:0:
292,95,188135,5,2,0:0:0:0:
239,302,188302,1,0,0:0:0:0:
189,85,188469,1,10,0:0:0:0:
345,289,188635,1,0,0:0:0:0:
98,140,188802,5,2,0:0:0:0:
417,211,188969,1,2,0:0:0:0:
73,300,189135,1,10,0:0:0:0:
435,347,189302,6,2,P|367:326|242:369,1,198.000006042481,6|0,0:0|0:0,0:0:0:0:
73,300,189802,2,2,P|122:295|177:272,1,99.0000030212403,8|2,0:0|0:0,0:0:0:0:
247,180,190135,1,2,0:0:0:0:
453,262,190302,2,0,P|401:241|353:238,1,99.0000030212403,4|8,0:2|0:0,0:0:0:0:
163,366,190635,6,2,B|133:314|133:314|153:161,1,198.000006042481,6|0,0:0|0:0,0:0:0:0:
359,38,191135,1,10,0:0:0:0:
278,206,191302,2,2,L|267:86,1,99.0000030212403,2|0,0:0|0:0,0:0:0:0:
268,107,191552,1,0,0:0:0:0:
268,107,191635,1,0,0:0:0:0:
246,318,191802,1,8,0:0:0:0:
174,212,191969,6,2,P|113:185|11:259,1,198.000006042481,6|0,0:0|0:0,0:0:0:0:
264,286,192469,1,8,0:0:0:0:
350,181,192635,6,2,P|448:165|505:249,1,207.000003948212,4|2,0:0|0:0,0:0:0:0:
248,253,193135,1,8,0:0:0:0:
128,187,193302,6,2,B|95:134|95:134|99:51|161:-2,1,215.999993408203,6|2,0:0|0:0,0:0:0:0:
266,219,193802,1,8,0:0:0:0:
382,146,193969,5,2,0:0:0:0:
402,101,194052,1,0,0:0:0:0:
388,54,194135,1,8,0:3:0:0:
345,30,194219,1,8,0:3:0:0:
298,42,194302,1,2,0:0:0:0:
272,83,194385,1,0,0:0:0:0:
223,91,194469,1,8,0:3:0:0:
183,62,194552,1,8,0:3:0:0:
171,15,194635,6,2,L|149:218,1,198.000006042481,6|2,0:0|0:0,0:0:0:0:
181,341,195135,1,8,0:0:0:0:
39,205,195302,1,2,0:0:0:0:
280,231,195469,1,2,0:0:0:0:
37,181,195635,1,0,0:0:0:0:
272,79,195802,1,10,0:0:0:0:
33,156,195969,6,2,L|60:362,1,198.000006042481,2|0,0:0|0:0,0:0:0:0:
233,186,196469,1,10,0:0:0:0:
342,349,196635,1,0,0:0:0:0:
126,234,196802,1,2,0:0:0:0:
369,344,196969,1,2,0:0:0:0:
272,79,197135,1,8,0:0:0:0:
396,340,197302,6,2,P|422:225|396:149,1,198.000006042481,0|2,0:0|0:0,0:0:0:0:
174,223,197802,2,0,L|274:205,1,99.0000030212403,8|2,0:0|0:0,0:0:0:0:
79,147,198135,1,0,0:0:0:0:
322,69,198302,2,2,P|264:62|204:75,1,99.0000030212403,2|8,0:0|0:0,0:0:0:0:
66,291,198635,6,2,B|101:276|101:276|139:286|139:286|194:247|189:182,1,198.000006042481,6|0,0:0|0:0,0:0:0:0:
232,353,199135,1,8,0:0:0:0:
232,353,199219,1,0,0:0:0:0:
232,353,199302,2,2,B|272:347|299:322|299:322|350:367|416:357,1,198.000006042481,2|0,0:0|0:0,0:0:0:0:
386,243,199802,1,8,0:0:0:0:
110,326,199969,6,2,P|67:279|81:140,1,198.000006042481,4|2,0:0|0:0,0:0:0:0:
281,35,200469,2,0,L|298:144,1,99.0000030212403,8|0,0:0|0:0,0:0:0:0:
232,353,200802,2,0,L|215:244,1,99.0000030212403,0|2,0:0|0:0,0:0:0:0:
386,70,201135,1,8,0:0:0:0:
470,155,201302,6,2,P|487:249|432:329,1,198.000006042481
232,353,201802,2,0,L|215:244,1,99.0000030212403,8|0,0:0|0:0,0:0:0:0:
296,132,202135,1,0,0:0:0:0:
338,378,202302,1,4,0:2:0:0:
115,271,202469,1,8,0:0:0:0:
391,183,202635,6,2,P|403:103|312:25,1,198.000006042481,6|0,0:0|0:0,0:0:0:0:
210,63,203052,1,0,0:0:0:0:
172,71,203135,2,2,P|111:61|60:34,1,99.0000030212403,10|0,0:0|0:0,0:0:0:0:
212,154,203385,1,0,0:0:0:0:
179,174,203468,2,2,P|118:185|61:177,1,99.0000030212403,8|2,0:0|0:0,0:0:0:0:
318,260,203802,6,2,P|378:244|436:242,1,99.0000030212403,8|2,0:0|0:0,0:0:0:0:
319,49,204135,2,2,P|385:58|424:76,1,99.0000030212403,10|0,0:0|0:0,0:0:0:0:
212,154,204469,6,0,P|141:139|62:172,1,148.50000453186,8|0,0:0|0:0,0:0:0:0:
50,193,204802,1,10,0:0:0:0:
268,342,204969,2,0,B|284:294|284:294|269:241,1,99.0000030212403,0|8,0:0|0:0,0:0:0:0:
395,35,205302,6,0,B|373:84|373:84|410:232,1,198.000006042481,6|0,0:0|0:0,0:0:0:0:
237,137,205802,2,0,L|129:122,1,99.0000030212403,8|0,0:0|0:0,0:0:0:0:
60,146,206052,1,0,0:0:0:0:
60,146,206135,1,8,0:0:0:0:
203,47,206302,1,8,0:3:0:0:
102,245,206469,1,8,0:3:0:0:
327,183,206635,5,6,0:0:0:0:
327,183,206969,1,0,0:0:0:0:
330,227,207052,1,0,0:0:0:0:
334,272,207135,1,8,0:0:0:0:
214,216,207302,1,0,0:0:0:0:
216,238,207385,1,0,0:0:0:0:
218,261,207468,5,8,0:3:0:0:
207,134,207691,1,8,0:3:0:0:
195,8,207913,1,8,0:3:0:0:
218,261,208135,5,4,0:2:0:0:
132,270,210802,5,4,0:2:0:0:
132,270,211969,2,0,P|118:252|107:217,1,36
131,137,212135,6,0,P|178:105|261:118,1,144,8|0,0:0|0:0,0:0:0:0:
312,208,212635,2,8,P|294:269|213:306,1,144,8|8,0:3|0:3,0:3:0:0:
132,270,213135,1,0,0:0:0:0:
208,207,213302,5,0,0:0:0:0:
208,207,213385,1,0,0:0:0:0:
208,207,213469,2,0,P|274:208|329:247,1,135,12|0,0:0|2:0,0:0:0:0:
329,247,213802,5,8,0:0:0:0:
179,134,213969,1,8,0:0:0:0:
241,302,214136,5,8,0:0:0:0:
268,79,214302,1,8,0:0:0:0:
134,242,214469,5,8,0:0:0:0:
374,140,214636,1,8,0:0:0:0:
135,100,214802,5,8,0:0:0:0:
374,281,214969,1,8,0:0:0:0:
274,24,215136,5,8,0:0:0:0:
235,357,215302,1,8,0:0:0:0:
426,118,215469,5,8,0:0:0:0:
82,263,215636,1,8,0:0:0:0:
418,315,215802,6,0,P|445:276|447:198,1,112.5,12|0,0:2|0:0,0:0:0:0:
426,118,216052,1,0,0:0:0:0:
426,118,216135,5,8,0:0:0:0:
388,134,216219,1,0,0:0:0:0:
348,133,216302,1,0,0:0:0:0:
311,117,216385,1,0,0:0:0:0:
286,85,216469,1,0,0:0:0:0:
278,47,216552,1,0,0:0:0:0:
288,8,216635,2,0,L|220:4,1,56.25,8|0,0:0|0:0,0:0:0:0:
178,114,216802,5,8,0:3:0:0:
144,81,216885,1,8,0:3:0:0:
100,67,216969,1,0,0:0:0:0:
55,74,217052,1,0,0:0:0:0:
21,102,217135,1,8,0:3:0:0:
0,142,217219,1,8,0:3:0:0:
2,186,217302,2,0,P|31:194|66:189,1,56.25,8|0,0:0|0:0,0:0:0:0:
178,114,217469,5,8,0:0:0:0:
228,111,217552,1,0,0:0:0:0:
267,142,217635,1,8,0:3:0:0:
276,192,217719,1,8,0:3:0:0:
247,233,217802,1,0,0:0:0:0:
197,240,217885,1,0,0:0:0:0:
163,278,217969,1,8,0:3:0:0:
162,328,218052,1,8,0:3:0:0:
194,366,218135,5,8,0:3:0:0:
230,323,218219,1,0,0:0:0:0:
218,268,218302,1,8,0:3:0:0:
167,244,218385,1,8,0:3:0:0:
114,264,218469,1,8,0:3:0:0:
62,241,218552,1,0,0:0:0:0:
46,187,218635,1,0,0:0:0:0:
71,136,218719,1,0,0:0:0:0:
127,123,218802,5,6,0:0:0:0:
399,212,218969,1,8,0:0:0:0:
307,267,219135,1,0,0:0:0:0:
292,226,219219,1,0,0:0:0:0:
297,183,219302,1,8,0:0:0:0:
470,139,219469,1,0,0:0:0:0:
191,46,219635,1,8,0:0:0:0:
291,2,219802,1,0,0:0:0:0:
300,44,219885,1,0,0:0:0:0:
291,86,219969,2,0,P|283:112|284:147,1,53.9999983520508,8|0,0:0|0:0,0:0:0:0:
347,289,220135,5,2,0:0:0:0:
93,316,220302,1,8,0:0:0:0:
201,126,220469,1,0,0:0:0:0:
205,169,220552,1,0,0:0:0:0:
210,212,220635,1,8,0:0:0:0:
223,337,220802,1,0,0:0:0:0:
205,169,220969,1,8,0:0:0:0:
201,126,221052,1,0,0:0:0:0:
223,337,221219,1,0,0:0:0:0:
227,380,221302,1,8,0:0:0:0:
61,219,221469,5,2,0:0:0:0:
301,139,221635,1,8,0:0:0:0:
146,287,221802,1,0,0:0:0:0:
168,250,221885,1,0,0:0:0:0:
172,205,221969,1,8,0:0:0:0:
25,116,222135,1,0,0:0:0:0:
277,245,222302,1,8,0:0:0:0:
162,52,222469,1,0,0:0:0:0:
140,89,222552,1,0,0:0:0:0:
133,131,222635,1,8,0:0:0:0:
145,172,222719,1,0,0:0:0:0:
172,205,222802,5,2,0:0:0:0:
400,51,222969,1,8,0:0:0:0:
238,125,223135,1,0,0:0:0:0:
265,124,223219,1,0,0:0:0:0:
291,123,223302,1,8,0:0:0:0:
172,205,223469,5,2,0:0:0:0:
213,203,223553,1,0,0:0:0:0:
252,202,223636,1,8,0:0:0:0:
109,289,223802,5,2,0:0:0:0:
164,286,223886,1,0,0:0:0:0:
218,285,223969,2,0,L|285:281,1,53.9999983520508,8|0,0:0|0:0,0:0:0:0:
451,273,224135,5,6,0:0:0:0:
291,123,224302,1,8,0:0:0:0:
501,181,224469,2,0,P|470:171|433:170,1,53.9999983520508
271,281,224635,1,8,0:0:0:0:
388,90,224802,5,2,0:0:0:0:
360,335,224969,1,8,0:0:0:0:
141,227,225135,2,0,L|210:221,1,53.9999983520508,2|0,0:0|0:0,0:0:0:0:
354,201,225302,2,0,L|281:185,1,53.9999983520508,8|0,0:0|0:0,0:0:0:0:
85,142,225469,5,2,0:0:0:0:
302,289,225635,1,8,0:0:0:0:
50,331,225802,1,2,0:0:0:0:
92,324,225885,1,0,0:0:0:0:
135,317,225969,1,8,0:0:0:0:
397,272,226135,5,2,0:0:0:0:
171,208,226302,1,8,0:0:0:0:
171,208,226385,1,0,0:0:0:0:
382,152,226552,1,0,0:0:0:0:
382,152,226635,1,8,0:0:0:0:
207,99,226802,5,2,0:0:0:0:
250,297,226969,1,8,0:0:0:0:
278,183,227135,1,0,0:0:0:0:
278,183,227219,1,0,0:0:0:0:
278,183,227302,1,8,0:0:0:0:
94,120,227469,1,0,0:0:0:0:
259,5,227635,1,8,0:0:0:0:
207,99,227802,1,0,0:0:0:0:
207,99,227885,1,0,0:0:0:0:
207,99,227969,1,8,0:0:0:0:
19,39,228135,5,2,0:2:0:0:
69,228,228302,1,8,0:0:0:0:
207,99,228469,1,0,0:0:0:0:
202,66,228552,1,0,0:0:0:0:
197,34,228635,1,8,0:0:0:0:
313,161,228802,5,2,0:2:0:0:
325,119,228885,1,0,0:0:0:0:
350,83,228969,1,8,0:0:0:0:
223,246,229135,5,0,0:0:0:0:
200,196,229219,1,0,0:0:0:0:
152,170,229302,1,8,0:0:0:0:
98,176,229385,1,0,0:0:0:0:
57,212,229469,5,6,0:0:0:0:
339,198,229635,1,8,0:0:0:0:
260,123,229802,1,0,0:0:0:0:
258,80,229885,1,0,0:0:0:0:
257,36,229969,1,8,0:0:0:0:
264,273,230135,1,0,0:0:0:0:
420,123,230302,1,8,0:0:0:0:
496,201,230469,1,0,0:0:0:0:
460,225,230552,1,0,0:0:0:0:
417,232,230635,1,8,0:0:0:0:
374,224,230719,1,0,0:0:0:0:
339,198,230802,5,2,0:0:0:0:
510,346,230969,1,8,0:0:0:0:
291,338,231135,1,0,0:0:0:0:
330,318,231219,1,0,0:0:0:0:
373,318,231302,1,8,0:0:0:0:
173,282,231469,1,0,0:0:0:0:
203,81,231635,1,8,0:0:0:0:
197,124,231719,1,0,0:0:0:0:
167,325,231885,1,0,0:0:0:0:
173,282,231969,1,8,0:0:0:0:
209,37,232135,5,2,0:0:0:0:
272,243,232302,1,8,0:0:0:0:
115,89,232469,1,0,0:0:0:0:
99,48,232552,1,0,0:0:0:0:
106,5,232635,1,8,0:0:0:0:
23,145,232802,1,0,0:0:0:0:
307,73,232969,1,8,0:0:0:0:
201,317,233135,1,0,0:0:0:0:
173,283,233219,1,0,0:0:0:0:
166,240,233302,2,0,P|171:209|186:175,1,53.9999983520508,8|0,0:0|0:0,0:0:0:0:
403,113,233469,5,2,0:0:0:0:
272,243,233635,1,8,0:0:0:0:
470,329,233802,1,0,0:0:0:0:
475,297,233885,1,0,0:0:0:0:
469,264,233969,1,8,0:0:0:0:
296,161,234135,5,2,0:0:0:0:
275,199,234218,1,0,0:0:0:0:
272,243,234302,1,8,0:0:0:0:
509,117,234469,5,2,0:0:0:0:
497,64,234552,1,0,0:0:0:0:
460,24,234635,2,0,P|432:8|392:2,1,53.9999983520508,8|0,0:0|0:0,0:0:0:0:
188,72,234802,5,6,0:0:0:0:
400,116,234969,1,8,0:0:0:0:
163,178,235135,2,0,L|94:197,1,53.9999983520508
270,150,235302,1,8,0:0:0:0:
47,106,235469,5,2,0:0:0:0:
301,40,235635,1,8,0:0:0:0:
153,280,235802,2,0,L|146:343,1,53.9999983520508,2|0,0:0|0:0,0:0:0:0:
163,178,235969,1,8,0:0:0:0:
257,366,236135,5,2,0:0:0:0:
11,227,236302,1,8,0:0:0:0:
263,108,236469,1,2,0:0:0:0:
270,150,236552,1,0,0:0:0:0:
277,192,236635,1,8,0:0:0:0:
46,371,236802,5,2,0:0:0:0:
163,178,236969,1,8,0:0:0:0:
163,178,237052,1,0,0:0:0:0:
344,367,237219,1,0,0:0:0:0:
344,367,237302,2,0,P|341:337|332:307,1,53.9999983520508,8|0,0:0|0:0,0:0:0:0:
242,246,237469,5,14,0:0:0:0:
270,271,237552,1,8,0:0:0:0:
304,286,237635,1,0,0:0:0:0:
341,289,237719,1,0,0:0:0:0:
377,281,237802,1,8,0:3:0:0:
410,263,237885,1,8,0:3:0:0:
432,232,237969,1,0,0:0:0:0:
404,207,238052,1,0,0:0:0:0:
370,192,238135,1,8,0:3:0:0:
333,189,238219,1,8,0:3:0:0:
297,197,238302,1,0,0:0:0:0:
264,215,238385,1,0,0:0:0:0:
242,246,238469,1,0,0:0:0:0:
208,263,238552,1,0,0:0:0:0:
170,266,238635,1,8,0:3:0:0:
133,255,238719,1,8,0:3:0:0:
106,228,238802,6,8,L|95:289,1,53.9999983520508,10|8,0:0|0:0,0:0:0:0:
192,55,238969,2,8,L|181:-8,1,53.9999983520508
117,136,239135,5,8,0:3:0:0:
165,160,239219,1,8,0:3:0:0:
218,157,239302,1,0,0:0:0:0:
265,131,239385,1,0,0:0:0:0:
295,85,239469,5,8,0:3:0:0:
297,127,239552,1,8,0:3:0:0:
279,166,239635,1,0,0:0:0:0:
243,191,239719,1,0,0:0:0:0:
200,193,239802,5,8,0:3:0:0:
225,212,239885,1,8,0:3:0:0:
256,219,239969,1,0,0:0:0:0:
287,214,240052,1,0,0:0:0:0:
317,196,240135,5,6,0:0:0:0:
337,186,240218,1,0,0:0:0:0:
359,182,240301,1,8,0:0:0:0:
381,186,240385,1,0,0:0:0:0:
400,197,240468,1,0,0:0:0:0:
416,213,240551,1,0,0:0:0:0:
425,234,240635,1,8,0:0:0:0:
427,256,240718,1,0,0:0:0:0:
423,278,240801,1,0,0:0:0:0:
411,297,240885,1,0,0:0:0:0:
394,312,240968,1,8,0:0:0:0:
374,320,241051,1,0,0:0:0:0:
351,322,241135,1,0,0:0:0:0:
330,317,241218,1,0,0:0:0:0:
311,304,241302,2,2,P|278:290|239:289,1,58.4999973220826,10|0,0:0|0:0,0:0:0:0:
161,320,241469,5,2,0:0:0:0:
139,335,241552,1,0,0:0:0:0:
113,343,241635,1,8,0:0:0:0:
86,342,241719,1,0,0:0:0:0:
61,333,241802,1,0,0:0:0:0:
40,315,241885,1,0,0:0:0:0:
27,292,241969,1,8,0:0:0:0:
21,266,242052,1,0,0:0:0:0:
24,239,242135,1,0,0:0:0:0:
36,215,242219,1,0,0:0:0:0:
55,196,242302,1,8,0:0:0:0:
79,184,242385,1,0,0:0:0:0:
105,181,242469,1,0,0:0:0:0:
132,186,242552,1,0,0:0:0:0:
155,202,242635,2,2,P|181:211|221:212,1,58.4999973220826,10|0,0:0|0:0,0:0:0:0:
331,158,242802,5,2,0:0:0:0:
351,134,242885,1,0,0:0:0:0:
378,119,242968,1,8,0:0:0:0:
409,114,243052,1,0,0:0:0:0:
440,120,243135,1,0,0:0:0:0:
467,137,243218,1,0,0:0:0:0:
486,161,243302,1,8,0:0:0:0:
495,191,243385,1,0,0:0:0:0:
494,222,243468,1,0,0:0:0:0:
482,251,243552,1,0,0:0:0:0:
460,274,243635,1,8,0:0:0:0:
432,288,243718,1,0,0:0:0:0:
401,291,243802,1,0,0:0:0:0:
371,284,243885,1,0,0:0:0:0:
345,266,243969,2,2,P|314:257|282:255,1,58.4999973220826,10|0,0:0|0:0,0:0:0:0:
170,290,244135,5,2,0:0:0:0:
139,308,244218,1,0,0:0:0:0:
103,314,244301,1,8,0:0:0:0:
68,308,244385,1,0,0:0:0:0:
37,290,244468,1,0,0:0:0:0:
14,262,244551,1,0,0:0:0:0:
3,228,244635,1,8,0:0:0:0:
3,192,244718,1,0,0:0:0:0:
16,159,244801,5,2,0:0:0:0:
37,164,244885,1,0,0:0:0:0:
58,168,244969,2,0,L|69:93,1,58.4999973220826,8|0,0:0|0:0,0:0:0:0:
191,49,245135,5,2,0:0:0:0:
225,57,245219,1,0,0:0:0:0:
259,64,245302,2,0,L|269:137,1,62.9999980773926,8|0,0:0|0:0,0:0:0:0:
414,182,245469,6,0,B|427:151|427:151|426:105,7,67.5000025749208,6|0|8|0|0|0|8|0,0:0|0:0|0:0|0:0|0:0|0:0|0:0|0:0,0:0:0:0:
354,30,246135,5,2,0:0:0:0:
354,30,246219,1,0,0:0:0:0:
354,30,246302,2,0,L|273:41,1,67.5000025749208,8|0,0:0|0:0,0:0:0:0:
115,99,246469,1,2,0:0:0:0:
115,99,246553,1,0,0:0:0:0:
115,99,246636,2,0,L|196:110,1,67.5000025749208,8|0,0:0|0:0,0:0:0:0:
353,161,246802,5,2,0:0:0:0:
384,173,246885,1,0,0:0:0:0:
409,195,246969,2,0,P|373:204|325:203,1,67.5000025749208,8|0,0:0|0:0,0:0:0:0:
143,192,247135,1,2,0:0:0:0:
112,204,247218,1,0,0:0:0:0:
87,226,247302,2,0,P|123:235|171:234,1,67.5000025749208,8|0,0:0|0:0,0:0:0:0:
342,205,247469,6,0,L|327:115,1,67.5000025749208,2|0,0:0|0:0,0:0:0:0:
244,180,247635,2,0,L|231:103,1,67.5000025749208,8|0,0:0|0:0,0:0:0:0:
415,278,247802,6,0,L|400:368,1,67.5000025749208,2|0,0:0|0:0,0:0:0:0:
317,303,247968,2,0,L|304:380,1,67.5000025749208,8|0,0:0|0:0,0:0:0:0:
342,205,248135,5,2,0:0:0:0:
363,188,248219,1,0,0:0:0:0:
388,179,248302,1,8,0:0:0:0:
414,175,248385,1,0,0:0:0:0:
440,178,248469,1,0,0:0:0:0:
465,187,248552,1,0,0:0:0:0:
486,203,248635,5,10,0:0:0:0:
470,180,248719,1,0,0:0:0:0:
449,163,248802,1,0,0:0:0:0:
426,152,248886,1,0,0:0:0:0:
400,148,248969,1,8,0:0:0:0:
374,146,249052,1,0,0:0:0:0:
348,155,249136,5,2,0:0:0:0:
333,132,249219,1,0,0:0:0:0:
329,105,249302,1,8,0:0:0:0:
334,78,249385,1,0,0:0:0:0:
347,55,249469,6,0,P|367:40|389:31,1,49.5000015106202,2|0,0:2|0:0,0:0:0:0:
238,26,249635,6,0,P|236:55|238:85,1,58.4999973220826,8|0,0:0|0:0,0:0:0:0:
169,176,249802,6,0,P|145:152|128:124,1,67.5000025749208,2|0,0:2|0:0,0:0:0:0:
111,279,249969,6,0,P|146:292|185:294,1,76.5000014591217,10|0,0:2|0:0,0:0:0:0:
347,144,250135,5,2,0:0:0:0:
382,191,250219,1,8,0:3:0:0:
376,248,250302,1,0,0:0:0:0:
329,282,250385,1,0,0:0:0:0:
270,271,250469,1,0,0:0:0:0:
236,223,250552,1,0,0:0:0:0:
179,208,250635,1,0,0:0:0:0:
124,230,250719,1,0,0:0:0:0:
103,284,250802,5,6,0:0:0:0:
129,287,250885,1,0,0:0:0:0:
156,290,250968,1,8,0:0:0:0:
184,294,251052,1,0,0:0:0:0:
210,297,251135,1,0,0:0:0:0:
236,300,251218,1,0,0:0:0:0:
263,304,251302,1,8,0:0:0:0:
290,307,251385,1,0,0:0:0:0:
317,310,251468,1,0,0:0:0:0:
344,314,251552,1,0,0:0:0:0:
370,317,251635,1,8,0:0:0:0:
397,320,251718,1,0,0:0:0:0:
424,324,251802,1,0,0:0:0:0:
451,327,251885,1,0,0:0:0:0:
478,330,251969,2,2,B|485:301|485:301|481:266,1,58.4999973220826,10|0,0:0|0:0,0:0:0:0:
443,178,252135,5,2,0:0:0:0:
411,183,252218,1,0,0:0:0:0:
380,188,252301,1,8,0:0:0:0:
349,193,252385,1,0,0:0:0:0:
318,198,252468,1,0,0:0:0:0:
287,203,252551,1,0,0:0:0:0:
256,208,252635,1,8,0:0:0:0:
225,213,252718,1,0,0:0:0:0:
194,218,252801,1,0,0:0:0:0:
163,223,252885,1,0,0:0:0:0:
132,228,252968,1,8,0:0:0:0:
101,233,253051,1,0,0:0:0:0:
69,238,253135,1,0,0:0:0:0:
38,243,253218,1,0,0:0:0:0:
7,249,253302,2,2,B|-1:219|-1:219|2:182,1,58.4999973220826,10|0,0:0|0:0,0:0:0:0:
12,90,253469,5,2,0:0:0:0:
47,95,253552,1,0,0:0:0:0:
83,101,253635,1,8,0:0:0:0:
118,107,253719,1,0,0:0:0:0:
154,113,253802,1,0,0:0:0:0:
189,119,253885,1,0,0:0:0:0:
225,125,253969,1,8,0:0:0:0:
260,131,254052,1,0,0:0:0:0:
296,136,254135,1,0,0:0:0:0:
331,142,254219,1,0,0:0:0:0:
367,148,254302,1,8,0:0:0:0:
402,154,254385,1,0,0:0:0:0:
438,160,254469,1,0,0:0:0:0:
473,166,254552,1,0,0:0:0:0:
509,172,254635,2,2,B|512:142|512:142|504:107,1,58.4999973220826,10|0,0:0|0:0,0:0:0:0:
467,12,254802,5,2,0:0:0:0:
427,18,254885,1,0,0:0:0:0:
387,25,254968,1,8,0:0:0:0:
347,31,255052,1,0,0:0:0:0:
307,38,255135,1,0,0:0:0:0:
267,44,255218,1,0,0:0:0:0:
227,51,255302,1,8,0:0:0:0:
187,57,255385,1,0,0:0:0:0:
147,64,255468,5,2,0:0:0:0:
185,91,255552,1,0,0:0:0:0:
207,132,255635,2,0,P|213:162|213:192,1,58.4999973220826,8|0,0:0|0:0,0:0:0:0:
341,185,255802,5,2,0:0:0:0:
336,235,255886,1,0,0:0:0:0:
309,279,255969,2,0,P|283:301|255:317,1,62.9999980773926,8|0,0:0|0:0,0:0:0:0:
73,270,256135,6,0,P|59:240|56:199,7,67.5000025749208,6|0|8|0|0|0|8|0,0:0|0:0|0:0|0:0|0:0|0:0|0:0|0:0,0:0:0:0:
170,66,256802,5,2,0:0:0:0:
170,66,256885,1,0,0:0:0:0:
170,66,256969,2,0,P|183:103|187:147,1,67.5000025749208,8|0,0:0|0:0,0:0:0:0:
258,315,257135,5,2,0:0:0:0:
258,315,257218,1,0,0:0:0:0:
258,315,257302,2,0,P|260:277|275:234,1,67.5000025749208,8|0,0:0|0:0,0:0:0:0:
417,153,257469,6,0,P|453:158|490:155,1,67.5000025749208,2|0,0:0|0:0,0:0:0:0:
387,268,257635,2,8,P|418:280|457:284,1,67.5000025749208,8|0,0:0|0:0,0:0:0:0:
153,277,257802,6,0,P|117:272|80:275,1,67.5000025749208,2|0,0:0|0:0,0:0:0:0:
182,161,257968,2,8,P|151:149|112:145,1,67.5000025749208,8|0,0:0|0:0,0:0:0:0:
271,77,258135,5,2,0:0:0:0:
314,95,258219,1,0,0:0:0:0:
361,95,258302,1,8,0:0:0:0:
400,70,258385,1,0,0:0:0:0:
424,28,258469,2,0,L|496:45,3,67.5000025749208,0|0|8|0,0:0|0:0|0:0|0:0,0:0:0:0:
443,156,258802,5,6,0:0:0:0:
450,196,258885,1,0,0:0:0:0:
458,236,258969,1,8,0:0:0:0:
465,276,259052,1,0,0:0:0:0:
471,316,259135,2,0,L|402:295,1,58.4999973220826
304,261,259302,5,10,0:0:0:0:
311,221,259385,1,0,0:0:0:0:
319,181,259469,1,0,0:0:0:0:
326,141,259552,1,0,0:0:0:0:
332,101,259635,2,0,L|276:118,1,58.4999973220826,8|0,0:0|0:0,0:0:0:0:
161,149,259802,6,0,L|173:221,1,58.4999973220826,2|0,0:0|0:0,0:0:0:0:
188,304,259969,2,0,L|197:361,1,58.4999973220826,8|0,0:0|0:0,0:0:0:0:
78,369,260135,5,10,0:0:0:0:
26,357,260219,1,0,0:0:0:0:
3,309,260302,1,0,0:0:0:0:
19,259,260385,1,0,0:0:0:0:
66,235,260469,1,8,0:3:0:0:
115,252,260552,1,8,0:3:0:0:
163,231,260635,1,0,0:0:0:0:
183,181,260719,1,0,0:0:0:0:
160,133,260802,1,8,0:3:0:0:
111,114,260885,1,8,0:3:0:0:
61,132,260969,1,0,0:0:0:0:
13,110,261052,1,0,0:0:0:0:
2,58,261135,6,0,P|22:27|113:30,1,116.999994644165,12|0,0:2|0:0,0:0:0:0:
221,85,261385,1,0,0:0:0:0:
221,85,261469,6,2,L|344:75,1,112.5,14|0,0:0|0:0,0:0:0:0:
265,186,261719,1,0,0:0:0:0:
265,186,261803,2,0,L|387:197,1,112.5,8|0,0:0|0:0,0:0:0:0:
288,298,262052,1,0,0:0:0:0:
288,298,262136,2,0,L|407:330,1,112.5,8|0,0:0|0:0,0:0:0:0:
202,358,262385,1,0,0:0:0:0:
202,358,262469,2,0,L|135:369,1,56.25,8|0,0:0|0:0,0:0:0:0:
17,266,262635,2,2,P|47:258|84:260,1,56.25,2|0,0:0|0:0,0:0:0:0:
158,153,262802,6,2,P|142:84|105:45,1,116.999994644165,10|0,0:0|0:0,0:0:0:0:
280,136,263052,1,0,0:0:0:0:
280,136,263135,2,0,P|288:65|267:16,1,116.999994644165,8|0,0:0|0:0,0:0:0:0:
393,174,263385,1,0,0:0:0:0:
393,174,263468,2,0,P|435:116|441:63,1,116.999994644165,8|0,0:0|0:0,0:0:0:0:
471,273,263719,1,0,0:0:0:0:
471,273,263802,2,0,P|478:300|496:330,1,58.4999973220826,8|0,0:0|0:0,0:0:0:0:
348,289,263969,2,2,P|320:283|283:288,1,58.4999973220826,2|0,0:0|0:0,0:0:0:0:
123,365,264135,6,2,B|96:312|96:312|100:237,1,121.500000463486,10|0,0:0|0:0,0:0:0:0:
248,280,264385,1,0,0:0:0:0:
248,280,264469,2,0,B|251:220|251:220|292:157,1,121.500000463486,8|0,0:0|0:0,0:0:0:0:
400,274,264719,1,0,0:0:0:0:
400,274,264803,2,0,B|432:224|432:224|499:190,1,121.500000463486,8|0,0:0|0:0,0:0:0:0:
371,92,265052,1,0,0:0:0:0:
371,92,265135,2,0,L|318:48,1,60.7500002317429,8|0,0:0|0:0,0:0:0:0:
192,152,265302,2,2,L|144:190,1,60.7500002317429,2|0,0:0|0:0,0:0:0:0:
43,39,265469,6,2,B|71:18|71:18|174:38,1,125.999996154785,10|0,0:0|0:0,0:0:0:0:
371,92,265719,1,0,0:0:0:0:
371,92,265802,2,0,B|461:110|461:110|489:89,1,125.999996154785,8|0,0:0|0:0,0:0:0:0:
365,254,266052,1,0,0:0:0:0:
365,254,266135,6,8,P|376:293|406:322,2,83.9999974365235,10|8|8,0:0|0:0|0:0,0:0:0:0:
446,252,266469,5,8,0:3:0:0:
325,324,266580,1,8,0:3:0:0:
322,186,266691,1,8,0:3:0:0:
365,254,266802,5,6,0:0:0:0:
147,130,268135,5,6,0:0:0:0:
235,219,269469,6,0,B|199:270|133:296|133:296|238:368|351:326|412:220|392:101|277:46|277:46|287:116|262:172,1,756,6|0,0:0|2:0,0:0:0:0:
160,176,271302,6,0,P|162:149|173:121,1,53.9999983520508
266,19,271469,1,8,0:0:0:0:
240,355,271635,1,8,0:0:0:0:
240,355,272135,5,4,0:0:0:0:
441,218,272302,1,2,0:0:0:0:
348,157,272469,2,0,P|330:242|374:303,1,161.999995056153,10|0,0:0|0:0,0:0:0:0:
459,319,272802,1,0,0:0:0:0:
232,193,272969,1,2,0:0:0:0:
482,315,273135,1,8,0:0:0:0:
217,360,273302,1,2,0:0:0:0:
318,147,273469,6,2,P|326:209|307:261,1,107.999996704102,0|2,0:0|0:0,0:0:0:0:
86,236,273802,2,0,P|152:191|232:193,1,161.999995056153,10|0,0:0|0:0,0:0:0:0:
312,251,274135,1,0,0:0:0:0:
135,108,274302,1,2,0:0:0:0:
327,264,274469,1,8,0:0:0:0:
344,20,274635,1,2,0:0:0:0:
272,137,274802,5,0,0:0:0:0:
492,116,274969,1,2,0:0:0:0:
206,56,275135,2,0,P|168:129|209:216,1,161.999995056153,10|0,0:0|0:0,0:0:0:0:
272,137,275469,1,0,0:0:0:0:
71,163,275635,1,2,0:0:0:0:
282,115,275802,1,8,0:0:0:0:
187,334,275969,1,2,0:0:0:0:
192,200,276135,5,0,0:0:0:0:
341,376,276302,1,2,0:0:0:0:
88,304,276469,2,0,L|262:287,1,161.999995056153,10|0,0:0|0:0,0:0:0:0:
361,278,276802,1,0,0:0:0:0:
155,162,276969,1,2,0:0:0:0:
426,179,277135,2,2,L|309:171,1,107.999996704102,8|2,0:0|0:0,0:0:0:0:
50,157,277469,5,4,0:0:0:0:
286,68,277635,1,2,0:0:0:0:
159,217,277802,1,10,0:0:0:0:
157,190,277885,1,0,0:0:0:0:
155,162,277969,1,0,0:0:0:0:
258,284,278135,1,0,0:0:0:0:
42,345,278302,1,2,0:0:0:0:
283,277,278469,1,8,0:0:0:0:
47,103,278635,2,0,L|50:157,1,53.9999983520508,2|0,0:0|0:0,0:0:0:0:
159,217,278802,5,0,0:0:0:0:
381,122,278969,1,2,0:0:0:0:
165,17,279135,1,10,0:0:0:0:
163,49,279219,1,0,0:0:0:0:
160,81,279302,1,0,0:0:0:0:
313,212,279469,1,0,0:0:0:0:
453,42,279635,1,2,0:0:0:0:
282,197,279802,1,8,0:0:0:0:
500,300,279969,2,0,L|504:239,1,53.9999983520508,2|0,0:0|0:0,0:0:0:0:
381,122,280135,5,0,0:0:0:0:
177,267,280302,1,2,0:0:0:0:
401,368,280469,1,10,0:0:0:0:
398,330,280553,1,0,0:0:0:0:
395,292,280636,1,0,0:0:0:0:
219,125,280802,1,0,0:0:0:0:
85,341,280969,1,2,0:0:0:0:
235,99,281135,1,8,0:0:0:0:
307,375,281302,5,0,0:0:0:0:
299,343,281385,1,0,0:0:0:0:
290,310,281469,1,12,0:2:0:0:
116,328,281635,5,0,0:0:0:0:
126,292,281719,1,0,0:0:0:0:
136,256,281802,1,12,0:2:0:0:
404,288,281969,5,0,0:0:0:0:
392,248,282052,1,0,0:0:0:0:
380,208,282135,5,12,0:2:0:0:
342,245,282218,1,0,0:0:0:0:
289,255,282301,1,0,0:0:0:0:
241,233,282384,1,0,0:0:0:0:
213,187,282468,1,8,0:3:0:0:
216,134,282551,1,8,0:3:0:0:
249,92,282634,1,0,0:0:0:0:
299,76,282718,1,0,0:0:0:0:
350,91,282802,6,2,P|416:98|480:65,1,116.999994644165,14|0,0:0|0:0,0:0:0:0:
300,165,283052,1,0,0:0:0:0:
323,199,283135,2,2,P|377:227|440:228,1,116.999994644165,8|2,0:0|0:0,0:0:0:0:
214,205,283385,1,0,0:0:0:0:
214,246,283469,2,0,P|239:318|269:350,1,116.999994644165,8|2,0:0|0:0,0:0:0:0:
117,191,283719,1,0,0:0:0:0:
94,225,283802,2,0,P|86:249|84:283,1,58.4999973220826,8|0,0:0|0:0,0:0:0:0:
177,108,283969,2,0,P|171:82|160:53,1,58.4999973220826,2|0,0:0|0:0,0:0:0:0:
214,205,284135,6,2,P|269:187|341:182,1,116.999994644165,10|0,0:0|0:0,0:0:0:0:
456,232,284385,1,0,0:0:0:0:
486,260,284469,2,0,P|430:277|359:283,1,116.999994644165,8|2,0:0|0:0,0:0:0:0:
229,341,284719,1,0,0:0:0:0:
194,319,284802,6,0,P|168:313|123:315,1,58.4999973220826,10|0,0:0|0:0,0:0:0:0:
298,213,284969,2,0,P|326:205|358:204,1,58.4999973220826
146,142,285135,2,0,P|119:135|83:135,1,58.4999973220826,10|0,0:0|0:0,0:0:0:0:
312,47,285302,2,0,P|341:41|379:39,1,58.4999973220826,2|0,0:0|0:0,0:0:0:0:
216,24,285469,6,2,L|241:146,1,116.999994644165,10|0,0:0|0:0,0:0:0:0:
161,290,285719,1,0,0:0:0:0:
131,258,285802,2,2,L|146:142,1,116.999994644165,8|2,0:0|0:0,0:0:0:0:
312,47,286052,1,0,0:0:0:0:
348,72,286135,2,0,L|373:194,1,116.999994644165,8|2,0:0|0:0,0:0:0:0:
302,315,286385,1,0,0:0:0:0:
272,283,286468,2,0,L|281:217,1,58.4999973220826,10|0,0:0|0:0,0:0:0:0:
463,214,286635,2,0,L|454:280,1,58.4999973220826
363,142,286802,5,10,0:0:0:0:
348,72,286885,1,0,0:0:0:0:
409,37,286969,1,2,0:0:0:0:
460,84,287052,1,0,0:0:0:0:
432,148,287135,1,10,0:0:0:0:
180,217,287302,2,0,P|172:186|175:141,1,58.4999973220826,2|0,0:0|0:0,0:0:0:0:
261,19,287469,1,8,0:0:0:0:
357,311,287635,6,0,P|365:280|362:235,1,58.4999973220826,2|0,0:0|0:0,0:0:0:0:
248,98,287802,1,8,0:0:0:0:
141,365,287969,6,0,P|133:334|136:289,1,58.4999973220826
264,177,288135,6,2,B|323:186|323:186|379:164,1,116.999994644165,14|0,0:0|0:0,0:0:0:0:
214,168,288385,1,0,0:0:0:0:
178,204,288469,2,2,B|140:250|140:250|131:310,1,116.999994644165,8|2,0:0|0:0,0:0:0:0:
214,168,288719,1,0,0:0:0:0:
198,119,288802,2,0,B|176:63|176:63|129:25,1,116.999994644165,8|2,0:0|0:0,0:0:0:0:
214,168,289052,1,0,0:0:0:0:
264,177,289135,2,0,L|335:188,1,58.4999973220826,8|0,0:0|0:0,0:0:0:0:
86,136,289302,2,0,L|15:147,1,58.4999973220826,2|0,0:0|0:0,0:0:0:0:
294,74,289469,6,2,L|424:92,1,116.999994644165,10|0,0:0|0:0,0:0:0:0:
264,177,289719,1,0,0:0:0:0:
299,215,289802,2,0,L|421:186,1,116.999994644165,8|2,0:0|0:0,0:0:0:0:
306,324,290052,1,0,0:0:0:0:
354,344,290135,6,0,L|402:311,1,58.4999973220826,10|0,0:0|0:0,0:0:0:0:
174,323,290302,2,0,L|111:359,1,58.4999973220826
264,177,290469,2,0,L|336:152,1,58.4999973220826,10|0,0:0|0:0,0:0:0:0:
87,120,290635,2,0,L|27:144,1,58.4999973220826,2|0,0:0|0:0,0:0:0:0:
196,25,290802,5,10,0:0:0:0:
236,58,290885,1,0,0:0:0:0:
274,92,290968,1,0,0:0:0:0:
323,73,291051,1,0,0:0:0:0:
371,56,291135,5,8,0:0:0:0:
362,107,291218,1,0,0:0:0:0:
353,157,291301,1,0,0:0:0:0:
392,190,291385,1,0,0:0:0:0:
433,223,291468,5,8,0:0:0:0:
382,241,291551,1,0,0:0:0:0:
335,260,291635,1,0,0:0:0:0:
327,310,291718,1,0,0:0:0:0:
317,361,291801,5,8,0:0:0:0:
278,327,291885,1,0,0:0:0:0:
239,293,291968,1,0,0:0:0:0:
190,312,292051,1,0,0:0:0:0:
142,331,292135,5,10,0:0:0:0:
151,279,292218,1,0,0:0:0:0:
160,228,292301,1,0,0:0:0:0:
121,195,292385,1,0,0:0:0:0:
80,162,292468,5,8,0:0:0:0:
129,144,292551,1,0,0:0:0:0:
178,128,292635,1,0,0:0:0:0:
186,77,292718,1,0,0:0:0:0:
196,25,292802,6,8,L|254:73,1,60.7500002317429
317,361,292969,2,8,L|259:313,1,60.7500002317429
362,107,293135,6,0,L|346:181,1,60.7500002317429,8|0,0:0|0:0,0:0:0:0:
151,279,293302,2,8,L|163:219,1,60.7500002317429,8|8,0:3|0:3,0:3:0:0:
71,17,293469,5,14,0:0:0:0:
17,49,293552,1,0,0:0:0:0:
12,111,293635,1,0,0:0:0:0:
59,153,293719,1,0,0:0:0:0:
120,144,293802,2,0,L|193:137,1,62.9999980773926
390,171,293969,5,10,0:0:0:0:
421,116,294052,1,0,0:0:0:0:
400,56,294135,1,0,0:0:0:0:
339,35,294219,1,0,0:0:0:0:
283,64,294302,2,0,L|277:134,1,62.9999980773926
245,306,294469,5,10,0:0:0:0:
303,285,294552,1,0,0:0:0:0:
360,310,294635,1,0,0:0:0:0:
419,332,294719,1,0,0:0:0:0:
477,310,294802,2,0,L|481:247,1,62.9999980773926
348,107,294969,5,10,0:0:0:0:
299,146,295052,1,0,0:0:0:0:
237,156,295135,1,0,0:0:0:0:
174,143,295219,1,0,0:0:0:0:
130,97,295302,2,0,L|135:183,1,62.9999980773926
75,333,295469,5,10,0:0:0:0:
137,324,295552,1,0,0:0:0:0:
199,316,295635,1,0,0:0:0:0:
262,307,295718,1,0,0:0:0:0:
324,299,295802,2,0,B|253:277,1,62.9999980773926,8|0,0:0|0:0,0:0:0:0:
59,211,295969,2,0,B|129:190,1,62.9999980773926,8|0,0:3|0:0,0:0:0:0:
303,112,296135,5,10,0:0:0:0:
344,161,296219,1,0,0:0:0:0:
405,150,296302,1,0,0:0:0:0:
428,90,296385,1,0,0:0:0:0:
387,41,296469,2,0,P|356:38|321:54,1,67.5000025749208
235,173,296635,5,10,0:0:0:0:
190,225,296719,1,0,0:0:0:0:
121,214,296802,1,0,0:0:0:0:
99,150,296885,1,0,0:0:0:0:
143,97,296969,2,0,P|172:93|215:113,1,72
304,240,297135,5,10,0:0:0:0:
349,295,297219,1,0,0:0:0:0:
421,284,297302,1,0,0:0:0:0:
445,215,297385,1,0,0:0:0:0:
400,162,297469,2,0,P|366:158|326:174,1,76.5000014591217
229,307,297635,5,10,0:0:0:0:
181,365,297719,1,0,0:0:0:0:
105,350,297802,1,0,0:0:0:0:
78,279,297885,1,0,0:0:0:0:
127,221,297969,2,0,P|159:217|203:236,1,80.9999975280763
344,369,298135,6,8,B|315:341|315:341|304:296,1,85.4999977169037,10|8,0:0|0:0,0:0:0:0:
282,9,298302,2,8,B|288:47|288:47|272:91,1,85.4999977169037
120,336,298469,2,8,B|137:300|137:300|175:275,1,85.4999977169037
444,166,298635,2,8,B|408:184|408:184|362:182,1,85.4999977169037
82,112,298802,5,0,0:0:0:0:
256,192,298885,12,0,300802,0:0:0:0:
