osu file format v14

[General]
AudioFilename: audio.mp3
AudioLeadIn: 0
PreviewTime: 109569
Countdown: 0
SampleSet: Normal
StackLeniency: 0.3
Mode: 0
LetterboxInBreaks: 0
WidescreenStoryboard: 0

[Editor]
DistanceSpacing: 1.1
BeatDivisor: 4
GridSize: 8
TimelineZoom: 2.6

[Metadata]
Title:Pure Furies ~ Vengeance is Mine
TitleUnicode:Pure Furies ~ Vengeance is Mine
Artist:Demetori
ArtistUnicode:Demetori
Creator:Majii
Version:Victory!
Source:東方紺珠伝 ~ Legacy of Lunatic Kingdom
Tags:C92 Zun Junko Touhou 15 Determinism&Destrukction instrumental metal
BeatmapID:1409961
BeatmapSetID:666167

[Difficulty]
HPDrainRate:6.5
CircleSize:4
OverallDifficulty:8
ApproachRate:9
SliderMultiplier:1.4
SliderTickRate:1

[Events]
//Background and Video events
0,0,"maxresdefault.jpg",0,0
//Break Periods
//Storyboard Layer 0 (Background)
//Storyboard Layer 1 (Fail)
//Storyboard Layer 2 (Pass)
//Storyboard Layer 3 (Foreground)
//Storyboard Layer 4 (Overlay)
//Storyboard Sound Samples

[TimingPoints]
236,333.333333333333,4,1,1,50,1,0
236,-200,4,1,1,50,0,0
5569,-200,4,1,1,50,0,0
10902,-200,4,3,1,75,0,0
21569,-100,4,1,1,85,0,0
32569,-66.6666666666667,4,1,1,85,0,0
32735,-100,4,1,1,85,0,0
33902,-66.6666666666667,4,1,1,85,0,0
34069,-100,4,1,1,85,0,0
35235,-66.6666666666667,4,1,1,85,0,0
35402,-100,4,1,1,85,0,0
36569,-66.6666666666667,4,1,1,85,0,0
36735,-100,4,1,1,85,0,0
37902,-66.6666666666667,4,1,1,85,0,0
38902,-100,4,1,1,85,0,0
39235,-66.6666666666667,4,1,1,85,0,0
40235,-100,4,1,1,85,0,0
40569,-66.6666666666667,4,1,1,85,0,0
41569,-100,4,1,1,85,0,0
41902,-66.6666666666667,4,1,1,85,0,0
42069,-100,4,1,1,85,0,0
42902,-100,4,1,1,75,0,0
64235,-100,4,1,1,65,0,0
74902,-100,4,1,1,75,0,0
84235,-100,4,1,1,55,0,0
85569,-200,4,1,1,75,0,0
86235,-142.857142857143,4,1,1,80,0,0
86902,-100,4,1,1,85,0,0
90902,-200,4,1,1,75,0,0
91569,-142.857142857143,4,1,1,80,0,0
92235,-100,4,1,1,85,0,0
93569,-100,4,1,1,80,0,0
97985,-100,4,1,1,60,0,0
98902,-100,4,1,1,65,0,0
106902,-100,4,1,1,50,0,0
107235,-100,4,1,1,65,0,0
107569,-100,4,1,1,75,0,0
107735,-83.3333333333333,4,1,1,75,0,0
107902,-71.4285714285714,4,1,1,75,0,0
108069,-62.5,4,1,1,75,0,0
108235,-200,4,1,1,65,0,0
108569,-142.857142857143,4,1,1,70,0,0
108902,-111.111111111111,4,1,1,75,0,0
109569,-100,4,1,1,90,0,1
114235,-80,4,1,1,90,0,1
114569,-66.6666666666667,4,1,1,90,0,1
114902,-66.6666666666667,4,1,1,90,0,1
118902,-100,4,1,1,90,0,1
124902,-66.6666666666667,4,1,1,90,0,1
128235,-100,4,1,1,70,0,1
129569,-71.4285714285714,4,1,1,100,0,1
130235,-71.4285714285714,4,1,1,75,0,1
130902,-100,4,1,1,75,0,1
143902,-66.6666666666667,4,1,1,75,0,1
145235,-66.6666666666667,4,1,1,75,0,1
145569,-100,4,1,1,75,0,1
152235,-200,4,1,1,70,0,0
160235,-100,4,1,1,65,0,0
160569,-100,4,1,1,75,0,0
160902,-100,4,1,1,85,0,0
161235,-100,4,1,1,95,0,0
162735,-133.333333333333,4,1,1,95,0,0
172735,-66.6666666666667,4,1,1,85,0,0
173402,-100,4,1,1,90,0,0
184069,-100,4,1,1,95,0,0
189402,-100,4,1,1,85,0,0
192069,-100,4,1,1,80,0,0
192735,-100,4,1,1,85,0,0
193402,-100,4,1,1,90,0,0
194735,-100,4,1,1,95,0,0
202735,-100,4,1,1,90,0,0
208235,-500,4,1,1,65,0,0
212235,-200,4,1,1,65,0,0
213569,-200,4,1,1,75,0,0
214235,-142.857142857143,4,1,1,80,0,0
214902,-111.111111111111,4,1,1,85,0,0
215569,-100,4,1,1,90,0,0
215902,-100,4,1,1,95,0,0
216235,-55.5555555555556,4,1,1,85,0,0
217569,-66.6666666666667,4,1,1,90,0,0
218235,-50,4,1,1,100,0,0
218902,-66.6666666666667,4,1,1,95,0,1
219569,-100,4,1,1,95,0,1
220235,-66.6666666666667,4,1,1,95,0,1
220902,-100,4,1,1,95,0,1
221569,-66.6666666666667,4,1,1,95,0,1
222235,-100,4,1,1,95,0,1
222902,-66.6666666666667,4,1,1,95,0,1
223569,-100,4,1,1,95,0,1
223902,-66.6666666666667,4,1,1,95,0,1
230235,-100,4,1,1,95,0,1
230902,-66.6666666666667,4,1,1,95,0,1
231569,-100,4,1,1,95,0,1
232235,-66.6666666666667,4,1,1,95,0,1
232902,-100,4,1,1,95,0,1
233569,-66.6666666666667,4,1,1,95,0,1
234235,-100,4,1,1,95,0,1
234569,-66.6666666666667,4,1,1,95,0,1
237569,-100,4,1,1,85,0,1
239569,-200,4,1,1,75,0,1
240235,-100,4,1,1,90,0,1
242902,-83.3333333333333,4,1,1,90,0,1
244235,-66.6666666666667,4,1,1,90,0,1
252235,-100,4,1,1,90,0,1
253569,-83.3333333333333,4,1,1,90,0,1
254902,-66.6666666666667,4,1,1,90,0,1
257569,-66.6666666666667,4,1,1,90,0,1
258902,-66.6666666666667,4,1,1,90,0,1
261569,-100,4,1,1,80,0,1
266902,-100,4,1,1,90,0,0
269569,-500,4,1,1,85,0,0
271402,-100,4,1,1,90,0,0
272235,-100,4,1,1,85,0,0
277569,-100,4,1,1,70,0,0
278902,-66.6666666666667,4,1,1,75,0,0
279235,-66.6666666666667,4,1,1,75,0,0
280235,-50,4,1,1,80,0,0
280569,-50,4,1,1,80,0,0
281569,-100,4,1,1,85,0,0
282902,-100,4,1,1,95,0,0
293569,-100,4,1,1,90,0,0
298902,-100,4,1,1,40,0,0

[Colours]
Combo1 : 255,128,0
Combo2 : 0,0,255
Combo3 : 215,215,0
Combo4 : 0,204,204
Combo5 : 255,0,0
Combo6 : 128,0,255

[HitObjects]
8,192,236,70,0,P|68:204|116:192,1,105,2|2,2:0|2:0,2:0:0:0:
200,144,1236,1,2,2:0:0:0:
288,88,1569,70,0,P|348:76|396:88,1,105,2|2,2:0|2:0,2:0:0:0:
480,136,2569,1,2,2:0:0:0:
392,192,2902,70,0,P|332:204|284:192,1,105,2|2,2:0|2:0,2:0:0:0:
200,144,3902,1,2,2:0:0:0:
112,88,4235,70,0,P|61:75|10:85,1,105,2|2,2:0|2:0,2:0:0:0:
56,184,5235,1,2,2:0:0:0:
136,304,5569,70,0,P|196:316|244:304,1,105,2|2,2:0|2:0,2:0:0:0:
324,248,6569,1,2,2:0:0:0:
388,168,6902,70,0,P|448:156|496:168,1,105,2|2,2:0|2:0,2:0:0:0:
444,260,7902,1,2,2:0:0:0:
376,340,8235,70,0,P|325:352|274:342,1,105,2|2,2:0|2:0,2:0:0:0:
188,284,9235,1,2,2:0:0:0:
132,196,9568,70,0,P|81:183|30:193,1,105,2|2,2:0|2:0,2:0:0:0:
76,288,10568,5,2,2:0:0:0:
256,232,10902,5,0,0:0:0:0:
172,296,11069,1,0,0:0:0:0:
256,336,11235,1,0,0:0:0:0:
100,216,11402,2,0,P|132:208|180:216,1,70,8|0,0:0|0:0,0:0:0:0:
140,288,11902,1,8,0:0:0:0:
256,152,12235,5,0,0:0:0:0:
340,88,12402,1,0,0:0:0:0:
256,48,12568,1,0,0:0:0:0:
412,168,12735,2,0,P|380:176|332:168,1,70,8|0,0:0|0:0,0:0:0:0:
372,96,13235,1,8,0:0:0:0:
296,192,13569,5,0,0:0:0:0:
360,276,13736,1,0,0:0:0:0:
400,192,13902,1,0,0:0:0:0:
280,348,14069,2,0,P|272:316|280:268,1,70,8|0,0:0|0:0,0:0:0:0:
352,308,14569,1,8,0:0:0:0:
216,192,14902,5,0,0:0:0:0:
152,108,15069,1,0,0:0:0:0:
112,192,15235,1,0,0:0:0:0:
232,36,15402,2,0,P|240:68|232:116,1,70,8|0,0:0|0:0,0:0:0:0:
160,76,15902,1,8,0:0:0:0:
144,76,15985,1,0,0:0:0:0:
128,76,16069,1,8,0:0:0:0:
112,76,16152,1,0,0:0:0:0:
96,76,16235,5,4,0:0:0:0:
120,180,16402,1,0,0:0:0:0:
20,148,16568,1,0,0:0:0:0:
272,136,16735,2,0,P|232:128|202:136,1,70,8|0,0:0|0:0,0:0:0:0:
236,236,17235,1,8,0:0:0:0:
416,308,17569,5,4,0:0:0:0:
392,204,17736,1,0,0:0:0:0:
492,236,17902,1,0,0:0:0:0:
240,248,18069,2,0,P|280:256|310:248,1,70,8|0,0:0|0:0,0:0:0:0:
276,148,18569,1,8,0:0:0:0:
96,308,18902,5,4,0:0:0:0:
120,204,19069,1,0,0:0:0:0:
20,236,19235,1,0,0:0:0:0:
272,248,19402,2,0,P|232:256|202:248,1,70,8|0,0:0|0:0,0:0:0:0:
236,148,19902,1,8,0:0:0:0:
416,76,20235,5,4,0:0:0:0:
368,184,20402,1,0,0:0:0:0:
492,168,20568,1,0,0:0:0:0:
492,176,20735,1,0,0:0:0:0:
72,192,21569,102,2,P|96:164|125:146,1,70,2|0,0:0|0:0,0:0:0:0:
328,104,21901,1,8,0:0:0:0:
256,304,22069,1,0,0:0:0:0:
196,104,22235,1,0,0:0:0:0:
104,276,22402,2,2,P|80:304|51:322,1,70,4|8,0:0|0:0,0:0:0:0:
256,272,22735,1,4,0:0:0:0:
440,192,22902,102,2,P|416:220|387:238,1,70,2|0,0:0|0:0,0:0:0:0:
184,280,23234,1,8,0:0:0:0:
256,80,23402,1,0,0:0:0:0:
316,280,23568,1,0,0:0:0:0:
408,108,23735,2,2,P|432:80|461:62,1,70,4|8,0:0|0:0,0:0:0:0:
256,112,24068,1,4,0:0:0:0:
56,120,24235,102,2,P|80:148|109:166,1,70,2|0,0:0|0:0,0:0:0:0:
308,224,24569,1,8,0:0:0:0:
124,328,24735,1,0,0:0:0:0:
192,128,24901,1,0,0:0:0:0:
0,200,25068,2,2,P|-1:234|2:269,1,70,4|8,0:0|0:0,0:0:0:0:
192,176,25401,1,4,0:0:0:0:
216,384,25569,102,2,P|244:360|262:331,1,70,2|0,0:0|0:0,0:0:0:0:
312,128,25901,1,8,0:0:0:0:
168,284,26069,1,0,0:0:0:0:
388,32,26235,5,0,0:0:0:0:
388,48,26319,1,0,0:0:0:0:
388,64,26402,1,4,0:0:0:0:
484,100,26569,1,0,0:0:0:0:
484,84,26652,1,0,0:0:0:0:
484,68,26735,1,4,0:0:0:0:
456,264,26902,102,2,P|432:236|403:218,1,70,2|0,0:0|0:0,0:0:0:0:
200,172,27234,1,8,0:0:0:0:
256,376,27402,1,0,0:0:0:0:
392,216,27568,1,0,0:0:0:0:
332,12,27735,2,2,P|336:52|332:96,1,70,4|8,0:0|0:0,0:0:0:0:
124,56,28068,1,4,0:0:0:0:
56,264,28235,102,2,P|80:236|109:218,1,70,2|0,0:0|0:0,0:0:0:0:
312,172,28569,1,8,0:0:0:0:
256,376,28735,1,0,0:0:0:0:
120,216,28901,1,0,0:0:0:0:
180,12,29068,2,2,P|176:52|180:96,1,70,4|8,0:0|0:0,0:0:0:0:
388,56,29401,1,4,0:0:0:0:
56,120,29569,102,2,P|80:148|109:166,1,70,2|0,0:0|0:0,0:0:0:0:
312,212,29901,1,8,0:0:0:0:
256,8,30069,1,0,0:0:0:0:
120,168,30235,1,0,0:0:0:0:
180,372,30402,2,2,P|176:332|180:288,1,70,4|8,0:0|0:0,0:0:0:0:
388,328,30735,1,4,0:0:0:0:
376,80,30902,5,4,1:0:0:0:
256,256,31069,1,8,2:0:0:0:
444,164,31235,1,8,2:0:0:0:
232,160,31402,1,8,2:0:0:0:
340,320,31569,69,8,0:0:0:0:
352,288,31652,1,0,0:0:0:0:
352,252,31735,1,8,0:0:0:0:
340,220,31819,1,0,0:0:0:0:
320,192,31902,1,8,0:0:0:0:
308,160,31986,1,0,0:0:0:0:
308,124,32069,1,8,0:0:0:0:
320,92,32152,1,0,0:0:0:0:
344,64,32235,6,0,P|372:84|408:92,1,70,8|0,0:0|0:0,0:0:0:0:
400,216,32569,2,2,P|405:164|378:120,1,105.000004005432
312,184,32902,1,2,0:0:0:0:
248,100,33069,1,0,0:0:0:0:
208,196,33235,1,2,0:0:0:0:
144,112,33402,1,0,0:0:0:0:
96,364,33569,6,0,P|68:344|32:336,1,70,8|0,0:0|0:0,0:0:0:0:
40,212,33903,2,2,P|34:263|61:307,1,105.000004005432
152,264,34235,1,2,0:0:0:0:
216,180,34402,1,0,0:0:0:0:
256,276,34568,1,2,0:0:0:0:
320,192,34735,1,0,0:0:0:0:
476,152,34902,6,0,P|448:172|412:180,1,70,8|0,0:0|0:0,0:0:0:0:
452,60,35236,2,2,P|457:111|430:155,1,105.000004005432
348,88,35569,1,2,0:0:0:0:
256,140,35736,1,0,0:0:0:0:
256,36,35902,1,2,0:0:0:0:
164,88,36069,1,0,0:0:0:0:
140,256,36235,6,0,P|160:227|167:193,1,70,8|0,0:0|0:0,0:0:0:0:
292,204,36569,2,2,P|240:198|196:225,1,105.000004005432
264,308,36902,1,2,0:0:0:0:
368,284,37069,1,0,0:0:0:0:
340,384,37235,1,2,0:0:0:0:
340,384,37319,1,0,0:0:0:0:
340,384,37402,1,0,0:0:0:0:
256,136,37569,6,0,P|220:144|193:168,1,70,8|0,0:0|0:0,0:0:0:0:
92,112,37903,2,2,P|144:136|216:120,1,105.000004005432
120,276,38236,1,2,0:0:0:0:
260,352,38403,1,0,0:0:0:0:
100,352,38569,1,2,0:0:0:0:
240,280,38736,1,0,0:0:0:0:
284,72,38903,102,0,P|252:96|221:104,1,70,8|0,0:0|0:0,0:0:0:0:
188,208,39235,2,2,P|212:162|256:133,1,105.000004005432
336,272,39570,1,2,0:0:0:0:
424,144,39735,1,0,0:0:0:0:
448,256,39903,1,2,0:0:0:0:
320,168,40070,1,0,0:0:0:0:
152,212,40236,6,0,P|180:188|214:180,1,70,8|0,0:0|0:0,0:0:0:0:
100,96,40570,2,2,P|124:141|172:160,1,105.000004005432
232,16,40902,1,2,0:0:0:0:
300,160,41070,1,0,0:0:0:0:
424,252,41236,1,2,0:0:0:0:
356,108,41403,1,0,0:0:0:0:
256,304,41569,6,0,P|268:340|288:367,1,70,8|0,0:0|0:0,0:0:0:0:
160,384,41903,2,0,P|202:355|253:362,1,105.000004005432,8|0,0:0|0:0,0:0:0:0:
140,288,42236,1,8,0:0:0:0:
344,384,42403,1,8,0:0:0:0:
156,304,42569,1,8,0:0:0:0:
156,304,42653,1,0,0:0:0:0:
156,304,42735,1,8,0:0:0:0:
156,304,42819,1,0,0:0:0:0:
156,304,42902,6,2,B|156:228|156:228|128:148,1,140,2|0,0:0|0:0,0:0:0:0:
232,268,43402,1,0,0:0:0:0:
204,56,43569,2,2,B|204:132|204:132|232:212,1,140,10|0,0:0|0:0,0:0:0:0:
124,96,44069,1,0,0:0:0:0:
322,278,44235,6,2,P|390:267|443:224,2,140,10|0|0,0:0|0:0|0:0,0:0:0:0:
208,244,45069,1,0,0:0:0:0:
280,148,45235,1,0,0:0:0:0:
372,224,45402,1,0,0:0:0:0:
184,72,45569,5,0,0:0:0:0:
184,160,45735,2,0,B|192:200|192:200|188:244,1,70
104,116,46069,1,0,0:0:0:0:
256,116,46236,1,0,0:0:0:0:
189,229,46402,2,0,B|181:269|181:269|185:313,1,70
184,368,46736,1,0,0:0:0:0:
298,168,46902,6,8,P|222:180|186:240,1,140,0|0,0:0|0:0,0:0:0:0:
392,328,47569,1,0,0:0:0:0:
276,272,47736,1,0,0:0:0:0:
184,368,47902,1,0,0:0:0:0:
264,96,48069,1,0,0:0:0:0:
264,96,48152,1,0,0:0:0:0:
264,96,48235,102,2,B|264:172|264:172|236:252,1,140,2|0,0:0|0:0,0:0:0:0:
376,188,48735,1,0,0:0:0:0:
420,320,48902,2,2,B|359:298|359:298|283:298,1,140,2|0,0:0|0:0,0:0:0:0:
376,188,49402,1,0,0:0:0:0:
276,88,49569,6,2,P|340:40|424:40,2,140,2|0|0,0:0|0:0|0:0,0:0:0:0:
212,216,50402,1,0,0:0:0:0:
164,84,50568,1,0,0:0:0:0:
76,192,50735,1,0,0:0:0:0:
348,232,50902,5,0,0:0:0:0:
348,68,51069,2,0,B|348:148,1,70
256,68,51402,1,0,0:0:0:0:
256,184,51569,1,0,0:0:0:0:
164,138,51735,2,0,B|164:68,1,70
164,244,52069,1,0,0:0:0:0:
38,291,52235,6,0,P|126:275|170:235,1,140
136,376,52735,1,0,0:0:0:0:
64,160,52902,5,0,0:0:0:0:
100,168,52985,1,0,0:0:0:0:
136,164,53068,1,0,0:0:0:0:
168,148,53152,1,0,0:0:0:0:
196,124,53235,1,0,0:0:0:0:
228,108,53319,1,0,0:0:0:0:
264,104,53402,1,0,0:0:0:0:
300,112,53485,1,0,0:0:0:0:
328,132,53569,6,2,B|372:188|372:188|352:264,1,140,2|0,0:0|0:0,0:0:0:0:
268,208,54069,1,0,0:0:0:0:
208,132,54235,2,2,B|164:188|164:188|184:264,1,140,2|0,0:0|0:0,0:0:0:0:
268,208,54736,1,0,0:0:0:0:
324,296,54902,6,2,B|268:336|268:336|204:288,2,140,2|0|2,0:0|0:0|0:0,0:0:0:0:
140,232,55736,1,0,0:0:0:0:
276,208,55902,1,0,0:0:0:0:
172,112,56069,1,0,0:0:0:0:
356,192,56235,5,0,0:0:0:0:
268,148,56402,2,0,B|253:185|261:217,1,70
352,92,56735,1,0,0:0:0:0:
236,64,56902,1,0,0:0:0:0:
88,112,57069,2,0,B|164:112,1,70
48,208,57402,1,0,0:0:0:0:
256,272,57569,6,8,P|192:320|108:320,1,140,0|0,0:0|0:0,0:0:0:0:
256,384,58236,1,0,0:0:0:0:
256,192,58403,1,0,0:0:0:0:
148,160,58569,1,0,0:0:0:0:
148,160,58652,1,0,0:0:0:0:
148,160,58736,1,0,0:0:0:0:
148,160,58819,1,0,0:0:0:0:
148,160,58902,6,2,B|152:96|152:96|128:24,1,140,2|0,0:0|0:0,0:0:0:0:
192,240,59402,1,0,0:0:0:0:
240,160,59569,2,2,B|236:96|236:96|260:24,1,140,2|0,0:0|0:0,0:0:0:0:
328,112,60069,1,0,0:0:0:0:
192,336,60235,102,2,L|192:184,2,140,2|0|0,0:0|0:0|0:0,0:0:0:0:
320,348,61069,1,0,0:0:0:0:
428,256,61235,1,0,0:0:0:0:
288,252,61402,1,0,0:0:0:0:
428,168,61569,6,0,B|428:84,1,70,4|8,0:0|0:0,0:0:0:0:
360,220,61902,1,0,0:0:0:0:
360,220,62069,1,0,0:0:0:0:
292,172,62236,2,0,B|292:92,1,70,4|8,0:0|0:0,0:0:0:0:
220,220,62569,1,0,0:0:0:0:
220,220,62736,1,0,0:0:0:0:
152,172,62902,86,4,L|152:20,1,140
292,272,63569,1,8,0:0:0:0:
152,36,63736,1,8,0:0:0:0:
152,36,64235,37,8,0:0:0:0:
152,132,64402,1,0,0:0:0:0:
152,296,64569,6,0,L|152:204,1,70,8|0,0:0|0:0,0:0:0:0:
248,296,64902,1,8,0:0:0:0:
248,36,65069,6,0,L|248:106,1,70,8|0,0:0|0:0,0:0:0:0:
352,40,65402,2,0,L|352:110,1,70,8|0,0:0|0:0,0:0:0:0:
376,300,65735,5,0,0:0:0:0:
152,296,65902,2,0,L|222:296,1,70,8|0,0:0|0:0,0:0:0:0:
376,300,66235,1,8,0:0:0:0:
152,180,66402,6,0,L|222:180,1,70,8|0,0:0|0:0,0:0:0:0:
376,180,66735,2,0,L|306:180,1,70,8|0,0:0|0:0,0:0:0:0:
72,180,67069,5,0,0:0:0:0:
72,292,67236,2,0,L|72:362,1,70,8|0,0:0|0:0,0:0:0:0:
168,180,67569,1,8,0:0:0:0:
172,360,67736,6,0,L|172:272,1,70,8|0,0:0|0:0,0:0:0:0:
272,292,68068,2,0,L|272:362,1,70,8|0,0:0|0:0,0:0:0:0:
272,180,68402,1,0,0:0:0:0:
272,72,68569,2,0,L|272:2,1,70,8|0,0:0|0:0,0:0:0:0:
368,180,68902,5,2,0:0:0:0:
364,12,69069,1,2,0:0:0:0:
180,8,69236,2,0,P|172:48|180:88,1,70,2|0,0:0|0:0,0:0:0:0:
368,180,69569,69,8,0:0:0:0:
460,104,69736,1,0,0:0:0:0:
164,52,69903,6,0,P|204:44|240:52,1,70,8|0,0:0|0:0,0:0:0:0:
324,100,70236,1,8,0:0:0:0:
100,140,70403,6,0,P|134:148|169:143,1,70,8|0,0:0|0:0,0:0:0:0:
100,228,70735,2,0,P|134:220|169:225,1,70,8|0,0:0|0:0,0:0:0:0:
248,184,71069,5,0,0:0:0:0:
144,316,71236,2,0,P|164:344|216:368,1,70,8|0,0:0|0:0,0:0:0:0:
248,268,71569,1,8,0:0:0:0:
412,148,71736,6,0,P|420:181|413:216,1,70,8|0,0:0|0:0,0:0:0:0:
316,148,72069,2,0,P|308:181|315:216,1,70,8|0,0:0|0:0,0:0:0:0:
364,292,72402,5,0,0:0:0:0:
280,68,72569,2,0,P|320:60|356:72,1,70,8|0,0:0|0:0,0:0:0:0:
288,236,72902,1,8,0:0:0:0:
172,96,73069,1,8,0:0:0:0:
11,108,73236,2,0,L|80:104,1,70,0|8,0:0|0:0,0:0:0:0:
256,148,73569,6,0,P|274:215|352:268,1,140
358,271,73985,1,0,0:0:0:0:
394,275,74069,1,0,0:0:0:0:
430,271,74152,1,0,0:0:0:0:
460,256,74235,1,0,0:0:0:0:
256,148,74402,1,0,0:0:0:0:
400,192,74569,1,0,0:0:0:0:
400,192,74652,1,0,0:0:0:0:
400,192,74735,1,0,0:0:0:0:
144,116,74902,6,0,L|206:133,2,35
64,92,75235,1,0,0:0:0:0:
464,92,75569,1,0,0:0:0:0:
324,92,75735,2,0,L|472:92,1,140,2|0,0:0|0:0,0:0:0:0:
148,68,76235,85,0,0:0:0:0:
148,68,76319,1,0,0:0:0:0:
148,68,76402,1,0,0:0:0:0:
256,156,76569,1,0,0:0:0:0:
76,332,76902,1,0,0:0:0:0:
76,192,77069,2,0,L|76:332,1,140,2|0,0:0|0:0,0:0:0:0:
256,320,77569,101,0,0:0:0:0:
256,320,77653,1,0,0:0:0:0:
256,320,77736,1,0,0:0:0:0:
316,192,77903,1,0,0:0:0:0:
440,300,78236,1,0,0:0:0:0:
440,160,78403,2,0,L|440:300,1,140,2|0,0:0|0:0,0:0:0:0:
252,88,78902,5,0,0:0:0:0:
252,88,78985,1,0,0:0:0:0:
252,88,79069,1,0,0:0:0:0:
160,96,79235,2,0,L|160:188,1,70,0|8,0:0|0:0,0:0:0:0:
68,172,79569,1,0,0:0:0:0:
68,172,79652,1,0,0:0:0:0:
68,172,79735,1,0,0:0:0:0:
68,264,79902,2,0,L|140:264,1,70,0|8,0:0|0:0,0:0:0:0:
256,116,80235,21,0,0:0:0:0:
256,132,80318,1,0,0:0:0:0:
256,148,80402,1,0,0:0:0:0:
256,272,80568,1,0,0:0:0:0:
392,212,80902,1,0,0:0:0:0:
392,72,81068,2,0,L|392:220,1,140,2|0,0:0|0:0,0:0:0:0:
392,344,81568,85,0,0:0:0:0:
376,344,81652,1,0,0:0:0:0:
360,344,81735,1,0,0:0:0:0:
228,344,81902,1,0,0:0:0:0:
296,232,82235,1,0,0:0:0:0:
156,232,82402,2,0,L|304:232,1,140,2|0,0:0|0:0,0:0:0:0:
148,100,82902,5,0,0:0:0:0:
136,112,82986,1,0,0:0:0:0:
124,124,83069,1,0,0:0:0:0:
256,92,83236,1,0,0:0:0:0:
208,216,83569,1,0,0:0:0:0:
339,263,83736,2,0,L|195:211,1,140,2|0,0:0|0:0,0:0:0:0:
316,140,84235,5,8,0:0:0:0:
332,148,84318,1,8,0:0:0:0:
348,156,84402,1,8,0:0:0:0:
468,140,84569,1,8,0:0:0:0:
452,132,84652,1,8,0:0:0:0:
436,124,84735,1,8,0:0:0:0:
256,32,84902,69,8,0:0:0:0:
256,48,84985,1,8,0:0:0:0:
256,64,85068,1,8,0:0:0:0:
256,212,85235,2,0,L|256:142,1,70
64,256,85569,38,2,L|64:296,1,35
64,176,85902,1,0,0:0:0:0:
64,176,86069,1,0,0:0:0:0:
152,260,86235,2,2,L|152:324,1,48.9999985046387
152,128,86569,1,0,0:0:0:0:
152,128,86735,1,0,0:0:0:0:
236,212,86902,70,2,L|236:128,1,70
236,372,87235,1,0,0:0:0:0:
236,372,87402,1,0,0:0:0:0:
348,296,87569,2,2,L|416:364,1,70
504,324,87902,2,2,L|446:266,1,70
304,192,88235,6,2,L|208:192,1,70
112,192,88569,1,0,0:0:0:0:
144,124,88735,1,0,0:0:0:0:
168,244,88902,1,0,0:0:0:0:
56,140,89069,1,0,0:0:0:0:
196,176,89235,1,0,0:0:0:0:
92,76,89402,1,0,0:0:0:0:
76,252,89569,5,0,0:0:0:0:
164,76,89735,1,0,0:0:0:0:
12,208,89902,1,0,0:0:0:0:
256,212,90069,1,0,0:0:0:0:
120,308,90235,1,0,0:0:0:0:
328,160,90402,1,0,0:0:0:0:
496,288,90569,2,0,L|444:248,1,35
424,332,90735,2,0,L|451:353,1,35
448,128,90902,22,2,L|448:80,1,35
448,208,91235,1,0,0:0:0:0:
448,208,91402,1,0,0:0:0:0:
360,124,91569,2,2,L|360:56,1,48.9999985046387
360,256,91902,1,0,0:0:0:0:
360,256,92068,1,0,0:0:0:0:
276,172,92235,6,2,L|276:256,1,70
276,16,92568,1,0,0:0:0:0:
276,16,92735,1,0,0:0:0:0:
164,88,92902,2,2,L|96:20,1,70
8,60,93235,2,2,L|66:118,1,70
244,304,93569,6,0,P|184:268|144:197,1,140
272,308,94069,1,0,0:0:0:0:
144,184,94402,1,0,0:0:0:0:
388,256,94569,6,0,P|448:292|488:363,1,140
352,248,95235,1,0,0:0:0:0:
148,164,95402,2,0,P|184:104|255:64,1,140
148,196,95902,1,0,0:0:0:0:
40,312,96069,1,0,0:0:0:0:
40,312,96152,1,0,0:0:0:0:
40,312,96235,1,0,0:0:0:0:
256,308,96569,5,0,0:0:0:0:
256,96,96735,2,0,L|256:236,1,140
256,24,97235,1,0,0:0:0:0:
168,80,97402,1,0,0:0:0:0:
422,78,97569,6,0,L|440:64,2,23.3333333333333
384,104,97791,5,0,0:0:0:0:
348,132,97902,1,0,0:0:0:0:
312,160,98013,1,0,0:0:0:0:
276,188,98124,1,0,0:0:0:0:
240,216,98235,5,0,0:0:0:0:
284,236,98347,1,0,0:0:0:0:
332,236,98458,1,0,0:0:0:0:
372,216,98569,1,0,0:0:0:0:
404,180,98680,1,0,0:0:0:0:
412,132,98791,1,0,0:0:0:0:
372,152,98902,5,12,0:0:0:0:
432,352,99235,1,0,0:0:0:0:
432,352,99402,1,0,0:0:0:0:
344,88,99735,1,0,0:0:0:0:
344,56,99902,1,8,0:0:0:0:
152,252,100235,5,0,0:0:0:0:
256,348,100568,1,0,0:0:0:0:
256,348,100735,1,0,0:0:0:0:
380,288,101068,1,0,0:0:0:0:
380,256,101235,1,8,0:0:0:0:
396,116,101569,85,0,0:0:0:0:
272,184,101902,1,0,0:0:0:0:
272,184,102069,1,0,0:0:0:0:
172,84,102402,1,0,0:0:0:0:
172,52,102569,1,8,0:0:0:0:
356,92,102902,6,0,P|392:100|432:144,1,70
356,184,103235,2,0,P|348:220|304:260,1,70
264,168,103569,2,0,P|228:160|188:116,1,70
288,80,103902,2,0,P|296:44|340:4,1,70
128,56,104235,5,0,0:0:0:0:
76,104,104402,1,0,0:0:0:0:
56,172,104569,1,0,0:0:0:0:
76,240,104735,1,0,0:0:0:0:
192,308,104902,2,0,P|160:292|120:288,1,70,2|0,0:0|0:0,0:0:0:0:
272,296,105235,2,0,P|258:263|233:240,1,70,2|0,0:0|0:0,0:0:0:0:
464,172,105569,101,0,0:0:0:0:
464,172,105735,2,0,L|412:232,1,70,2|0,0:0|0:0,0:0:0:0:
328,188,106069,2,0,L|373:135,1,70,2|0,0:0|0:0,0:0:0:0:
272,112,106401,1,0,0:0:0:0:
464,80,106569,1,0,0:0:0:0:
272,28,106735,1,0,0:0:0:0:
108,36,106902,5,0,2:0:0:0:
108,72,106985,1,0,2:0:0:0:
108,108,107069,1,0,2:0:0:0:
108,144,107152,1,0,2:0:0:0:
108,180,107235,1,0,2:0:0:0:
108,216,107319,1,0,2:0:0:0:
108,252,107402,1,0,2:0:0:0:
108,288,107485,1,0,2:0:0:0:
108,324,107569,6,0,L|156:324,1,35,4|0,2:0|2:0,2:0:0:0:
184,252,107735,2,0,L|226:252,1,41.9999987182618,4|0,2:0|2:0,2:0:0:0:
252,176,107902,2,0,L|312:176,1,48.9999985046387,4|0,2:0|2:0,2:0:0:0:
328,104,108068,2,0,L|377:104,1,48.9999985046387,4|0,2:0|2:0,2:0:0:0:
432,52,108235,102,0,L|440:96,1,35,0|0,2:2|2:2,2:2:0:0:
364,120,108569,6,0,L|348:52,1,48.9999985046387,0|0,2:2|2:2,2:2:0:0:
268,72,108902,102,0,L|300:184,2,83.9999974365235,0|0|0,2:2|2:2|2:2,2:2:0:0:
24,24,109569,37,2,0:0:0:0:
32,56,109652,1,0,0:0:0:0:
40,88,109735,1,0,0:0:0:0:
48,120,109819,1,0,0:0:0:0:
104,144,109902,5,8,0:0:0:0:
136,152,109985,1,0,0:0:0:0:
168,160,110069,1,0,0:0:0:0:
200,168,110152,1,0,0:0:0:0:
224,224,110235,5,0,0:0:0:0:
232,256,110319,1,0,0:0:0:0:
240,288,110402,1,0,0:0:0:0:
248,320,110485,1,0,0:0:0:0:
256,352,110569,2,8,L|352:376,1,70,8|4,0:0|0:0,0:0:0:0:
504,296,110902,5,2,0:0:0:0:
472,288,110985,1,0,0:0:0:0:
440,280,111068,1,0,0:0:0:0:
408,272,111152,1,0,0:0:0:0:
384,216,111235,5,8,0:0:0:0:
360,192,111318,1,0,0:0:0:0:
336,168,111402,1,0,0:0:0:0:
312,144,111485,1,0,0:0:0:0:
256,128,111568,5,0,0:0:0:0:
224,136,111652,1,0,0:0:0:0:
192,144,111735,1,0,0:0:0:0:
160,152,111818,1,0,0:0:0:0:
128,160,111902,2,8,L|72:224,1,70,8|4,0:0|0:0,0:0:0:0:
216,336,112235,85,2,0:0:0:0:
248,336,112318,1,0,0:0:0:0:
280,336,112401,1,0,0:0:0:0:
312,336,112485,1,0,0:0:0:0:
360,296,112568,5,8,0:0:0:0:
384,272,112651,1,0,0:0:0:0:
408,248,112735,1,0,0:0:0:0:
432,224,112818,1,0,0:0:0:0:
416,168,112901,5,0,0:0:0:0:
416,136,112985,1,0,0:0:0:0:
416,104,113068,1,0,0:0:0:0:
416,72,113151,1,0,0:0:0:0:
416,40,113235,2,8,L|336:56,1,70,8|4,0:0|0:0,0:0:0:0:
160,88,113569,5,2,0:0:0:0:
152,120,113652,1,0,0:0:0:0:
144,152,113735,1,0,0:0:0:0:
136,184,113819,1,0,0:0:0:0:
176,232,113902,5,8,0:0:0:0:
184,264,113985,1,0,0:0:0:0:
192,296,114069,1,0,0:0:0:0:
200,328,114152,1,0,0:0:0:0:
208,360,114235,2,10,P|241:371|312:340,1,87.5,2|2,0:0|0:0,0:0:0:0:
456,288,114569,2,10,P|423:277|340:324,1,105.000004005432,10|2,0:0|0:0,0:0:0:0:
288,160,114902,70,2,P|260:204|258:256,1,105.000004005432
280,352,115235,1,8,0:0:0:0:
312,328,115319,1,0,0:0:0:0:
344,304,115402,1,0,0:0:0:0:
376,280,115485,1,0,0:0:0:0:
408,256,115569,2,2,P|459:257|502:229,1,105.000004005432
320,200,115902,2,2,P|272:182|222:195,1,105.000004005432,10|2,0:0|0:0,0:0:0:0:
96,328,116235,5,0,0:0:0:0:
96,328,116318,1,0,0:0:0:0:
96,328,116402,1,0,0:0:0:0:
204,328,116568,5,8,0:0:0:0:
204,328,116652,1,0,0:0:0:0:
204,328,116735,1,0,0:0:0:0:
32,264,116901,5,0,0:0:0:0:
32,264,116985,1,0,0:0:0:0:
32,264,117068,1,0,0:0:0:0:
272,268,117235,5,8,0:0:0:0:
272,268,117318,1,0,0:0:0:0:
272,268,117402,1,0,0:0:0:0:
32,176,117569,5,2,0:0:0:0:
48,136,117652,1,0,0:0:0:0:
80,112,117735,1,0,0:0:0:0:
120,104,117819,1,0,0:0:0:0:
160,112,117902,1,8,0:0:0:0:
192,136,117985,1,0,0:0:0:0:
208,176,118069,1,0,0:0:0:0:
208,216,118152,1,0,0:0:0:0:
168,208,118235,5,0,0:0:0:0:
128,224,118319,1,0,0:0:0:0:
104,256,118402,1,0,0:0:0:0:
96,296,118485,1,0,0:0:0:0:
104,336,118569,1,8,0:0:0:0:
128,368,118652,1,0,0:0:0:0:
168,368,118735,1,0,0:0:0:0:
208,344,118819,1,0,0:0:0:0:
232,304,118902,86,2,P|252:275|281:257,1,70
376,296,119235,2,2,P|359:326|329:343,1,70,10|2,0:0|0:0,0:0:0:0:
432,192,119569,2,2,P|462:208|479:238,1,70
336,184,119902,2,2,P|305:167|288:137,1,70,8|2,0:0|0:0,0:0:0:0:
472,40,120235,101,2,0:0:0:0:
440,48,120318,1,0,0:0:0:0:
408,56,120401,1,0,0:0:0:0:
376,64,120485,1,0,0:0:0:0:
344,24,120569,5,8,0:0:0:0:
312,16,120653,1,0,0:0:0:0:
280,8,120736,1,0,0:0:0:0:
248,0,120819,1,0,0:0:0:0:
216,40,120902,5,0,0:0:0:0:
192,64,120985,1,0,0:0:0:0:
168,88,121068,1,0,0:0:0:0:
144,112,121152,1,0,0:0:0:0:
120,136,121235,2,8,L|168:216,1,70,8|4,0:0|0:0,0:0:0:0:
256,296,121569,5,2,0:0:0:0:
288,304,121652,1,0,0:0:0:0:
320,312,121735,1,0,0:0:0:0:
352,320,121819,1,0,0:0:0:0:
400,296,121903,5,8,0:0:0:0:
392,264,121985,1,0,0:0:0:0:
384,232,122070,1,0,0:0:0:0:
376,200,122153,1,0,0:0:0:0:
336,160,122236,5,0,0:0:0:0:
304,168,122319,1,0,0:0:0:0:
272,176,122402,1,0,0:0:0:0:
240,184,122486,1,0,0:0:0:0:
208,192,122569,2,8,L|184:120,1,70,8|4,0:0|0:0,0:0:0:0:
320,32,122902,85,2,0:0:0:0:
344,56,122985,1,0,0:0:0:0:
368,80,123068,1,0,0:0:0:0:
392,104,123152,1,0,0:0:0:0:
384,160,123236,5,8,0:0:0:0:
360,184,123320,1,0,0:0:0:0:
336,208,123403,1,0,0:0:0:0:
312,232,123486,1,0,0:0:0:0:
320,288,123569,5,0,0:0:0:0:
352,296,123652,1,0,0:0:0:0:
384,304,123735,1,0,0:0:0:0:
416,312,123819,1,0,0:0:0:0:
448,320,123902,2,8,L|496:256,1,70,8|4,0:0|0:0,0:0:0:0:
232,272,124235,5,2,0:0:0:0:
200,272,124318,1,0,0:0:0:0:
168,272,124401,1,0,0:0:0:0:
136,272,124485,1,0,0:0:0:0:
120,216,124568,5,8,0:0:0:0:
136,184,124651,1,0,0:0:0:0:
152,152,124735,1,0,0:0:0:0:
168,120,124818,1,0,0:0:0:0:
184,80,124902,2,8,P|233:94|284:82,1,105.000004005432,2|0,0:0|0:0,0:0:0:0:
448,40,125235,2,8,P|398:25|347:37,1,105.000004005432,10|0,0:0|0:0,0:0:0:0:
344,208,125568,70,2,L|408:80,1,105.000004005432
416,304,125901,1,8,0:0:0:0:
376,312,125985,1,0,0:0:0:0:
336,320,126068,1,0,0:0:0:0:
296,328,126151,1,0,0:0:0:0:
256,336,126235,2,2,L|136:288,1,105.000004005432
72,176,126569,2,2,L|170:212,1,105.000004005432,10|2,0:0|0:0,0:0:0:0:
320,272,126901,5,0,0:0:0:0:
320,272,126985,1,0,0:0:0:0:
320,272,127068,1,0,0:0:0:0:
400,160,127235,5,8,0:0:0:0:
400,160,127318,1,0,0:0:0:0:
400,160,127402,1,0,0:0:0:0:
160,160,127568,5,0,0:0:0:0:
160,160,127651,1,0,0:0:0:0:
160,160,127735,2,2,P|208:180|276:160,1,105.000004005432,2|10,0:0|0:0,0:0:0:0:
80,248,128069,1,0,0:0:0:0:
256,336,128235,69,4,0:0:0:0:
288,328,128318,1,0,0:0:0:0:
320,320,128401,1,0,0:0:0:0:
352,312,128485,1,0,0:0:0:0:
384,304,128568,1,4,0:0:0:0:
200,240,128735,69,8,0:0:0:0:
168,232,128818,1,0,0:0:0:0:
136,224,128901,1,0,0:0:0:0:
104,216,128985,1,0,0:0:0:0:
72,208,129068,1,4,0:0:0:0:
256,136,129235,69,0,0:0:0:0:
288,128,129318,1,0,0:0:0:0:
320,120,129401,1,0,0:0:0:0:
18,151,129569,6,0,P|34:171|80:192,1,48.9999985046387,8|8,0:0|0:0,0:0:0:0:
122,75,129735,2,0,P|100:92|80:136,1,48.9999985046387,8|8,0:0|0:0,0:0:0:0:
98,278,129902,2,0,P|117:263|130:243,1,48.9999985046387,8|8,0:0|0:0,0:0:0:0:
205,182,130069,2,0,P|190:163|170:150,1,48.9999985046387,8|8,0:0|0:0,0:0:0:0:
234,267,130235,86,0,L|292:308,1,48.9999985046387,8|8,0:0|0:0,0:0:0:0:
302,115,130402,2,0,L|262:87,1,48.9999985046387,8|8,0:0|0:0,0:0:0:0:
336,336,130569,2,0,L|376:363,1,48.9999985046387,8|8,0:0|0:0,0:0:0:0:
404,183,130735,2,0,L|364:156,1,48.9999985046387,8|8,0:0|0:0,0:0:0:0:
472,308,130902,101,4,0:0:0:0:
440,292,130985,1,0,0:0:0:0:
408,276,131068,1,0,0:0:0:0:
376,260,131152,1,0,0:0:0:0:
344,244,131235,5,0,0:0:0:0:
312,228,131318,1,0,0:0:0:0:
280,212,131402,1,4,0:0:0:0:
248,192,131485,1,0,0:0:0:0:
224,172,131568,5,0,0:0:0:0:
204,144,131652,1,0,0:0:0:0:
196,108,131735,1,4,0:0:0:0:
208,76,131818,1,0,0:0:0:0:
236,56,131902,6,0,L|268:43,3,35,4|0|4|0,0:0|0:0|0:0|0:0,0:0:0:0:
292,120,132235,5,4,0:0:0:0:
324,128,132318,1,0,0:0:0:0:
352,148,132401,1,0,0:0:0:0:
368,180,132485,1,0,0:0:0:0:
368,216,132568,5,0,0:0:0:0:
344,244,132651,1,0,0:0:0:0:
312,256,132735,1,4,0:0:0:0:
276,260,132818,1,0,0:0:0:0:
244,252,132901,5,0,0:0:0:0:
220,228,132985,1,0,0:0:0:0:
188,216,133068,1,4,0:0:0:0:
152,220,133151,1,0,0:0:0:0:
128,248,133235,6,0,L|156:292,3,35,4|0|4|0,0:0|0:0|0:0|0:0,0:0:0:0:
220,228,133568,85,4,0:0:0:0:
236,188,133651,1,0,0:0:0:0:
236,148,133734,1,0,0:0:0:0:
212,112,133818,1,0,0:0:0:0:
172,104,133901,5,0,0:0:0:0:
136,124,133984,1,0,0:0:0:0:
124,164,134068,1,4,0:0:0:0:
140,204,134151,1,0,0:0:0:0:
140,244,134234,5,0,0:0:0:0:
116,280,134318,1,0,0:0:0:0:
76,296,134401,1,4,0:0:0:0:
40,276,134484,1,0,0:0:0:0:
36,232,134569,6,0,L|36:192,3,35,4|0|4|0,0:0|0:0|0:0|0:0,0:0:0:0:
124,164,134902,5,4,0:0:0:0:
152,124,134985,1,0,0:0:0:0:
200,112,135068,1,0,0:0:0:0:
248,124,135152,1,0,0:0:0:0:
280,164,135235,5,0,0:0:0:0:
292,212,135318,1,0,0:0:0:0:
320,256,135402,1,4,0:0:0:0:
372,268,135485,1,0,0:0:0:0:
420,260,135568,6,0,P|452:248|488:208,1,70,2|4,0:0|0:0,0:0:0:0:
512,96,135902,2,0,P|480:108|444:148,1,70,2|4,0:0|0:0,0:0:0:0:
340,120,136235,6,0,P|352:152|392:188,1,70,2|4,0:0|0:0,0:0:0:0:
272,52,136569,1,8,0:0:0:0:
300,32,136652,1,0,0:0:0:0:
340,24,136735,1,4,0:0:0:0:
376,32,136818,1,0,0:0:0:0:
404,52,136902,2,0,P|444:56|476:40,1,70,8|4,0:0|0:0,0:0:0:0:
272,52,137235,2,0,P|232:48|200:64,1,70,8|4,0:0|0:0,0:0:0:0:
348,124,137568,5,8,0:0:0:0:
348,124,137652,1,0,0:0:0:0:
348,124,137735,1,4,0:0:0:0:
192,264,137902,5,8,0:0:0:0:
192,264,137985,1,0,0:0:0:0:
192,264,138069,1,4,0:0:0:0:
388,360,138235,5,8,0:0:0:0:
388,360,138318,1,0,0:0:0:0:
388,360,138402,1,4,0:0:0:0:
512,196,138568,85,8,0:0:0:0:
512,196,138652,1,0,0:0:0:0:
512,196,138735,1,4,0:0:0:0:
144,148,138902,5,8,0:0:0:0:
164,124,138985,1,0,0:0:0:0:
192,104,139068,1,4,0:0:0:0:
228,92,139152,1,0,0:0:0:0:
264,88,139235,1,8,0:0:0:0:
300,92,139318,1,0,0:0:0:0:
332,108,139402,1,4,0:0:0:0:
356,132,139485,1,0,0:0:0:0:
372,160,139568,5,8,0:0:0:0:
380,196,139652,1,0,0:0:0:0:
364,228,139735,1,4,0:0:0:0:
336,248,139818,1,0,0:0:0:0:
316,220,139902,1,8,0:0:0:0:
284,204,139985,1,0,0:0:0:0:
248,204,140068,1,4,0:0:0:0:
216,216,140152,1,0,0:0:0:0:
196,244,140235,86,0,P|216:276|264:300,1,70,10|4,0:0|0:0,0:0:0:0:
120,180,140568,2,0,P|90:197|73:228,1,70,10|4,0:0|0:0,0:0:0:0:
200,112,140902,2,0,P|182:82|151:65,1,70,10|4,0:0|0:0,0:0:0:0:
272,196,141235,2,0,P|301:178|318:147,1,70,10|4,0:0|0:0,0:0:0:0:
448,244,141568,101,12,0:0:0:0:
432,244,141651,1,0,0:0:0:0:
416,244,141734,1,4,0:0:0:0:
400,244,141818,1,0,0:0:0:0:
384,244,141902,1,8,0:0:0:0:
416,152,142069,5,4,0:0:0:0:
400,152,142151,1,0,0:0:0:0:
384,152,142235,1,8,0:0:0:0:
368,152,142318,1,0,0:0:0:0:
352,152,142401,1,4,0:0:0:0:
376,68,142569,2,0,L|284:68,1,70,8|0,0:0|0:0,0:0:0:0:
64,140,142902,5,12,0:0:0:0:
88,140,142985,1,0,0:0:0:0:
112,140,143068,1,4,0:0:0:0:
136,140,143152,1,0,0:0:0:0:
160,140,143235,1,8,0:0:0:0:
100,232,143402,5,4,0:0:0:0:
124,232,143485,1,0,0:0:0:0:
148,232,143568,1,8,0:0:0:0:
172,232,143652,1,0,0:0:0:0:
196,232,143736,1,4,0:0:0:0:
140,316,143903,2,0,L|264:316,1,105.000004005432,8|0,0:0|0:0,0:0:0:0:
356,40,144235,85,12,0:0:0:0:
356,72,144318,1,0,0:0:0:0:
356,104,144401,1,4,0:0:0:0:
356,136,144485,1,0,0:0:0:0:
356,168,144569,1,8,0:0:0:0:
256,108,144735,5,4,0:0:0:0:
256,140,144818,1,0,0:0:0:0:
256,172,144901,1,8,0:0:0:0:
256,204,144985,1,0,0:0:0:0:
256,236,145069,1,4,0:0:0:0:
164,184,145236,2,0,L|164:312,1,105.000004005432,10|4,0:0|0:0,0:0:0:0:
256,272,145568,5,8,0:0:0:0:
280,248,145651,1,0,0:0:0:0:
312,236,145735,1,4,0:0:0:0:
348,232,145818,1,0,0:0:0:0:
384,240,145901,5,8,0:0:0:0:
412,260,145984,1,0,0:0:0:0:
428,292,146068,1,4,0:0:0:0:
428,328,146151,1,0,0:0:0:0:
412,360,146235,2,0,P|378:367|320:356,1,70,10|4,0:0|0:0,0:0:0:0:
256,280,146568,2,0,P|292:276|328:280,1,70,10|4,0:0|0:0,0:0:0:0:
419,191,146902,70,0,P|419:235|399:283,1,70,10|4,0:0|0:0,0:0:0:0:
228,52,147234,1,8,0:0:0:0:
236,68,147318,1,0,0:0:0:0:
244,84,147401,1,4,0:0:0:0:
252,100,147484,1,0,0:0:0:0:
260,116,147568,2,0,L|296:184,1,70,10|4,0:0|0:0,0:0:0:0:
428,112,147902,2,0,P|388:132|360:176,1,70,10|4,0:0|0:0,0:0:0:0:
136,224,148234,5,8,0:0:0:0:
136,224,148318,1,0,0:0:0:0:
136,224,148401,1,4,0:0:0:0:
68,100,148568,5,8,0:0:0:0:
68,100,148651,1,0,0:0:0:0:
68,100,148735,1,4,0:0:0:0:
12,228,148901,5,8,0:0:0:0:
12,228,148984,1,0,0:0:0:0:
12,228,149068,2,0,L|12:312,1,70,4|8,0:0|0:0,0:0:0:0:
12,376,149402,1,4,0:0:0:0:
360,320,149568,85,8,0:0:0:0:
392,304,149651,1,0,0:0:0:0:
424,288,149734,1,4,0:0:0:0:
456,272,149818,1,0,0:0:0:0:
488,256,149901,1,4,0:0:0:0:
304,216,150069,85,8,0:0:0:0:
272,200,150152,1,0,0:0:0:0:
240,184,150235,1,4,0:0:0:0:
208,168,150319,1,0,0:0:0:0:
176,152,150402,1,4,0:0:0:0:
360,104,150569,85,8,0:0:0:0:
392,88,150652,1,0,0:0:0:0:
424,72,150735,1,4,0:0:0:0:
360,240,150902,85,8,0:0:0:0:
376,240,150985,1,0,0:0:0:0:
392,240,151069,1,0,0:0:0:0:
408,240,151152,1,0,0:0:0:0:
424,240,151235,1,8,0:0:0:0:
216,240,151402,1,4,0:0:0:0:
104,240,151569,85,8,0:0:0:0:
88,240,151652,1,0,0:0:0:0:
72,240,151736,1,0,0:0:0:0:
56,240,151819,1,0,0:0:0:0:
40,240,151902,1,8,0:0:0:0:
296,240,152069,1,4,0:0:0:0:
112,40,152235,38,0,B|182:75|182:75|206:131|206:131|262:159|286:211,1,245
40,224,153569,6,0,B|80:253|80:253|152:201|152:201|204:216|224:273,1,245
428,192,154902,6,0,B|414:255|326:271|326:271|320:344|264:356,1,245
296,100,156235,86,0,B|252:124|204:100|204:100|172:128|204:184,1,175
248,280,157235,1,0,0:0:0:0:
248,280,157402,1,0,0:0:0:0:
256,32,157569,6,0,L|256:112,1,70
340,160,158069,2,0,L|340:244,1,70
192,228,158569,1,0,0:0:0:0:
192,148,158735,1,0,0:0:0:0:
72,252,158902,6,0,P|84:220|116:192,1,70
144,356,159402,2,0,P|140:324|152:280,1,70
256,344,159902,1,0,0:0:0:0:
256,264,160068,1,0,0:0:0:0:
256,264,160152,1,0,0:0:0:0:
256,264,160235,6,8,L|314:225,1,70
308,120,160569,2,8,L|249:158,1,70
352,328,160902,2,8,P|388:316|410:289,1,70
288,40,161235,2,8,P|255:51|233:77,1,70
424,116,161569,5,8,0:0:0:0:
392,132,161652,1,0,0:0:0:0:
360,148,161735,1,0,0:0:0:0:
328,164,161819,1,0,0:0:0:0:
296,180,161902,1,8,0:0:0:0:
264,196,161985,1,0,0:0:0:0:
232,212,162069,1,0,0:0:0:0:
200,228,162152,1,0,0:0:0:0:
168,244,162235,1,8,0:0:0:0:
352,284,162402,5,8,0:0:0:0:
244,76,162569,1,8,0:0:0:0:
424,116,162735,38,0,L|324:168,1,105.000004005432
176,240,163235,1,0,0:0:0:0:
330,164,163402,1,0,0:0:0:0:
60,36,163569,5,4,0:0:0:0:
240,112,163735,1,0,0:0:0:0:
120,148,163902,1,0,0:0:0:0:
224,333,164069,6,0,L|172:233,1,105.000004005432
320,308,164569,1,0,0:0:0:0:
175,239,164736,1,0,0:0:0:0:
468,280,164903,85,4,0:0:0:0:
284,176,165069,1,0,0:0:0:0:
404,124,165236,1,0,0:0:0:0:
132,144,165402,6,0,L|232:92,1,105.000004005432
56,184,165902,1,0,0:0:0:0:
212,260,166069,1,0,0:0:0:0:
320,48,166236,5,4,0:0:0:0:
432,120,166402,1,0,0:0:0:0:
204,88,166569,1,0,0:0:0:0:
461,192,166735,102,0,L|356:192,1,105.000004005432
256,192,167235,1,4,0:0:0:0:
68,192,167402,2,0,L|173:192,1,105.000004005432
256,40,167902,1,0,0:0:0:0:
256,40,167985,1,0,0:0:0:0:
256,40,168069,102,0,P|200:48|156:92,1,105.000004005432
252,140,168569,1,0,0:0:0:0:
252,140,168736,1,0,0:0:0:0:
436,44,168903,5,4,0:0:0:0:
436,200,169069,1,0,0:0:0:0:
360,44,169236,1,0,0:0:0:0:
436,280,169402,6,0,P|404:320|336:332,1,105.000004005432
348,228,169902,1,0,0:0:0:0:
348,228,170069,1,0,0:0:0:0:
160,312,170236,85,4,0:0:0:0:
56,232,170402,1,0,0:0:0:0:
272,280,170569,1,0,0:0:0:0:
112,96,170735,6,0,P|152:63|203:57,1,105.000004005432
192,160,171235,1,0,0:0:0:0:
192,160,171402,1,0,0:0:0:0:
44,36,171569,5,4,0:0:0:0:
240,32,171735,1,0,0:0:0:0:
44,112,171902,1,0,0:0:0:0:
312,276,172069,86,0,L|392:356,1,105.000004005432
256,220,172569,1,0,0:0:0:0:
228,96,172735,102,0,B|256:36|332:20|332:20|356:68|344:116|344:116|412:124|452:64,1,315.000012016297
421,96,173402,6,0,P|344:116|276:76,1,140
416,220,173902,1,0,0:0:0:0:
408,232,174069,1,0,0:0:0:0:
404,220,174235,1,0,0:0:0:0:
416,220,174402,1,0,0:0:0:0:
408,232,174569,1,0,0:0:0:0:
400,220,174735,1,0,0:0:0:0:
256,184,174902,5,0,0:0:0:0:
264,204,175069,1,0,0:0:0:0:
256,224,175235,1,0,0:0:0:0:
244,204,175402,1,0,0:0:0:0:
136,76,175569,85,0,0:0:0:0:
136,112,175735,1,0,0:0:0:0:
136,148,175902,1,0,0:0:0:0:
448,48,176069,6,0,L|308:132,1,140,2|0,0:0|0:0,0:0:0:0:
212,200,176569,1,0,0:0:0:0:
164,252,176736,1,0,0:0:0:0:
112,204,176902,1,0,0:0:0:0:
64,256,177069,1,0,0:0:0:0:
20,200,177236,1,0,0:0:0:0:
256,92,177402,22,0,L|408:92,1,140,4|0,0:0|0:0,0:0:0:0:
172,96,177902,1,0,0:0:0:0:
236,168,178069,2,0,L|296:236,1,70,4|0,0:0|0:0,0:0:0:0:
256,312,178402,2,0,L|204:252,1,70,4|0,0:0|0:0,0:0:0:0:
364,184,178735,70,0,L|488:88,1,140,4|0,0:0|0:0,0:0:0:0:
440,272,179235,1,0,0:0:0:0:
364,232,179402,1,0,0:0:0:0:
280,232,179568,1,0,0:0:0:0:
212,280,179735,1,0,0:0:0:0:
324,340,179902,1,0,0:0:0:0:
324,76,180068,38,0,L|324:216,1,140,4|0,0:0|0:0,0:0:0:0:
220,108,180568,1,0,0:0:0:0:
148,64,180735,1,0,0:0:0:0:
80,112,180902,1,0,0:0:0:0:
148,160,181069,2,0,L|148:236,1,70,2|0,0:0|0:0,0:0:0:0:
392,184,181402,102,0,B|328:172|328:172|256:192,1,140,4|0,0:0|0:0,0:0:0:0:
200,104,181902,1,0,0:0:0:0:
92,168,182069,1,0,0:0:0:0:
92,168,182152,1,0,0:0:0:0:
92,168,182235,5,8,0:0:0:0:
180,252,182402,1,0,0:0:0:0:
296,196,182569,1,0,0:0:0:0:
388,288,182735,101,8,0:0:0:0:
420,152,182902,1,0,0:0:0:0:
388,288,183069,1,0,0:0:0:0:
420,152,183235,1,8,0:0:0:0:
184,184,183402,1,0,0:0:0:0:
184,184,183485,1,0,0:0:0:0:
184,184,183569,5,8,0:0:0:0:
472,104,183735,1,8,0:0:0:0:
372,356,183902,1,8,0:0:0:0:
288,56,184069,22,0,P|208:52|156:96,1,140,4|0,0:0|0:0,0:0:0:0:
248,152,184569,1,0,0:0:0:0:
156,204,184735,1,0,0:0:0:0:
236,276,184902,2,0,P|280:296|320:292,1,70
320,200,185235,1,0,0:0:0:0:
56,80,185402,6,0,P|113:42|181:49,1,140,4|0,0:0|0:0,0:0:0:0:
136,144,185902,1,0,0:0:0:0:
60,216,186068,1,0,0:0:0:0:
192,304,186235,2,0,P|157:300|127:283,1,70
196,204,186568,1,0,0:0:0:0:
336,296,186735,102,0,P|393:333|461:326,1,140,4|0,0:0|0:0,0:0:0:0:
420,228,187235,2,2,L|471:180,1,70
400,132,187569,2,2,L|460:76,1,70
336,228,187902,2,2,L|281:183,1,70
252,264,188235,2,2,L|323:317,1,70
236,352,188569,2,2,L|179:310,1,70
92,252,188902,5,0,0:0:0:0:
92,252,188985,1,0,0:0:0:0:
92,252,189069,1,0,0:0:0:0:
112,148,189235,1,0,0:0:0:0:
237,117,189402,6,0,P|157:113|105:157,1,140,4|0,0:0|0:0,0:0:0:0:
316,176,189902,1,0,0:0:0:0:
396,108,190068,1,0,0:0:0:0:
240,256,190235,2,0,P|284:276|324:272,1,70
412,256,190568,1,0,0:0:0:0:
437,25,190735,6,0,P|369:18|312:56,1,140,4|0,0:0|0:0,0:0:0:0:
392,124,191235,1,0,0:0:0:0:
292,148,191401,1,0,0:0:0:0:
300,252,191568,2,0,P|265:248|235:231,1,70
156,164,191901,1,0,0:0:0:0:
256,32,192069,86,4,L|116:80,1,140
256,120,192569,1,0,0:0:0:0:
256,32,192735,2,4,L|396:80,1,140
256,120,193235,1,0,0:0:0:0:
256,204,193402,2,4,L|256:352,1,140
256,120,193902,1,0,0:0:0:0:
416,228,194069,5,0,0:0:0:0:
416,228,194152,1,0,0:0:0:0:
416,228,194235,1,0,0:0:0:0:
416,228,194319,1,0,0:0:0:0:
416,228,194402,1,0,0:0:0:0:
416,228,194485,1,0,0:0:0:0:
416,228,194569,1,0,0:0:0:0:
416,228,194652,1,0,0:0:0:0:
416,228,194735,6,0,B|348:236|348:236|284:268,1,140,4|0,0:0|0:0,0:0:0:0:
372,320,195235,1,0,0:0:0:0:
324,152,195401,1,0,0:0:0:0:
472,144,195568,2,0,P|428:164|388:160,1,70
416,60,195901,1,0,0:0:0:0:
256,80,196069,86,0,B|196:48|196:48|124:40,1,140,4|0,0:0|0:0,0:0:0:0:
168,160,196569,1,0,0:0:0:0:
328,168,196735,1,0,0:0:0:0:
100,244,196902,2,0,P|144:264|184:260,1,70
96,352,197235,1,0,0:0:0:0:
304,316,197402,6,2,L|428:316,1,105
448,316,197735,2,0,L|392:240,1,70,2|0,0:0|0:0,0:0:0:0:
380,232,197985,2,0,B|344:216|344:216|313:216,1,70,2|0,0:0|0:0,0:0:0:0:
272,216,198235,2,0,L|316:161,1,70,2|0,0:0|0:0,0:0:0:0:
336,132,198485,2,0,B|352:96|352:96|352:48,1,70,2|0,0:0|0:0,0:0:0:0:
352,24,198735,86,2,L|200:24,1,140,4|2,0:0|0:0,0:0:0:0:
212,192,199235,1,0,0:0:0:0:
72,104,199402,2,2,L|218:104,1,140,4|2,0:0|0:0,0:0:0:0:
72,192,199902,1,0,0:0:0:0:
424,184,200069,6,2,P|352:192|292:224,1,140,4|2,0:0|0:0,0:0:0:0:
212,292,200569,1,0,0:0:0:0:
120,240,200735,1,0,0:0:0:0:
100,136,200902,2,0,P|72:116|40:100,1,70
128,40,201235,1,0,0:0:0:0:
252,184,201402,6,2,P|320:152|400:156,1,140,4|2,0:0|0:0,0:0:0:0:
480,196,201902,1,0,0:0:0:0:
432,288,202068,1,0,0:0:0:0:
336,328,202235,2,0,P|301:324|264:312,1,70
180,256,202568,1,0,0:0:0:0:
256,92,202735,86,2,L|256:8,1,70
156,192,203068,1,0,0:0:0:0:
156,192,203152,1,0,0:0:0:0:
156,192,203235,2,0,L|68:192,1,70
288,192,203569,5,0,0:0:0:0:
312,192,203652,1,0,0:0:0:0:
336,192,203735,2,0,L|432:192,1,70
256,364,204069,2,2,L|256:284,1,70
372,132,204402,5,8,0:0:0:0:
440,212,204569,2,8,L|488:272,1,70
457,365,204902,2,8,L|412:312,1,70
300,184,205235,1,0,0:0:0:0:
300,184,205319,1,0,0:0:0:0:
300,184,205402,6,0,P|224:188|160:144,1,140,4|0,0:0|0:0,0:0:0:0:
108,72,205902,1,0,0:0:0:0:
108,72,205985,1,0,0:0:0:0:
108,72,206069,1,0,0:0:0:0:
44,224,206235,1,0,0:0:0:0:
256,84,206402,1,0,0:0:0:0:
168,292,206569,1,0,0:0:0:0:
380,136,206735,2,0,P|456:132|520:176,1,140,4|0,0:0|0:0,0:0:0:0:
428,248,207235,85,0,0:0:0:0:
428,248,207319,1,0,0:0:0:0:
428,248,207402,1,0,0:0:0:0:
184,108,207569,5,8,0:0:0:0:
184,116,207791,1,8,0:0:0:0:
184,124,208013,1,8,0:0:0:0:
72,312,208235,86,4,P|8:268|52:264,1,196,4|0,0:0|0:0,0:0:0:0:
120,232,210902,102,4,P|96:200|52:180,1,84,4|0,0:0|0:0,0:0:0:0:
132,328,212069,1,0,0:0:0:0:
132,328,212152,1,0,0:0:0:0:
132,328,212235,2,0,P|168:316|200:284,1,70,0|8,0:0|0:0,0:0:0:0:
120,232,212735,1,4,0:0:0:0:
216,116,213069,1,0,0:0:0:0:
268,272,213235,1,0,0:0:0:0:
32,192,213402,5,0,0:0:0:0:
32,192,213485,1,0,0:0:0:0:
32,192,213569,2,0,L|32:236,1,35
104,200,213902,2,0,L|104:244,1,35
176,180,214235,102,0,L|176:240,1,48.9999985046387
248,160,214569,2,0,L|248:220,1,48.9999985046387
320,220,214902,22,0,L|320:304,1,62.9999980773926
396,240,215235,2,0,L|396:303,1,62.9999980773926
472,160,215569,6,0,L|472:248,1,70
472,368,215902,1,0,0:0:0:0:
472,80,216069,37,0,0:0:0:0:
472,80,216152,1,0,0:0:0:0:
472,80,216235,5,8,0:0:0:0:
448,56,216319,1,0,0:0:0:0:
420,40,216402,1,0,0:0:0:0:
392,32,216485,1,0,0:0:0:0:
360,28,216569,1,0,0:0:0:0:
328,32,216652,1,0,0:0:0:0:
300,44,216735,1,8,0:0:0:0:
280,68,216819,1,0,0:0:0:0:
304,88,216902,5,0,0:0:0:0:
328,108,216985,1,0,0:0:0:0:
352,128,217069,1,0,0:0:0:0:
376,148,217152,1,0,0:0:0:0:
372,180,217235,1,0,0:0:0:0:
344,196,217319,1,0,0:0:0:0:
312,192,217402,2,0,P|272:196|236:180,1,62.9999980773926
106,53,217569,86,0,L|156:36,1,52.5000020027161,8|0,0:0|0:0,0:0:0:0:
240,36,217735,2,0,L|289:53,1,52.5000020027161
156,120,217902,2,0,L|92:144,1,52.5000020027161
240,120,218069,2,0,L|289:138,1,52.5000020027161
163,262,218235,6,0,P|134:243|100:240,1,70,8|0,0:0|0:0,0:0:0:0:
95,331,218402,2,0,P|121:353|156:357,1,70,8|0,0:0|0:0,0:0:0:0:
244,262,218569,2,0,P|273:243|308:240,1,70,8|0,0:0|0:0,0:0:0:0:
308,332,218735,2,0,P|276:356|243:357,1,70,8|0,0:0|0:0,0:0:0:0:
364,52,218902,22,0,P|424:64|472:100,1,105.000004005432,4|8,0:0|0:0,0:0:0:0:
336,188,219235,1,0,0:0:0:0:
336,188,219319,1,0,0:0:0:0:
336,188,219402,1,8,0:0:0:0:
284,52,219569,2,0,P|248:60|220:80,1,70,4|8,0:0|0:0,0:0:0:0:
100,148,219902,1,0,0:0:0:0:
100,148,219985,1,0,0:0:0:0:
100,148,220069,1,8,0:0:0:0:
256,316,220235,6,0,L|388:316,1,105.000004005432,4|8,0:0|0:0,0:0:0:0:
260,192,220568,1,0,0:0:0:0:
260,192,220652,1,0,0:0:0:0:
260,192,220735,1,8,0:0:0:0:
480,192,220902,2,0,L|388:192,1,70,4|8,0:0|0:0,0:0:0:0:
416,48,221235,1,0,0:0:0:0:
416,48,221318,1,0,0:0:0:0:
416,48,221402,1,8,0:0:0:0:
156,100,221569,6,0,L|40:52,1,105.000004005432,4|8,0:0|0:0,0:0:0:0:
240,136,221902,1,0,0:0:0:0:
240,136,221986,1,0,0:0:0:0:
240,136,222069,1,8,0:0:0:0:
144,192,222235,2,0,L|208:221,1,70,4|8,0:0|0:0,0:0:0:0:
68,160,222569,1,0,0:0:0:0:
68,160,222652,1,0,0:0:0:0:
68,160,222736,1,8,0:0:0:0:
200,372,222902,6,0,L|272:284,1,105.000004005432,4|8,0:0|0:0,0:0:0:0:
356,208,223235,1,0,0:0:0:0:
356,208,223319,1,0,0:0:0:0:
356,208,223402,1,8,0:0:0:0:
472,144,223569,86,0,P|452:108|408:80,1,70,4|8,0:0|0:0,0:0:0:0:
396,12,223902,2,0,P|356:40|364:124,1,105.000004005432,4|8,0:0|0:0,0:0:0:0:
132,48,224235,6,0,P|192:52|240:104,1,105.000004005432,4|8,0:0|0:0,0:0:0:0:
60,120,224568,1,0,0:0:0:0:
60,120,224652,1,0,0:0:0:0:
60,120,224735,1,8,0:0:0:0:
156,144,224902,2,0,P|132:188|64:216,1,105.000004005432,4|8,0:0|0:0,0:0:0:0:
236,340,225235,1,0,0:0:0:0:
236,340,225318,1,0,0:0:0:0:
236,340,225402,1,8,0:0:0:0:
404,192,225569,6,0,P|456:184|508:192,1,105.000004005432,6|8,0:0|0:0,0:0:0:0:
312,192,225902,2,0,P|256:184|200:192,1,105.000004005432,6|8,0:0|0:0,0:0:0:0:
356,120,226235,2,0,P|364:68|356:16,1,105.000004005432,6|8,0:0|0:0,0:0:0:0:
356,264,226569,2,2,P|348:324|356:372,1,105.000004005432,6|8,0:0|0:0,0:0:0:0:
160,304,226902,86,0,L|284:304,1,105.000004005432,4|8,0:0|0:0,0:0:0:0:
456,312,227235,1,0,0:0:0:0:
456,312,227319,1,0,0:0:0:0:
456,312,227402,1,8,0:0:0:0:
435,204,227569,2,0,P|379:228|351:296,1,105.000004005432,4|8,0:0|0:0,0:0:0:0:
328,152,227902,1,0,0:0:0:0:
328,152,227985,1,0,0:0:0:0:
328,152,228069,1,8,0:0:0:0:
8,184,228235,5,4,0:0:0:0:
40,192,228319,1,0,0:0:0:0:
72,200,228402,1,8,0:0:0:0:
104,208,228485,1,0,0:0:0:0:
136,216,228569,1,4,0:0:0:0:
168,224,228652,1,0,0:0:0:0:
200,232,228735,1,8,0:0:0:0:
232,240,228819,1,0,0:0:0:0:
280,272,228902,5,4,0:0:0:0:
296,248,228985,1,0,0:0:0:0:
312,224,229069,1,8,0:0:0:0:
328,200,229152,1,0,0:0:0:0:
344,176,229235,1,4,0:0:0:0:
360,152,229319,1,0,0:0:0:0:
376,128,229402,1,8,0:0:0:0:
392,104,229485,1,0,0:0:0:0:
344,80,229569,70,0,P|323:32|279:5,1,105.000004005432,4|8,0:0|0:0,0:0:0:0:
215,102,229902,1,0,0:0:0:0:
199,110,229985,1,0,0:0:0:0:
183,118,230069,1,8,0:0:0:0:
255,206,230236,2,0,L|319:174,1,70,4|8,0:0|0:0,0:0:0:0:
455,97,230569,1,0,0:0:0:0:
439,105,230652,1,0,0:0:0:0:
423,113,230736,1,8,0:0:0:0:
240,220,230902,6,0,P|188:188|172:128,1,105.000004005432,4|8,0:0|0:0,0:0:0:0:
284,120,231235,1,0,0:0:0:0:
300,112,231318,1,0,0:0:0:0:
316,104,231402,1,8,0:0:0:0:
244,16,231569,2,0,L|180:48,1,70,4|8,0:0|0:0,0:0:0:0:
44,124,231902,1,0,0:0:0:0:
60,116,231985,1,0,0:0:0:0:
76,108,232069,1,8,0:0:0:0:
276,224,232235,6,0,P|308:168|368:152,1,105.000004005432,4|8,0:0|0:0,0:0:0:0:
380,248,232568,1,0,0:0:0:0:
388,264,232651,1,0,0:0:0:0:
396,280,232735,1,8,0:0:0:0:
484,208,232902,2,0,L|452:144,1,70,4|8,0:0|0:0,0:0:0:0:
376,8,233235,1,0,0:0:0:0:
384,24,233318,1,0,0:0:0:0:
392,40,233402,1,8,0:0:0:0:
256,192,233569,6,0,L|136:192,1,105.000004005432,4|8,0:0|0:0,0:0:0:0:
40,192,233902,1,0,0:0:0:0:
60,192,233985,1,0,0:0:0:0:
84,192,234069,1,8,0:0:0:0:
240,16,234236,70,0,P|208:32|176:80,1,70,2|8,0:0|0:0,0:0:0:0:
108,104,234569,2,0,P|136:140|216:132,1,105.000004005432,2|8,0:0|0:0,0:0:0:0:
116,264,234902,5,0,0:0:0:0:
116,264,234985,1,0,0:0:0:0:
116,264,235069,1,8,0:0:0:0:
248,308,235235,5,0,0:0:0:0:
248,308,235319,1,0,0:0:0:0:
248,308,235402,1,8,0:0:0:0:
384,272,235569,5,0,0:0:0:0:
384,272,235652,1,0,0:0:0:0:
384,272,235735,1,8,0:0:0:0:
192,208,235902,2,0,P|248:224|320:196,1,105.000004005432,0|8,0:0|0:0,0:0:0:0:
248,38,236235,6,0,L|248:176,1,105.000004005432,0|8,0:0|0:0,0:0:0:0:
368,116,236569,1,0,0:0:0:0:
368,116,236652,1,0,0:0:0:0:
368,116,236735,1,8,0:0:0:0:
140,120,236902,1,0,0:0:0:0:
140,120,236985,1,0,0:0:0:0:
140,120,237069,1,8,0:0:0:0:
248,308,237236,2,0,L|248:180,1,105.000004005432,0|8,0:0|0:0,0:0:0:0:
444,324,237569,5,8,0:0:0:0:
452,296,237652,1,0,0:0:0:0:
452,268,237735,1,0,0:0:0:0:
444,240,237819,1,0,0:0:0:0:
432,216,237902,1,8,0:0:0:0:
412,196,237986,1,0,0:0:0:0:
388,180,238069,1,0,0:0:0:0:
360,176,238152,1,0,0:0:0:0:
332,184,238236,2,0,P|296:204|268:248,1,70,8|0,0:0|0:0,0:0:0:0:
344,304,238569,85,8,0:0:0:0:
344,304,238652,1,0,0:0:0:0:
344,304,238736,1,0,0:0:0:0:
256,24,238902,5,8,0:0:0:0:
256,60,238986,1,0,0:0:0:0:
256,96,239069,1,0,0:0:0:0:
256,132,239152,1,0,0:0:0:0:
256,168,239236,1,8,0:0:0:0:
256,204,239319,1,0,0:0:0:0:
256,240,239402,1,0,0:0:0:0:
256,276,239486,1,0,0:0:0:0:
256,312,239569,2,2,B|224:312|224:312|212:324|212:324|200:312|200:312|172:320|152:312,1,105,10|2,0:0|0:0,0:0:0:0:
472,92,240235,85,0,0:0:0:0:
472,92,240319,1,0,0:0:0:0:
472,92,240402,1,8,0:0:0:0:
340,36,240569,1,0,0:0:0:0:
348,176,240735,1,8,0:0:0:0:
348,176,240819,1,0,0:0:0:0:
348,176,240902,1,0,0:0:0:0:
488,260,241069,1,8,0:0:0:0:
488,260,241152,1,0,0:0:0:0:
488,260,241235,1,0,0:0:0:0:
488,260,241319,1,0,0:0:0:0:
488,260,241402,5,8,0:0:0:0:
488,260,241485,1,0,0:0:0:0:
488,260,241569,2,0,P|480:296|436:336,1,70,4|8,0:0|0:0,0:0:0:0:
304,252,241902,1,0,0:0:0:0:
404,152,242069,1,8,0:0:0:0:
404,152,242152,1,0,0:0:0:0:
404,152,242235,1,0,0:0:0:0:
264,140,242402,1,8,0:0:0:0:
264,140,242485,1,0,0:0:0:0:
264,140,242569,1,0,0:0:0:0:
264,140,242652,1,0,0:0:0:0:
264,140,242735,5,8,0:0:0:0:
264,140,242818,1,0,0:0:0:0:
264,140,242902,2,0,P|288:104|292:48,1,83.9999974365235,4|8,0:0|0:0,0:0:0:0:
152,68,243235,1,0,0:0:0:0:
104,200,243402,1,8,0:0:0:0:
104,200,243485,1,0,0:0:0:0:
104,200,243568,1,0,0:0:0:0:
212,320,243735,1,8,0:0:0:0:
212,320,243818,1,0,0:0:0:0:
212,320,243902,1,0,0:0:0:0:
212,320,243985,1,0,0:0:0:0:
212,320,244069,5,8,0:0:0:0:
212,320,244152,1,0,0:0:0:0:
212,320,244236,2,0,P|170:289|156:239,1,105.000004005432,4|8,0:0|0:0,0:0:0:0:
272,236,244569,1,0,0:0:0:0:
360,100,244735,1,8,0:0:0:0:
360,100,244819,1,0,0:0:0:0:
360,100,244902,70,0,L|360:232,1,105.000004005432,2|8,0:0|0:0,0:0:0:0:
364,312,245235,2,0,P|404:304|444:220,1,105.000004005432,2|8,0:0|0:0,0:0:0:0:
303,39,245569,6,0,P|256:52|232:120,1,105.000004005432,2|8,0:0|0:0,0:0:0:0:
344,168,245902,1,0,0:0:0:0:
344,168,245985,1,0,0:0:0:0:
344,168,246069,1,8,0:0:0:0:
224,212,246235,2,0,L|312:296,1,105.000004005432,2|8,0:0|0:0,0:0:0:0:
152,152,246569,2,0,L|56:64,1,105.000004005432,2|8,0:0|0:0,0:0:0:0:
112,276,246902,6,0,L|32:360,1,105.000004005432,2|8,0:0|0:0,0:0:0:0:
204,296,247235,2,0,L|124:384,1,105.000004005432,2|8,0:0|0:0,0:0:0:0:
400,276,247569,2,0,L|484:360,1,105.000004005432,2|8,0:0|0:0,0:0:0:0:
308,296,247902,2,0,L|400:392,1,105.000004005432,2|8,0:0|0:0,0:0:0:0:
416,136,248235,6,0,L|320:36,1,105.000004005432,2|8,0:0|0:0,0:0:0:0:
252,236,248569,1,0,0:0:0:0:
208,52,248735,1,8,0:0:0:0:
208,52,248819,1,0,0:0:0:0:
208,52,248902,1,4,0:0:0:0:
344,88,249069,1,8,0:0:0:0:
264,156,249235,1,0,0:0:0:0:
396,212,249402,1,8,0:0:0:0:
132,60,249569,85,4,0:0:0:0:
132,60,249652,1,0,0:0:0:0:
132,60,249735,1,8,0:0:0:0:
424,64,249902,1,0,0:0:0:0:
292,264,250069,1,8,0:0:0:0:
280,68,250235,5,4,0:0:0:0:
280,68,250319,1,0,0:0:0:0:
280,68,250402,1,8,0:0:0:0:
280,68,250485,1,0,0:0:0:0:
280,68,250569,1,4,0:0:0:0:
280,68,250652,1,0,0:0:0:0:
280,68,250735,1,8,0:0:0:0:
184,200,250902,85,0,0:0:0:0:
184,200,250986,1,0,0:0:0:0:
184,200,251069,1,8,0:0:0:0:
316,148,251236,1,0,0:0:0:0:
248,272,251402,1,8,0:0:0:0:
248,272,251486,1,0,0:0:0:0:
248,272,251569,1,0,0:0:0:0:
376,220,251736,1,8,0:0:0:0:
376,220,251819,1,0,0:0:0:0:
376,220,251902,1,0,0:0:0:0:
376,220,251986,1,0,0:0:0:0:
376,220,252069,5,8,0:0:0:0:
376,220,252152,1,0,0:0:0:0:
376,220,252236,2,0,P|368:184|324:144,1,70,4|8,0:0|0:0,0:0:0:0:
256,264,252569,1,0,0:0:0:0:
260,124,252736,1,8,0:0:0:0:
260,124,252819,1,0,0:0:0:0:
260,124,252902,1,0,0:0:0:0:
152,232,253069,1,8,0:0:0:0:
152,232,253152,1,0,0:0:0:0:
152,232,253236,1,0,0:0:0:0:
152,232,253319,1,0,0:0:0:0:
152,232,253402,5,8,0:0:0:0:
152,232,253485,1,0,0:0:0:0:
152,232,253569,2,0,P|128:272|124:324,1,83.9999974365235,4|8,0:0|0:0,0:0:0:0:
264,292,253902,1,0,0:0:0:0:
400,260,254069,1,8,0:0:0:0:
400,260,254152,1,0,0:0:0:0:
400,260,254235,1,0,0:0:0:0:
320,144,254402,1,8,0:0:0:0:
320,144,254485,1,0,0:0:0:0:
320,144,254569,1,0,0:0:0:0:
320,144,254652,1,0,0:0:0:0:
320,144,254736,5,8,0:0:0:0:
320,144,254819,1,0,0:0:0:0:
320,144,254903,2,0,P|344:100|344:32,1,105.000004005432,4|8,0:0|0:0,0:0:0:0:
208,80,255236,1,0,0:0:0:0:
88,152,255402,1,8,0:0:0:0:
100,164,255486,1,0,0:0:0:0:
112,176,255569,86,0,L|192:252,1,105.000004005432,2|8,0:0|0:0,0:0:0:0:
196,336,255902,2,0,P|244:316|276:240,1,105.000004005432,2|8,0:0|0:0,0:0:0:0:
256,108,256235,6,0,P|296:76|364:80,1,105.000004005432,2|8,0:0|0:0,0:0:0:0:
320,184,256568,1,0,0:0:0:0:
320,184,256651,1,0,0:0:0:0:
320,184,256735,1,8,0:0:0:0:
428,340,256902,2,0,L|360:240,1,105.000004005432,2|8,0:0|0:0,0:0:0:0:
428,24,257235,2,0,L|356:124,1,105.000004005432,2|8,0:0|0:0,0:0:0:0:
76,176,257568,6,0,P|83:142|164:96,1,105.000004005432,2|8,0:0|0:0,0:0:0:0:
304,128,257902,2,0,P|272:96|188:92,1,105.000004005432,2|8,0:0|0:0,0:0:0:0:
224,292,258235,2,0,L|192:168,1,105.000004005432,2|8,0:0|0:0,0:0:0:0:
244,368,258569,1,0,0:0:0:0:
176,100,258735,1,8,0:0:0:0:
72,72,258902,86,0,P|72:116|124:180,1,105.000004005432,2|8,0:0|0:0,0:0:0:0:
216,224,259235,1,4,0:0:0:0:
260,76,259402,1,8,0:0:0:0:
260,76,259486,1,0,0:0:0:0:
260,76,259569,1,4,0:0:0:0:
324,200,259736,1,8,0:0:0:0:
404,268,259902,1,4,0:0:0:0:
396,128,260069,1,8,0:0:0:0:
228,216,260236,5,4,0:0:0:0:
228,216,260319,1,0,0:0:0:0:
228,216,260402,1,8,0:0:0:0:
436,64,260569,1,4,0:0:0:0:
304,308,260736,1,8,0:0:0:0:
284,76,260902,1,4,0:0:0:0:
436,216,261069,1,8,0:0:0:0:
192,96,261235,1,4,0:0:0:0:
404,312,261402,1,8,0:0:0:0:
316,192,261569,86,0,L|316:157,2,35,4|0|8,0:0|0:0|0:0,0:0:0:0:
256,280,261902,2,0,L|256:245,2,35,4|0|8,0:0|0:0|0:0,0:0:0:0:
200,192,262235,2,0,L|200:157,2,35,4|0|8,0:0|0:0|0:0,0:0:0:0:
256,104,262569,2,0,L|256:69,2,35,4|0|8,0:0|0:0|0:0,0:0:0:0:
415,174,262902,6,0,L|392:148,2,35,4|0|8,0:0|0:0|0:0,0:0:0:0:
292,172,263235,2,0,L|328:140,2,35,4|0|8,0:0|0:0|0:0,0:0:0:0:
292,256,263569,2,0,L|315:282,2,35,4|0|8,0:0|0:0|0:0,0:0:0:0:
415,258,263902,2,0,L|379:290,2,35,4|0|8,0:0|0:0|0:0,0:0:0:0:
232,172,264235,5,4,0:0:0:0:
232,172,264319,1,0,0:0:0:0:
232,172,264402,1,8,0:0:0:0:
292,256,264569,1,4,0:0:0:0:
292,256,264652,1,0,0:0:0:0:
292,256,264735,1,8,0:0:0:0:
328,156,264902,1,4,0:0:0:0:
328,156,264985,1,0,0:0:0:0:
328,156,265069,1,8,0:0:0:0:
264,72,265235,5,4,0:0:0:0:
264,72,265319,1,0,0:0:0:0:
264,72,265402,1,8,0:0:0:0:
136,184,265569,6,0,L|108:240,2,35,4|0|8,0:0|0:0|0:0,0:0:0:0:
204,224,265902,2,0,L|176:280,2,35,4|0|8,0:0|0:0|0:0,0:0:0:0:
16,192,266235,53,4,0:0:0:0:
32,260,266347,1,4,0:0:0:0:
80,312,266458,1,4,0:0:0:0:
144,336,266569,1,4,0:0:0:0:
212,336,266680,1,4,0:0:0:0:
280,316,266791,1,4,0:0:0:0:
332,268,266902,1,4,0:0:0:0:
332,268,268235,101,4,0:0:0:0:
332,268,269569,6,0,P|360:208|328:148,1,140,4|0,0:0|0:0,0:0:0:0:
264,208,271402,1,0,0:0:0:0:
228,208,271485,1,0,0:0:0:0:
192,208,271569,1,8,0:0:0:0:
420,208,271735,1,8,0:0:0:0:
72,192,272235,102,2,P|96:220|125:238,1,70,2|0,0:0|0:0,0:0:0:0:
328,280,272569,1,8,0:0:0:0:
256,80,272735,1,0,0:0:0:0:
196,280,272901,1,0,0:0:0:0:
104,108,273068,2,2,P|80:80|51:62,1,70,4|8,0:0|0:0,0:0:0:0:
256,112,273401,1,4,0:0:0:0:
440,192,273568,102,2,P|416:164|387:146,1,70,2|0,0:0|0:0,0:0:0:0:
184,104,273902,1,8,0:0:0:0:
256,304,274068,1,0,0:0:0:0:
316,104,274234,1,0,0:0:0:0:
408,276,274402,2,2,P|432:304|461:322,1,70,4|8,0:0|0:0,0:0:0:0:
256,272,274734,1,4,0:0:0:0:
56,264,274902,102,2,P|80:236|109:218,1,70,2|0,0:0|0:0,0:0:0:0:
308,160,275235,1,8,0:0:0:0:
124,56,275401,1,0,0:0:0:0:
192,256,275569,1,0,0:0:0:0:
0,184,275735,2,2,P|-1:150|2:115,1,70,6|8,0:0|0:0,0:0:0:0:
192,208,276069,1,4,0:0:0:0:
216,0,276235,102,2,P|244:24|262:53,1,70,2|0,0:0|0:0,0:0:0:0:
312,256,276569,1,8,0:0:0:0:
168,100,276735,1,0,0:0:0:0:
388,352,276901,5,0,0:0:0:0:
388,336,276985,1,0,0:0:0:0:
388,320,277068,1,4,0:0:0:0:
484,284,277235,1,0,0:0:0:0:
484,300,277318,1,0,0:0:0:0:
484,316,277401,1,4,0:0:0:0:
408,192,277568,102,2,P|384:164|355:146,1,70,2|0,0:0|0:0,0:0:0:0:
200,172,277902,1,8,0:0:0:0:
256,376,278068,1,0,0:0:0:0:
392,216,278234,1,0,0:0:0:0:
264,8,278402,2,2,P|268:48|264:92,1,70,6|8,0:0|0:0,0:0:0:0:
124,56,278734,1,4,0:0:0:0:
56,264,278902,102,2,P|104:236|168:264,1,105.000004005432,2|0,0:0|0:0,0:0:0:0:
312,172,279235,1,8,0:0:0:0:
256,376,279402,1,0,0:0:0:0:
120,216,279569,1,0,0:0:0:0:
192,28,279735,2,2,P|220:76|192:140,1,105.000004005432,2|0,0:0|0:0,0:0:0:0:
388,56,280069,1,4,0:0:0:0:
64,72,280235,102,2,P|48:104|92:76,1,140,2|0,0:0|0:0,0:0:0:0:
312,212,280569,1,8,0:0:0:0:
256,8,280735,1,0,0:0:0:0:
120,168,280901,1,0,0:0:0:0:
172,344,281069,2,2,P|204:360|176:316,1,140,2|0,0:0|0:0,0:0:0:0:
388,328,281401,1,4,0:0:0:0:
388,48,281568,5,4,1:0:0:0:
388,68,281652,1,0,0:0:0:0:
388,88,281735,1,8,0:0:0:0:
256,40,281901,1,0,0:0:0:0:
96,316,282068,1,8,2:0:0:0:
256,40,282235,5,0,0:0:0:0:
264,56,282318,1,0,0:0:0:0:
256,72,282401,1,8,0:0:0:0:
264,88,282485,1,0,0:0:0:0:
256,104,282568,1,0,0:0:0:0:
264,120,282651,1,0,0:0:0:0:
256,136,282735,1,8,0:0:0:0:
264,152,282818,1,0,0:0:0:0:
256,168,282902,6,0,P|280:172|320:160,2,35,0|0|8,0:0|0:0|0:0,0:0:0:0:
256,40,283235,1,4,0:0:0:0:
132,112,283402,2,0,P|168:116|216:96,1,70,8|0,0:0|0:0,0:0:0:0:
52,148,283735,2,0,P|44:116|52:72,2,70,8|0|8,0:0|0:0|0:0,0:0:0:0:
84,308,284235,6,2,P|168:320|236:300,1,140
236,168,284735,1,8,0:0:0:0:
320,144,284902,1,0,0:0:0:0:
400,184,285069,1,8,0:0:0:0:
320,240,285235,1,0,0:0:0:0:
320,48,285402,1,8,0:0:0:0:
456,56,285569,101,0,0:0:0:0:
456,56,285652,1,0,0:0:0:0:
456,56,285735,1,8,0:0:0:0:
392,260,285902,1,0,0:0:0:0:
208,260,286069,2,0,L|352:260,1,140,2|2,0:0|0:0,0:0:0:0:
232,180,286569,1,0,0:0:0:0:
336,120,286735,1,8,0:0:0:0:
120,76,286902,5,8,0:0:0:0:
120,76,286985,1,8,0:0:0:0:
120,76,287069,1,8,0:0:0:0:
120,76,287152,1,0,0:0:0:0:
120,76,287235,2,0,L|192:128,2,70,8|8|8,0:0|0:0|0:0,0:0:0:0:
84,192,287735,2,0,L|180:200,1,70,8|0,0:0|0:0,0:0:0:0:
260,212,288069,1,8,0:0:0:0:
84,352,288235,69,0,0:0:0:0:
84,352,288319,1,0,0:0:0:0:
84,352,288402,1,8,0:0:0:0:
256,268,288569,1,0,0:0:0:0:
176,104,288735,2,2,P|100:68|24:72,1,140
220,164,289235,1,0,0:0:0:0:
80,176,289402,1,0,0:0:0:0:
188,324,289569,6,0,L|336:324,1,140,2|2,0:0|0:0,0:0:0:0:
440,188,290069,1,0,0:0:0:0:
440,188,290152,1,0,0:0:0:0:
440,188,290235,1,8,0:0:0:0:
244,236,290402,1,0,0:0:0:0:
304,120,290569,1,8,0:0:0:0:
360,204,290735,1,0,0:0:0:0:
96,292,290902,101,0,0:0:0:0:
96,292,290985,1,0,0:0:0:0:
96,292,291069,1,4,0:0:0:0:
96,292,291152,1,0,0:0:0:0:
96,292,291235,1,0,0:0:0:0:
96,292,291319,1,0,0:0:0:0:
96,292,291402,1,4,0:0:0:0:
96,292,291485,1,0,0:0:0:0:
128,312,291569,5,0,0:0:0:0:
160,320,291652,1,0,0:0:0:0:
192,328,291735,1,4,0:0:0:0:
224,336,291819,1,0,0:0:0:0:
256,344,291902,1,0,0:0:0:0:
288,352,291985,1,0,0:0:0:0:
320,360,292069,1,4,0:0:0:0:
352,368,292152,1,0,0:0:0:0:
384,376,292235,6,0,P|411:314|377:255,1,140
512,376,292735,1,0,0:0:0:0:
328,320,292902,21,0,0:0:0:0:
288,352,292985,1,0,0:0:0:0:
240,368,293069,1,0,0:0:0:0:
192,360,293152,1,0,0:0:0:0:
152,328,293235,1,0,0:0:0:0:
136,280,293319,1,0,0:0:0:0:
136,232,293402,1,0,0:0:0:0:
256,52,293569,69,4,3:0:0:0:
272,44,293652,1,0,0:0:0:0:
288,52,293735,1,0,0:0:0:0:
304,44,293819,1,0,0:0:0:0:
320,52,293902,1,4,0:0:0:0:
184,140,294069,69,4,3:0:0:0:
168,148,294152,1,0,0:0:0:0:
152,140,294235,1,0,0:0:0:0:
136,148,294319,1,0,0:0:0:0:
120,140,294402,1,4,0:0:0:0:
256,228,294569,69,4,3:0:0:0:
272,236,294652,1,0,0:0:0:0:
288,228,294735,1,0,0:0:0:0:
304,236,294819,1,0,0:0:0:0:
320,228,294902,1,4,0:0:0:0:
476,152,295069,69,4,3:0:0:0:
460,144,295152,1,0,0:0:0:0:
444,152,295235,1,0,0:0:0:0:
428,144,295319,1,0,0:0:0:0:
412,152,295402,1,4,0:0:0:0:
160,192,295569,5,4,0:0:0:0:
144,184,295653,1,0,0:0:0:0:
128,192,295736,1,0,0:0:0:0:
112,184,295819,1,4,0:3:0:0:
60,188,295902,5,4,0:0:0:0:
8,188,295985,1,0,0:0:0:0:
36,144,296069,1,8,0:0:0:0:
180,320,296235,5,4,0:3:0:0:
168,332,296319,1,0,0:0:0:0:
156,344,296402,1,0,0:0:0:0:
144,356,296485,1,0,0:0:0:0:
132,368,296569,1,4,0:0:0:0:
332,320,296735,21,4,0:3:0:0:
344,332,296819,1,0,0:0:0:0:
356,344,296902,1,0,0:0:0:0:
368,356,296985,1,0,0:0:0:0:
380,368,297069,1,4,0:0:0:0:
256,192,297235,21,4,0:3:0:0:
256,208,297318,1,0,0:0:0:0:
256,224,297401,1,0,0:0:0:0:
256,240,297485,1,0,0:0:0:0:
256,256,297568,1,4,0:0:0:0:
220,44,297735,21,4,0:3:0:0:
236,44,297818,1,0,0:0:0:0:
252,44,297901,1,0,0:0:0:0:
268,44,297985,1,0,0:0:0:0:
284,44,298068,1,4,0:0:0:0:
344,184,298235,85,4,0:3:0:0:
320,144,298319,1,0,0:0:0:0:
280,120,298402,1,0,0:0:0:0:
236,116,298485,1,0,0:0:0:0:
196,136,298569,1,4,0:0:0:0:
176,176,298652,1,0,0:0:0:0:
256,208,298735,5,0,0:0:0:0:
256,260,298819,1,8,0:0:0:0:
