osu file format v14

[General]
AudioFilename: audio.mp3
AudioLeadIn: 0
PreviewTime: 109569
Countdown: 0
SampleSet: Drum
StackLeniency: 0.3
Mode: 0
LetterboxInBreaks: 0
WidescreenStoryboard: 1

[Editor]
DistanceSpacing: 1
BeatDivisor: 4
GridSize: 8
TimelineZoom: 4.299998

[Metadata]
Title:Pure Furies ~ Vengeance is Mine
TitleUnicode:Pure Furies ~ Vengeance is Mine
Artist:Demetori
ArtistUnicode:Demetori
Creator:Majii
Version:Vengeance!
Source:東方紺珠伝 ~ Legacy of Lunatic Kingdom
Tags:C92 Zun Junko Touhou 15 Determinism&Destrukction instrumental metal
BeatmapID:2295161
BeatmapSetID:666167

[Difficulty]
HPDrainRate:6.5
CircleSize:4
OverallDifficulty:8
ApproachRate:8
SliderMultiplier:1.4
SliderTickRate:1

[Events]
//Background and Video events
0,0,"maxresdefault.jpg",0,0
//Break Periods
//Storyboard Layer 0 (Background)
//Storyboard Layer 1 (Fail)
//Storyboard Layer 2 (Pass)
//Storyboard Layer 3 (Foreground)
//Storyboard Layer 4 (Overlay)
//Storyboard Sound Samples

[TimingPoints]
236,333.333333333333,4,1,1,50,1,0
236,-200,4,1,1,50,0,0
5569,-200,4,1,1,50,0,0
10902,-142.857142857143,4,3,1,75,0,0
21569,-66.6666666666667,4,1,1,85,0,0
32569,-66.6666666666667,4,1,1,85,0,0
32735,-66.6666666666667,4,1,1,85,0,0
33902,-66.6666666666667,4,1,1,85,0,0
34069,-66.6666666666667,4,1,1,85,0,0
35235,-66.6666666666667,4,1,1,85,0,0
35402,-66.6666666666667,4,1,1,85,0,0
36569,-66.6666666666667,4,1,1,85,0,0
36735,-100,4,1,1,85,0,0
37569,-66.6666666666667,4,1,1,85,0,0
37902,-66.6666666666667,4,1,1,85,0,0
38902,-66.6666666666667,4,1,1,85,0,0
39235,-66.6666666666667,4,1,1,85,0,0
40235,-66.6666666666667,4,1,1,85,0,0
40569,-66.6666666666667,4,1,1,85,0,0
41569,-66.6666666666667,4,1,1,85,0,0
41902,-66.6666666666667,4,1,1,85,0,0
42069,-100,4,1,1,85,0,0
42902,-100,4,1,1,75,0,0
53569,-66.6666666666667,4,1,1,75,0,0
64235,-100,4,1,1,65,0,0
74902,-100,4,1,1,75,0,0
84235,-100,4,1,1,55,0,0
85569,-200,4,1,1,75,0,0
86235,-142.857142857143,4,1,1,80,0,0
86902,-100,4,1,1,85,0,0
90902,-200,4,1,1,75,0,0
91569,-142.857142857143,4,1,1,80,0,0
92235,-100,4,1,1,85,0,0
93569,-100,4,1,1,80,0,0
97985,-100,4,1,1,60,0,0
98902,-100,4,1,1,65,0,0
106902,-100,4,1,1,50,0,0
107235,-100,4,1,1,65,0,0
107569,-100,4,1,1,75,0,0
107735,-83.3333333333333,4,1,1,75,0,0
107902,-71.4285714285714,4,1,1,75,0,0
108069,-62.5,4,1,1,75,0,0
108235,-200,4,1,1,65,0,0
108569,-142.857142857143,4,1,1,70,0,0
108902,-111.111111111111,4,1,1,75,0,0
109569,-100,4,1,1,90,0,1
114235,-80,4,1,1,90,0,1
114569,-66.6666666666667,4,1,1,90,0,1
114902,-66.6666666666667,4,1,1,90,0,1
118902,-100,4,1,1,90,0,1
124902,-66.6666666666667,4,1,1,90,0,1
128235,-100,4,1,1,70,0,1
129569,-71.4285714285714,4,1,1,100,0,1
130235,-71.4285714285714,4,1,1,75,0,1
130902,-100,4,1,1,75,0,1
143902,-66.6666666666667,4,1,1,75,0,1
145235,-66.6666666666667,4,1,1,75,0,1
145569,-100,4,1,1,75,0,1
152235,-200,4,1,1,70,0,0
160235,-100,4,1,1,65,0,0
160569,-100,4,1,1,75,0,0
160902,-100,4,1,1,85,0,0
161235,-100,4,1,1,95,0,0
162735,-133.333333333333,4,1,1,95,0,0
172735,-66.6666666666667,4,1,1,85,0,0
173402,-100,4,1,1,90,0,0
184069,-100,4,1,1,95,0,0
189402,-100,4,1,1,85,0,0
192069,-100,4,1,1,80,0,0
192735,-100,4,1,1,85,0,0
193402,-100,4,1,1,90,0,0
194735,-100,4,1,1,95,0,0
202735,-100,4,1,1,90,0,0
208235,-500,4,1,1,65,0,0
212235,-200,4,1,1,65,0,0
213569,-200,4,1,1,75,0,0
214235,-142.857142857143,4,1,1,80,0,0
214902,-111.111111111111,4,1,1,85,0,0
215569,-100,4,1,1,90,0,0
215902,-100,4,1,1,95,0,0
216235,-55.5555555555556,4,1,1,85,0,0
217569,-66.6666666666667,4,1,1,90,0,0
218235,-50,4,1,1,100,0,0
218902,-66.6666666666667,4,1,1,95,0,1
219569,-100,4,1,1,95,0,1
220235,-66.6666666666667,4,1,1,95,0,1
220902,-100,4,1,1,95,0,1
221569,-66.6666666666667,4,1,1,95,0,1
222235,-100,4,1,1,95,0,1
222902,-66.6666666666667,4,1,1,95,0,1
223569,-100,4,1,1,95,0,1
223902,-66.6666666666667,4,1,1,95,0,1
230235,-100,4,1,1,95,0,1
230902,-66.6666666666667,4,1,1,95,0,1
231569,-100,4,1,1,95,0,1
232235,-66.6666666666667,4,1,1,95,0,1
232902,-100,4,1,1,95,0,1
233569,-66.6666666666667,4,1,1,95,0,1
234235,-100,4,1,1,95,0,1
234569,-66.6666666666667,4,1,1,95,0,1
237569,-100,4,1,1,85,0,1
239569,-200,4,1,1,75,0,1
240235,-100,4,1,1,90,0,1
242902,-83.3333333333333,4,1,1,90,0,1
244235,-66.6666666666667,4,1,1,90,0,1
252235,-100,4,1,1,90,0,1
253569,-83.3333333333333,4,1,1,90,0,1
254902,-66.6666666666667,4,1,1,90,0,1
257569,-66.6666666666667,4,1,1,90,0,1
258902,-66.6666666666667,4,1,1,90,0,1
261569,-100,4,1,1,80,0,1
266902,-100,4,1,1,90,0,0
269569,-500,4,1,1,85,0,0
271402,-100,4,1,1,90,0,0
272235,-100,4,1,1,85,0,0
277569,-100,4,1,1,70,0,0
278902,-66.6666666666667,4,1,1,75,0,0
279235,-66.6666666666667,4,1,1,75,0,0
280235,-50,4,1,1,80,0,0
280569,-50,4,1,1,80,0,0
281569,-100,4,1,1,85,0,0
282902,-100,4,1,1,95,0,0
293569,-100,4,1,1,90,0,0
298902,-100,4,1,1,40,0,0

[Colours]
Combo1 : 255,128,0
Combo2 : 0,0,255
Combo3 : 215,215,0
Combo4 : 0,204,204
Combo5 : 255,0,0
Combo6 : 128,0,255

[HitObjects]
472,368,236,6,0,P|472:320|440:264,1,105
368,200,1235,1,0,0:0:0:0:
272,368,1569,2,0,P|272:320|304:264,1,105
368,384,2568,1,0,0:0:0:0:
368,200,2902,2,0,L|368:96,1,105
256,200,3902,1,0,0:0:0:0:
144,95,4235,2,0,L|144:200,1,105
256,96,5235,1,0,0:0:0:0:
416,8,5569,6,0,P|368:8|312:40,1,105
392,112,6568,1,0,0:0:0:0:
320,192,6902,2,0,P|365:216|417:217,1,105
248,112,7901,1,0,0:0:0:0:
56,112,8235,2,0,L|176:112,1,105
56,208,9235,1,0,0:0:0:0:
168,304,9569,2,0,L|63:304,1,105
168,208,10568,1,0,0:0:0:0:
384,216,10902,5,0,0:0:0:0:
384,224,11069,1,0,0:0:0:0:
384,232,11235,1,0,0:0:0:0:
384,360,11402,2,0,L|384:304,1,48.9999985046387
296,384,11735,1,0,0:0:0:0:
216,304,11902,2,0,L|216:352,1,48.9999985046387
296,200,12235,5,0,0:0:0:0:
296,192,12402,1,0,0:0:0:0:
296,184,12569,1,0,0:0:0:0:
296,56,12735,2,0,L|296:112,1,48.9999985046387
216,24,13069,1,0,0:0:0:0:
136,104,13235,2,0,L|136:48,1,48.9999985046387
216,184,13569,5,0,0:0:0:0:
216,192,13735,1,0,0:0:0:0:
216,200,13902,1,0,0:0:0:0:
216,328,14069,2,0,L|216:264,1,48.9999985046387
136,360,14402,1,0,0:0:0:0:
56,280,14569,2,0,L|56:329,1,48.9999985046387
136,192,14902,5,0,0:0:0:0:
136,184,15069,1,0,0:0:0:0:
136,176,15235,1,0,0:0:0:0:
136,48,15402,2,0,L|136:112,1,48.9999985046387
56,16,15735,1,0,0:0:0:0:
56,248,15902,5,0,0:0:0:0:
88,280,15985,1,0,0:0:0:0:
120,248,16069,1,0,0:0:0:0:
256,328,16235,5,0,0:0:0:0:
264,328,16402,1,0,0:0:0:0:
272,328,16568,1,0,0:0:0:0:
304,104,16735,2,0,L|304:160,1,48.9999985046387
304,248,17068,1,0,0:0:0:0:
304,376,17235,2,0,L|304:327,1,48.9999985046387
488,320,17568,5,0,0:0:0:0:
456,224,17735,1,0,0:0:0:0:
376,160,17902,1,0,0:0:0:0:
376,288,18068,2,0,L|376:232,1,48.9999985046387
376,144,18402,1,0,0:0:0:0:
376,16,18569,2,0,L|376:64,1,48.9999985046387
216,48,18902,5,0,0:0:0:0:
128,96,19068,1,0,0:0:0:0:
192,176,19235,1,0,0:0:0:0:
320,176,19402,2,0,L|272:176,1,48.9999985046387
176,176,19735,1,0,0:0:0:0:
48,176,19902,2,0,L|120:176,1,48.9999985046387
176,304,20235,5,0,0:0:0:0:
256,368,20402,1,0,0:0:0:0:
336,304,20568,1,0,0:0:0:0:
256,352,20735,1,0,0:0:0:0:
256,192,21569,5,0,0:0:0:0:
96,192,21735,1,0,0:0:0:0:
336,192,21902,1,0,0:0:0:0:
16,192,22069,1,0,0:0:0:0:
312,296,22235,2,0,P|248:288|208:248,1,105.000004005432
40,296,22569,2,0,P|104:288|144:248,1,105.000004005432
176,192,22902,5,0,0:0:0:0:
176,32,23069,1,0,0:0:0:0:
248,232,23235,1,0,0:0:0:0:
104,0,23402,1,0,0:0:0:0:
360,112,23568,2,0,L|255:112,2,105.000004005432
512,112,24069,1,0,0:0:0:0:
456,296,24235,5,0,0:0:0:0:
296,296,24402,1,0,0:0:0:0:
504,232,24568,1,0,0:0:0:0:
248,232,24735,1,0,0:0:0:0:
432,88,24902,2,0,P|448:144|432:192,1,105.000004005432
320,88,25235,2,0,P|304:144|320:192,1,105.000004005432
376,352,25569,5,0,0:0:0:0:
376,192,25735,1,0,0:0:0:0:
216,192,25902,1,0,0:0:0:0:
216,352,26069,1,0,0:0:0:0:
296,96,26235,5,0,0:0:0:0:
296,104,26319,1,0,0:0:0:0:
296,112,26402,1,0,0:0:0:0:
296,288,26569,1,0,0:0:0:0:
296,280,26653,1,0,0:0:0:0:
296,272,26736,1,0,0:0:0:0:
168,120,26902,5,0,0:0:0:0:
256,248,27068,1,0,0:0:0:0:
120,56,27235,1,0,0:0:0:0:
304,312,27402,1,0,0:0:0:0:
64,216,27569,2,0,P|120:232|168:216,1,105.000004005432
360,152,27902,2,0,P|304:136|256:152,1,105.000004005432
304,304,28235,5,0,0:0:0:0:
144,304,28402,1,0,0:0:0:0:
352,240,28568,1,0,0:0:0:0:
96,240,28735,1,0,0:0:0:0:
224,104,28902,2,0,L|224:209,2,105.000004005432
224,344,29402,1,0,0:0:0:0:
416,320,29568,5,0,0:0:0:0:
416,160,29735,1,0,0:0:0:0:
344,352,29901,1,0,0:0:0:0:
352,112,30068,1,0,0:0:0:0:
176,160,30235,2,0,P|232:176|280:160,1,105.000004005432
176,304,30569,2,0,P|232:288|280:304,1,105.000004005432
80,232,30902,5,0,0:0:0:0:
144,88,31068,1,0,0:0:0:0:
136,368,31235,1,0,0:0:0:0:
312,232,31402,1,0,0:0:0:0:
464,192,31569,5,0,0:0:0:0:
448,144,31652,1,0,0:0:0:0:
416,104,31735,1,0,0:0:0:0:
368,80,31819,1,0,0:0:0:0:
312,80,31902,1,0,0:0:0:0:
264,104,31986,1,0,0:0:0:0:
232,144,32069,1,0,0:0:0:0:
216,192,32152,1,0,0:0:0:0:
216,248,32235,6,0,P|136:256|80:176,1,157.500006008148
40,144,32569,2,0,P|120:136|152:160,1,105.000004005432
272,312,32902,1,0,0:0:0:0:
168,72,33069,1,0,0:0:0:0:
208,224,33235,1,0,0:0:0:0:
160,48,33402,1,0,0:0:0:0:
256,344,33569,6,0,P|336:352|392:272,1,157.500006008148
432,232,33903,2,0,P|352:224|320:248,1,105.000004005432
88,192,34235,1,0,0:0:0:0:
168,72,34402,1,0,0:0:0:0:
160,288,34568,1,0,0:0:0:0:
312,56,34735,1,0,0:0:0:0:
216,248,34902,6,0,P|168:264|48:192,1,157.500006008148
312,184,35236,2,0,P|360:168|440:200,1,105.000004005432
88,192,35568,1,0,0:0:0:0:
168,72,35735,1,0,0:0:0:0:
160,288,35901,1,0,0:0:0:0:
312,56,36068,1,0,0:0:0:0:
216,248,36235,6,0,P|168:264|48:192,1,157.500006008148
312,184,36569,2,0,P|360:168|440:200,1,105.000004005432
88,192,36901,1,0,0:0:0:0:
168,72,37068,1,0,0:0:0:0:
160,288,37234,1,0,0:0:0:0:
312,56,37401,1,0,0:0:0:0:
216,248,37569,6,0,P|168:264|48:200,1,157.500006008148
312,184,37903,2,0,P|360:168|440:200,1,105.000004005432
88,192,38235,1,0,0:0:0:0:
168,72,38402,1,0,0:0:0:0:
160,288,38568,1,0,0:0:0:0:
312,56,38735,1,0,0:0:0:0:
216,248,38902,6,0,P|168:264|48:200,1,157.500006008148
312,184,39236,2,0,P|360:168|440:200,1,105.000004005432
88,192,39568,1,0,0:0:0:0:
168,72,39735,1,0,0:0:0:0:
160,288,39901,1,0,0:0:0:0:
312,56,40068,1,0,0:0:0:0:
216,248,40235,6,0,P|168:264|64:192,1,157.500006008148
312,184,40569,2,0,P|360:168|440:200,1,105.000004005432
88,192,40901,1,0,0:0:0:0:
168,72,41068,1,0,0:0:0:0:
160,288,41234,1,0,0:0:0:0:
312,56,41401,1,0,0:0:0:0:
216,248,41569,6,0,P|168:264|64:216,1,157.500006008148
312,184,41903,2,0,P|360:168|440:200,1,105.000004005432
88,192,42235,1,0,0:0:0:0:
168,72,42402,1,0,0:0:0:0:
160,288,42568,1,0,0:0:0:0:
312,56,42735,1,0,0:0:0:0:
