osu file format v14

[General]
AudioFilename: audio1.mp3
AudioLeadIn: 0
PreviewTime: 279468
Countdown: 0
SampleSet: Soft
StackLeniency: 0.7
Mode: 3
LetterboxInBreaks: 0
SpecialStyle: 0
WidescreenStoryboard: 0

[Editor]
DistanceSpacing: 1.5
BeatDivisor: 4
GridSize: 4
TimelineZoom: 3

[Metadata]
Title:Plastic Mind ~ Alice in Underground
TitleUnicode:プラスチックマインド ~ Alice in Underground
Artist:Demetori
ArtistUnicode:Demetori
Creator:Surono
Version:Desire of the Magician
Source:東方怪綺談 ~ Mystic Square
Tags:Touhou Project 東方プロジェクト Kaikidan Bizarre Romantic Story PC-98 Stage 3 Boss theme アリス・マーガトロイド Margatroid Girl Death Forest Magic doll Makai BEGIERDE DES ZAUBERER Desire of the Magician Comiket 81 guitar metal ZUN
BeatmapID:1688402
BeatmapSetID:687373

[Difficulty]
HPDrainRate:8
CircleSize:4
OverallDifficulty:8
ApproachRate:10
SliderMultiplier:1.4
SliderTickRate:1

[Events]
//Background and Video events
0,0,"ok kualiti.jpg",0,0
//Break Periods
//Storyboard Layer 0 (Background)
//Storyboard Layer 1 (Fail)
//Storyboard Layer 2 (Pass)
//Storyboard Layer 3 (Foreground)
//Storyboard Layer 4 (Overlay)
//Storyboard Sound Samples

[TimingPoints]
2084,230.769230769231,4,2,1,40,1,0
2084,-125,4,2,1,40,0,0
9237,-121.951219512195,4,2,1,40,0,0
9295,-119.047619047619,4,2,1,40,0,0
9353,-116.279069767442,4,2,1,40,0,0
9410,-113.636363636364,4,2,1,40,0,0
9468,-111.111111111111,4,2,1,40,0,0
12930,-109.89010989011,4,2,1,40,0,0
12987,-108.695652173913,4,2,1,40,0,0
13045,-107.52688172043,4,2,1,40,0,0
13103,-106.382978723404,4,2,1,40,0,0
13160,-105.263157894737,4,2,1,40,0,0
14776,-104.166666666667,4,2,1,40,0,0
14834,-103.092783505155,4,2,1,40,0,0
14891,-102.040816326531,4,2,1,40,0,0
14949,-101.010101010101,4,2,1,40,0,0
15007,-100,4,2,1,40,0,0
16045,-200,4,2,1,40,0,0
16160,-1000,4,2,1,40,0,0
16449,-500,4,2,1,40,0,0
16507,-333.333333333333,4,2,1,40,0,0
16564,-250,4,2,1,40,0,0
16622,-166.666666666667,4,2,1,40,0,0
16680,-142.857142857143,4,2,1,40,0,0
16737,-125,4,2,1,40,0,0
16795,-111.111111111111,4,2,1,40,0,0
16853,-100,4,2,1,40,0,0
50545,230.769230769231,4,2,1,40,1,0
50545,-98.0392156862745,4,2,1,40,0,0
50891,-96.1538461538461,4,2,1,40,0,0
51237,-94.3396226415094,4,2,1,40,0,0
51583,-92.5925925925926,4,2,1,40,0,0
51929,-90.9090909090909,4,2,1,40,0,0
52045,-89.2857142857143,4,2,1,40,0,0
52160,-87.719298245614,4,2,1,40,0,0
52275,-86.2068965517241,4,2,1,40,0,0
52391,-100,4,2,1,40,0,0
96352,-200,4,2,1,40,0,0
96468,-1000,4,2,1,40,0,0
96641,-100,4,2,1,40,0,0
155775,-100,4,2,1,40,0,1
183525,-117.647058823529,4,2,1,40,0,1
185314,-100,4,2,1,40,0,0
187160,-98.0392156862745,4,2,1,40,0,0
187506,-96.1538461538461,4,2,1,40,0,0
188083,-94.3396226415094,4,2,1,40,0,0
188429,-92.5925925925926,4,2,1,40,0,0
189006,-90.9090909090909,4,2,1,40,0,0
189583,-89.2857142857143,4,2,1,40,0,0
189929,-87.719298245614,4,2,1,40,0,0
190275,-86.2068965517241,4,2,1,40,0,0
190852,-100,4,2,1,40,0,0
203775,-102.040816326531,4,2,1,40,0,0
204121,-104.166666666667,4,2,1,40,0,0
204468,-106.382978723404,4,2,1,40,0,0
204814,-108.695652173913,4,2,1,40,0,0
205160,-111.111111111111,4,2,1,40,0,0
205621,-108.695652173913,4,2,1,40,0,0
205852,-106.382978723404,4,2,1,40,0,0
206083,-104.166666666667,4,2,1,40,0,0
206314,-102.040816326531,4,2,1,40,0,0
207006,-100,4,2,1,40,0,0
248083,-105.263157894737,4,2,1,40,0,0
248141,-111.111111111111,4,2,1,40,0,0
248198,-117.647058823529,4,2,1,40,0,0
248256,-125,4,2,1,40,0,0
248314,-133.333333333333,4,2,1,40,0,0
248371,-142.857142857143,4,2,1,40,0,0
248429,-153.846153846154,4,2,1,40,0,0
248487,-166.666666666667,4,2,1,40,0,0
248545,-181.818181818182,4,2,1,40,0,0
248602,-200,4,2,1,40,0,0
248660,-222.222222222222,4,2,1,40,0,0
248718,-250,4,2,1,40,0,0
248775,-285.714285714286,4,2,1,40,0,0
248833,-333.333333333333,4,2,1,40,0,0
248891,-400,4,2,1,40,0,0
248948,-500,4,2,1,40,0,0
249006,-666.666666666667,4,2,1,40,0,0
249064,-1000,4,2,1,40,0,0
249468,-500,4,2,1,40,0,0
249525,-333.333333333333,4,2,1,40,0,0
249583,-250,4,2,1,40,0,0
249641,-200,4,2,1,40,0,0
249698,-166.666666666667,4,2,1,40,0,0
249756,-142.857142857143,4,2,1,40,0,0
249814,-125,4,2,1,40,0,0
249871,-111.111111111111,4,2,1,40,0,0
249929,-100,4,2,1,40,0,0
272314,-80,4,2,1,40,0,0
272429,-100,4,2,1,40,0,0
272775,-80,4,2,1,40,0,0
272891,-100,4,2,1,40,0,0
273237,-80,4,2,1,40,0,0
273352,-100,4,2,1,40,0,0
273698,-80,4,2,1,40,0,0
273814,-100,4,2,1,40,0,0
274160,-80,4,2,1,40,0,0
274275,-100,4,2,1,40,0,0
274621,-80,4,2,1,40,0,0
274737,-100,4,2,1,40,0,0
279468,-100,4,2,1,40,0,1
331160,-100,4,2,1,40,0,0
360468,-99.009900990099,4,2,1,40,0,0
360525,-98.0392156862745,4,2,1,40,0,0
360583,-97.0873786407767,4,2,1,40,0,0
360641,-96.1538461538461,4,2,1,40,0,0
360698,-95.2380952380952,4,2,1,40,0,0
364160,-94.3396226415094,4,2,1,40,0,0
364218,-93.4579439252336,4,2,1,40,0,0
364275,-92.5925925925926,4,2,1,40,0,0
364333,-91.743119266055,4,2,1,40,0,0
364391,-90.9090909090909,4,2,1,40,0,0
367852,-90.0900900900901,4,2,1,40,0,0
367910,-89.2857142857143,4,2,1,40,0,0
367968,-88.4955752212389,4,2,1,40,0,0
368025,-87.719298245614,4,2,1,40,0,0
368083,-86.9565217391304,4,2,1,40,0,0
371545,-86.2068965517241,4,2,1,40,0,0
371602,-85.4700854700855,4,2,1,40,0,0
371660,-84.7457627118644,4,2,1,40,0,0
371718,-84.0336134453781,4,2,1,40,0,0
371775,-83.3333333333333,4,2,1,40,0,0

[HitObjects]
64,192,1160,5,0,0:0:0:0:
192,192,1237,1,0,0:0:0:0:
320,192,1314,1,0,0:0:0:0:
448,192,1391,1,0,0:0:0:0:
64,192,1468,1,0,0:0:0:0:
192,192,1545,1,0,0:0:0:0:
448,192,1622,1,8,0:0:0:0:
64,192,1622,1,8,0:0:0:0:
320,192,1622,128,4,2084:0:0:0:0:
192,192,2084,1,4,0:0:0:0:
64,192,2084,1,0,0:0:0:0:
448,192,2084,1,0,0:0:0:0:
320,192,2199,1,0,0:0:0:0:
448,192,2199,1,0,0:0:0:0:
192,192,2314,1,0,0:0:0:0:
64,192,2314,1,0,0:0:0:0:
448,192,2545,1,0,0:0:0:0:
64,192,2776,1,0,0:0:0:0:
192,192,2776,1,0,0:0:0:0:
320,192,2891,1,0,0:0:0:0:
448,192,2891,1,0,0:0:0:0:
64,192,3007,1,8,0:0:0:0:
448,192,3007,1,4,0:0:0:0:
192,192,3007,1,8,0:0:0:0:
448,192,3237,1,0,0:0:0:0:
320,192,3237,1,0,0:0:0:0:
192,192,3353,1,0,0:0:0:0:
64,192,3353,1,0,0:0:0:0:
320,192,3468,1,0,0:0:0:0:
448,192,3468,1,0,0:0:0:0:
192,192,3584,1,0,0:0:0:0:
64,192,3584,1,0,0:0:0:0:
320,192,3699,1,0,0:0:0:0:
448,192,3699,1,0,0:0:0:0:
192,192,3814,1,0,0:0:0:0:
64,192,3814,1,0,0:0:0:0:
448,192,3930,1,4,0:0:0:0:
320,192,3930,1,0,0:0:0:0:
64,192,3930,1,0,0:0:0:0:
320,192,4045,1,0,0:0:0:0:
192,192,4045,1,0,0:0:0:0:
192,192,4160,1,0,0:0:0:0:
64,192,4160,1,0,0:0:0:0:
448,192,4391,1,0,0:0:0:0:
64,192,4622,1,0,0:0:0:0:
320,192,4622,1,0,0:0:0:0:
192,192,4737,1,0,0:0:0:0:
448,192,4737,1,0,0:0:0:0:
64,192,4853,1,4,0:0:0:0:
320,192,4853,1,8,0:0:0:0:
448,192,4853,1,8,0:0:0:0:
64,192,5084,1,0,0:0:0:0:
448,192,5084,1,0,0:0:0:0:
192,192,5199,1,0,0:0:0:0:
320,192,5199,1,0,0:0:0:0:
448,192,5314,1,0,0:0:0:0:
64,192,5314,1,0,0:0:0:0:
192,192,5430,1,0,0:0:0:0:
320,192,5430,1,0,0:0:0:0:
64,192,5545,1,0,0:0:0:0:
448,192,5545,1,0,0:0:0:0:
320,192,5660,1,0,0:0:0:0:
192,192,5660,1,0,0:0:0:0:
192,192,5776,1,4,0:0:0:0:
64,192,5776,1,0,0:0:0:0:
448,192,5776,1,0,0:0:0:0:
320,192,5891,1,0,0:0:0:0:
448,192,5891,1,0,0:0:0:0:
64,192,6007,1,0,0:0:0:0:
192,192,6007,1,0,0:0:0:0:
320,192,6237,1,0,0:0:0:0:
64,192,6468,1,0,0:0:0:0:
448,192,6468,1,0,0:0:0:0:
320,192,6584,1,0,0:0:0:0:
192,192,6584,1,0,0:0:0:0:
64,192,6699,1,4,0:0:0:0:
448,192,6699,1,8,0:0:0:0:
320,192,6699,1,8,0:0:0:0:
320,192,6930,1,0,0:0:0:0:
192,192,6930,1,0,0:0:0:0:
64,192,7045,1,0,0:0:0:0:
448,192,7045,1,0,0:0:0:0:
320,192,7160,1,0,0:0:0:0:
192,192,7160,1,0,0:0:0:0:
64,192,7276,1,0,0:0:0:0:
448,192,7276,1,0,0:0:0:0:
320,192,7391,1,0,0:0:0:0:
192,192,7391,1,0,0:0:0:0:
64,192,7507,1,0,0:0:0:0:
448,192,7507,1,0,0:0:0:0:
320,192,7622,1,4,0:0:0:0:
192,192,7622,1,0,0:0:0:0:
64,192,7622,1,0,0:0:0:0:
320,192,7737,1,0,0:0:0:0:
448,192,7737,1,0,0:0:0:0:
192,192,7853,1,0,0:0:0:0:
64,192,7853,1,0,0:0:0:0:
448,192,8084,1,0,0:0:0:0:
320,192,8314,1,0,0:0:0:0:
192,192,8314,1,0,0:0:0:0:
64,192,8430,1,0,0:0:0:0:
448,192,8430,1,0,0:0:0:0:
192,192,8545,1,8,0:0:0:0:
320,192,8545,1,8,0:0:0:0:
448,192,8545,1,4,0:0:0:0:
320,192,8776,1,0,0:0:0:0:
192,192,8776,1,0,0:0:0:0:
64,192,8891,1,0,0:0:0:0:
448,192,8891,1,0,0:0:0:0:
320,192,9007,1,8,0:0:0:0:
64,192,9007,1,4,0:0:0:0:
192,192,9007,128,8,9468:0:0:0:0:
64,192,9468,1,0,0:0:0:0:
448,192,9468,1,4,0:0:0:0:
320,192,9468,1,4,0:0:0:0:
64,192,9584,1,0,0:0:0:0:
192,192,9584,1,0,0:0:0:0:
320,192,9699,1,0,0:0:0:0:
448,192,9699,1,0,0:0:0:0:
192,192,9930,1,8,0:0:0:0:
448,192,9930,1,4,0:0:0:0:
64,192,9930,1,8,0:0:0:0:
320,192,10160,1,0,0:0:0:0:
448,192,10160,1,0,0:0:0:0:
64,192,10276,1,0,0:0:0:0:
192,192,10276,1,0,0:0:0:0:
448,192,10391,1,4,0:0:0:0:
320,192,10391,1,4,0:0:0:0:
64,192,10391,1,0,0:0:0:0:
320,192,10622,1,0,0:0:0:0:
448,192,10622,1,0,0:0:0:0:
192,192,10737,1,0,0:0:0:0:
64,192,10737,1,0,0:0:0:0:
64,192,10853,1,4,0:0:0:0:
448,192,10853,1,8,0:0:0:0:
320,192,10853,1,8,0:0:0:0:
192,192,10968,1,0,0:0:0:0:
320,192,10968,1,0,0:0:0:0:
192,192,11084,1,0,0:0:0:0:
64,192,11084,1,0,0:0:0:0:
320,192,11199,1,0,0:0:0:0:
448,192,11199,1,0,0:0:0:0:
192,192,11314,1,4,0:0:0:0:
64,192,11314,1,4,0:0:0:0:
448,192,11314,1,0,0:0:0:0:
192,192,11430,1,0,0:0:0:0:
320,192,11430,1,0,0:0:0:0:
448,192,11545,1,0,0:0:0:0:
320,192,11545,1,0,0:0:0:0:
192,192,11776,1,8,0:0:0:0:
64,192,11776,1,8,0:0:0:0:
448,192,11776,1,4,0:0:0:0:
320,192,12007,1,0,0:0:0:0:
64,192,12007,1,0,0:0:0:0:
448,192,12122,1,0,0:0:0:0:
192,192,12122,1,0,0:0:0:0:
64,192,12237,1,0,0:0:0:0:
320,192,12237,1,4,0:0:0:0:
448,192,12237,1,4,0:0:0:0:
64,192,12468,1,0,0:0:0:0:
448,192,12468,1,0,0:0:0:0:
320,192,12584,1,0,0:0:0:0:
192,192,12584,1,0,0:0:0:0:
64,192,12699,1,8,0:0:0:0:
192,192,12699,1,8,0:0:0:0:
448,192,12699,1,4,0:0:0:0:
320,192,12814,1,0,0:0:0:0:
448,192,12814,1,0,0:0:0:0:
192,192,12930,1,0,0:0:0:0:
64,192,12930,1,0,0:0:0:0:
320,192,13045,1,0,0:0:0:0:
448,192,13045,1,0,0:0:0:0:
64,192,13160,1,4,0:0:0:0:
192,192,13160,1,4,0:0:0:0:
320,192,13160,1,0,0:0:0:0:
192,192,13276,1,0,0:0:0:0:
448,192,13276,1,0,0:0:0:0:
320,192,13391,1,0,0:0:0:0:
64,192,13391,1,0,0:0:0:0:
448,192,13507,1,0,0:0:0:0:
64,192,13622,1,4,0:0:0:0:
192,192,13622,1,8,0:0:0:0:
320,192,13622,1,8,0:0:0:0:
448,192,13737,1,0,0:0:0:0:
320,192,13853,1,0,0:0:0:0:
192,192,13853,1,0,0:0:0:0:
64,192,13968,1,0,0:0:0:0:
448,192,13968,1,0,0:0:0:0:
192,192,14084,1,4,0:0:0:0:
320,192,14084,1,4,0:0:0:0:
448,192,14084,1,0,0:0:0:0:
64,192,14199,1,0,0:0:0:0:
192,192,14314,1,8,0:0:0:0:
320,192,14314,1,8,0:0:0:0:
64,192,14314,1,4,0:0:0:0:
448,192,14430,1,0,0:0:0:0:
320,192,14545,1,8,0:0:0:0:
192,192,14545,1,8,0:0:0:0:
448,192,14545,1,4,0:0:0:0:
64,192,14660,1,0,0:0:0:0:
64,192,14776,1,4,0:0:0:0:
192,192,14776,1,8,0:0:0:0:
320,192,14776,1,8,0:0:0:0:
448,192,14891,1,0,0:0:0:0:
192,192,15007,1,8,0:0:0:0:
64,192,15007,1,8,0:0:0:0:
320,192,15064,1,0,0:0:0:0:
192,192,15122,1,8,0:0:0:0:
448,192,15122,1,8,0:0:0:0:
64,192,15180,1,0,0:0:0:0:
320,192,15237,1,0,0:0:0:0:
448,192,15314,1,0,0:0:0:0:
64,192,15391,1,0,0:0:0:0:
192,192,15468,1,8,0:0:0:0:
320,192,15468,1,8,0:0:0:0:
448,192,15545,1,0,0:0:0:0:
64,192,15622,1,0,0:0:0:0:
192,192,15699,1,0,0:0:0:0:
448,192,15776,1,0,0:0:0:0:
320,192,15853,1,0,0:0:0:0:
192,192,15930,1,8,0:0:0:0:
64,192,15930,1,8,0:0:0:0:
448,192,16853,1,4,0:0:0:0:
320,192,16853,1,4,0:0:0:0:
64,192,16853,1,0,0:0:0:0:
192,192,16968,1,8,0:0:0:0:
64,192,16968,1,8,0:0:0:0:
448,192,17084,128,2,17199:0:0:0:0:
320,192,17199,128,10,17314:0:0:0:0:
192,192,17199,1,8,0:0:0:0:
64,192,17314,1,0,0:0:0:0:
192,192,17430,128,10,17545:0:0:0:0:
448,192,17430,1,8,0:0:0:0:
64,192,17545,128,2,17660:0:0:0:0:
448,192,17660,1,8,0:0:0:0:
320,192,17660,1,8,0:0:0:0:
192,192,17776,128,2,17891:0:0:0:0:
448,192,17891,128,10,18007:0:0:0:0:
64,192,17891,1,8,0:0:0:0:
192,192,18007,1,0,0:0:0:0:
320,192,18122,128,10,18237:0:0:0:0:
448,192,18122,1,8,0:0:0:0:
64,192,18237,1,0,0:0:0:0:
192,192,18353,1,8,0:0:0:0:
448,192,18353,1,8,0:0:0:0:
320,192,18468,128,2,18584:0:0:0:0:
64,192,18584,128,10,18699:0:0:0:0:
448,192,18584,1,8,0:0:0:0:
192,192,18699,1,0,0:0:0:0:
320,192,18814,1,8,0:0:0:0:
448,192,18814,1,8,0:0:0:0:
64,192,18930,128,2,19045:0:0:0:0:
192,192,19045,128,10,19160:0:0:0:0:
320,192,19045,1,8,0:0:0:0:
448,192,19160,1,0,0:0:0:0:
320,192,19276,128,10,19391:0:0:0:0:
64,192,19276,1,8,0:0:0:0:
448,192,19391,128,2,19507:0:0:0:0:
64,192,19507,1,8,0:0:0:0:
192,192,19507,1,8,0:0:0:0:
320,192,19622,128,2,19737:0:0:0:0:
64,192,19737,128,10,19853:0:0:0:0:
448,192,19737,1,8,0:0:0:0:
320,192,19853,1,0,0:0:0:0:
192,192,19968,128,10,20084:0:0:0:0:
64,192,19968,1,8,0:0:0:0:
320,192,20084,1,0,0:0:0:0:
64,192,20199,1,8,0:0:0:0:
448,192,20199,1,8,0:0:0:0:
192,192,20314,128,10,20430:0:0:0:0:
320,192,20314,1,8,0:0:0:0:
448,192,20430,128,10,20545:0:0:0:0:
64,192,20430,1,8,0:0:0:0:
320,192,20545,1,4,0:0:0:0:
192,192,20545,1,4,0:0:0:0:
64,192,20545,1,0,0:0:0:0:
320,192,20660,1,8,0:0:0:0:
448,192,20660,1,8,0:0:0:0:
64,192,20776,128,2,20891:0:0:0:0:
192,192,20891,1,8,0:0:0:0:
320,192,20891,1,8,0:0:0:0:
448,192,21007,1,0,0:0:0:0:
192,192,21122,128,10,21237:0:0:0:0:
64,192,21122,1,8,0:0:0:0:
448,192,21237,1,0,0:0:0:0:
192,192,21353,1,8,0:0:0:0:
64,192,21353,1,8,0:0:0:0:
448,192,21468,128,2,21584:0:0:0:0:
192,192,21584,1,8,0:0:0:0:
320,192,21584,1,8,0:0:0:0:
64,192,21699,1,0,0:0:0:0:
320,192,21814,128,10,21930:0:0:0:0:
448,192,21814,1,8,0:0:0:0:
64,192,21930,1,0,0:0:0:0:
320,192,22045,1,8,0:0:0:0:
448,192,22045,1,8,0:0:0:0:
192,192,22160,128,2,22276:0:0:0:0:
64,192,22276,1,8,0:0:0:0:
320,192,22276,128,10,22391:0:0:0:0:
448,192,22391,1,0,0:0:0:0:
192,192,22391,1,4,0:0:0:0:
64,192,22391,1,4,0:0:0:0:
448,192,22507,1,8,0:0:0:0:
320,192,22507,1,8,0:0:0:0:
64,192,22622,128,2,22737:0:0:0:0:
192,192,22737,1,8,0:0:0:0:
320,192,22737,1,8,0:0:0:0:
448,192,22853,1,0,0:0:0:0:
64,192,22968,128,10,23084:0:0:0:0:
192,192,22968,1,8,0:0:0:0:
320,192,23084,1,0,0:0:0:0:
192,192,23199,128,10,23314:0:0:0:0:
448,192,23199,1,8,0:0:0:0:
64,192,23314,128,2,23430:0:0:0:0:
448,192,23430,1,8,0:0:0:0:
320,192,23430,1,8,0:0:0:0:
320,192,23545,1,8,0:0:0:0:
448,192,23545,1,8,0:0:0:0:
192,192,23660,1,8,0:0:0:0:
64,192,23660,1,8,0:0:0:0:
64,192,23776,1,8,0:0:0:0:
192,192,23776,1,8,0:0:0:0:
448,192,23853,1,0,0:0:0:0:
192,192,23930,1,0,0:0:0:0:
320,192,24007,1,0,0:0:0:0:
64,192,24084,1,0,0:0:0:0:
192,192,24160,1,0,0:0:0:0:
64,192,24237,1,0,0:0:0:0:
320,192,24237,1,4,0:0:0:0:
448,192,24237,1,4,0:0:0:0:
192,192,24353,1,8,0:0:0:0:
320,192,24353,1,8,0:0:0:0:
448,192,24468,128,2,24584:0:0:0:0:
320,192,24584,128,10,24699:0:0:0:0:
192,192,24584,1,8,0:0:0:0:
64,192,24699,1,0,0:0:0:0:
192,192,24814,128,10,24930:0:0:0:0:
448,192,24814,1,8,0:0:0:0:
64,192,24930,128,2,25045:0:0:0:0:
448,192,25045,1,8,0:0:0:0:
320,192,25045,1,8,0:0:0:0:
192,192,25160,128,2,25276:0:0:0:0:
448,192,25276,128,10,25391:0:0:0:0:
64,192,25276,1,8,0:0:0:0:
192,192,25391,1,0,0:0:0:0:
320,192,25507,128,10,25622:0:0:0:0:
448,192,25507,1,8,0:0:0:0:
64,192,25622,1,0,0:0:0:0:
192,192,25737,1,8,0:0:0:0:
448,192,25737,1,8,0:0:0:0:
320,192,25853,128,2,25968:0:0:0:0:
64,192,25968,128,10,26084:0:0:0:0:
448,192,25968,1,8,0:0:0:0:
192,192,26084,1,0,0:0:0:0:
320,192,26199,1,8,0:0:0:0:
448,192,26199,1,8,0:0:0:0:
64,192,26314,128,2,26430:0:0:0:0:
192,192,26430,128,10,26545:0:0:0:0:
320,192,26430,1,8,0:0:0:0:
448,192,26545,1,0,0:0:0:0:
320,192,26660,128,10,26776:0:0:0:0:
64,192,26660,1,8,0:0:0:0:
448,192,26776,128,2,26891:0:0:0:0:
64,192,26891,1,8,0:0:0:0:
192,192,26891,1,8,0:0:0:0:
320,192,27007,128,2,27122:0:0:0:0:
64,192,27122,128,10,27237:0:0:0:0:
448,192,27122,1,8,0:0:0:0:
320,192,27237,1,0,0:0:0:0:
192,192,27353,128,10,27468:0:0:0:0:
64,192,27353,1,8,0:0:0:0:
320,192,27468,1,0,0:0:0:0:
64,192,27584,1,8,0:0:0:0:
448,192,27584,1,8,0:0:0:0:
192,192,27699,128,2,27814:0:0:0:0:
448,192,27814,128,10,27930:0:0:0:0:
64,192,27814,1,8,0:0:0:0:
320,192,27930,1,0,0:0:0:0:
192,192,27930,1,4,0:0:0:0:
64,192,27930,1,4,0:0:0:0:
320,192,28045,1,8,0:0:0:0:
448,192,28045,1,8,0:0:0:0:
64,192,28160,128,2,28276:0:0:0:0:
192,192,28276,1,8,0:0:0:0:
320,192,28276,1,8,0:0:0:0:
448,192,28391,1,0,0:0:0:0:
192,192,28507,128,10,28622:0:0:0:0:
64,192,28507,1,8,0:0:0:0:
448,192,28622,1,0,0:0:0:0:
192,192,28737,1,8,0:0:0:0:
64,192,28737,1,8,0:0:0:0:
448,192,28853,128,2,28968:0:0:0:0:
192,192,28968,1,8,0:0:0:0:
320,192,28968,1,8,0:0:0:0:
64,192,29084,1,0,0:0:0:0:
320,192,29199,128,10,29314:0:0:0:0:
448,192,29199,1,8,0:0:0:0:
64,192,29314,1,0,0:0:0:0:
320,192,29430,1,8,0:0:0:0:
448,192,29430,1,8,0:0:0:0:
192,192,29545,128,10,29660:0:0:0:0:
448,192,29545,1,8,0:0:0:0:
64,192,29660,1,8,0:0:0:0:
320,192,29660,128,10,29776:0:0:0:0:
448,192,29776,1,0,0:0:0:0:
192,192,29776,1,4,0:0:0:0:
64,192,29776,1,4,0:0:0:0:
320,192,29891,1,0,0:0:0:0:
64,192,30007,1,8,0:0:0:0:
448,192,30007,1,4,0:0:0:0:
192,192,30007,1,8,0:0:0:0:
320,192,30122,1,0,0:0:0:0:
64,192,30237,1,0,0:0:0:0:
320,192,30353,1,8,0:0:0:0:
192,192,30353,1,4,0:0:0:0:
448,192,30353,1,8,0:0:0:0:
64,192,30468,1,0,0:0:0:0:
320,192,30584,1,0,0:0:0:0:
192,192,30699,1,8,0:0:0:0:
448,192,30699,1,4,0:0:0:0:
64,192,30699,1,8,0:0:0:0:
320,192,30814,1,0,0:0:0:0:
192,192,30930,1,8,0:0:0:0:
64,192,30930,1,8,0:0:0:0:
448,192,30930,1,4,0:0:0:0:
64,192,31045,1,0,0:0:0:0:
320,192,31160,1,8,0:0:0:0:
448,192,31160,1,8,0:0:0:0:
320,192,31276,1,8,0:0:0:0:
192,192,31276,1,8,0:0:0:0:
192,192,31391,1,8,0:0:0:0:
64,192,31391,1,8,0:0:0:0:
448,192,31507,1,8,0:0:0:0:
320,192,31507,1,8,0:0:0:0:
64,192,31622,1,4,0:0:0:0:
448,192,31622,1,0,0:0:0:0:
192,192,31622,1,4,0:0:0:0:
192,192,31737,1,8,0:0:0:0:
320,192,31737,1,8,0:0:0:0:
64,192,31853,128,2,31968:0:0:0:0:
192,192,31968,128,10,32084:0:0:0:0:
320,192,31968,1,8,0:0:0:0:
448,192,32084,1,0,0:0:0:0:
320,192,32199,128,10,32314:0:0:0:0:
64,192,32199,1,8,0:0:0:0:
448,192,32314,128,2,32430:0:0:0:0:
64,192,32430,1,8,0:0:0:0:
192,192,32430,1,8,0:0:0:0:
320,192,32545,128,2,32660:0:0:0:0:
64,192,32660,128,10,32776:0:0:0:0:
448,192,32660,1,8,0:0:0:0:
320,192,32776,1,0,0:0:0:0:
192,192,32891,128,10,33007:0:0:0:0:
64,192,32891,1,8,0:0:0:0:
448,192,33007,1,0,0:0:0:0:
320,192,33122,1,8,0:0:0:0:
64,192,33122,1,8,0:0:0:0:
192,192,33237,128,2,33353:0:0:0:0:
448,192,33353,128,10,33468:0:0:0:0:
64,192,33353,1,8,0:0:0:0:
320,192,33468,1,0,0:0:0:0:
192,192,33584,1,8,0:0:0:0:
64,192,33584,1,8,0:0:0:0:
448,192,33699,128,2,33814:0:0:0:0:
320,192,33814,128,10,33930:0:0:0:0:
192,192,33814,1,8,0:0:0:0:
64,192,33930,1,0,0:0:0:0:
192,192,34045,128,10,34160:0:0:0:0:
448,192,34045,1,8,0:0:0:0:
64,192,34160,128,2,34276:0:0:0:0:
448,192,34276,1,8,0:0:0:0:
320,192,34276,1,8,0:0:0:0:
192,192,34391,128,2,34507:0:0:0:0:
448,192,34507,128,10,34622:0:0:0:0:
64,192,34507,1,8,0:0:0:0:
192,192,34622,1,0,0:0:0:0:
320,192,34737,128,10,34853:0:0:0:0:
448,192,34737,1,8,0:0:0:0:
192,192,34853,1,0,0:0:0:0:
448,192,34968,1,8,0:0:0:0:
64,192,34968,1,8,0:0:0:0:
320,192,35084,128,10,35199:0:0:0:0:
192,192,35084,1,8,0:0:0:0:
64,192,35199,128,10,35314:0:0:0:0:
448,192,35199,1,8,0:0:0:0:
192,192,35314,1,0,0:0:0:0:
320,192,35314,1,4,0:0:0:0:
448,192,35314,1,4,0:0:0:0:
192,192,35430,1,8,0:0:0:0:
64,192,35430,1,8,0:0:0:0:
448,192,35545,128,2,35660:0:0:0:0:
320,192,35660,1,8,0:0:0:0:
192,192,35660,1,8,0:0:0:0:
64,192,35776,1,0,0:0:0:0:
320,192,35891,128,10,36007:0:0:0:0:
448,192,35891,1,8,0:0:0:0:
64,192,36007,1,0,0:0:0:0:
320,192,36122,1,8,0:0:0:0:
448,192,36122,1,8,0:0:0:0:
64,192,36237,128,2,36353:0:0:0:0:
320,192,36353,1,8,0:0:0:0:
192,192,36353,1,8,0:0:0:0:
448,192,36468,1,0,0:0:0:0:
192,192,36584,128,10,36699:0:0:0:0:
64,192,36584,1,8,0:0:0:0:
448,192,36699,1,0,0:0:0:0:
192,192,36814,1,8,0:0:0:0:
64,192,36814,1,8,0:0:0:0:
320,192,36930,128,2,37045:0:0:0:0:
448,192,37045,1,8,0:0:0:0:
192,192,37045,128,10,37160:0:0:0:0:
64,192,37160,1,0,0:0:0:0:
320,192,37160,1,4,0:0:0:0:
448,192,37160,1,4,0:0:0:0:
192,192,37276,1,0,0:0:0:0:
320,192,37391,1,8,0:0:0:0:
448,192,37391,1,8,0:0:0:0:
64,192,37507,1,0,0:0:0:0:
192,192,37564,1,0,0:0:0:0:
448,192,37622,1,8,0:0:0:0:
320,192,37622,1,8,0:0:0:0:
64,192,37737,1,0,0:0:0:0:
192,192,37795,1,0,0:0:0:0:
448,192,37853,1,8,0:0:0:0:
320,192,37853,1,8,0:0:0:0:
64,192,37968,1,0,0:0:0:0:
192,192,38026,1,0,0:0:0:0:
320,192,38084,1,8,0:0:0:0:
448,192,38084,1,8,0:0:0:0:
64,192,38199,1,0,0:0:0:0:
192,192,38257,1,0,0:0:0:0:
320,192,38314,1,8,0:0:0:0:
448,192,38314,1,8,0:0:0:0:
64,192,38314,1,4,0:0:0:0:
192,192,38430,1,0,0:0:0:0:
320,192,38487,1,0,0:0:0:0:
448,192,38545,1,8,0:0:0:0:
64,192,38545,1,8,0:0:0:0:
192,192,38660,1,8,0:0:0:0:
64,192,38660,1,8,0:0:0:0:
320,192,38776,1,8,0:0:0:0:
448,192,38776,1,8,0:0:0:0:
192,192,38891,1,8,0:0:0:0:
320,192,38891,1,8,0:0:0:0:
448,192,39007,1,0,0:0:0:0:
192,192,39007,1,4,0:0:0:0:
64,192,39007,1,4,0:0:0:0:
320,192,39122,1,8,0:0:0:0:
448,192,39122,1,8,0:0:0:0:
64,192,39237,128,2,39353:0:0:0:0:
192,192,39353,128,10,39468:0:0:0:0:
320,192,39353,1,8,0:0:0:0:
448,192,39468,1,0,0:0:0:0:
320,192,39584,128,10,39699:0:0:0:0:
64,192,39584,1,8,0:0:0:0:
448,192,39699,128,2,39814:0:0:0:0:
64,192,39814,1,8,0:0:0:0:
192,192,39814,1,8,0:0:0:0:
320,192,39930,128,2,40045:0:0:0:0:
64,192,40045,128,10,40160:0:0:0:0:
448,192,40045,1,8,0:0:0:0:
320,192,40160,1,0,0:0:0:0:
192,192,40276,128,10,40391:0:0:0:0:
64,192,40276,1,8,0:0:0:0:
448,192,40391,1,0,0:0:0:0:
320,192,40507,1,8,0:0:0:0:
64,192,40507,1,8,0:0:0:0:
192,192,40622,128,2,40737:0:0:0:0:
448,192,40737,128,10,40853:0:0:0:0:
64,192,40737,1,8,0:0:0:0:
320,192,40853,1,0,0:0:0:0:
192,192,40968,1,8,0:0:0:0:
64,192,40968,1,8,0:0:0:0:
448,192,41084,128,2,41199:0:0:0:0:
320,192,41199,128,10,41314:0:0:0:0:
192,192,41199,1,8,0:0:0:0:
64,192,41314,1,0,0:0:0:0:
192,192,41430,128,10,41545:0:0:0:0:
448,192,41430,1,8,0:0:0:0:
64,192,41545,128,2,41660:0:0:0:0:
448,192,41660,1,8,0:0:0:0:
320,192,41660,1,8,0:0:0:0:
192,192,41776,128,2,41891:0:0:0:0:
448,192,41891,128,10,42007:0:0:0:0:
64,192,41891,1,8,0:0:0:0:
192,192,42007,1,0,0:0:0:0:
320,192,42122,128,10,42237:0:0:0:0:
448,192,42122,1,8,0:0:0:0:
192,192,42237,1,0,0:0:0:0:
448,192,42353,1,8,0:0:0:0:
64,192,42353,1,8,0:0:0:0:
320,192,42468,128,2,42584:0:0:0:0:
64,192,42584,128,10,42699:0:0:0:0:
448,192,42584,1,8,0:0:0:0:
192,192,42699,1,0,0:0:0:0:
320,192,42699,1,4,0:0:0:0:
448,192,42699,1,4,0:0:0:0:
192,192,42814,1,8,0:0:0:0:
64,192,42814,1,8,0:0:0:0:
448,192,42930,128,2,43045:0:0:0:0:
320,192,43045,1,8,0:0:0:0:
192,192,43045,1,8,0:0:0:0:
64,192,43160,1,0,0:0:0:0:
320,192,43276,128,10,43391:0:0:0:0:
448,192,43276,1,8,0:0:0:0:
64,192,43391,1,0,0:0:0:0:
320,192,43507,1,8,0:0:0:0:
448,192,43507,1,8,0:0:0:0:
64,192,43622,128,2,43737:0:0:0:0:
320,192,43737,1,8,0:0:0:0:
192,192,43737,1,8,0:0:0:0:
448,192,43853,1,0,0:0:0:0:
192,192,43968,128,10,44084:0:0:0:0:
64,192,43968,1,8,0:0:0:0:
448,192,44084,1,0,0:0:0:0:
192,192,44199,1,8,0:0:0:0:
64,192,44199,1,8,0:0:0:0:
320,192,44314,128,10,44430:0:0:0:0:
64,192,44314,1,8,0:0:0:0:
448,192,44430,1,8,0:0:0:0:
192,192,44430,128,10,44545:0:0:0:0:
64,192,44545,1,0,0:0:0:0:
320,192,44545,1,4,0:0:0:0:
448,192,44545,1,4,0:0:0:0:
192,192,44660,1,0,0:0:0:0:
448,192,44776,1,8,0:0:0:0:
64,192,44776,1,4,0:0:0:0:
320,192,44776,1,8,0:0:0:0:
192,192,44891,1,0,0:0:0:0:
448,192,45007,1,0,0:0:0:0:
192,192,45122,1,8,0:0:0:0:
320,192,45122,1,8,0:0:0:0:
64,192,45122,1,4,0:0:0:0:
448,192,45237,1,0,0:0:0:0:
192,192,45353,1,0,0:0:0:0:
320,192,45468,1,8,0:0:0:0:
448,192,45468,1,8,0:0:0:0:
192,192,45545,1,0,0:0:0:0:
64,192,45622,1,0,0:0:0:0:
320,192,45699,1,0,0:0:0:0:
192,192,45776,1,0,0:0:0:0:
448,192,45853,1,0,0:0:0:0:
320,192,45930,1,8,0:0:0:0:
64,192,45930,1,8,0:0:0:0:
192,192,46045,1,8,0:0:0:0:
448,192,46045,1,8,0:0:0:0:
320,192,46160,1,8,0:0:0:0:
64,192,46160,1,8,0:0:0:0:
192,192,46276,1,8,0:0:0:0:
448,192,46276,1,8,0:0:0:0:
64,192,46391,1,4,0:0:0:0:
192,192,46391,1,4,0:0:0:0:
320,192,46391,1,0,0:0:0:0:
448,192,46507,1,0,0:0:0:0:
64,192,46622,1,0,0:0:0:0:
192,192,46737,1,0,0:0:0:0:
64,192,46853,1,4,0:0:0:0:
448,192,46853,1,8,0:0:0:0:
320,192,46853,1,8,0:0:0:0:
192,192,46968,1,0,0:0:0:0:
448,192,47084,1,0,0:0:0:0:
320,192,47199,1,0,0:0:0:0:
192,192,47314,1,4,0:0:0:0:
64,192,47314,1,4,0:0:0:0:
448,192,47314,1,0,0:0:0:0:
320,192,47430,1,0,0:0:0:0:
192,192,47545,1,0,0:0:0:0:
64,192,47660,1,0,0:0:0:0:
192,192,47776,1,8,0:0:0:0:
320,192,47776,1,8,0:0:0:0:
448,192,47776,1,4,0:0:0:0:
64,192,47891,1,0,0:0:0:0:
192,192,48007,1,0,0:0:0:0:
448,192,48122,1,0,0:0:0:0:
320,192,48237,1,4,0:0:0:0:
192,192,48237,1,4,0:0:0:0:
64,192,48237,1,0,0:0:0:0:
448,192,48353,1,0,0:0:0:0:
320,192,48468,1,0,0:0:0:0:
192,192,48584,1,0,0:0:0:0:
64,192,48699,1,4,0:0:0:0:
320,192,48699,1,8,0:0:0:0:
448,192,48699,1,8,0:0:0:0:
192,192,48814,1,0,0:0:0:0:
448,192,48930,1,0,0:0:0:0:
192,192,49007,1,0,0:0:0:0:
320,192,49084,1,0,0:0:0:0:
192,192,49160,1,8,0:0:0:0:
64,192,49160,1,8,0:0:0:0:
448,192,49160,1,4,0:0:0:0:
320,192,49276,1,0,0:0:0:0:
448,192,49391,1,0,0:0:0:0:
192,192,49507,1,0,0:0:0:0:
64,192,49622,1,4,0:0:0:0:
320,192,49622,1,8,0:0:0:0:
448,192,49622,1,8,0:0:0:0:
192,192,49737,1,0,0:0:0:0:
448,192,49853,1,0,0:0:0:0:
64,192,49968,1,0,0:0:0:0:
320,192,50084,1,8,0:0:0:0:
192,192,50084,1,8,0:0:0:0:
64,192,50160,1,0,0:0:0:0:
448,192,50237,1,0,0:0:0:0:
192,192,50314,1,0,0:0:0:0:
320,192,50391,1,0,0:0:0:0:
448,192,50468,1,0,0:0:0:0:
64,192,50545,1,4,0:0:0:0:
192,192,50545,1,8,0:0:0:0:
320,192,50545,1,8,0:0:0:0:
448,192,50660,1,0,0:0:0:0:
320,192,50775,1,0,0:0:0:0:
192,192,50891,1,8,0:0:0:0:
64,192,50891,1,8,0:0:0:0:
448,192,50891,1,4,0:0:0:0:
448,192,51006,1,4,0:0:0:0:
320,192,51006,1,0,0:0:0:0:
192,192,51121,1,0,0:0:0:0:
64,192,51237,1,4,0:0:0:0:
320,192,51237,1,8,0:0:0:0:
448,192,51237,1,8,0:0:0:0:
192,192,51352,1,0,0:0:0:0:
64,192,51468,1,0,0:0:0:0:
320,192,51583,1,8,0:0:0:0:
192,192,51583,1,8,0:0:0:0:
448,192,51583,1,4,0:0:0:0:
64,192,51698,1,0,0:0:0:0:
320,192,51814,1,0,0:0:0:0:
64,192,51929,1,8,0:0:0:0:
448,192,51929,1,8,0:0:0:0:
64,192,52045,1,8,0:0:0:0:
448,192,52045,1,8,0:0:0:0:
192,192,52160,1,8,0:0:0:0:
320,192,52160,1,8,0:0:0:0:
320,192,52275,1,8,0:0:0:0:
192,192,52275,1,8,0:0:0:0:
192,192,52391,1,4,0:0:0:0:
64,192,52391,1,4,0:0:0:0:
448,192,52391,128,0,53545:0:0:0:0:
320,192,52506,1,0,0:0:0:0:
192,192,52621,1,8,0:0:0:0:
64,192,52621,1,8,0:0:0:0:
320,192,52737,1,0,0:0:0:0:
192,192,52852,1,0,0:0:0:0:
64,192,52968,1,0,0:0:0:0:
192,192,53083,1,8,0:0:0:0:
320,192,53083,1,8,0:0:0:0:
64,192,53198,1,0,0:0:0:0:
192,192,53314,1,0,0:0:0:0:
320,192,53429,1,0,0:0:0:0:
64,192,53545,1,8,0:0:0:0:
192,192,53545,128,8,53775:0:0:0:0:
448,192,53660,1,0,0:0:0:0:
64,192,53775,128,0,54006:0:0:0:0:
192,192,53891,1,0,0:0:0:0:
448,192,54006,1,8,0:0:0:0:
320,192,54006,128,8,54237:0:0:0:0:
64,192,54121,1,0,0:0:0:0:
448,192,54237,128,0,54929:0:0:0:0:
192,192,54352,1,0,0:0:0:0:
320,192,54468,1,8,0:0:0:0:
64,192,54468,1,8,0:0:0:0:
192,192,54583,1,0,0:0:0:0:
64,192,54698,1,0,0:0:0:0:
192,192,54814,1,0,0:0:0:0:
320,192,54929,128,8,55621:0:0:0:0:
64,192,54929,1,8,0:0:0:0:
448,192,55045,1,0,0:0:0:0:
192,192,55160,1,0,0:0:0:0:
64,192,55275,1,0,0:0:0:0:
192,192,55391,1,8,0:0:0:0:
448,192,55391,1,8,0:0:0:0:
64,192,55506,1,0,0:0:0:0:
192,192,55621,128,0,55852:0:0:0:0:
448,192,55737,1,0,0:0:0:0:
320,192,55852,1,8,0:0:0:0:
64,192,55852,1,4,0:0:0:0:
448,192,55852,1,8,0:0:0:0:
192,192,55968,1,0,0:0:0:0:
64,192,56083,128,0,59083:0:0:0:0:
320,192,56083,1,4,0:0:0:0:
192,192,56083,1,4,0:0:0:0:
448,192,56198,1,8,0:0:0:0:
320,192,56198,1,8,0:0:0:0:
192,192,56314,1,0,0:0:0:0:
448,192,56429,1,8,0:0:0:0:
320,192,56429,1,8,0:0:0:0:
192,192,56545,1,0,0:0:0:0:
448,192,56660,1,8,0:0:0:0:
320,192,56660,1,8,0:0:0:0:
192,192,56775,1,0,0:0:0:0:
448,192,56891,1,8,0:0:0:0:
320,192,56891,1,8,0:0:0:0:
192,192,57006,1,0,0:0:0:0:
448,192,57121,1,8,0:0:0:0:
320,192,57121,1,8,0:0:0:0:
192,192,57237,1,0,0:0:0:0:
448,192,57352,1,8,0:0:0:0:
320,192,57352,1,8,0:0:0:0:
192,192,57468,1,0,0:0:0:0:
320,192,57583,1,8,0:0:0:0:
448,192,57583,1,8,0:0:0:0:
192,192,57698,1,0,0:0:0:0:
448,192,57814,1,8,0:0:0:0:
320,192,57814,1,8,0:0:0:0:
192,192,57929,1,0,0:0:0:0:
320,192,58045,1,8,0:0:0:0:
448,192,58045,1,8,0:0:0:0:
192,192,58160,1,0,0:0:0:0:
448,192,58275,1,8,0:0:0:0:
320,192,58275,1,8,0:0:0:0:
192,192,58391,1,0,0:0:0:0:
320,192,58506,1,8,0:0:0:0:
448,192,58506,1,8,0:0:0:0:
192,192,58621,1,0,0:0:0:0:
320,192,58737,1,8,0:0:0:0:
448,192,58737,1,8,0:0:0:0:
192,192,58852,1,0,0:0:0:0:
448,192,58968,1,8,0:0:0:0:
320,192,58968,1,8,0:0:0:0:
192,192,59083,128,0,59314:0:0:0:0:
448,192,59198,1,8,0:0:0:0:
64,192,59198,1,8,0:0:0:0:
320,192,59314,128,0,59545:0:0:0:0:
448,192,59429,1,8,0:0:0:0:
64,192,59429,1,8,0:0:0:0:
64,192,59545,1,8,0:0:0:0:
192,192,59545,128,8,59775:0:0:0:0:
448,192,59660,1,8,0:0:0:0:
320,192,59660,1,8,0:0:0:0:
320,192,59775,1,4,0:0:0:0:
448,192,59775,128,4,60929:0:0:0:0:
64,192,59775,1,0,0:0:0:0:
192,192,59891,1,0,0:0:0:0:
320,192,60006,1,8,0:0:0:0:
64,192,60006,1,8,0:0:0:0:
192,192,60121,1,0,0:0:0:0:
320,192,60237,1,0,0:0:0:0:
64,192,60352,1,0,0:0:0:0:
192,192,60468,1,8,0:0:0:0:
320,192,60468,1,8,0:0:0:0:
64,192,60583,1,0,0:0:0:0:
192,192,60698,1,0,0:0:0:0:
64,192,60814,1,0,0:0:0:0:
192,192,60929,128,8,61160:0:0:0:0:
320,192,60929,1,8,0:0:0:0:
448,192,61045,1,0,0:0:0:0:
64,192,61160,128,0,61391:0:0:0:0:
192,192,61275,1,0,0:0:0:0:
320,192,61391,128,8,61621:0:0:0:0:
448,192,61391,1,8,0:0:0:0:
192,192,61506,1,0,0:0:0:0:
448,192,61621,128,0,62314:0:0:0:0:
64,192,61737,1,0,0:0:0:0:
192,192,61852,1,8,0:0:0:0:
320,192,61852,1,8,0:0:0:0:
64,192,61968,1,0,0:0:0:0:
192,192,62083,1,0,0:0:0:0:
320,192,62198,1,0,0:0:0:0:
192,192,62314,128,8,63006:0:0:0:0:
64,192,62314,1,8,0:0:0:0:
448,192,62429,1,0,0:0:0:0:
64,192,62545,1,0,0:0:0:0:
320,192,62660,1,0,0:0:0:0:
448,192,62775,1,8,0:0:0:0:
64,192,62775,1,8,0:0:0:0:
320,192,62891,1,0,0:0:0:0:
64,192,63006,128,0,63237:0:0:0:0:
448,192,63121,1,0,0:0:0:0:
320,192,63237,1,8,0:0:0:0:
192,192,63237,1,4,0:0:0:0:
448,192,63237,1,8,0:0:0:0:
64,192,63352,1,0,0:0:0:0:
448,192,63468,128,4,64275:0:0:0:0:
320,192,63468,1,4,0:0:0:0:
64,192,63468,1,0,0:0:0:0:
192,192,63583,1,0,0:0:0:0:
64,192,63698,1,8,0:0:0:0:
320,192,63698,1,8,0:0:0:0:
192,192,63814,1,0,0:0:0:0:
320,192,63929,1,0,0:0:0:0:
64,192,64045,1,0,0:0:0:0:
192,192,64160,128,8,66237:0:0:0:0:
320,192,64160,1,8,0:0:0:0:
448,192,64506,1,0,0:0:0:0:
320,192,64621,1,8,0:0:0:0:
64,192,64621,1,8,0:0:0:0:
448,192,64852,1,0,0:0:0:0:
320,192,64929,1,0,0:0:0:0:
64,192,65006,1,0,0:0:0:0:
320,192,65083,1,8,0:0:0:0:
448,192,65083,1,8,0:0:0:0:
64,192,65314,1,0,0:0:0:0:
320,192,65429,1,0,0:0:0:0:
448,192,65545,1,8,0:0:0:0:
64,192,65545,1,8,0:0:0:0:
320,192,65660,1,0,0:0:0:0:
448,192,65891,1,0,0:0:0:0:
64,192,66006,1,8,0:0:0:0:
320,192,66006,1,8,0:0:0:0:
448,192,66237,1,0,0:0:0:0:
320,192,66314,1,0,0:0:0:0:
192,192,66391,1,0,0:0:0:0:
64,192,66468,1,4,0:0:0:0:
448,192,66468,1,8,0:0:0:0:
320,192,66468,1,8,0:0:0:0:
64,192,66698,1,0,0:0:0:0:
192,192,66775,1,0,0:0:0:0:
320,192,66852,1,0,0:0:0:0:
64,192,66929,1,8,0:0:0:0:
448,192,66929,1,4,0:0:0:0:
192,192,66929,1,8,0:0:0:0:
320,192,67160,1,4,0:0:0:0:
448,192,67160,1,4,0:0:0:0:
64,192,67160,128,0,68314:0:0:0:0:
192,192,67275,1,0,0:0:0:0:
320,192,67391,1,8,0:0:0:0:
448,192,67391,1,8,0:0:0:0:
192,192,67506,1,0,0:0:0:0:
320,192,67621,1,0,0:0:0:0:
448,192,67737,1,0,0:0:0:0:
320,192,67852,1,8,0:0:0:0:
192,192,67852,1,8,0:0:0:0:
448,192,67968,1,0,0:0:0:0:
320,192,68083,1,0,0:0:0:0:
192,192,68198,1,0,0:0:0:0:
448,192,68314,1,8,0:0:0:0:
320,192,68314,128,8,68545:0:0:0:0:
64,192,68429,1,0,0:0:0:0:
448,192,68545,128,0,68775:0:0:0:0:
320,192,68660,1,0,0:0:0:0:
64,192,68775,1,8,0:0:0:0:
192,192,68775,128,8,69006:0:0:0:0:
448,192,68891,1,0,0:0:0:0:
64,192,69006,128,0,69698:0:0:0:0:
320,192,69121,1,0,0:0:0:0:
192,192,69237,1,8,0:0:0:0:
448,192,69237,1,8,0:0:0:0:
320,192,69352,1,0,0:0:0:0:
448,192,69468,1,0,0:0:0:0:
320,192,69583,1,0,0:0:0:0:
192,192,69698,128,8,70391:0:0:0:0:
448,192,69698,1,8,0:0:0:0:
64,192,69814,1,0,0:0:0:0:
320,192,69929,1,0,0:0:0:0:
448,192,70045,1,0,0:0:0:0:
320,192,70160,1,8,0:0:0:0:
64,192,70160,1,8,0:0:0:0:
448,192,70275,1,0,0:0:0:0:
320,192,70391,128,0,70621:0:0:0:0:
64,192,70506,1,0,0:0:0:0:
192,192,70621,1,8,0:0:0:0:
448,192,70621,1,4,0:0:0:0:
64,192,70621,1,8,0:0:0:0:
320,192,70737,1,0,0:0:0:0:
448,192,70852,128,0,73852:0:0:0:0:
192,192,70852,1,4,0:0:0:0:
320,192,70852,1,4,0:0:0:0:
64,192,70968,1,8,0:0:0:0:
192,192,70968,1,8,0:0:0:0:
320,192,71083,1,0,0:0:0:0:
64,192,71198,1,8,0:0:0:0:
192,192,71198,1,8,0:0:0:0:
320,192,71314,1,0,0:0:0:0:
64,192,71429,1,8,0:0:0:0:
192,192,71429,1,8,0:0:0:0:
320,192,71545,1,0,0:0:0:0:
64,192,71660,1,8,0:0:0:0:
192,192,71660,1,8,0:0:0:0:
320,192,71775,1,0,0:0:0:0:
64,192,71891,1,8,0:0:0:0:
192,192,71891,1,8,0:0:0:0:
320,192,72006,1,0,0:0:0:0:
64,192,72121,1,8,0:0:0:0:
192,192,72121,1,8,0:0:0:0:
320,192,72237,1,0,0:0:0:0:
192,192,72352,1,8,0:0:0:0:
64,192,72352,1,8,0:0:0:0:
320,192,72468,1,8,0:0:0:0:
64,192,72468,1,8,0:0:0:0:
64,192,72583,1,8,0:0:0:0:
192,192,72583,1,8,0:0:0:0:
320,192,72698,1,0,0:0:0:0:
192,192,72814,1,8,0:0:0:0:
64,192,72814,1,8,0:0:0:0:
320,192,72929,1,0,0:0:0:0:
64,192,73045,1,8,0:0:0:0:
192,192,73045,1,8,0:0:0:0:
320,192,73160,1,0,0:0:0:0:
192,192,73275,1,8,0:0:0:0:
64,192,73275,1,8,0:0:0:0:
320,192,73391,1,0,0:0:0:0:
192,192,73506,1,8,0:0:0:0:
64,192,73506,1,8,0:0:0:0:
320,192,73621,1,0,0:0:0:0:
64,192,73737,1,8,0:0:0:0:
192,192,73737,1,8,0:0:0:0:
320,192,73852,128,0,74083:0:0:0:0:
64,192,73968,1,8,0:0:0:0:
448,192,73968,1,8,0:0:0:0:
192,192,74083,128,0,74314:0:0:0:0:
64,192,74198,1,8,0:0:0:0:
448,192,74198,1,8,0:0:0:0:
448,192,74314,1,8,0:0:0:0:
320,192,74314,128,8,74545:0:0:0:0:
192,192,74429,1,8,0:0:0:0:
64,192,74429,1,8,0:0:0:0:
64,192,74545,128,4,75698:0:0:0:0:
192,192,74545,1,4,0:0:0:0:
448,192,74545,1,0,0:0:0:0:
320,192,74660,1,0,0:0:0:0:
192,192,74775,1,8,0:0:0:0:
448,192,74775,1,8,0:0:0:0:
320,192,74891,1,0,0:0:0:0:
192,192,75006,1,0,0:0:0:0:
448,192,75121,1,0,0:0:0:0:
320,192,75237,1,8,0:0:0:0:
192,192,75237,1,8,0:0:0:0:
448,192,75352,1,0,0:0:0:0:
320,192,75468,1,0,0:0:0:0:
448,192,75583,1,0,0:0:0:0:
320,192,75698,128,8,75929:0:0:0:0:
192,192,75698,1,8,0:0:0:0:
64,192,75814,1,0,0:0:0:0:
448,192,75929,128,0,76160:0:0:0:0:
320,192,76045,1,0,0:0:0:0:
192,192,76160,128,8,76391:0:0:0:0:
64,192,76160,1,8,0:0:0:0:
320,192,76275,1,0,0:0:0:0:
64,192,76391,128,0,77083:0:0:0:0:
448,192,76506,1,0,0:0:0:0:
320,192,76621,1,8,0:0:0:0:
192,192,76621,1,8,0:0:0:0:
448,192,76737,1,0,0:0:0:0:
320,192,76852,1,0,0:0:0:0:
192,192,76968,1,0,0:0:0:0:
320,192,77083,128,8,77429:0:0:0:0:
448,192,77083,1,8,0:0:0:0:
64,192,77198,1,0,0:0:0:0:
448,192,77314,1,0,0:0:0:0:
192,192,77429,1,8,0:0:0:0:
64,192,77429,1,8,0:0:0:0:
320,192,77545,1,8,0:0:0:0:
448,192,77545,1,8,0:0:0:0:
192,192,77660,1,8,0:0:0:0:
64,192,77660,1,8,0:0:0:0:
448,192,77775,128,8,78006:0:0:0:0:
320,192,77775,1,8,0:0:0:0:
64,192,77891,1,0,0:0:0:0:
192,192,78006,1,0,0:0:0:0:
320,192,78121,1,0,0:0:0:0:
64,192,78237,128,4,79621:0:0:0:0:
448,192,78237,1,0,0:0:0:0:
192,192,78237,1,4,0:0:0:0:
320,192,78352,1,0,0:0:0:0:
448,192,78468,1,0,0:0:0:0:
192,192,78583,1,0,0:0:0:0:
320,192,78698,1,8,0:0:0:0:
448,192,78698,1,8,0:0:0:0:
192,192,78814,1,0,0:0:0:0:
448,192,78929,1,0,0:0:0:0:
320,192,79045,1,0,0:0:0:0:
192,192,79160,1,0,0:0:0:0:
448,192,79275,1,0,0:0:0:0:
320,192,79391,1,0,0:0:0:0:
192,192,79506,1,0,0:0:0:0:
320,192,79621,1,8,0:0:0:0:
448,192,79621,1,8,0:0:0:0:
192,192,79621,1,4,0:0:0:0:
64,192,79737,1,0,0:0:0:0:
320,192,79852,1,0,0:0:0:0:
448,192,79968,1,0,0:0:0:0:
320,192,80083,1,8,0:0:0:0:
192,192,80083,1,8,0:0:0:0:
64,192,80083,1,4,0:0:0:0:
448,192,80198,1,0,0:0:0:0:
64,192,80314,1,0,0:0:0:0:
192,192,80429,1,8,0:0:0:0:
320,192,80429,1,8,0:0:0:0:
448,192,80429,1,4,0:0:0:0:
64,192,80545,1,0,0:0:0:0:
448,192,80660,1,0,0:0:0:0:
320,192,80775,1,8,0:0:0:0:
192,192,80775,1,8,0:0:0:0:
64,192,80775,1,4,0:0:0:0:
448,192,80891,1,0,0:0:0:0:
64,192,81006,1,8,0:0:0:0:
192,192,81006,1,8,0:0:0:0:
320,192,81121,1,8,0:0:0:0:
448,192,81121,1,8,0:0:0:0:
192,192,81237,1,8,0:0:0:0:
64,192,81237,1,8,0:0:0:0:
320,192,81352,1,8,0:0:0:0:
448,192,81352,1,8,0:0:0:0:
192,192,81468,128,0,81525:0:0:0:0:
320,192,81525,128,0,81583:0:0:0:0:
448,192,81583,128,0,81641:0:0:0:0:
64,192,81641,128,0,81698:0:0:0:0:
192,192,81698,128,0,81929:0:0:0:0:
320,192,81814,1,0,0:0:0:0:
64,192,81929,1,0,0:0:0:0:
320,192,81929,1,4,0:0:0:0:
448,192,81929,128,4,82852:0:0:0:0:
192,192,82045,1,0,0:0:0:0:
64,192,82160,1,0,0:0:0:0:
320,192,82275,1,0,0:0:0:0:
64,192,82391,1,8,0:0:0:0:
192,192,82391,1,8,0:0:0:0:
320,192,82506,1,0,0:0:0:0:
192,192,82621,1,0,0:0:0:0:
64,192,82737,1,0,0:0:0:0:
320,192,82852,128,8,83198:0:0:0:0:
192,192,82852,1,8,0:0:0:0:
448,192,82968,1,0,0:0:0:0:
64,192,83083,1,0,0:0:0:0:
192,192,83198,128,0,83545:0:0:0:0:
64,192,83314,1,8,0:0:0:0:
448,192,83314,1,8,0:0:0:0:
320,192,83429,1,0,0:0:0:0:
64,192,83545,128,0,83660:0:0:0:0:
192,192,83660,128,0,83775:0:0:0:0:
320,192,83775,128,8,84468:0:0:0:0:
448,192,83775,128,8,83891:0:0:0:0:
192,192,83891,1,0,0:0:0:0:
64,192,84006,1,0,0:0:0:0:
448,192,84121,1,0,0:0:0:0:
192,192,84237,1,8,0:0:0:0:
64,192,84237,1,8,0:0:0:0:
448,192,84352,1,0,0:0:0:0:
64,192,84468,128,0,85160:0:0:0:0:
192,192,84583,1,0,0:0:0:0:
320,192,84698,1,8,0:0:0:0:
448,192,84698,1,8,0:0:0:0:
192,192,84814,1,0,0:0:0:0:
320,192,84929,1,0,0:0:0:0:
448,192,85045,1,0,0:0:0:0:
192,192,85160,128,8,85275:0:0:0:0:
320,192,85160,128,8,85621:0:0:0:0:
448,192,85275,1,0,0:0:0:0:
64,192,85391,1,0,0:0:0:0:
192,192,85506,1,0,0:0:0:0:
64,192,85621,1,8,0:0:0:0:
192,192,85621,1,8,0:0:0:0:
448,192,85621,128,4,86545:0:0:0:0:
320,192,85737,1,0,0:0:0:0:
64,192,85852,1,0,0:0:0:0:
192,192,85968,1,0,0:0:0:0:
320,192,86083,1,8,0:0:0:0:
64,192,86083,1,8,0:0:0:0:
192,192,86198,1,0,0:0:0:0:
320,192,86314,1,0,0:0:0:0:
64,192,86429,1,0,0:0:0:0:
320,192,86545,1,8,0:0:0:0:
192,192,86545,128,8,87006:0:0:0:0:
448,192,86660,1,0,0:0:0:0:
320,192,86775,1,0,0:0:0:0:
64,192,86891,128,0,87237:0:0:0:0:
320,192,87006,1,8,0:0:0:0:
448,192,87006,1,8,0:0:0:0:
192,192,87121,1,0,0:0:0:0:
448,192,87237,1,8,0:0:0:0:
320,192,87237,1,8,0:0:0:0:
192,192,87352,1,8,0:0:0:0:
64,192,87352,1,8,0:0:0:0:
64,192,87468,1,0,0:0:0:0:
320,192,87468,1,4,0:0:0:0:
448,192,87468,1,4,0:0:0:0:
192,192,87583,1,0,0:0:0:0:
64,192,87698,1,4,0:0:0:0:
320,192,87698,1,8,0:0:0:0:
448,192,87698,1,8,0:0:0:0:
192,192,87814,1,0,0:0:0:0:
448,192,87929,1,0,0:0:0:0:
320,192,88045,1,0,0:0:0:0:
192,192,88160,1,8,0:0:0:0:
64,192,88160,1,8,0:0:0:0:
448,192,88160,1,4,0:0:0:0:
320,192,88275,1,0,0:0:0:0:
192,192,88391,1,0,0:0:0:0:
320,192,88506,1,0,0:0:0:0:
64,192,88621,1,8,0:0:0:0:
192,192,88621,1,8,0:0:0:0:
448,192,88621,1,4,0:0:0:0:
320,192,88737,1,0,0:0:0:0:
448,192,88852,1,8,0:0:0:0:
64,192,88852,1,8,0:0:0:0:
192,192,88929,1,0,0:0:0:0:
320,192,89006,1,0,0:0:0:0:
64,192,89083,1,0,0:0:0:0:
448,192,89160,1,0,0:0:0:0:
320,192,89237,1,0,0:0:0:0:
64,192,89314,1,8,0:0:0:0:
448,192,89314,1,4,0:0:0:0:
192,192,89314,1,8,0:0:0:0:
320,192,89391,1,0,0:0:0:0:
64,192,89468,1,0,0:0:0:0:
192,192,89545,1,0,0:0:0:0:
320,192,89621,1,0,0:0:0:0:
64,192,89698,1,0,0:0:0:0:
320,192,89775,1,8,0:0:0:0:
448,192,89775,1,8,0:0:0:0:
192,192,89852,1,0,0:0:0:0:
448,192,89929,1,0,0:0:0:0:
320,192,90006,1,0,0:0:0:0:
192,192,90083,1,0,0:0:0:0:
448,192,90160,1,0,0:0:0:0:
192,192,90237,1,8,0:0:0:0:
64,192,90237,1,8,0:0:0:0:
320,192,90314,1,0,0:0:0:0:
448,192,90391,1,0,0:0:0:0:
192,192,90468,1,0,0:0:0:0:
320,192,90545,1,0,0:0:0:0:
64,192,90621,1,0,0:0:0:0:
320,192,90698,1,8,0:0:0:0:
448,192,90698,1,8,0:0:0:0:
192,192,90775,1,0,0:0:0:0:
64,192,90852,1,0,0:0:0:0:
320,192,90929,1,0,0:0:0:0:
192,192,91006,1,0,0:0:0:0:
448,192,91083,1,0,0:0:0:0:
320,192,91160,1,4,0:0:0:0:
192,192,91160,1,8,0:0:0:0:
64,192,91160,1,8,0:0:0:0:
448,192,91237,1,0,0:0:0:0:
192,192,91314,1,0,0:0:0:0:
320,192,91391,1,0,0:0:0:0:
64,192,91468,1,0,0:0:0:0:
320,192,91545,1,0,0:0:0:0:
192,192,91621,1,8,0:0:0:0:
448,192,91621,1,8,0:0:0:0:
64,192,91698,1,0,0:0:0:0:
320,192,91775,1,0,0:0:0:0:
192,192,91852,1,0,0:0:0:0:
448,192,91929,1,0,0:0:0:0:
192,192,92006,1,0,0:0:0:0:
320,192,92083,1,8,0:0:0:0:
64,192,92083,1,8,0:0:0:0:
448,192,92160,1,0,0:0:0:0:
64,192,92237,1,0,0:0:0:0:
192,192,92314,1,0,0:0:0:0:
448,192,92391,1,0,0:0:0:0:
320,192,92468,1,0,0:0:0:0:
192,192,92545,1,8,0:0:0:0:
64,192,92545,1,8,0:0:0:0:
448,192,92545,1,4,0:0:0:0:
320,192,92621,1,0,0:0:0:0:
64,192,92698,1,0,0:0:0:0:
448,192,92775,1,0,0:0:0:0:
192,192,92852,1,0,0:0:0:0:
64,192,92929,1,0,0:0:0:0:
192,192,93006,1,8,0:0:0:0:
320,192,93006,1,8,0:0:0:0:
448,192,93006,1,4,0:0:0:0:
64,192,93083,1,0,0:0:0:0:
448,192,93160,1,0,0:0:0:0:
320,192,93237,1,8,0:0:0:0:
64,192,93237,1,8,0:0:0:0:
192,192,93314,1,0,0:0:0:0:
64,192,93391,1,0,0:0:0:0:
448,192,93468,1,8,0:0:0:0:
192,192,93468,1,8,0:0:0:0:
320,192,93545,1,0,0:0:0:0:
448,192,93621,1,0,0:0:0:0:
320,192,93698,1,8,0:0:0:0:
64,192,93698,1,8,0:0:0:0:
192,192,93775,1,0,0:0:0:0:
64,192,93852,1,0,0:0:0:0:
448,192,93929,1,8,0:0:0:0:
320,192,93929,1,8,0:0:0:0:
64,192,94006,1,0,0:0:0:0:
448,192,94083,1,0,0:0:0:0:
320,192,94160,1,8,0:0:0:0:
192,192,94160,1,8,0:0:0:0:
64,192,94237,1,0,0:0:0:0:
448,192,94314,1,0,0:0:0:0:
192,192,94391,1,8,0:0:0:0:
64,192,94391,1,8,0:0:0:0:
320,192,94391,1,4,0:0:0:0:
320,192,94621,128,0,94852:0:0:0:0:
64,192,94852,1,0,0:0:0:0:
192,192,94929,1,0,0:0:0:0:
448,192,95006,1,0,0:0:0:0:
320,192,95083,1,4,0:0:0:0:
192,192,95083,1,8,0:0:0:0:
64,192,95083,1,8,0:0:0:0:
448,192,95314,1,0,0:0:0:0:
320,192,95391,1,0,0:0:0:0:
64,192,95468,1,0,0:0:0:0:
192,192,95545,1,4,0:0:0:0:
320,192,95545,1,8,0:0:0:0:
448,192,95545,1,8,0:0:0:0:
64,192,95775,1,0,0:0:0:0:
192,192,95852,1,0,0:0:0:0:
320,192,95929,1,0,0:0:0:0:
192,192,96006,1,8,0:0:0:0:
64,192,96006,1,8,0:0:0:0:
448,192,96006,1,4,0:0:0:0:
320,192,96237,1,8,0:0:0:0:
192,192,96237,1,8,0:0:0:0:
448,192,96698,1,4,0:0:0:0:
320,192,96698,1,4,0:0:0:0:
64,192,96698,1,0,0:0:0:0:
192,192,96814,1,8,0:0:0:0:
64,192,96814,1,8,0:0:0:0:
448,192,96929,128,2,97045:0:0:0:0:
320,192,97045,128,10,97160:0:0:0:0:
192,192,97045,1,8,0:0:0:0:
64,192,97160,1,0,0:0:0:0:
192,192,97275,128,10,97391:0:0:0:0:
448,192,97275,1,8,0:0:0:0:
64,192,97391,128,2,97506:0:0:0:0:
448,192,97506,1,8,0:0:0:0:
320,192,97506,1,8,0:0:0:0:
192,192,97621,128,2,97737:0:0:0:0:
448,192,97737,128,10,97852:0:0:0:0:
64,192,97737,1,8,0:0:0:0:
192,192,97852,1,0,0:0:0:0:
320,192,97968,128,10,98083:0:0:0:0:
448,192,97968,1,8,0:0:0:0:
64,192,98083,1,0,0:0:0:0:
192,192,98198,1,8,0:0:0:0:
448,192,98198,1,8,0:0:0:0:
320,192,98314,128,2,98429:0:0:0:0:
64,192,98429,128,10,98545:0:0:0:0:
448,192,98429,1,8,0:0:0:0:
192,192,98545,1,0,0:0:0:0:
320,192,98660,1,8,0:0:0:0:
448,192,98660,1,8,0:0:0:0:
64,192,98775,128,2,98891:0:0:0:0:
192,192,98891,128,10,99006:0:0:0:0:
320,192,98891,1,8,0:0:0:0:
448,192,99006,1,0,0:0:0:0:
320,192,99121,128,10,99237:0:0:0:0:
64,192,99121,1,8,0:0:0:0:
448,192,99237,128,2,99352:0:0:0:0:
64,192,99352,1,8,0:0:0:0:
192,192,99352,1,8,0:0:0:0:
320,192,99468,128,2,99583:0:0:0:0:
64,192,99583,128,10,99698:0:0:0:0:
448,192,99583,1,8,0:0:0:0:
320,192,99698,1,0,0:0:0:0:
192,192,99814,128,10,99929:0:0:0:0:
64,192,99814,1,8,0:0:0:0:
320,192,99929,1,0,0:0:0:0:
64,192,100045,1,8,0:0:0:0:
448,192,100045,1,8,0:0:0:0:
192,192,100160,128,10,100275:0:0:0:0:
320,192,100160,1,8,0:0:0:0:
448,192,100275,128,10,100391:0:0:0:0:
64,192,100275,1,8,0:0:0:0:
320,192,100391,1,0,0:0:0:0:
192,192,100391,1,4,0:0:0:0:
64,192,100391,1,4,0:0:0:0:
320,192,100506,1,8,0:0:0:0:
448,192,100506,1,8,0:0:0:0:
64,192,100621,128,2,100737:0:0:0:0:
192,192,100737,1,8,0:0:0:0:
320,192,100737,1,8,0:0:0:0:
448,192,100852,1,0,0:0:0:0:
192,192,100968,128,10,101083:0:0:0:0:
64,192,100968,1,8,0:0:0:0:
448,192,101083,1,0,0:0:0:0:
192,192,101198,1,8,0:0:0:0:
64,192,101198,1,8,0:0:0:0:
448,192,101314,128,2,101429:0:0:0:0:
192,192,101429,1,8,0:0:0:0:
320,192,101429,1,8,0:0:0:0:
64,192,101545,1,0,0:0:0:0:
320,192,101660,128,10,101775:0:0:0:0:
448,192,101660,1,8,0:0:0:0:
64,192,101775,1,0,0:0:0:0:
320,192,101891,1,8,0:0:0:0:
448,192,101891,1,8,0:0:0:0:
192,192,102006,128,2,102121:0:0:0:0:
64,192,102121,1,8,0:0:0:0:
320,192,102121,128,10,102237:0:0:0:0:
448,192,102237,1,0,0:0:0:0:
192,192,102237,1,4,0:0:0:0:
64,192,102237,1,4,0:0:0:0:
448,192,102352,1,8,0:0:0:0:
320,192,102352,1,8,0:0:0:0:
64,192,102468,128,0,102583:0:0:0:0:
192,192,102583,1,8,0:0:0:0:
320,192,102583,1,8,0:0:0:0:
448,192,102698,1,0,0:0:0:0:
64,192,102814,128,10,102929:0:0:0:0:
192,192,102814,1,8,0:0:0:0:
320,192,102929,1,0,0:0:0:0:
192,192,103045,128,10,103160:0:0:0:0:
448,192,103045,1,8,0:0:0:0:
64,192,103160,128,2,103275:0:0:0:0:
448,192,103275,1,8,0:0:0:0:
320,192,103275,1,8,0:0:0:0:
320,192,103391,1,8,0:0:0:0:
448,192,103391,1,8,0:0:0:0:
192,192,103506,1,8,0:0:0:0:
64,192,103506,1,8,0:0:0:0:
64,192,103621,1,8,0:0:0:0:
192,192,103621,1,8,0:0:0:0:
448,192,103698,1,0,0:0:0:0:
192,192,103775,1,0,0:0:0:0:
320,192,103852,1,0,0:0:0:0:
64,192,103929,1,0,0:0:0:0:
192,192,104006,1,0,0:0:0:0:
64,192,104083,1,0,0:0:0:0:
320,192,104083,1,4,0:0:0:0:
448,192,104083,1,4,0:0:0:0:
192,192,104198,1,8,0:0:0:0:
320,192,104198,1,8,0:0:0:0:
448,192,104314,128,2,104429:0:0:0:0:
320,192,104429,128,10,104545:0:0:0:0:
192,192,104429,1,8,0:0:0:0:
64,192,104545,1,0,0:0:0:0:
192,192,104660,128,10,104775:0:0:0:0:
448,192,104660,1,8,0:0:0:0:
64,192,104775,128,2,104891:0:0:0:0:
448,192,104891,1,8,0:0:0:0:
320,192,104891,1,8,0:0:0:0:
192,192,105006,128,2,105121:0:0:0:0:
448,192,105121,128,10,105237:0:0:0:0:
64,192,105121,1,8,0:0:0:0:
192,192,105237,1,0,0:0:0:0:
320,192,105352,128,10,105468:0:0:0:0:
448,192,105352,1,8,0:0:0:0:
64,192,105468,1,0,0:0:0:0:
192,192,105583,1,8,0:0:0:0:
448,192,105583,1,8,0:0:0:0:
320,192,105698,128,2,105814:0:0:0:0:
64,192,105814,128,10,105929:0:0:0:0:
448,192,105814,1,8,0:0:0:0:
192,192,105929,1,0,0:0:0:0:
320,192,106045,1,8,0:0:0:0:
448,192,106045,1,8,0:0:0:0:
64,192,106160,128,2,106275:0:0:0:0:
192,192,106275,128,10,106391:0:0:0:0:
320,192,106275,1,8,0:0:0:0:
448,192,106391,1,0,0:0:0:0:
320,192,106506,128,10,106621:0:0:0:0:
64,192,106506,1,8,0:0:0:0:
448,192,106621,128,2,106737:0:0:0:0:
64,192,106737,1,8,0:0:0:0:
192,192,106737,1,8,0:0:0:0:
320,192,106852,128,2,106968:0:0:0:0:
64,192,106968,128,10,107083:0:0:0:0:
448,192,106968,1,8,0:0:0:0:
320,192,107083,1,0,0:0:0:0:
192,192,107198,128,10,107314:0:0:0:0:
64,192,107198,1,8,0:0:0:0:
320,192,107314,1,0,0:0:0:0:
64,192,107429,1,8,0:0:0:0:
448,192,107429,1,8,0:0:0:0:
192,192,107545,128,2,107660:0:0:0:0:
448,192,107660,128,10,107775:0:0:0:0:
64,192,107660,1,8,0:0:0:0:
320,192,107775,1,0,0:0:0:0:
192,192,107775,1,4,0:0:0:0:
64,192,107775,1,4,0:0:0:0:
320,192,107891,1,8,0:0:0:0:
448,192,107891,1,8,0:0:0:0:
64,192,108006,128,2,108121:0:0:0:0:
192,192,108121,1,8,0:0:0:0:
320,192,108121,1,8,0:0:0:0:
448,192,108237,1,0,0:0:0:0:
192,192,108352,128,10,108468:0:0:0:0:
64,192,108352,1,8,0:0:0:0:
448,192,108468,1,0,0:0:0:0:
192,192,108583,1,8,0:0:0:0:
64,192,108583,1,8,0:0:0:0:
448,192,108698,128,2,108814:0:0:0:0:
192,192,108814,1,8,0:0:0:0:
320,192,108814,1,8,0:0:0:0:
64,192,108929,1,0,0:0:0:0:
320,192,109045,128,10,109160:0:0:0:0:
448,192,109045,1,8,0:0:0:0:
64,192,109160,1,0,0:0:0:0:
320,192,109275,1,8,0:0:0:0:
448,192,109275,1,8,0:0:0:0:
192,192,109391,128,10,109506:0:0:0:0:
448,192,109391,1,8,0:0:0:0:
64,192,109506,1,8,0:0:0:0:
320,192,109506,128,10,109621:0:0:0:0:
448,192,109621,1,0,0:0:0:0:
192,192,109621,1,4,0:0:0:0:
64,192,109621,1,4,0:0:0:0:
320,192,109737,1,0,0:0:0:0:
64,192,109852,1,8,0:0:0:0:
448,192,109852,1,4,0:0:0:0:
192,192,109852,1,8,0:0:0:0:
320,192,109968,1,0,0:0:0:0:
64,192,110083,1,0,0:0:0:0:
320,192,110198,1,8,0:0:0:0:
192,192,110198,1,8,0:0:0:0:
448,192,110198,1,4,0:0:0:0:
64,192,110314,1,0,0:0:0:0:
320,192,110429,1,0,0:0:0:0:
192,192,110545,1,8,0:0:0:0:
64,192,110545,1,8,0:0:0:0:
320,192,110660,1,8,0:0:0:0:
448,192,110660,1,8,0:0:0:0:
192,192,110775,1,8,0:0:0:0:
64,192,110775,1,8,0:0:0:0:
192,192,110891,1,8,0:0:0:0:
448,192,110891,1,8,0:0:0:0:
320,192,111006,1,8,0:0:0:0:
448,192,111006,1,8,0:0:0:0:
320,192,111121,1,8,0:0:0:0:
64,192,111121,1,8,0:0:0:0:
192,192,111237,1,8,0:0:0:0:
64,192,111237,1,8,0:0:0:0:
448,192,111352,1,8,0:0:0:0:
320,192,111352,1,8,0:0:0:0:
192,192,111468,1,4,0:0:0:0:
64,192,111468,1,4,0:0:0:0:
448,192,111468,128,0,112621:0:0:0:0:
320,192,111583,1,0,0:0:0:0:
192,192,111698,1,8,0:0:0:0:
64,192,111698,1,8,0:0:0:0:
320,192,111814,1,0,0:0:0:0:
192,192,111929,1,0,0:0:0:0:
64,192,112045,1,0,0:0:0:0:
192,192,112160,1,8,0:0:0:0:
320,192,112160,1,8,0:0:0:0:
64,192,112275,1,0,0:0:0:0:
192,192,112391,1,0,0:0:0:0:
320,192,112506,1,0,0:0:0:0:
64,192,112621,1,8,0:0:0:0:
192,192,112621,128,8,112852:0:0:0:0:
448,192,112737,1,0,0:0:0:0:
64,192,112852,128,0,113083:0:0:0:0:
192,192,112968,1,0,0:0:0:0:
448,192,113083,1,8,0:0:0:0:
320,192,113083,128,8,113314:0:0:0:0:
64,192,113198,1,0,0:0:0:0:
448,192,113314,128,0,114006:0:0:0:0:
192,192,113429,1,0,0:0:0:0:
320,192,113545,1,8,0:0:0:0:
64,192,113545,1,8,0:0:0:0:
192,192,113660,1,0,0:0:0:0:
64,192,113775,1,0,0:0:0:0:
192,192,113891,1,0,0:0:0:0:
320,192,114006,128,8,114698:0:0:0:0:
64,192,114006,1,8,0:0:0:0:
448,192,114121,1,0,0:0:0:0:
192,192,114237,1,0,0:0:0:0:
64,192,114352,1,0,0:0:0:0:
192,192,114468,1,8,0:0:0:0:
448,192,114468,1,8,0:0:0:0:
64,192,114583,1,0,0:0:0:0:
192,192,114698,128,0,114929:0:0:0:0:
448,192,114814,1,0,0:0:0:0:
320,192,114929,1,8,0:0:0:0:
64,192,114929,1,4,0:0:0:0:
448,192,114929,1,8,0:0:0:0:
64,192,115045,1,0,0:0:0:0:
192,192,115160,128,0,118160:0:0:0:0:
448,192,115160,1,4,0:0:0:0:
320,192,115160,1,4,0:0:0:0:
448,192,115275,1,8,0:0:0:0:
64,192,115275,1,8,0:0:0:0:
320,192,115391,1,0,0:0:0:0:
448,192,115506,1,8,0:0:0:0:
64,192,115506,1,8,0:0:0:0:
320,192,115621,1,0,0:0:0:0:
448,192,115737,1,8,0:0:0:0:
64,192,115737,1,8,0:0:0:0:
320,192,115852,1,0,0:0:0:0:
448,192,115968,1,8,0:0:0:0:
64,192,115968,1,8,0:0:0:0:
320,192,116083,1,0,0:0:0:0:
448,192,116198,1,8,0:0:0:0:
64,192,116198,1,8,0:0:0:0:
320,192,116314,1,0,0:0:0:0:
448,192,116429,1,8,0:0:0:0:
64,192,116429,1,8,0:0:0:0:
320,192,116545,1,0,0:0:0:0:
64,192,116660,1,8,0:0:0:0:
448,192,116660,1,8,0:0:0:0:
320,192,116775,1,8,0:0:0:0:
448,192,116775,1,8,0:0:0:0:
448,192,116891,1,8,0:0:0:0:
64,192,116891,1,8,0:0:0:0:
320,192,117006,1,0,0:0:0:0:
64,192,117121,1,8,0:0:0:0:
448,192,117121,1,8,0:0:0:0:
320,192,117237,1,0,0:0:0:0:
448,192,117352,1,8,0:0:0:0:
64,192,117352,1,8,0:0:0:0:
320,192,117468,1,0,0:0:0:0:
64,192,117583,1,8,0:0:0:0:
448,192,117583,1,8,0:0:0:0:
320,192,117698,1,0,0:0:0:0:
64,192,117814,1,8,0:0:0:0:
448,192,117814,1,8,0:0:0:0:
320,192,117929,1,0,0:0:0:0:
448,192,118045,1,8,0:0:0:0:
64,192,118045,1,8,0:0:0:0:
320,192,118160,128,0,118391:0:0:0:0:
448,192,118275,1,8,0:0:0:0:
64,192,118275,1,8,0:0:0:0:
192,192,118391,128,0,118621:0:0:0:0:
448,192,118506,1,8,0:0:0:0:
64,192,118506,1,8,0:0:0:0:
448,192,118621,1,8,0:0:0:0:
320,192,118621,128,8,118852:0:0:0:0:
64,192,118737,1,8,0:0:0:0:
192,192,118737,1,8,0:0:0:0:
448,192,118852,128,4,120006:0:0:0:0:
64,192,118852,1,0,0:0:0:0:
192,192,118852,1,4,0:0:0:0:
320,192,118968,1,0,0:0:0:0:
192,192,119083,1,8,0:0:0:0:
64,192,119083,1,8,0:0:0:0:
320,192,119198,1,0,0:0:0:0:
192,192,119314,1,0,0:0:0:0:
64,192,119429,1,0,0:0:0:0:
192,192,119545,1,8,0:0:0:0:
320,192,119545,1,8,0:0:0:0:
64,192,119660,1,0,0:0:0:0:
192,192,119775,1,0,0:0:0:0:
64,192,119891,1,0,0:0:0:0:
192,192,120006,128,8,120237:0:0:0:0:
320,192,120006,1,8,0:0:0:0:
448,192,120121,1,0,0:0:0:0:
64,192,120237,128,0,120468:0:0:0:0:
192,192,120352,1,0,0:0:0:0:
320,192,120468,128,8,120698:0:0:0:0:
448,192,120468,1,8,0:0:0:0:
192,192,120583,1,0,0:0:0:0:
448,192,120698,128,0,121391:0:0:0:0:
64,192,120814,1,0,0:0:0:0:
192,192,120929,1,8,0:0:0:0:
320,192,120929,1,8,0:0:0:0:
64,192,121045,1,0,0:0:0:0:
192,192,121160,1,0,0:0:0:0:
320,192,121275,1,0,0:0:0:0:
192,192,121391,128,8,122083:0:0:0:0:
64,192,121391,1,8,0:0:0:0:
448,192,121506,1,0,0:0:0:0:
64,192,121621,1,0,0:0:0:0:
320,192,121737,1,0,0:0:0:0:
448,192,121852,1,8,0:0:0:0:
64,192,121852,1,8,0:0:0:0:
320,192,121968,1,0,0:0:0:0:
64,192,122083,128,0,122314:0:0:0:0:
448,192,122198,1,0,0:0:0:0:
320,192,122314,1,8,0:0:0:0:
192,192,122314,1,4,0:0:0:0:
448,192,122314,1,8,0:0:0:0:
64,192,122429,1,0,0:0:0:0:
448,192,122545,128,4,123352:0:0:0:0:
320,192,122545,1,4,0:0:0:0:
64,192,122545,1,0,0:0:0:0:
192,192,122660,1,0,0:0:0:0:
64,192,122775,1,8,0:0:0:0:
320,192,122775,1,8,0:0:0:0:
192,192,122891,1,0,0:0:0:0:
320,192,123006,1,0,0:0:0:0:
64,192,123121,1,0,0:0:0:0:
192,192,123237,128,8,125083:0:0:0:0:
320,192,123237,1,8,0:0:0:0:
448,192,123583,1,0,0:0:0:0:
320,192,123698,1,8,0:0:0:0:
64,192,123698,1,8,0:0:0:0:
448,192,123929,1,0,0:0:0:0:
320,192,124006,1,0,0:0:0:0:
64,192,124083,1,0,0:0:0:0:
320,192,124160,1,8,0:0:0:0:
448,192,124160,1,8,0:0:0:0:
64,192,124391,1,0,0:0:0:0:
320,192,124506,1,0,0:0:0:0:
448,192,124621,1,8,0:0:0:0:
64,192,124621,1,8,0:0:0:0:
320,192,124737,1,0,0:0:0:0:
448,192,124968,1,0,0:0:0:0:
64,192,125083,1,4,0:0:0:0:
320,192,125083,1,8,0:0:0:0:
448,192,125083,1,8,0:0:0:0:
192,192,125198,1,0,0:0:0:0:
448,192,125314,1,0,0:0:0:0:
64,192,125468,1,0,0:0:0:0:
448,192,125545,1,8,0:0:0:0:
320,192,125545,1,8,0:0:0:0:
192,192,125660,1,8,0:0:0:0:
64,192,125660,1,8,0:0:0:0:
320,192,125775,1,8,0:0:0:0:
448,192,125775,1,8,0:0:0:0:
192,192,125891,1,0,0:0:0:0:
64,192,126006,1,0,0:0:0:0:
192,192,126121,1,0,0:0:0:0:
320,192,126237,1,4,0:0:0:0:
448,192,126237,1,4,0:0:0:0:
64,192,126237,128,0,127391:0:0:0:0:
192,192,126352,1,0,0:0:0:0:
320,192,126468,1,8,0:0:0:0:
448,192,126468,1,8,0:0:0:0:
192,192,126583,1,0,0:0:0:0:
320,192,126698,1,0,0:0:0:0:
448,192,126814,1,0,0:0:0:0:
320,192,126929,1,8,0:0:0:0:
192,192,126929,1,8,0:0:0:0:
448,192,127045,1,0,0:0:0:0:
320,192,127160,1,0,0:0:0:0:
192,192,127275,1,0,0:0:0:0:
448,192,127391,1,8,0:0:0:0:
320,192,127391,128,8,127621:0:0:0:0:
64,192,127506,1,0,0:0:0:0:
448,192,127621,128,0,127852:0:0:0:0:
320,192,127737,1,0,0:0:0:0:
64,192,127852,1,8,0:0:0:0:
192,192,127852,128,8,128083:0:0:0:0:
448,192,127968,1,0,0:0:0:0:
64,192,128083,128,0,128775:0:0:0:0:
320,192,128198,1,0,0:0:0:0:
192,192,128314,1,8,0:0:0:0:
448,192,128314,1,8,0:0:0:0:
320,192,128429,1,0,0:0:0:0:
448,192,128545,1,0,0:0:0:0:
320,192,128660,1,0,0:0:0:0:
192,192,128775,128,8,129468:0:0:0:0:
448,192,128775,1,8,0:0:0:0:
64,192,128891,1,0,0:0:0:0:
320,192,129006,1,0,0:0:0:0:
448,192,129121,1,0,0:0:0:0:
320,192,129237,1,8,0:0:0:0:
64,192,129237,1,8,0:0:0:0:
448,192,129352,1,0,0:0:0:0:
320,192,129468,128,0,129698:0:0:0:0:
64,192,129583,1,0,0:0:0:0:
192,192,129698,1,8,0:0:0:0:
448,192,129698,1,4,0:0:0:0:
64,192,129698,1,8,0:0:0:0:
320,192,129814,1,0,0:0:0:0:
448,192,129929,128,0,132929:0:0:0:0:
192,192,129929,1,4,0:0:0:0:
320,192,129929,1,4,0:0:0:0:
64,192,130045,1,0,0:0:0:0:
320,192,130160,1,0,0:0:0:0:
192,192,130275,1,0,0:0:0:0:
320,192,130391,1,4,0:0:0:0:
192,192,130391,1,8,0:0:0:0:
64,192,130391,1,8,0:0:0:0:
320,192,130506,1,0,0:0:0:0:
64,192,130621,1,0,0:0:0:0:
320,192,130737,1,0,0:0:0:0:
64,192,130852,1,4,0:0:0:0:
192,192,130852,1,4,0:0:0:0:
320,192,130852,1,0,0:0:0:0:
64,192,130968,1,8,0:0:0:0:
192,192,130968,1,8,0:0:0:0:
320,192,131083,1,0,0:0:0:0:
192,192,131198,1,0,0:0:0:0:
320,192,131314,1,4,0:0:0:0:
192,192,131314,1,8,0:0:0:0:
64,192,131314,1,8,0:0:0:0:
320,192,131429,1,0,0:0:0:0:
64,192,131545,1,0,0:0:0:0:
192,192,131660,1,0,0:0:0:0:
320,192,131775,1,0,0:0:0:0:
192,192,131775,1,4,0:0:0:0:
64,192,131775,1,4,0:0:0:0:
64,192,131891,1,0,0:0:0:0:
192,192,132006,1,0,0:0:0:0:
64,192,132121,1,0,0:0:0:0:
320,192,132237,1,4,0:0:0:0:
192,192,132237,1,8,0:0:0:0:
64,192,132237,1,8,0:0:0:0:
320,192,132352,1,0,0:0:0:0:
192,192,132468,1,0,0:0:0:0:
320,192,132583,1,0,0:0:0:0:
320,192,132698,1,0,0:0:0:0:
192,192,132698,1,4,0:0:0:0:
64,192,132698,1,4,0:0:0:0:
64,192,132814,1,8,0:0:0:0:
192,192,132814,1,8,0:0:0:0:
320,192,132929,128,0,133160:0:0:0:0:
64,192,133045,1,0,0:0:0:0:
192,192,133160,128,8,133391:0:0:0:0:
448,192,133160,1,4,0:0:0:0:
64,192,133160,1,8,0:0:0:0:
448,192,133275,1,0,0:0:0:0:
64,192,133391,1,8,0:0:0:0:
320,192,133391,128,8,133621:0:0:0:0:
192,192,133506,1,8,0:0:0:0:
448,192,133506,1,8,0:0:0:0:
64,192,133621,128,4,134775:0:0:0:0:
448,192,133621,1,0,0:0:0:0:
192,192,133621,1,4,0:0:0:0:
320,192,133737,1,0,0:0:0:0:
192,192,133852,1,8,0:0:0:0:
448,192,133852,1,8,0:0:0:0:
320,192,133968,1,0,0:0:0:0:
192,192,134083,1,0,0:0:0:0:
448,192,134198,1,0,0:0:0:0:
320,192,134314,1,8,0:0:0:0:
192,192,134314,1,8,0:0:0:0:
448,192,134429,1,0,0:0:0:0:
320,192,134545,1,0,0:0:0:0:
448,192,134660,1,0,0:0:0:0:
320,192,134775,128,8,135006:0:0:0:0:
192,192,134775,1,8,0:0:0:0:
64,192,134891,1,0,0:0:0:0:
448,192,135006,128,0,135237:0:0:0:0:
320,192,135121,1,0,0:0:0:0:
192,192,135237,128,8,135468:0:0:0:0:
64,192,135237,1,8,0:0:0:0:
320,192,135352,1,0,0:0:0:0:
64,192,135468,128,0,136160:0:0:0:0:
448,192,135583,1,0,0:0:0:0:
320,192,135698,1,8,0:0:0:0:
192,192,135698,1,8,0:0:0:0:
448,192,135814,1,0,0:0:0:0:
320,192,135929,1,0,0:0:0:0:
192,192,136045,1,0,0:0:0:0:
320,192,136160,128,8,136506:0:0:0:0:
448,192,136160,1,8,0:0:0:0:
64,192,136275,1,0,0:0:0:0:
448,192,136391,1,0,0:0:0:0:
192,192,136506,1,8,0:0:0:0:
64,192,136506,1,8,0:0:0:0:
320,192,136621,1,8,0:0:0:0:
448,192,136621,1,8,0:0:0:0:
192,192,136737,1,8,0:0:0:0:
64,192,136737,1,8,0:0:0:0:
448,192,136852,128,8,137083:0:0:0:0:
320,192,136852,1,8,0:0:0:0:
64,192,136968,1,0,0:0:0:0:
192,192,137083,1,0,0:0:0:0:
320,192,137198,1,0,0:0:0:0:
64,192,137314,128,4,138698:0:0:0:0:
448,192,137314,1,0,0:0:0:0:
192,192,137314,1,4,0:0:0:0:
320,192,137429,1,0,0:0:0:0:
448,192,137545,1,4,0:0:0:0:
192,192,137545,1,0,0:0:0:0:
192,192,137660,1,0,0:0:0:0:
320,192,137775,1,8,0:0:0:0:
448,192,137775,1,8,0:0:0:0:
192,192,137891,1,0,0:0:0:0:
448,192,138006,1,4,0:0:0:0:
320,192,138006,1,0,0:0:0:0:
320,192,138121,1,0,0:0:0:0:
192,192,138237,1,0,0:0:0:0:
448,192,138352,1,0,0:0:0:0:
320,192,138468,1,4,0:0:0:0:
192,192,138468,1,0,0:0:0:0:
448,192,138583,1,0,0:0:0:0:
320,192,138698,1,8,0:0:0:0:
448,192,138698,1,8,0:0:0:0:
192,192,138698,1,4,0:0:0:0:
64,192,138814,1,0,0:0:0:0:
320,192,138929,1,0,0:0:0:0:
448,192,139045,1,0,0:0:0:0:
192,192,139160,1,8,0:0:0:0:
64,192,139160,1,8,0:0:0:0:
320,192,139218,1,8,0:0:0:0:
448,192,139218,1,8,0:0:0:0:
192,192,139275,1,8,0:0:0:0:
64,192,139275,1,8,0:0:0:0:
320,192,139391,1,8,0:0:0:0:
448,192,139391,1,8,0:0:0:0:
192,192,139506,1,8,0:0:0:0:
64,192,139506,1,8,0:0:0:0:
320,192,139564,1,8,0:0:0:0:
448,192,139564,1,8,0:0:0:0:
192,192,139621,1,8,0:0:0:0:
64,192,139621,1,8,0:0:0:0:
320,192,139737,1,8,0:0:0:0:
448,192,139737,1,8,0:0:0:0:
192,192,139852,1,8,0:0:0:0:
64,192,139852,1,8,0:0:0:0:
320,192,139968,1,8,0:0:0:0:
448,192,139968,1,8,0:0:0:0:
64,192,140083,1,0,0:0:0:0:
192,192,140160,1,0,0:0:0:0:
320,192,140237,1,0,0:0:0:0:
448,192,140314,1,0,0:0:0:0:
64,192,140391,1,0,0:0:0:0:
192,192,140468,1,0,0:0:0:0:
320,192,140545,1,0,0:0:0:0:
192,192,140621,1,0,0:0:0:0:
448,192,140698,1,0,0:0:0:0:
320,192,140775,1,0,0:0:0:0:
64,192,140852,1,0,0:0:0:0:
192,192,140929,1,0,0:0:0:0:
64,192,141006,1,4,0:0:0:0:
320,192,141006,1,8,0:0:0:0:
448,192,141006,1,8,0:0:0:0:
192,192,141083,1,0,0:0:0:0:
64,192,141160,1,0,0:0:0:0:
320,192,141237,1,0,0:0:0:0:
448,192,141314,1,0,0:0:0:0:
64,192,141391,1,0,0:0:0:0:
192,192,141468,1,8,0:0:0:0:
320,192,141468,1,8,0:0:0:0:
448,192,141545,1,0,0:0:0:0:
192,192,141621,1,0,0:0:0:0:
320,192,141698,1,0,0:0:0:0:
64,192,141775,1,0,0:0:0:0:
448,192,141852,1,0,0:0:0:0:
320,192,141929,1,8,0:0:0:0:
192,192,141929,1,8,0:0:0:0:
64,192,142006,1,0,0:0:0:0:
192,192,142083,1,0,0:0:0:0:
320,192,142160,1,0,0:0:0:0:
448,192,142237,1,0,0:0:0:0:
192,192,142314,1,0,0:0:0:0:
64,192,142391,1,8,0:0:0:0:
320,192,142391,1,8,0:0:0:0:
448,192,142468,1,0,0:0:0:0:
320,192,142545,1,0,0:0:0:0:
192,192,142621,1,0,0:0:0:0:
64,192,142698,1,0,0:0:0:0:
320,192,142775,1,0,0:0:0:0:
192,192,142852,1,8,0:0:0:0:
64,192,142852,1,8,0:0:0:0:
448,192,142852,1,4,0:0:0:0:
320,192,142929,1,0,0:0:0:0:
448,192,143006,1,0,0:0:0:0:
64,192,143083,1,0,0:0:0:0:
192,192,143160,1,0,0:0:0:0:
320,192,143237,1,0,0:0:0:0:
64,192,143314,1,8,0:0:0:0:
448,192,143314,1,8,0:0:0:0:
192,192,143391,1,0,0:0:0:0:
64,192,143468,1,0,0:0:0:0:
448,192,143545,1,0,0:0:0:0:
320,192,143621,1,0,0:0:0:0:
192,192,143698,1,0,0:0:0:0:
64,192,143775,1,8,0:0:0:0:
448,192,143775,1,8,0:0:0:0:
320,192,143852,1,0,0:0:0:0:
192,192,143929,1,0,0:0:0:0:
64,192,144006,1,0,0:0:0:0:
448,192,144083,1,0,0:0:0:0:
320,192,144160,1,0,0:0:0:0:
64,192,144237,1,8,0:0:0:0:
448,192,144237,1,8,0:0:0:0:
192,192,144314,1,0,0:0:0:0:
320,192,144391,1,0,0:0:0:0:
448,192,144468,1,0,0:0:0:0:
64,192,144545,1,0,0:0:0:0:
192,192,144621,1,0,0:0:0:0:
64,192,144698,1,4,0:0:0:0:
448,192,144698,1,8,0:0:0:0:
320,192,144698,1,8,0:0:0:0:
192,192,144775,1,0,0:0:0:0:
448,192,144852,1,0,0:0:0:0:
320,192,144929,1,0,0:0:0:0:
64,192,145006,1,0,0:0:0:0:
448,192,145083,1,0,0:0:0:0:
64,192,145160,1,8,0:0:0:0:
192,192,145160,1,8,0:0:0:0:
320,192,145237,1,0,0:0:0:0:
64,192,145314,1,0,0:0:0:0:
192,192,145391,1,0,0:0:0:0:
448,192,145468,1,0,0:0:0:0:
64,192,145545,1,0,0:0:0:0:
320,192,145621,1,8,0:0:0:0:
448,192,145621,1,8,0:0:0:0:
192,192,145698,1,0,0:0:0:0:
448,192,145775,1,0,0:0:0:0:
192,192,145852,1,0,0:0:0:0:
64,192,145929,5,0,0:0:0:0:
320,192,146006,1,0,0:0:0:0:
64,192,146083,1,8,0:0:0:0:
192,192,146083,1,8,0:0:0:0:
448,192,146083,1,4,0:0:0:0:
320,192,146198,1,0,0:0:0:0:
64,192,146314,5,8,0:0:0:0:
448,192,146314,1,8,0:0:0:0:
320,192,146429,1,8,0:0:0:0:
192,192,146429,1,8,0:0:0:0:
64,192,146545,1,0,0:0:0:0:
192,192,146545,1,4,0:0:0:0:
448,192,146545,1,4,0:0:0:0:
320,192,146660,1,0,0:0:0:0:
192,192,146775,1,8,0:0:0:0:
448,192,146775,1,8,0:0:0:0:
64,192,146891,1,0,0:0:0:0:
448,192,147006,1,0,0:0:0:0:
320,192,147121,1,0,0:0:0:0:
192,192,147237,1,8,0:0:0:0:
64,192,147237,1,8,0:0:0:0:
448,192,147237,1,4,0:0:0:0:
320,192,147352,1,0,0:0:0:0:
192,192,147468,1,0,0:0:0:0:
320,192,147583,1,0,0:0:0:0:
64,192,147698,1,8,0:0:0:0:
192,192,147698,1,8,0:0:0:0:
448,192,147698,1,4,0:0:0:0:
320,192,147814,1,0,0:0:0:0:
64,192,147929,1,8,0:0:0:0:
448,192,147929,1,8,0:0:0:0:
192,192,148045,1,0,0:0:0:0:
448,192,148160,1,0,0:0:0:0:
320,192,148275,1,0,0:0:0:0:
64,192,148391,1,8,0:0:0:0:
448,192,148391,1,4,0:0:0:0:
192,192,148391,1,8,0:0:0:0:
320,192,148468,1,0,0:0:0:0:
448,192,148545,1,0,0:0:0:0:
192,192,148621,1,0,0:0:0:0:
320,192,148698,1,0,0:0:0:0:
64,192,148775,1,0,0:0:0:0:
192,192,148852,1,8,0:0:0:0:
448,192,148852,1,8,0:0:0:0:
320,192,149083,1,0,0:0:0:0:
192,192,149160,1,0,0:0:0:0:
448,192,149237,1,0,0:0:0:0:
192,192,149314,1,8,0:0:0:0:
320,192,149314,1,8,0:0:0:0:
64,192,149391,1,0,0:0:0:0:
320,192,149468,1,0,0:0:0:0:
192,192,149545,1,0,0:0:0:0:
320,192,149775,1,8,0:0:0:0:
448,192,149775,1,8,0:0:0:0:
64,192,149852,1,0,0:0:0:0:
192,192,149929,1,0,0:0:0:0:
320,192,150006,1,0,0:0:0:0:
320,192,150237,1,4,0:0:0:0:
192,192,150237,1,8,0:0:0:0:
64,192,150237,1,8,0:0:0:0:
448,192,150314,1,0,0:0:0:0:
192,192,150391,1,0,0:0:0:0:
320,192,150468,1,0,0:0:0:0:
64,192,150545,1,0,0:0:0:0:
448,192,150621,1,0,0:0:0:0:
192,192,150698,1,8,0:0:0:0:
320,192,150698,1,8,0:0:0:0:
64,192,150929,1,0,0:0:0:0:
448,192,151006,1,0,0:0:0:0:
192,192,151083,1,0,0:0:0:0:
448,192,151160,1,8,0:0:0:0:
64,192,151160,1,8,0:0:0:0:
320,192,151237,1,0,0:0:0:0:
64,192,151314,1,0,0:0:0:0:
448,192,151391,1,0,0:0:0:0:
192,192,151468,1,0,0:0:0:0:
320,192,151545,1,0,0:0:0:0:
64,192,151621,1,8,0:0:0:0:
448,192,151621,1,8,0:0:0:0:
64,192,151737,1,8,0:0:0:0:
448,192,151737,1,8,0:0:0:0:
320,192,151852,1,8,0:0:0:0:
192,192,151852,1,8,0:0:0:0:
192,192,151968,1,8,0:0:0:0:
320,192,151968,1,8,0:0:0:0:
320,192,152083,1,4,0:0:0:0:
64,192,152083,1,0,0:0:0:0:
448,192,152083,128,4,153006:0:0:0:0:
192,192,152198,1,0,0:0:0:0:
64,192,152314,1,8,0:0:0:0:
320,192,152314,1,8,0:0:0:0:
192,192,152429,1,0,0:0:0:0:
64,192,152545,1,0,0:0:0:0:
320,192,152660,1,0,0:0:0:0:
192,192,152775,1,8,0:0:0:0:
64,192,152775,1,8,0:0:0:0:
320,192,152891,1,0,0:0:0:0:
192,192,153006,128,0,153352:0:0:0:0:
64,192,153121,1,0,0:0:0:0:
320,192,153237,1,8,0:0:0:0:
448,192,153237,1,8,0:0:0:0:
64,192,153352,128,0,153698:0:0:0:0:
192,192,153468,1,0,0:0:0:0:
448,192,153583,1,0,0:0:0:0:
320,192,153698,128,8,153929:0:0:0:0:
192,192,153698,1,4,0:0:0:0:
448,192,153698,1,8,0:0:0:0:
448,192,153929,1,0,0:0:0:0:
192,192,153929,1,4,0:0:0:0:
64,192,153929,1,4,0:0:0:0:
320,192,154045,1,8,0:0:0:0:
448,192,154045,1,8,0:0:0:0:
64,192,154160,1,8,0:0:0:0:
192,192,154160,1,8,0:0:0:0:
320,192,154275,1,8,0:0:0:0:
448,192,154275,1,8,0:0:0:0:
64,192,154391,1,8,0:0:0:0:
192,192,154391,1,8,0:0:0:0:
320,192,154506,1,8,0:0:0:0:
448,192,154506,1,8,0:0:0:0:
64,192,154621,1,8,0:0:0:0:
192,192,154621,1,8,0:0:0:0:
448,192,154737,1,0,0:0:0:0:
320,192,154795,1,0,0:0:0:0:
64,192,154852,1,0,0:0:0:0:
448,192,154968,1,0,0:0:0:0:
192,192,155083,1,0,0:0:0:0:
64,192,155198,1,0,0:0:0:0:
320,192,155314,1,0,0:0:0:0:
448,192,155429,1,0,0:0:0:0:
64,192,155545,1,0,0:0:0:0:
192,192,155660,1,0,0:0:0:0:
448,192,155775,1,4,0:0:0:0:
64,192,155775,1,0,0:0:0:0:
320,192,155775,128,4,156121:0:0:0:0:
192,192,155891,1,0,0:0:0:0:
448,192,156006,1,8,0:0:0:0:
64,192,156006,1,8,0:0:0:0:
192,192,156121,128,0,156468:0:0:0:0:
320,192,156237,1,0,0:0:0:0:
64,192,156352,1,0,0:0:0:0:
448,192,156468,128,8,156698:0:0:0:0:
320,192,156468,1,8,0:0:0:0:
192,192,156583,1,0,0:0:0:0:
64,192,156698,128,0,157045:0:0:0:0:
192,192,156814,1,0,0:0:0:0:
320,192,156929,1,8,0:0:0:0:
448,192,156929,1,8,0:0:0:0:
192,192,157045,128,0,157391:0:0:0:0:
64,192,157160,1,0,0:0:0:0:
448,192,157275,1,0,0:0:0:0:
320,192,157391,128,8,157621:0:0:0:0:
64,192,157391,1,8,0:0:0:0:
192,192,157506,1,0,0:0:0:0:
448,192,157621,128,0,157968:0:0:0:0:
320,192,157737,1,0,0:0:0:0:
192,192,157852,1,8,0:0:0:0:
64,192,157852,1,8,0:0:0:0:
320,192,157968,128,0,158314:0:0:0:0:
448,192,158083,1,0,0:0:0:0:
64,192,158198,1,0,0:0:0:0:
192,192,158314,128,8,158545:0:0:0:0:
448,192,158314,1,8,0:0:0:0:
320,192,158429,1,0,0:0:0:0:
64,192,158545,128,0,158775:0:0:0:0:
448,192,158660,1,0,0:0:0:0:
320,192,158775,1,8,0:0:0:0:
192,192,158775,1,8,0:0:0:0:
448,192,158891,1,0,0:0:0:0:
320,192,159006,1,0,0:0:0:0:
192,192,159121,1,0,0:0:0:0:
64,192,159179,1,0,0:0:0:0:
448,192,159237,1,8,0:0:0:0:
320,192,159237,1,8,0:0:0:0:
192,192,159352,1,0,0:0:0:0:
448,192,159468,128,0,159814:0:0:0:0:
320,192,159583,1,0,0:0:0:0:
64,192,159698,1,8,0:0:0:0:
192,192,159698,1,8,0:0:0:0:
320,192,159814,128,0,160160:0:0:0:0:
448,192,159929,1,0,0:0:0:0:
192,192,160045,1,0,0:0:0:0:
64,192,160160,128,8,160391:0:0:0:0:
448,192,160160,1,8,0:0:0:0:
320,192,160275,1,0,0:0:0:0:
192,192,160391,128,0,160737:0:0:0:0:
64,192,160506,1,0,0:0:0:0:
320,192,160621,1,8,0:0:0:0:
448,192,160621,1,8,0:0:0:0:
64,192,160737,128,0,161083:0:0:0:0:
192,192,160852,1,0,0:0:0:0:
320,192,160968,1,0,0:0:0:0:
448,192,161083,128,8,161314:0:0:0:0:
192,192,161083,1,8,0:0:0:0:
64,192,161198,1,0,0:0:0:0:
320,192,161314,128,0,161660:0:0:0:0:
192,192,161429,1,0,0:0:0:0:
448,192,161545,1,8,0:0:0:0:
64,192,161545,1,8,0:0:0:0:
192,192,161660,128,0,162006:0:0:0:0:
64,192,161775,1,0,0:0:0:0:
448,192,161891,1,0,0:0:0:0:
64,192,162006,128,8,162237:0:0:0:0:
320,192,162006,1,8,0:0:0:0:
192,192,162121,1,0,0:0:0:0:
448,192,162237,1,0,0:0:0:0:
320,192,162352,1,0,0:0:0:0:
192,192,162468,1,8,0:0:0:0:
64,192,162468,1,8,0:0:0:0:
448,192,162468,1,4,0:0:0:0:
320,192,162583,1,0,0:0:0:0:
64,192,162698,1,0,0:0:0:0:
192,192,162814,1,0,0:0:0:0:
64,192,162929,1,4,0:0:0:0:
448,192,162929,1,8,0:0:0:0:
320,192,162929,1,8,0:0:0:0:
192,192,163045,1,0,0:0:0:0:
64,192,163160,1,0,0:0:0:0:
320,192,163160,1,4,0:0:0:0:
448,192,163160,128,4,163275:0:0:0:0:
192,192,163275,1,0,0:0:0:0:
64,192,163391,1,8,0:0:0:0:
448,192,163391,128,8,163506:0:0:0:0:
320,192,163506,128,0,163852:0:0:0:0:
192,192,163621,1,0,0:0:0:0:
64,192,163737,1,0,0:0:0:0:
448,192,163852,128,8,164083:0:0:0:0:
192,192,163852,1,8,0:0:0:0:
320,192,163968,1,0,0:0:0:0:
64,192,164083,128,0,164429:0:0:0:0:
192,192,164198,1,0,0:0:0:0:
320,192,164314,1,8,0:0:0:0:
448,192,164314,1,8,0:0:0:0:
192,192,164429,128,0,164775:0:0:0:0:
448,192,164545,1,0,0:0:0:0:
320,192,164660,1,0,0:0:0:0:
448,192,164775,128,8,165006:0:0:0:0:
64,192,164775,1,8,0:0:0:0:
192,192,164891,1,0,0:0:0:0:
64,192,165006,128,0,165352:0:0:0:0:
320,192,165121,1,0,0:0:0:0:
192,192,165237,1,8,0:0:0:0:
448,192,165237,1,8,0:0:0:0:
320,192,165352,128,0,165698:0:0:0:0:
64,192,165468,1,0,0:0:0:0:
192,192,165583,1,0,0:0:0:0:
448,192,165698,128,8,165929:0:0:0:0:
64,192,165698,1,8,0:0:0:0:
320,192,165814,1,0,0:0:0:0:
192,192,165929,128,0,166275:0:0:0:0:
64,192,166045,1,0,0:0:0:0:
320,192,166160,1,8,0:0:0:0:
448,192,166160,1,8,0:0:0:0:
64,192,166275,128,0,166621:0:0:0:0:
192,192,166391,1,0,0:0:0:0:
448,192,166506,1,0,0:0:0:0:
320,192,166621,128,8,166852:0:0:0:0:
192,192,166621,1,8,0:0:0:0:
448,192,166737,1,0,0:0:0:0:
64,192,166852,1,4,0:0:0:0:
448,192,166852,1,0,0:0:0:0:
192,192,166852,128,4,166968:0:0:0:0:
320,192,166968,1,0,0:0:0:0:
64,192,167083,1,8,0:0:0:0:
192,192,167083,128,8,167198:0:0:0:0:
448,192,167198,128,0,167545:0:0:0:0:
64,192,167314,1,0,0:0:0:0:
320,192,167429,1,0,0:0:0:0:
64,192,167545,128,8,167775:0:0:0:0:
192,192,167545,1,8,0:0:0:0:
448,192,167660,1,0,0:0:0:0:
320,192,167775,128,4,168121:0:0:0:0:
192,192,167775,1,0,0:0:0:0:
448,192,167775,1,4,0:0:0:0:
64,192,167891,1,0,0:0:0:0:
192,192,168006,1,8,0:0:0:0:
448,192,168006,1,8,0:0:0:0:
64,192,168121,128,0,168468:0:0:0:0:
448,192,168237,1,0,0:0:0:0:
192,192,168352,1,0,0:0:0:0:
448,192,168468,128,8,168698:0:0:0:0:
320,192,168468,1,8,0:0:0:0:
64,192,168583,1,0,0:0:0:0:
64,192,168698,1,4,0:0:0:0:
192,192,168698,1,4,0:0:0:0:
320,192,168698,1,0,0:0:0:0:
448,192,168814,1,0,0:0:0:0:
320,192,168929,1,8,0:0:0:0:
192,192,168929,1,8,0:0:0:0:
64,192,169045,1,0,0:0:0:0:
320,192,169160,1,0,0:0:0:0:
192,192,169275,1,0,0:0:0:0:
448,192,169391,1,8,0:0:0:0:
64,192,169391,1,8,0:0:0:0:
320,192,169506,1,0,0:0:0:0:
192,192,169621,1,0,0:0:0:0:
320,192,169737,1,8,0:0:0:0:
448,192,169737,1,8,0:0:0:0:
192,192,169852,1,8,0:0:0:0:
64,192,169852,1,8,0:0:0:0:
448,192,169968,1,0,0:0:0:0:
192,192,170083,128,0,170198:0:0:0:0:
64,192,170198,128,0,170314:0:0:0:0:
448,192,170314,128,0,170429:0:0:0:0:
192,192,170429,128,0,170545:0:0:0:0:
448,192,170545,1,4,0:0:0:0:
64,192,170545,1,0,0:0:0:0:
320,192,170545,128,4,170891:0:0:0:0:
192,192,170660,1,0,0:0:0:0:
448,192,170775,1,8,0:0:0:0:
64,192,170775,1,8,0:0:0:0:
192,192,170891,128,0,171237:0:0:0:0:
320,192,171006,1,0,0:0:0:0:
64,192,171121,1,0,0:0:0:0:
448,192,171237,128,8,171468:0:0:0:0:
320,192,171237,1,8,0:0:0:0:
192,192,171352,1,0,0:0:0:0:
64,192,171468,128,0,171814:0:0:0:0:
192,192,171583,1,0,0:0:0:0:
320,192,171698,1,8,0:0:0:0:
448,192,171698,1,8,0:0:0:0:
192,192,171814,128,0,172160:0:0:0:0:
64,192,171929,1,0,0:0:0:0:
448,192,172045,1,0,0:0:0:0:
320,192,172160,128,8,172391:0:0:0:0:
64,192,172160,1,8,0:0:0:0:
192,192,172275,1,0,0:0:0:0:
448,192,172391,128,0,172737:0:0:0:0:
320,192,172506,1,0,0:0:0:0:
192,192,172621,1,8,0:0:0:0:
64,192,172621,1,8,0:0:0:0:
320,192,172737,128,0,173083:0:0:0:0:
448,192,172852,1,0,0:0:0:0:
64,192,172968,1,0,0:0:0:0:
192,192,173083,128,8,173314:0:0:0:0:
448,192,173083,1,8,0:0:0:0:
320,192,173198,1,0,0:0:0:0:
64,192,173314,128,0,173545:0:0:0:0:
448,192,173429,1,0,0:0:0:0:
320,192,173545,1,8,0:0:0:0:
192,192,173545,1,8,0:0:0:0:
448,192,173660,1,0,0:0:0:0:
320,192,173775,1,0,0:0:0:0:
192,192,173891,1,0,0:0:0:0:
64,192,173948,1,0,0:0:0:0:
448,192,174006,1,8,0:0:0:0:
320,192,174006,1,8,0:0:0:0:
192,192,174121,1,0,0:0:0:0:
448,192,174237,128,0,174352:0:0:0:0:
320,192,174352,1,0,0:0:0:0:
64,192,174468,1,8,0:0:0:0:
448,192,174468,128,8,174583:0:0:0:0:
320,192,174583,128,0,174929:0:0:0:0:
448,192,174698,1,0,0:0:0:0:
192,192,174814,1,0,0:0:0:0:
64,192,174929,128,8,175160:0:0:0:0:
448,192,174929,1,8,0:0:0:0:
320,192,175045,1,0,0:0:0:0:
192,192,175160,128,0,175506:0:0:0:0:
64,192,175275,1,0,0:0:0:0:
320,192,175391,1,8,0:0:0:0:
448,192,175391,1,8,0:0:0:0:
64,192,175506,128,0,175852:0:0:0:0:
192,192,175621,1,0,0:0:0:0:
320,192,175737,1,0,0:0:0:0:
448,192,175852,128,8,176083:0:0:0:0:
192,192,175852,1,8,0:0:0:0:
64,192,175968,1,0,0:0:0:0:
320,192,176083,128,0,176429:0:0:0:0:
192,192,176198,1,0,0:0:0:0:
448,192,176314,1,8,0:0:0:0:
64,192,176314,1,8,0:0:0:0:
192,192,176429,128,0,176775:0:0:0:0:
64,192,176545,1,0,0:0:0:0:
448,192,176660,1,0,0:0:0:0:
64,192,176775,128,8,177006:0:0:0:0:
320,192,176775,1,8,0:0:0:0:
192,192,176891,1,0,0:0:0:0:
448,192,177006,1,0,0:0:0:0:
192,192,177121,1,0,0:0:0:0:
64,192,177121,1,0,0:0:0:0:
448,192,177237,1,8,0:0:0:0:
64,192,177237,1,8,0:0:0:0:
320,192,177352,1,8,0:0:0:0:
192,192,177352,1,8,0:0:0:0:
64,192,177468,1,8,0:0:0:0:
448,192,177468,1,8,0:0:0:0:
320,192,177583,1,0,0:0:0:0:
64,192,177698,1,0,0:0:0:0:
192,192,177814,1,0,0:0:0:0:
64,192,177929,1,0,0:0:0:0:
320,192,177929,1,4,0:0:0:0:
448,192,177929,128,4,178045:0:0:0:0:
192,192,178045,1,0,0:0:0:0:
64,192,178160,1,8,0:0:0:0:
448,192,178160,128,8,178275:0:0:0:0:
320,192,178275,128,0,178621:0:0:0:0:
192,192,178391,1,0,0:0:0:0:
64,192,178506,1,0,0:0:0:0:
448,192,178621,128,8,178852:0:0:0:0:
192,192,178621,1,8,0:0:0:0:
320,192,178737,1,0,0:0:0:0:
64,192,178852,128,0,179198:0:0:0:0:
192,192,178968,1,0,0:0:0:0:
320,192,179083,1,8,0:0:0:0:
448,192,179083,1,8,0:0:0:0:
192,192,179198,128,0,179545:0:0:0:0:
448,192,179314,1,0,0:0:0:0:
320,192,179429,1,0,0:0:0:0:
448,192,179545,128,8,179775:0:0:0:0:
64,192,179545,1,8,0:0:0:0:
192,192,179660,1,0,0:0:0:0:
64,192,179775,128,4,180121:0:0:0:0:
320,192,179775,1,0,0:0:0:0:
192,192,179775,1,4,0:0:0:0:
448,192,179891,1,0,0:0:0:0:
192,192,180006,1,8,0:0:0:0:
448,192,180006,1,8,0:0:0:0:
320,192,180121,128,0,180468:0:0:0:0:
64,192,180237,1,0,0:0:0:0:
192,192,180352,1,0,0:0:0:0:
448,192,180468,128,8,180698:0:0:0:0:
64,192,180468,1,8,0:0:0:0:
320,192,180583,1,0,0:0:0:0:
192,192,180698,128,0,180929:0:0:0:0:
448,192,180814,1,0,0:0:0:0:
320,192,180929,1,8,0:0:0:0:
448,192,180929,1,8,0:0:0:0:
64,192,180929,1,4,0:0:0:0:
192,192,181045,1,0,0:0:0:0:
320,192,181160,1,0,0:0:0:0:
192,192,181237,1,0,0:0:0:0:
64,192,181314,1,0,0:0:0:0:
448,192,181391,1,0,0:0:0:0:
192,192,181468,1,0,0:0:0:0:
320,192,181545,1,0,0:0:0:0:
64,192,181621,1,8,0:0:0:0:
448,192,181621,1,4,0:0:0:0:
192,192,181621,128,8,181737:0:0:0:0:
320,192,181737,1,0,0:0:0:0:
192,192,181852,128,0,181968:0:0:0:0:
448,192,181968,128,0,182314:0:0:0:0:
64,192,182083,1,8,0:0:0:0:
192,192,182083,1,8,0:0:0:0:
320,192,182083,1,4,0:0:0:0:
320,192,182198,1,0,0:0:0:0:
64,192,182314,128,0,182545:0:0:0:0:
448,192,182429,1,0,0:0:0:0:
320,192,182545,128,8,182891:0:0:0:0:
192,192,182545,1,8,0:0:0:0:
64,192,182660,1,0,0:0:0:0:
192,192,182775,1,8,0:0:0:0:
448,192,182775,1,8,0:0:0:0:
64,192,182891,128,0,183237:0:0:0:0:
448,192,183006,1,8,0:0:0:0:
320,192,183006,1,8,0:0:0:0:
192,192,183121,1,0,0:0:0:0:
448,192,183237,128,0,183468:0:0:0:0:
64,192,183352,1,0,0:0:0:0:
192,192,183468,128,8,184737:0:0:0:0:
320,192,183468,1,0,0:0:0:0:
448,192,183698,1,0,0:0:0:0:
64,192,183929,1,0,0:0:0:0:
320,192,184045,128,0,184160:0:0:0:0:
448,192,184160,1,0,0:0:0:0:
64,192,184391,1,0,0:0:0:0:
320,192,184621,1,0,0:0:0:0:
448,192,184737,128,0,184968:0:0:0:0:
192,192,184852,128,0,185083:0:0:0:0:
320,192,184968,128,0,185198:0:0:0:0:
64,192,185083,128,0,185314:0:0:0:0:
192,192,185198,128,0,185314:0:0:0:0:
448,192,185314,1,0,0:0:0:0:
320,192,185391,1,0,0:0:0:0:
64,192,185468,1,0,0:0:0:0:
448,192,185545,1,0,0:0:0:0:
192,192,185621,1,0,0:0:0:0:
448,192,185698,1,0,0:0:0:0:
64,192,185775,1,0,0:0:0:0:
192,192,185852,1,0,0:0:0:0:
448,192,185929,1,0,0:0:0:0:
64,192,186006,1,0,0:0:0:0:
320,192,186083,1,0,0:0:0:0:
64,192,186160,1,0,0:0:0:0:
320,192,186237,1,8,0:0:0:0:
448,192,186237,1,8,0:0:0:0:
192,192,186314,1,0,0:0:0:0:
448,192,186391,1,0,0:0:0:0:
64,192,186468,1,0,0:0:0:0:
320,192,186545,1,0,0:0:0:0:
448,192,186621,1,0,0:0:0:0:
192,192,186698,1,8,0:0:0:0:
64,192,186698,1,8,0:0:0:0:
320,192,186852,1,4,0:0:0:0:
448,192,186852,1,0,0:0:0:0:
192,192,186852,1,4,0:0:0:0:
320,192,187006,1,4,0:0:0:0:
448,192,187006,1,4,0:0:0:0:
64,192,187006,1,0,0:0:0:0:
192,192,187160,1,8,0:0:0:0:
320,192,187160,1,8,0:0:0:0:
64,192,187160,1,4,0:0:0:0:
448,192,187275,1,0,0:0:0:0:
320,192,187391,1,0,0:0:0:0:
192,192,187506,1,8,0:0:0:0:
64,192,187506,1,8,0:0:0:0:
448,192,187506,1,4,0:0:0:0:
320,192,187621,1,0,0:0:0:0:
192,192,187737,1,8,0:0:0:0:
64,192,187737,1,8,0:0:0:0:
448,192,187737,1,4,0:0:0:0:
320,192,187852,1,0,0:0:0:0:
192,192,187968,1,0,0:0:0:0:
64,192,188083,1,4,0:0:0:0:
320,192,188083,1,8,0:0:0:0:
448,192,188083,1,8,0:0:0:0:
192,192,188198,1,0,0:0:0:0:
448,192,188314,1,0,0:0:0:0:
320,192,188429,1,4,0:0:0:0:
192,192,188429,1,8,0:0:0:0:
64,192,188429,1,8,0:0:0:0:
448,192,188545,1,0,0:0:0:0:
192,192,188660,1,8,0:0:0:0:
64,192,188660,1,8,0:0:0:0:
320,192,188660,1,4,0:0:0:0:
448,192,188775,1,0,0:0:0:0:
192,192,188891,1,0,0:0:0:0:
64,192,189006,1,4,0:0:0:0:
320,192,189006,1,8,0:0:0:0:
448,192,189006,1,8,0:0:0:0:
192,192,189121,1,0,0:0:0:0:
64,192,189237,1,4,0:0:0:0:
448,192,189237,1,8,0:0:0:0:
320,192,189237,1,8,0:0:0:0:
192,192,189352,1,0,0:0:0:0:
448,192,189468,1,0,0:0:0:0:
320,192,189583,1,4,0:0:0:0:
192,192,189583,1,8,0:0:0:0:
64,192,189583,1,8,0:0:0:0:
448,192,189698,1,0,0:0:0:0:
320,192,189814,1,0,0:0:0:0:
192,192,189929,1,8,0:0:0:0:
64,192,189929,1,8,0:0:0:0:
448,192,189929,1,4,0:0:0:0:
320,192,190045,1,0,0:0:0:0:
64,192,190160,1,0,0:0:0:0:
192,192,190275,1,8,0:0:0:0:
320,192,190275,1,8,0:0:0:0:
448,192,190275,1,4,0:0:0:0:
64,192,190391,1,0,0:0:0:0:
320,192,190506,1,8,0:0:0:0:
192,192,190506,1,8,0:0:0:0:
448,192,190506,1,4,0:0:0:0:
64,192,190621,1,0,0:0:0:0:
192,192,190737,1,0,0:0:0:0:
64,192,190852,1,4,0:0:0:0:
320,192,190852,1,8,0:0:0:0:
448,192,190852,1,8,0:0:0:0:
192,192,190968,1,0,0:0:0:0:
320,192,191198,1,0,0:0:0:0:
64,192,191429,1,0,0:0:0:0:
192,192,191545,1,8,0:0:0:0:
320,192,191545,1,8,0:0:0:0:
448,192,191660,1,0,0:0:0:0:
64,192,191891,1,0,0:0:0:0:
448,192,192121,1,0,0:0:0:0:
64,192,192237,1,8,0:0:0:0:
192,192,192237,1,8,0:0:0:0:
320,192,192314,1,0,0:0:0:0:
448,192,192391,1,0,0:0:0:0:
192,192,192468,1,0,0:0:0:0:
320,192,192545,1,0,0:0:0:0:
448,192,192621,1,0,0:0:0:0:
192,192,192698,1,8,0:0:0:0:
64,192,192698,1,8,0:0:0:0:
320,192,192814,1,0,0:0:0:0:
192,192,193045,1,0,0:0:0:0:
320,192,193275,1,0,0:0:0:0:
64,192,193391,1,8,0:0:0:0:
448,192,193391,1,8,0:0:0:0:
192,192,193506,1,0,0:0:0:0:
320,192,193737,1,0,0:0:0:0:
192,192,193968,1,0,0:0:0:0:
64,192,194083,1,8,0:0:0:0:
448,192,194083,1,8,0:0:0:0:
320,192,194160,1,0,0:0:0:0:
192,192,194237,1,0,0:0:0:0:
64,192,194314,1,0,0:0:0:0:
320,192,194391,1,0,0:0:0:0:
192,192,194468,1,0,0:0:0:0:
64,192,194545,1,4,0:0:0:0:
320,192,194545,1,8,0:0:0:0:
448,192,194545,1,8,0:0:0:0:
192,192,194660,1,0,0:0:0:0:
320,192,194891,1,0,0:0:0:0:
64,192,195121,1,0,0:0:0:0:
192,192,195237,1,8,0:0:0:0:
448,192,195237,1,8,0:0:0:0:
320,192,195352,1,0,0:0:0:0:
64,192,195583,1,0,0:0:0:0:
448,192,195814,1,0,0:0:0:0:
192,192,195929,1,8,0:0:0:0:
320,192,195929,1,8,0:0:0:0:
64,192,196006,1,0,0:0:0:0:
448,192,196083,1,0,0:0:0:0:
192,192,196160,1,0,0:0:0:0:
320,192,196237,1,0,0:0:0:0:
64,192,196314,1,0,0:0:0:0:
192,192,196391,1,8,0:0:0:0:
448,192,196391,1,8,0:0:0:0:
320,192,196506,1,0,0:0:0:0:
192,192,196621,1,0,0:0:0:0:
64,192,196737,1,8,0:0:0:0:
320,192,196737,1,8,0:0:0:0:
448,192,196852,1,0,0:0:0:0:
192,192,196968,1,0,0:0:0:0:
320,192,197083,1,8,0:0:0:0:
448,192,197083,1,8,0:0:0:0:
64,192,197198,1,0,0:0:0:0:
448,192,197314,1,0,0:0:0:0:
320,192,197429,1,0,0:0:0:0:
192,192,197545,1,8,0:0:0:0:
64,192,197545,1,8,0:0:0:0:
448,192,197660,1,0,0:0:0:0:
192,192,197775,1,8,0:0:0:0:
320,192,197775,1,8,0:0:0:0:
448,192,197891,1,8,0:0:0:0:
64,192,197891,1,8,0:0:0:0:
64,192,198006,1,8,0:0:0:0:
448,192,198006,1,8,0:0:0:0:
320,192,198121,1,8,0:0:0:0:
192,192,198121,1,8,0:0:0:0:
192,192,198237,1,4,0:0:0:0:
64,192,198237,1,4,0:0:0:0:
448,192,198237,1,0,0:0:0:0:
320,192,198314,1,0,0:0:0:0:
192,192,198391,1,0,0:0:0:0:
320,192,198468,1,8,0:0:0:0:
448,192,198468,1,8,0:0:0:0:
64,192,198583,1,0,0:0:0:0:
64,192,198814,1,0,0:0:0:0:
448,192,198929,1,8,0:0:0:0:
192,192,198929,1,8,0:0:0:0:
64,192,199045,1,0,0:0:0:0:
64,192,199275,1,0,0:0:0:0:
192,192,199391,1,8,0:0:0:0:
320,192,199391,1,8,0:0:0:0:
448,192,199621,1,0,0:0:0:0:
320,192,199698,1,0,0:0:0:0:
192,192,199775,1,0,0:0:0:0:
448,192,199852,1,8,0:0:0:0:
320,192,199852,1,8,0:0:0:0:
64,192,200083,1,0,0:0:0:0:
192,192,200160,1,0,0:0:0:0:
320,192,200237,1,0,0:0:0:0:
192,192,200314,1,8,0:0:0:0:
64,192,200314,1,8,0:0:0:0:
448,192,200429,1,0,0:0:0:0:
448,192,200660,1,0,0:0:0:0:
320,192,200775,1,8,0:0:0:0:
64,192,200775,1,8,0:0:0:0:
448,192,200891,1,0,0:0:0:0:
448,192,201121,1,0,0:0:0:0:
320,192,201237,1,8,0:0:0:0:
192,192,201237,1,8,0:0:0:0:
64,192,201468,1,0,0:0:0:0:
192,192,201545,1,0,0:0:0:0:
320,192,201621,1,0,0:0:0:0:
192,192,201698,1,8,0:0:0:0:
64,192,201698,1,8,0:0:0:0:
448,192,201929,1,0,0:0:0:0:
320,192,202006,1,0,0:0:0:0:
192,192,202083,1,0,0:0:0:0:
320,192,202160,1,8,0:0:0:0:
448,192,202160,1,8,0:0:0:0:
64,192,202275,1,0,0:0:0:0:
64,192,202506,1,0,0:0:0:0:
192,192,202621,1,8,0:0:0:0:
448,192,202621,1,8,0:0:0:0:
64,192,202737,1,0,0:0:0:0:
64,192,202968,1,0,0:0:0:0:
192,192,203083,1,8,0:0:0:0:
320,192,203083,1,8,0:0:0:0:
448,192,203314,1,0,0:0:0:0:
320,192,203391,1,0,0:0:0:0:
192,192,203468,1,0,0:0:0:0:
320,192,203545,1,8,0:0:0:0:
448,192,203545,1,8,0:0:0:0:
64,192,203545,1,4,0:0:0:0:
192,192,203660,1,0,0:0:0:0:
64,192,203775,1,4,0:0:0:0:
320,192,203775,1,8,0:0:0:0:
448,192,203775,1,8,0:0:0:0:
192,192,203891,1,0,0:0:0:0:
320,192,204006,1,0,0:0:0:0:
192,192,204121,1,8,0:0:0:0:
64,192,204121,1,8,0:0:0:0:
448,192,204121,1,4,0:0:0:0:
320,192,204237,1,0,0:0:0:0:
192,192,204352,1,0,0:0:0:0:
64,192,204468,1,4,0:0:0:0:
320,192,204468,1,8,0:0:0:0:
448,192,204468,1,8,0:0:0:0:
192,192,204583,1,0,0:0:0:0:
448,192,204698,1,0,0:0:0:0:
64,192,204814,1,8,0:0:0:0:
192,192,204814,1,8,0:0:0:0:
320,192,204814,1,4,0:0:0:0:
448,192,204929,1,0,0:0:0:0:
192,192,205045,1,0,0:0:0:0:
448,192,205160,1,8,0:0:0:0:
320,192,205160,1,8,0:0:0:0:
64,192,205237,1,0,0:0:0:0:
192,192,205314,1,0,0:0:0:0:
320,192,205391,1,0,0:0:0:0:
448,192,205468,1,0,0:0:0:0:
192,192,205545,1,0,0:0:0:0:
64,192,205621,1,0,0:0:0:0:
320,192,205698,1,0,0:0:0:0:
448,192,205775,1,0,0:0:0:0:
192,192,205852,1,0,0:0:0:0:
64,192,205929,1,0,0:0:0:0:
448,192,206006,1,0,0:0:0:0:
320,192,206083,1,0,0:0:0:0:
64,192,206160,1,8,0:0:0:0:
192,192,206160,1,8,0:0:0:0:
448,192,206237,1,0,0:0:0:0:
320,192,206314,1,0,0:0:0:0:
64,192,206391,1,0,0:0:0:0:
192,192,206468,1,0,0:0:0:0:
448,192,206545,1,8,0:0:0:0:
64,192,206545,1,8,0:0:0:0:
320,192,206621,1,0,0:0:0:0:
448,192,206698,1,0,0:0:0:0:
64,192,206775,1,0,0:0:0:0:
320,192,206852,1,0,0:0:0:0:
192,192,206929,1,0,0:0:0:0:
320,192,207006,1,8,0:0:0:0:
448,192,207006,1,8,0:0:0:0:
192,192,207083,1,8,0:0:0:0:
64,192,207083,1,8,0:0:0:0:
320,192,207160,1,8,0:0:0:0:
448,192,207160,1,8,0:0:0:0:
192,192,207237,1,8,0:0:0:0:
64,192,207237,1,8,0:0:0:0:
320,192,207314,1,8,0:0:0:0:
448,192,207314,1,8,0:0:0:0:
192,192,207391,1,8,0:0:0:0:
64,192,207391,1,8,0:0:0:0:
448,192,207468,1,4,0:0:0:0:
64,192,207468,1,4,0:0:0:0:
320,192,207468,128,2,207583:0:0:0:0:
192,192,207583,1,0,0:0:0:0:
320,192,207698,1,8,0:0:0:0:
448,192,207698,1,8,0:0:0:0:
64,192,207814,1,0,0:0:0:0:
448,192,207929,128,2,208045:0:0:0:0:
320,192,208045,1,0,0:0:0:0:
192,192,208160,1,8,0:0:0:0:
64,192,208160,1,8,0:0:0:0:
320,192,208275,128,2,208391:0:0:0:0:
448,192,208391,1,0,0:0:0:0:
192,192,208506,1,0,0:0:0:0:
64,192,208621,1,8,0:0:0:0:
448,192,208621,1,8,0:0:0:0:
320,192,208737,1,0,0:0:0:0:
64,192,208852,1,0,0:0:0:0:
448,192,208968,1,0,0:0:0:0:
192,192,209083,1,8,0:0:0:0:
320,192,209083,1,8,0:0:0:0:
64,192,209198,1,0,0:0:0:0:
448,192,209314,1,0,0:0:0:0:
320,192,209429,128,2,209545:0:0:0:0:
192,192,209545,128,10,209660:0:0:0:0:
448,192,209545,1,8,0:0:0:0:
64,192,209660,1,0,0:0:0:0:
448,192,209775,128,2,209891:0:0:0:0:
192,192,209891,1,0,0:0:0:0:
448,192,210006,128,10,210121:0:0:0:0:
64,192,210006,1,8,0:0:0:0:
320,192,210121,128,2,210237:0:0:0:0:
192,192,210237,1,0,0:0:0:0:
448,192,210352,1,0,0:0:0:0:
320,192,210468,1,8,0:0:0:0:
64,192,210468,1,8,0:0:0:0:
192,192,210583,1,0,0:0:0:0:
448,192,210698,1,0,0:0:0:0:
320,192,210814,1,0,0:0:0:0:
448,192,210929,1,8,0:0:0:0:
64,192,210929,1,8,0:0:0:0:
192,192,211045,1,0,0:0:0:0:
64,192,211160,1,0,0:0:0:0:
448,192,211160,1,4,0:0:0:0:
320,192,211160,1,4,0:0:0:0:
192,192,211275,128,2,211391:0:0:0:0:
320,192,211391,128,10,211506:0:0:0:0:
64,192,211391,1,8,0:0:0:0:
448,192,211506,1,0,0:0:0:0:
64,192,211621,128,2,211737:0:0:0:0:
192,192,211737,1,0,0:0:0:0:
320,192,211852,1,8,0:0:0:0:
448,192,211852,1,8,0:0:0:0:
192,192,211968,128,2,212083:0:0:0:0:
64,192,212083,1,0,0:0:0:0:
320,192,212198,1,0,0:0:0:0:
448,192,212314,1,8,0:0:0:0:
64,192,212314,1,8,0:0:0:0:
192,192,212429,1,0,0:0:0:0:
320,192,212545,1,0,0:0:0:0:
64,192,212660,1,0,0:0:0:0:
448,192,212775,1,8,0:0:0:0:
192,192,212775,1,8,0:0:0:0:
320,192,212891,1,0,0:0:0:0:
64,192,213006,1,0,0:0:0:0:
192,192,213121,128,2,213237:0:0:0:0:
320,192,213237,128,10,213352:0:0:0:0:
64,192,213237,1,8,0:0:0:0:
448,192,213352,1,0,0:0:0:0:
64,192,213468,128,2,213583:0:0:0:0:
320,192,213583,1,0,0:0:0:0:
64,192,213698,128,10,213814:0:0:0:0:
448,192,213698,1,8,0:0:0:0:
192,192,213814,128,2,213929:0:0:0:0:
320,192,213929,1,0,0:0:0:0:
64,192,214045,1,0,0:0:0:0:
192,192,214160,1,8,0:0:0:0:
448,192,214160,1,4,0:0:0:0:
320,192,214160,1,8,0:0:0:0:
64,192,214275,1,0,0:0:0:0:
448,192,214391,1,0,0:0:0:0:
192,192,214506,1,0,0:0:0:0:
448,192,214621,1,8,0:0:0:0:
320,192,214621,1,8,0:0:0:0:
64,192,214621,1,4,0:0:0:0:
192,192,214737,1,0,0:0:0:0:
448,192,214852,1,4,0:0:0:0:
64,192,214852,1,4,0:0:0:0:
320,192,214852,128,2,214968:0:0:0:0:
192,192,214968,1,0,0:0:0:0:
320,192,215083,1,8,0:0:0:0:
448,192,215083,1,8,0:0:0:0:
64,192,215198,1,0,0:0:0:0:
448,192,215314,128,2,215429:0:0:0:0:
320,192,215429,1,0,0:0:0:0:
192,192,215545,1,8,0:0:0:0:
64,192,215545,1,8,0:0:0:0:
320,192,215660,128,2,215775:0:0:0:0:
448,192,215775,1,0,0:0:0:0:
192,192,215891,1,0,0:0:0:0:
64,192,216006,1,8,0:0:0:0:
448,192,216006,1,8,0:0:0:0:
320,192,216121,1,0,0:0:0:0:
64,192,216237,1,0,0:0:0:0:
448,192,216352,1,0,0:0:0:0:
192,192,216468,1,8,0:0:0:0:
320,192,216468,1,8,0:0:0:0:
64,192,216583,1,0,0:0:0:0:
448,192,216698,1,0,0:0:0:0:
320,192,216814,128,2,216929:0:0:0:0:
192,192,216929,128,10,217045:0:0:0:0:
448,192,216929,1,8,0:0:0:0:
64,192,217045,1,0,0:0:0:0:
448,192,217160,128,2,217275:0:0:0:0:
192,192,217275,1,0,0:0:0:0:
448,192,217391,128,10,217506:0:0:0:0:
64,192,217391,1,8,0:0:0:0:
320,192,217506,128,2,217621:0:0:0:0:
192,192,217621,1,0,0:0:0:0:
448,192,217737,1,0,0:0:0:0:
320,192,217852,1,8,0:0:0:0:
64,192,217852,1,8,0:0:0:0:
192,192,217968,1,0,0:0:0:0:
448,192,218083,1,0,0:0:0:0:
192,192,218198,1,0,0:0:0:0:
448,192,218314,1,8,0:0:0:0:
64,192,218314,1,8,0:0:0:0:
320,192,218429,1,0,0:0:0:0:
64,192,218545,1,4,0:0:0:0:
192,192,218545,1,4,0:0:0:0:
448,192,218545,128,2,218660:0:0:0:0:
320,192,218660,1,0,0:0:0:0:
64,192,218775,1,8,0:0:0:0:
448,192,218775,1,8,0:0:0:0:
192,192,218891,1,0,0:0:0:0:
64,192,219006,128,2,219121:0:0:0:0:
448,192,219121,1,0,0:0:0:0:
320,192,219237,1,8,0:0:0:0:
64,192,219237,1,8,0:0:0:0:
448,192,219352,128,2,219468:0:0:0:0:
192,192,219468,1,0,0:0:0:0:
320,192,219583,1,0,0:0:0:0:
448,192,219698,1,8,0:0:0:0:
64,192,219698,1,8,0:0:0:0:
192,192,219814,1,0,0:0:0:0:
320,192,219929,1,0,0:0:0:0:
64,192,220045,1,0,0:0:0:0:
448,192,220160,1,4,0:0:0:0:
192,192,220160,1,8,0:0:0:0:
320,192,220160,1,8,0:0:0:0:
64,192,220275,1,0,0:0:0:0:
192,192,220391,1,8,0:0:0:0:
448,192,220391,1,4,0:0:0:0:
320,192,220391,1,8,0:0:0:0:
64,192,220506,1,0,0:0:0:0:
448,192,220621,1,0,0:0:0:0:
192,192,220737,1,8,0:0:0:0:
64,192,220737,1,8,0:0:0:0:
320,192,220852,1,0,0:0:0:0:
192,192,220968,1,0,0:0:0:0:
320,192,221083,1,8,0:0:0:0:
448,192,221083,1,8,0:0:0:0:
64,192,221198,1,0,0:0:0:0:
448,192,221314,1,0,0:0:0:0:
192,192,221429,1,8,0:0:0:0:
320,192,221429,1,8,0:0:0:0:
64,192,221545,1,8,0:0:0:0:
448,192,221545,1,8,0:0:0:0:
320,192,221660,1,8,0:0:0:0:
192,192,221660,1,8,0:0:0:0:
64,192,221775,1,0,0:0:0:0:
448,192,221891,1,0,0:0:0:0:
192,192,222006,1,0,0:0:0:0:
320,192,222121,1,0,0:0:0:0:
192,192,222237,1,4,0:0:0:0:
448,192,222237,1,0,0:0:0:0:
64,192,222237,128,4,222698:0:0:0:0:
320,192,222352,1,0,0:0:0:0:
448,192,222468,1,8,0:0:0:0:
192,192,222468,1,8,0:0:0:0:
320,192,222583,1,0,0:0:0:0:
192,192,222698,128,0,223391:0:0:0:0:
448,192,222814,1,0,0:0:0:0:
320,192,222929,1,8,0:0:0:0:
64,192,222929,1,8,0:0:0:0:
448,192,223045,1,0,0:0:0:0:
64,192,223160,1,0,0:0:0:0:
320,192,223275,1,0,0:0:0:0:
64,192,223391,128,8,223506:0:0:0:0:
448,192,223391,1,8,0:0:0:0:
192,192,223506,1,0,0:0:0:0:
64,192,223621,128,0,223795:0:0:0:0:
448,192,223737,1,0,0:0:0:0:
320,192,223852,128,8,224083:0:0:0:0:
192,192,223852,1,8,0:0:0:0:
64,192,223968,1,0,0:0:0:0:
448,192,224083,128,0,224545:0:0:0:0:
320,192,224198,1,0,0:0:0:0:
64,192,224314,1,8,0:0:0:0:
192,192,224314,1,8,0:0:0:0:
320,192,224429,1,0,0:0:0:0:
192,192,224545,128,0,225237:0:0:0:0:
64,192,224660,1,0,0:0:0:0:
320,192,224775,1,8,0:0:0:0:
448,192,224775,1,8,0:0:0:0:
64,192,224891,1,0,0:0:0:0:
320,192,225006,1,0,0:0:0:0:
448,192,225121,1,0,0:0:0:0:
320,192,225237,128,8,225698:0:0:0:0:
64,192,225237,1,8,0:0:0:0:
448,192,225352,1,0,0:0:0:0:
192,192,225468,1,0,0:0:0:0:
64,192,225583,1,0,0:0:0:0:
448,192,225698,128,8,225929:0:0:0:0:
192,192,225698,1,8,0:0:0:0:
64,192,225814,1,0,0:0:0:0:
192,192,225929,128,0,226391:0:0:0:0:
448,192,226045,1,0,0:0:0:0:
320,192,226160,1,8,0:0:0:0:
64,192,226160,1,8,0:0:0:0:
448,192,226275,1,0,0:0:0:0:
320,192,226391,128,0,226852:0:0:0:0:
448,192,226506,1,0,0:0:0:0:
192,192,226621,1,8,0:0:0:0:
64,192,226621,1,8,0:0:0:0:
448,192,226737,1,0,0:0:0:0:
64,192,226852,128,0,227314:0:0:0:0:
192,192,226968,1,0,0:0:0:0:
320,192,227083,1,8,0:0:0:0:
448,192,227083,1,8,0:0:0:0:
192,192,227198,1,0,0:0:0:0:
448,192,227314,128,0,227775:0:0:0:0:
320,192,227429,1,0,0:0:0:0:
192,192,227545,1,8,0:0:0:0:
64,192,227545,1,8,0:0:0:0:
320,192,227660,1,0,0:0:0:0:
192,192,227775,128,0,229391:0:0:0:0:
64,192,227891,1,0,0:0:0:0:
320,192,228006,1,8,0:0:0:0:
448,192,228006,1,8,0:0:0:0:
64,192,228121,1,0,0:0:0:0:
320,192,228237,1,0,0:0:0:0:
448,192,228352,1,0,0:0:0:0:
64,192,228468,1,8,0:0:0:0:
320,192,228468,1,8,0:0:0:0:
448,192,228698,1,0,0:0:0:0:
320,192,228814,1,0,0:0:0:0:
64,192,228929,1,4,0:0:0:0:
320,192,228929,1,8,0:0:0:0:
448,192,228929,1,8,0:0:0:0:
64,192,229045,1,0,0:0:0:0:
448,192,229160,1,0,0:0:0:0:
320,192,229275,1,0,0:0:0:0:
320,192,229391,1,8,0:0:0:0:
448,192,229391,1,8,0:0:0:0:
64,192,229391,1,4,0:0:0:0:
192,192,229506,128,0,229621:0:0:0:0:
320,192,229621,1,4,0:0:0:0:
448,192,229621,1,4,0:0:0:0:
64,192,229621,128,0,230083:0:0:0:0:
192,192,229737,1,0,0:0:0:0:
448,192,229852,1,8,0:0:0:0:
320,192,229852,1,8,0:0:0:0:
192,192,229968,1,0,0:0:0:0:
320,192,230083,128,0,230775:0:0:0:0:
448,192,230198,1,0,0:0:0:0:
192,192,230314,1,8,0:0:0:0:
64,192,230314,1,8,0:0:0:0:
448,192,230429,1,0,0:0:0:0:
64,192,230545,1,0,0:0:0:0:
192,192,230660,1,0,0:0:0:0:
448,192,230775,1,8,0:0:0:0:
64,192,230775,128,8,230891:0:0:0:0:
320,192,230891,1,0,0:0:0:0:
64,192,231006,128,0,231179:0:0:0:0:
448,192,231121,1,0,0:0:0:0:
192,192,231237,128,8,231468:0:0:0:0:
320,192,231237,1,8,0:0:0:0:
64,192,231352,1,0,0:0:0:0:
448,192,231468,128,0,231929:0:0:0:0:
320,192,231583,1,0,0:0:0:0:
64,192,231698,1,8,0:0:0:0:
192,192,231698,1,8,0:0:0:0:
320,192,231814,1,0,0:0:0:0:
192,192,231929,128,0,232621:0:0:0:0:
64,192,232045,1,0,0:0:0:0:
320,192,232160,1,8,0:0:0:0:
448,192,232160,1,8,0:0:0:0:
64,192,232275,1,0,0:0:0:0:
448,192,232391,1,0,0:0:0:0:
320,192,232506,1,0,0:0:0:0:
64,192,232621,1,8,0:0:0:0:
448,192,232621,1,8,0:0:0:0:
192,192,232737,1,0,0:0:0:0:
448,192,232852,1,8,0:0:0:0:
320,192,232852,1,8,0:0:0:0:
64,192,232929,1,0,0:0:0:0:
448,192,233006,1,0,0:0:0:0:
192,192,233083,1,0,0:0:0:0:
64,192,233160,1,0,0:0:0:0:
320,192,233237,1,0,0:0:0:0:
64,192,233314,1,8,0:0:0:0:
448,192,233314,1,4,0:0:0:0:
192,192,233314,1,8,0:0:0:0:
320,192,233429,1,0,0:0:0:0:
192,192,233545,1,0,0:0:0:0:
320,192,233660,1,0,0:0:0:0:
64,192,233775,1,8,0:0:0:0:
192,192,233775,1,8,0:0:0:0:
448,192,233775,1,4,0:0:0:0:
320,192,233891,1,0,0:0:0:0:
192,192,234006,1,0,0:0:0:0:
320,192,234121,1,0,0:0:0:0:
64,192,234237,1,8,0:0:0:0:
448,192,234237,1,8,0:0:0:0:
192,192,234352,1,0,0:0:0:0:
320,192,234468,1,0,0:0:0:0:
448,192,234583,1,0,0:0:0:0:
192,192,234698,1,8,0:0:0:0:
64,192,234698,1,8,0:0:0:0:
320,192,234814,1,8,0:0:0:0:
448,192,234814,1,8,0:0:0:0:
64,192,234929,1,8,0:0:0:0:
192,192,234929,1,8,0:0:0:0:
320,192,235045,1,8,0:0:0:0:
448,192,235045,1,8,0:0:0:0:
448,192,235160,1,0,0:0:0:0:
192,192,235160,1,4,0:0:0:0:
64,192,235160,1,4,0:0:0:0:
64,192,235275,1,8,0:0:0:0:
320,192,235275,1,8,0:0:0:0:
448,192,235391,1,0,0:0:0:0:
448,192,235506,1,8,0:0:0:0:
192,192,235506,1,8,0:0:0:0:
64,192,235621,1,0,0:0:0:0:
64,192,235737,1,8,0:0:0:0:
320,192,235737,1,8,0:0:0:0:
448,192,235852,128,0,235968:0:0:0:0:
192,192,235968,128,8,236083:0:0:0:0:
320,192,235968,128,8,236083:0:0:0:0:
64,192,236083,128,0,236545:0:0:0:0:
448,192,236198,1,8,0:0:0:0:
192,192,236198,1,8,0:0:0:0:
448,192,236314,1,0,0:0:0:0:
192,192,236429,1,8,0:0:0:0:
320,192,236429,1,8,0:0:0:0:
320,192,236545,128,0,236891:0:0:0:0:
64,192,236660,1,8,0:0:0:0:
192,192,236660,1,8,0:0:0:0:
192,192,236775,1,0,0:0:0:0:
64,192,236891,1,8,0:0:0:0:
448,192,236891,1,8,0:0:0:0:
448,192,237006,128,0,237468:0:0:0:0:
64,192,237121,1,8,0:0:0:0:
320,192,237121,1,8,0:0:0:0:
64,192,237237,1,0,0:0:0:0:
320,192,237352,1,8,0:0:0:0:
192,192,237352,1,8,0:0:0:0:
64,192,237468,128,0,237583:0:0:0:0:
192,192,237583,128,8,237929:0:0:0:0:
448,192,237583,1,8,0:0:0:0:
448,192,237698,1,0,0:0:0:0:
320,192,237814,1,8,0:0:0:0:
64,192,237814,1,8,0:0:0:0:
320,192,237929,128,0,238391:0:0:0:0:
64,192,238045,1,8,0:0:0:0:
448,192,238045,1,8,0:0:0:0:
448,192,238160,1,0,0:0:0:0:
64,192,238275,1,8,0:0:0:0:
192,192,238275,1,8,0:0:0:0:
192,192,238391,128,0,238506:0:0:0:0:
64,192,238506,1,8,0:0:0:0:
448,192,238506,1,8,0:0:0:0:
192,192,238621,1,8,0:0:0:0:
320,192,238621,1,8,0:0:0:0:
448,192,238737,1,8,0:0:0:0:
64,192,238737,1,8,0:0:0:0:
448,192,238852,128,0,239314:0:0:0:0:
320,192,238852,1,4,0:0:0:0:
192,192,238852,1,4,0:0:0:0:
64,192,238968,1,8,0:0:0:0:
320,192,238968,1,8,0:0:0:0:
64,192,239083,1,0,0:0:0:0:
320,192,239198,1,8,0:0:0:0:
192,192,239198,1,8,0:0:0:0:
192,192,239314,128,0,239775:0:0:0:0:
320,192,239429,1,8,0:0:0:0:
448,192,239429,1,8,0:0:0:0:
448,192,239545,1,0,0:0:0:0:
64,192,239660,1,8,0:0:0:0:
320,192,239660,1,8,0:0:0:0:
320,192,239775,128,0,240006:0:0:0:0:
448,192,239891,1,8,0:0:0:0:
64,192,239891,1,8,0:0:0:0:
64,192,240006,128,0,240064:0:0:0:0:
448,192,240064,128,0,240121:0:0:0:0:
192,192,240121,128,8,240179:0:0:0:0:
320,192,240121,1,8,0:0:0:0:
448,192,240237,128,0,240352:0:0:0:0:
192,192,240352,1,8,0:0:0:0:
64,192,240352,1,8,0:0:0:0:
448,192,240468,1,8,0:0:0:0:
320,192,240468,1,8,0:0:0:0:
64,192,240583,1,8,0:0:0:0:
192,192,240583,1,8,0:0:0:0:
64,192,240698,128,0,241737:0:0:0:0:
320,192,240814,1,8,0:0:0:0:
448,192,240814,1,8,0:0:0:0:
448,192,240929,1,0,0:0:0:0:
192,192,241045,1,8,0:0:0:0:
320,192,241045,1,8,0:0:0:0:
192,192,241160,1,0,0:0:0:0:
320,192,241275,1,8,0:0:0:0:
448,192,241275,1,8,0:0:0:0:
320,192,241391,1,0,0:0:0:0:
192,192,241506,1,8,0:0:0:0:
448,192,241506,1,8,0:0:0:0:
192,192,241621,1,0,0:0:0:0:
320,192,241737,1,8,0:0:0:0:
448,192,241737,1,8,0:0:0:0:
64,192,241852,1,8,0:0:0:0:
192,192,241852,1,8,0:0:0:0:
320,192,241968,1,8,0:0:0:0:
448,192,241968,1,8,0:0:0:0:
64,192,242083,1,8,0:0:0:0:
448,192,242083,1,8,0:0:0:0:
192,192,242160,1,0,0:0:0:0:
320,192,242237,1,0,0:0:0:0:
64,192,242314,1,0,0:0:0:0:
448,192,242391,1,0,0:0:0:0:
192,192,242468,1,0,0:0:0:0:
448,192,242545,1,4,0:0:0:0:
320,192,242545,1,4,0:0:0:0:
64,192,242545,1,0,0:0:0:0:
192,192,242621,1,0,0:0:0:0:
320,192,242698,1,0,0:0:0:0:
448,192,242775,1,0,0:0:0:0:
64,192,242852,1,0,0:0:0:0:
192,192,242929,1,0,0:0:0:0:
320,192,243006,1,8,0:0:0:0:
448,192,243006,1,8,0:0:0:0:
64,192,243083,1,0,0:0:0:0:
192,192,243160,1,0,0:0:0:0:
320,192,243237,1,0,0:0:0:0:
64,192,243314,1,0,0:0:0:0:
192,192,243391,1,0,0:0:0:0:
448,192,243468,1,0,0:0:0:0:
320,192,243545,1,0,0:0:0:0:
192,192,243621,1,0,0:0:0:0:
64,192,243698,1,0,0:0:0:0:
448,192,243775,1,0,0:0:0:0:
320,192,243852,1,0,0:0:0:0:
192,192,243929,1,8,0:0:0:0:
64,192,243929,1,8,0:0:0:0:
448,192,244006,1,0,0:0:0:0:
320,192,244083,1,0,0:0:0:0:
192,192,244160,1,0,0:0:0:0:
64,192,244237,1,0,0:0:0:0:
192,192,244314,1,0,0:0:0:0:
64,192,244391,1,0,0:0:0:0:
320,192,244391,1,4,0:0:0:0:
448,192,244391,1,4,0:0:0:0:
192,192,244468,1,0,0:0:0:0:
320,192,244545,1,0,0:0:0:0:
448,192,244621,1,0,0:0:0:0:
64,192,244698,1,0,0:0:0:0:
192,192,244775,1,0,0:0:0:0:
320,192,244852,1,8,0:0:0:0:
64,192,244852,1,8,0:0:0:0:
448,192,244929,1,0,0:0:0:0:
192,192,245006,1,0,0:0:0:0:
320,192,245083,1,0,0:0:0:0:
64,192,245160,1,0,0:0:0:0:
192,192,245237,1,0,0:0:0:0:
448,192,245314,1,0,0:0:0:0:
320,192,245391,1,0,0:0:0:0:
64,192,245468,1,0,0:0:0:0:
192,192,245545,1,0,0:0:0:0:
448,192,245621,1,0,0:0:0:0:
320,192,245698,1,0,0:0:0:0:
64,192,245775,1,8,0:0:0:0:
448,192,245775,1,4,0:0:0:0:
192,192,245775,1,8,0:0:0:0:
320,192,245852,1,0,0:0:0:0:
448,192,245929,1,0,0:0:0:0:
192,192,246006,1,0,0:0:0:0:
64,192,246083,1,0,0:0:0:0:
448,192,246160,1,0,0:0:0:0:
320,192,246237,1,8,0:0:0:0:
192,192,246237,1,8,0:0:0:0:
64,192,246314,1,0,0:0:0:0:
448,192,246391,1,0,0:0:0:0:
192,192,246468,1,0,0:0:0:0:
320,192,246545,1,0,0:0:0:0:
448,192,246621,1,0,0:0:0:0:
192,192,246698,1,0,0:0:0:0:
448,192,246775,1,0,0:0:0:0:
64,192,246852,1,0,0:0:0:0:
320,192,246929,1,0,0:0:0:0:
192,192,247006,1,0,0:0:0:0:
64,192,247083,1,0,0:0:0:0:
320,192,247160,1,8,0:0:0:0:
448,192,247160,1,8,0:0:0:0:
192,192,247237,1,0,0:0:0:0:
320,192,247314,1,0,0:0:0:0:
64,192,247391,1,0,0:0:0:0:
192,192,247468,1,0,0:0:0:0:
320,192,247545,1,0,0:0:0:0:
448,192,247621,1,4,0:0:0:0:
64,192,247621,1,8,0:0:0:0:
192,192,247621,1,8,0:0:0:0:
192,192,247775,1,0,0:0:0:0:
320,192,247775,1,0,0:0:0:0:
192,192,247929,1,0,0:0:0:0:
320,192,247929,1,0,0:0:0:0:
64,192,248083,1,0,0:0:0:0:
320,192,248083,1,4,0:0:0:0:
448,192,248083,128,4,249929:0:0:0:0:
64,192,249929,1,4,0:0:0:0:
192,192,249929,1,4,0:0:0:0:
320,192,249929,1,0,0:0:0:0:
320,192,250045,1,8,0:0:0:0:
448,192,250045,1,8,0:0:0:0:
64,192,250160,128,2,250275:0:0:0:0:
192,192,250275,128,10,250391:0:0:0:0:
320,192,250275,1,8,0:0:0:0:
448,192,250391,1,0,0:0:0:0:
320,192,250506,128,10,250621:0:0:0:0:
64,192,250506,1,0,0:0:0:0:
448,192,250621,128,2,250737:0:0:0:0:
64,192,250737,1,8,0:0:0:0:
192,192,250737,1,8,0:0:0:0:
320,192,250852,128,2,250968:0:0:0:0:
64,192,250968,128,10,251083:0:0:0:0:
448,192,250968,1,8,0:0:0:0:
320,192,251083,1,0,0:0:0:0:
192,192,251198,128,10,251314:0:0:0:0:
64,192,251198,1,8,0:0:0:0:
448,192,251314,1,0,0:0:0:0:
320,192,251429,1,8,0:0:0:0:
64,192,251429,1,8,0:0:0:0:
192,192,251545,128,2,251660:0:0:0:0:
448,192,251660,128,10,251775:0:0:0:0:
64,192,251660,1,8,0:0:0:0:
320,192,251775,1,0,0:0:0:0:
192,192,251891,1,8,0:0:0:0:
64,192,251891,1,8,0:0:0:0:
448,192,252006,128,2,252121:0:0:0:0:
320,192,252121,128,10,252237:0:0:0:0:
192,192,252121,1,8,0:0:0:0:
64,192,252237,1,0,0:0:0:0:
192,192,252352,128,10,252468:0:0:0:0:
448,192,252352,1,8,0:0:0:0:
64,192,252468,128,2,252583:0:0:0:0:
448,192,252583,1,8,0:0:0:0:
320,192,252583,1,8,0:0:0:0:
192,192,252698,128,2,252814:0:0:0:0:
448,192,252814,128,10,252929:0:0:0:0:
64,192,252814,1,8,0:0:0:0:
192,192,252929,1,0,0:0:0:0:
320,192,253045,128,10,253160:0:0:0:0:
448,192,253045,1,8,0:0:0:0:
192,192,253160,1,0,0:0:0:0:
448,192,253275,1,8,0:0:0:0:
64,192,253275,1,8,0:0:0:0:
320,192,253391,128,10,253506:0:0:0:0:
192,192,253391,1,8,0:0:0:0:
64,192,253506,128,10,253621:0:0:0:0:
448,192,253506,1,8,0:0:0:0:
192,192,253621,1,0,0:0:0:0:
320,192,253621,1,4,0:0:0:0:
448,192,253621,1,4,0:0:0:0:
192,192,253737,1,8,0:0:0:0:
64,192,253737,1,8,0:0:0:0:
448,192,253852,128,2,253968:0:0:0:0:
320,192,253968,1,8,0:0:0:0:
192,192,253968,1,8,0:0:0:0:
64,192,254083,1,0,0:0:0:0:
320,192,254198,128,10,254314:0:0:0:0:
448,192,254198,1,8,0:0:0:0:
64,192,254314,1,0,0:0:0:0:
320,192,254429,1,8,0:0:0:0:
448,192,254429,1,8,0:0:0:0:
64,192,254545,128,2,254660:0:0:0:0:
320,192,254660,1,8,0:0:0:0:
192,192,254660,1,8,0:0:0:0:
448,192,254775,1,0,0:0:0:0:
192,192,254891,128,10,255006:0:0:0:0:
64,192,254891,1,8,0:0:0:0:
448,192,255006,1,0,0:0:0:0:
192,192,255121,1,8,0:0:0:0:
64,192,255121,1,8,0:0:0:0:
320,192,255237,128,2,255352:0:0:0:0:
448,192,255352,1,8,0:0:0:0:
192,192,255352,128,10,255468:0:0:0:0:
64,192,255468,1,0,0:0:0:0:
320,192,255468,1,4,0:0:0:0:
448,192,255468,1,4,0:0:0:0:
64,192,255583,1,8,0:0:0:0:
192,192,255583,1,8,0:0:0:0:
448,192,255698,128,2,255814:0:0:0:0:
320,192,255814,1,8,0:0:0:0:
192,192,255814,1,8,0:0:0:0:
64,192,255929,1,0,0:0:0:0:
448,192,256045,128,10,256160:0:0:0:0:
320,192,256045,1,8,0:0:0:0:
192,192,256160,1,0,0:0:0:0:
320,192,256275,128,10,256391:0:0:0:0:
64,192,256275,1,8,0:0:0:0:
448,192,256391,128,2,256506:0:0:0:0:
64,192,256506,1,8,0:0:0:0:
320,192,256506,1,8,0:0:0:0:
320,192,256621,1,8,0:0:0:0:
64,192,256621,1,8,0:0:0:0:
192,192,256737,1,8,0:0:0:0:
448,192,256737,1,8,0:0:0:0:
448,192,256852,1,8,0:0:0:0:
192,192,256852,1,8,0:0:0:0:
64,192,256929,1,0,0:0:0:0:
320,192,257006,1,0,0:0:0:0:
192,192,257083,1,0,0:0:0:0:
448,192,257160,1,0,0:0:0:0:
320,192,257237,1,0,0:0:0:0:
448,192,257314,1,0,0:0:0:0:
192,192,257314,1,4,0:0:0:0:
64,192,257314,1,4,0:0:0:0:
320,192,257429,1,8,0:0:0:0:
192,192,257429,1,8,0:0:0:0:
64,192,257545,128,2,257660:0:0:0:0:
192,192,257660,128,10,257775:0:0:0:0:
320,192,257660,1,8,0:0:0:0:
448,192,257775,1,0,0:0:0:0:
320,192,257891,128,10,258006:0:0:0:0:
64,192,257891,1,8,0:0:0:0:
448,192,258006,128,2,258121:0:0:0:0:
64,192,258121,1,8,0:0:0:0:
192,192,258121,1,8,0:0:0:0:
320,192,258237,128,2,258352:0:0:0:0:
64,192,258352,128,10,258468:0:0:0:0:
448,192,258352,1,8,0:0:0:0:
320,192,258468,1,0,0:0:0:0:
192,192,258583,128,10,258698:0:0:0:0:
64,192,258583,1,8,0:0:0:0:
448,192,258698,1,0,0:0:0:0:
320,192,258814,1,8,0:0:0:0:
64,192,258814,1,8,0:0:0:0:
192,192,258929,128,2,259045:0:0:0:0:
448,192,259045,128,10,259160:0:0:0:0:
64,192,259045,1,8,0:0:0:0:
320,192,259160,1,0,0:0:0:0:
192,192,259275,1,8,0:0:0:0:
64,192,259275,1,8,0:0:0:0:
448,192,259391,128,2,259506:0:0:0:0:
320,192,259506,128,10,259621:0:0:0:0:
192,192,259506,1,8,0:0:0:0:
64,192,259621,1,0,0:0:0:0:
192,192,259737,128,10,259852:0:0:0:0:
448,192,259737,1,8,0:0:0:0:
64,192,259852,128,2,259968:0:0:0:0:
448,192,259968,1,8,0:0:0:0:
320,192,259968,1,8,0:0:0:0:
192,192,260083,128,2,260198:0:0:0:0:
448,192,260198,128,10,260314:0:0:0:0:
64,192,260198,1,8,0:0:0:0:
192,192,260314,1,0,0:0:0:0:
320,192,260429,128,10,260545:0:0:0:0:
448,192,260429,1,8,0:0:0:0:
192,192,260545,1,0,0:0:0:0:
448,192,260660,1,8,0:0:0:0:
64,192,260660,1,8,0:0:0:0:
320,192,260775,128,2,260891:0:0:0:0:
64,192,260891,128,10,261006:0:0:0:0:
448,192,260891,1,8,0:0:0:0:
192,192,261006,1,0,0:0:0:0:
320,192,261006,1,4,0:0:0:0:
448,192,261006,1,4,0:0:0:0:
192,192,261121,1,8,0:0:0:0:
64,192,261121,1,8,0:0:0:0:
448,192,261237,128,2,261352:0:0:0:0:
320,192,261352,1,8,0:0:0:0:
192,192,261352,1,8,0:0:0:0:
64,192,261468,1,0,0:0:0:0:
320,192,261583,128,10,261698:0:0:0:0:
448,192,261583,1,8,0:0:0:0:
64,192,261698,1,0,0:0:0:0:
320,192,261814,1,8,0:0:0:0:
448,192,261814,1,8,0:0:0:0:
64,192,261929,128,2,262045:0:0:0:0:
320,192,262045,1,8,0:0:0:0:
192,192,262045,1,8,0:0:0:0:
448,192,262160,1,0,0:0:0:0:
192,192,262275,128,10,262391:0:0:0:0:
64,192,262275,1,8,0:0:0:0:
448,192,262391,1,0,0:0:0:0:
192,192,262506,1,8,0:0:0:0:
64,192,262506,1,8,0:0:0:0:
320,192,262621,128,2,262737:0:0:0:0:
448,192,262621,1,8,0:0:0:0:
192,192,262737,128,10,262852:0:0:0:0:
64,192,262737,1,8,0:0:0:0:
320,192,262852,1,8,0:0:0:0:
448,192,262852,1,8,0:0:0:0:
192,192,262968,1,8,0:0:0:0:
64,192,262968,1,8,0:0:0:0:
448,192,263083,1,8,0:0:0:0:
320,192,263083,1,8,0:0:0:0:
192,192,263198,1,8,0:0:0:0:
64,192,263198,1,8,0:0:0:0:
448,192,263314,1,8,0:0:0:0:
320,192,263314,1,8,0:0:0:0:
192,192,263391,1,0,0:0:0:0:
64,192,263468,1,0,0:0:0:0:
448,192,263545,1,0,0:0:0:0:
192,192,263621,1,0,0:0:0:0:
320,192,263698,1,0,0:0:0:0:
64,192,263775,1,8,0:0:0:0:
448,192,263775,1,4,0:0:0:0:
192,192,263775,1,8,0:0:0:0:
320,192,263891,1,0,0:0:0:0:
448,192,264006,1,0,0:0:0:0:
64,192,264121,1,8,0:0:0:0:
320,192,264121,1,8,0:0:0:0:
192,192,264237,1,0,0:0:0:0:
320,192,264352,1,0,0:0:0:0:
448,192,264468,1,0,0:0:0:0:
64,192,264583,1,0,0:0:0:0:
192,192,264698,1,8,0:0:0:0:
320,192,264698,1,8,0:0:0:0:
448,192,264698,128,4,265621:0:0:0:0:
64,192,264814,1,0,0:0:0:0:
192,192,264929,1,0,0:0:0:0:
320,192,265045,1,0,0:0:0:0:
64,192,265160,1,8,0:0:0:0:
192,192,265160,1,8,0:0:0:0:
320,192,265275,1,0,0:0:0:0:
192,192,265391,1,0,0:0:0:0:
64,192,265506,1,0,0:0:0:0:
320,192,265621,128,8,265968:0:0:0:0:
192,192,265621,1,8,0:0:0:0:
448,192,265737,1,0,0:0:0:0:
64,192,265852,1,0,0:0:0:0:
192,192,265968,128,0,266314:0:0:0:0:
64,192,266083,1,8,0:0:0:0:
448,192,266083,1,8,0:0:0:0:
320,192,266198,1,0,0:0:0:0:
64,192,266314,128,0,266429:0:0:0:0:
192,192,266429,128,0,266545:0:0:0:0:
320,192,266545,128,8,267237:0:0:0:0:
448,192,266545,128,8,266660:0:0:0:0:
64,192,266545,1,4,0:0:0:0:
192,192,266660,1,0,0:0:0:0:
64,192,266775,1,0,0:0:0:0:
448,192,266891,1,0,0:0:0:0:
192,192,267006,1,8,0:0:0:0:
64,192,267006,1,8,0:0:0:0:
448,192,267121,1,0,0:0:0:0:
64,192,267237,128,0,267929:0:0:0:0:
192,192,267352,1,0,0:0:0:0:
320,192,267468,1,8,0:0:0:0:
448,192,267468,1,8,0:0:0:0:
192,192,267583,1,0,0:0:0:0:
320,192,267698,1,0,0:0:0:0:
448,192,267814,1,0,0:0:0:0:
192,192,267929,128,4,268045:0:0:0:0:
320,192,267929,128,0,268391:0:0:0:0:
448,192,267929,1,8,0:0:0:0:
64,192,268045,1,0,0:0:0:0:
448,192,268160,1,0,0:0:0:0:
192,192,268275,1,0,0:0:0:0:
64,192,268391,1,8,0:0:0:0:
192,192,268391,1,8,0:0:0:0:
448,192,268391,128,4,269314:0:0:0:0:
320,192,268506,1,0,0:0:0:0:
64,192,268621,1,0,0:0:0:0:
192,192,268737,1,0,0:0:0:0:
320,192,268852,1,8,0:0:0:0:
64,192,268852,1,8,0:0:0:0:
192,192,268968,1,0,0:0:0:0:
320,192,269083,1,0,0:0:0:0:
64,192,269198,1,0,0:0:0:0:
320,192,269314,1,4,0:0:0:0:
64,192,269314,1,8,0:0:0:0:
192,192,269314,1,8,0:0:0:0:
448,192,269429,1,0,0:0:0:0:
320,192,269545,1,8,0:0:0:0:
64,192,269545,1,8,0:0:0:0:
192,192,269660,1,8,0:0:0:0:
448,192,269660,1,8,0:0:0:0:
320,192,269775,1,8,0:0:0:0:
448,192,269775,1,8,0:0:0:0:
64,192,269775,1,4,0:0:0:0:
192,192,269891,1,0,0:0:0:0:
448,192,270006,1,0,0:0:0:0:
320,192,270121,1,0,0:0:0:0:
64,192,270237,1,4,0:0:0:0:
192,192,270237,1,4,0:0:0:0:
448,192,270237,1,0,0:0:0:0:
320,192,270314,1,0,0:0:0:0:
192,192,270391,1,0,0:0:0:0:
64,192,270468,1,0,0:0:0:0:
448,192,270545,1,0,0:0:0:0:
320,192,270621,1,0,0:0:0:0:
192,192,270698,1,4,0:0:0:0:
64,192,270698,1,8,0:0:0:0:
448,192,270775,1,0,0:0:0:0:
320,192,270852,1,0,0:0:0:0:
64,192,270929,1,0,0:0:0:0:
192,192,271006,1,0,0:0:0:0:
320,192,271083,1,0,0:0:0:0:
448,192,271160,1,4,0:0:0:0:
64,192,271160,1,8,0:0:0:0:
192,192,271237,1,0,0:0:0:0:
320,192,271314,1,0,0:0:0:0:
448,192,271391,1,0,0:0:0:0:
64,192,271468,1,0,0:0:0:0:
192,192,271545,1,0,0:0:0:0:
320,192,271621,1,8,0:0:0:0:
448,192,271621,1,8,0:0:0:0:
192,192,271737,1,8,0:0:0:0:
64,192,271737,1,8,0:0:0:0:
320,192,271852,1,8,0:0:0:0:
448,192,271852,1,8,0:0:0:0:
192,192,271968,1,8,0:0:0:0:
64,192,271968,1,8,0:0:0:0:
448,192,272083,1,0,0:0:0:0:
320,192,272160,1,0,0:0:0:0:
192,192,272237,1,0,0:0:0:0:
64,192,272314,1,4,0:0:0:0:
320,192,272314,1,8,0:0:0:0:
448,192,272314,1,8,0:0:0:0:
64,192,272545,1,0,0:0:0:0:
192,192,272621,1,0,0:0:0:0:
320,192,272698,1,0,0:0:0:0:
448,192,272775,1,4,0:0:0:0:
192,192,272775,1,8,0:0:0:0:
64,192,272775,1,8,0:0:0:0:
320,192,273006,1,0,0:0:0:0:
192,192,273083,1,0,0:0:0:0:
448,192,273160,1,0,0:0:0:0:
64,192,273237,1,8,0:0:0:0:
320,192,273237,1,4,0:0:0:0:
192,192,273237,1,8,0:0:0:0:
448,192,273391,1,0,0:0:0:0:
192,192,273468,1,0,0:0:0:0:
320,192,273545,1,0,0:0:0:0:
64,192,273621,1,0,0:0:0:0:
320,192,273698,1,8,0:0:0:0:
192,192,273698,1,8,0:0:0:0:
448,192,273698,1,4,0:0:0:0:
448,192,273929,1,0,0:0:0:0:
192,192,274006,1,0,0:0:0:0:
320,192,274083,1,0,0:0:0:0:
64,192,274160,1,8,0:0:0:0:
448,192,274160,1,4,0:0:0:0:
192,192,274160,1,8,0:0:0:0:
64,192,274391,1,0,0:0:0:0:
320,192,274468,1,0,0:0:0:0:
192,192,274545,1,0,0:0:0:0:
64,192,274621,1,4,0:0:0:0:
448,192,274621,1,8,0:0:0:0:
320,192,274621,1,8,0:0:0:0:
64,192,274852,1,0,0:0:0:0:
320,192,274929,1,0,0:0:0:0:
448,192,275006,1,0,0:0:0:0:
192,192,275083,1,8,0:0:0:0:
64,192,275083,1,8,0:0:0:0:
320,192,275083,1,4,0:0:0:0:
448,192,275198,1,0,0:0:0:0:
192,192,275314,1,8,0:0:0:0:
64,192,275314,1,8,0:0:0:0:
320,192,275429,1,0,0:0:0:0:
64,192,275545,1,0,0:0:0:0:
192,192,275660,1,0,0:0:0:0:
448,192,275775,128,4,276698:0:0:0:0:
64,192,275775,1,0,0:0:0:0:
320,192,275775,1,4,0:0:0:0:
192,192,275891,1,0,0:0:0:0:
64,192,276006,1,0,0:0:0:0:
320,192,276121,1,0,0:0:0:0:
64,192,276237,1,8,0:0:0:0:
192,192,276237,1,8,0:0:0:0:
320,192,276237,1,4,0:0:0:0:
192,192,276352,1,0,0:0:0:0:
320,192,276468,1,0,0:0:0:0:
64,192,276583,1,0,0:0:0:0:
192,192,276698,128,4,277045:0:0:0:0:
320,192,276698,1,0,0:0:0:0:
64,192,276698,1,4,0:0:0:0:
320,192,276814,1,8,0:0:0:0:
448,192,276814,1,8,0:0:0:0:
64,192,276929,1,0,0:0:0:0:
64,192,277045,128,0,277391:0:0:0:0:
192,192,277160,1,4,0:0:0:0:
320,192,277160,1,8,0:0:0:0:
448,192,277160,1,8,0:0:0:0:
448,192,277275,1,0,0:0:0:0:
320,192,277391,128,0,277621:0:0:0:0:
192,192,277506,1,0,0:0:0:0:
448,192,277621,1,4,0:0:0:0:
64,192,277621,1,8,0:0:0:0:
192,192,277621,1,8,0:0:0:0:
320,192,277737,1,0,0:0:0:0:
192,192,277852,1,0,0:0:0:0:
320,192,277968,1,8,0:0:0:0:
448,192,277968,1,8,0:0:0:0:
64,192,277968,1,4,0:0:0:0:
192,192,278083,1,0,0:0:0:0:
320,192,278198,1,0,0:0:0:0:
192,192,278314,1,8,0:0:0:0:
64,192,278314,1,8,0:0:0:0:
448,192,278314,1,4,0:0:0:0:
320,192,278429,1,0,0:0:0:0:
64,192,278545,1,8,0:0:0:0:
448,192,278545,1,8,0:0:0:0:
320,192,278660,1,8,0:0:0:0:
192,192,278660,1,8,0:0:0:0:
64,192,278775,1,8,0:0:0:0:
448,192,278775,1,8,0:0:0:0:
192,192,278891,1,8,0:0:0:0:
320,192,278891,1,8,0:0:0:0:
64,192,279006,1,8,0:0:0:0:
448,192,279006,1,8,0:0:0:0:
448,192,279121,1,8,0:0:0:0:
64,192,279121,1,8,0:0:0:0:
192,192,279237,1,8,0:0:0:0:
320,192,279237,1,8,0:0:0:0:
192,192,279352,1,8,0:0:0:0:
320,192,279352,1,8,0:0:0:0:
448,192,279468,1,4,0:0:0:0:
64,192,279468,1,0,0:0:0:0:
320,192,279468,128,4,279814:0:0:0:0:
192,192,279583,1,0,0:0:0:0:
448,192,279698,1,8,0:0:0:0:
64,192,279698,1,8,0:0:0:0:
192,192,279814,128,0,280160:0:0:0:0:
320,192,279929,1,0,0:0:0:0:
64,192,280045,1,0,0:0:0:0:
448,192,280160,128,8,280391:0:0:0:0:
320,192,280160,1,8,0:0:0:0:
64,192,280275,1,0,0:0:0:0:
192,192,280391,128,0,280506:0:0:0:0:
64,192,280506,128,0,280737:0:0:0:0:
320,192,280621,1,8,0:0:0:0:
448,192,280621,1,8,0:0:0:0:
192,192,280737,128,0,281083:0:0:0:0:
64,192,280852,1,0,0:0:0:0:
448,192,280968,1,0,0:0:0:0:
320,192,281083,128,8,281314:0:0:0:0:
64,192,281083,1,8,0:0:0:0:
192,192,281198,1,0,0:0:0:0:
448,192,281314,128,0,281660:0:0:0:0:
320,192,281429,1,0,0:0:0:0:
192,192,281545,1,8,0:0:0:0:
64,192,281545,1,8,0:0:0:0:
320,192,281660,128,0,282006:0:0:0:0:
448,192,281775,1,0,0:0:0:0:
64,192,281891,1,0,0:0:0:0:
192,192,282006,128,8,282237:0:0:0:0:
448,192,282006,1,8,0:0:0:0:
320,192,282121,1,0,0:0:0:0:
64,192,282237,128,0,282468:0:0:0:0:
448,192,282352,1,0,0:0:0:0:
320,192,282468,1,8,0:0:0:0:
192,192,282468,1,8,0:0:0:0:
448,192,282583,1,0,0:0:0:0:
64,192,282698,1,0,0:0:0:0:
192,192,282814,1,0,0:0:0:0:
64,192,282871,1,0,0:0:0:0:
448,192,282929,1,8,0:0:0:0:
320,192,282929,1,8,0:0:0:0:
192,192,283045,1,0,0:0:0:0:
448,192,283160,128,0,283506:0:0:0:0:
320,192,283275,1,0,0:0:0:0:
64,192,283391,1,8,0:0:0:0:
192,192,283391,1,8,0:0:0:0:
320,192,283506,128,0,283852:0:0:0:0:
448,192,283621,1,0,0:0:0:0:
192,192,283737,1,0,0:0:0:0:
64,192,283852,128,8,284083:0:0:0:0:
448,192,283852,1,8,0:0:0:0:
320,192,283968,1,0,0:0:0:0:
192,192,284083,128,0,284429:0:0:0:0:
64,192,284198,1,0,0:0:0:0:
320,192,284314,1,8,0:0:0:0:
448,192,284314,1,8,0:0:0:0:
64,192,284429,128,0,284775:0:0:0:0:
192,192,284545,1,0,0:0:0:0:
320,192,284660,1,0,0:0:0:0:
448,192,284775,128,8,285006:0:0:0:0:
192,192,284775,1,8,0:0:0:0:
64,192,284891,1,0,0:0:0:0:
192,192,285006,128,0,285121:0:0:0:0:
320,192,285121,128,0,285352:0:0:0:0:
448,192,285237,1,8,0:0:0:0:
64,192,285237,1,8,0:0:0:0:
192,192,285352,128,0,285698:0:0:0:0:
64,192,285468,1,0,0:0:0:0:
448,192,285583,1,0,0:0:0:0:
64,192,285698,128,8,285929:0:0:0:0:
320,192,285698,1,8,0:0:0:0:
192,192,285814,1,0,0:0:0:0:
448,192,285929,1,0,0:0:0:0:
320,192,286045,1,0,0:0:0:0:
192,192,286160,1,8,0:0:0:0:
64,192,286160,1,8,0:0:0:0:
448,192,286160,1,4,0:0:0:0:
320,192,286275,1,0,0:0:0:0:
64,192,286391,1,0,0:0:0:0:
192,192,286506,1,0,0:0:0:0:
64,192,286621,1,4,0:0:0:0:
448,192,286621,1,8,0:0:0:0:
320,192,286621,1,8,0:0:0:0:
192,192,286737,1,0,0:0:0:0:
64,192,286852,1,0,0:0:0:0:
320,192,286852,1,4,0:0:0:0:
448,192,286852,128,4,286968:0:0:0:0:
192,192,286968,1,0,0:0:0:0:
64,192,287083,1,8,0:0:0:0:
448,192,287083,128,8,287198:0:0:0:0:
320,192,287198,128,0,287545:0:0:0:0:
64,192,287314,1,0,0:0:0:0:
192,192,287429,1,0,0:0:0:0:
448,192,287545,128,8,287775:0:0:0:0:
64,192,287545,1,8,0:0:0:0:
320,192,287660,1,0,0:0:0:0:
192,192,287775,128,0,287891:0:0:0:0:
64,192,287891,128,0,288121:0:0:0:0:
320,192,288006,1,8,0:0:0:0:
448,192,288006,1,8,0:0:0:0:
192,192,288121,128,0,288468:0:0:0:0:
448,192,288237,1,0,0:0:0:0:
320,192,288352,1,0,0:0:0:0:
448,192,288468,128,8,288698:0:0:0:0:
64,192,288468,1,8,0:0:0:0:
192,192,288583,1,0,0:0:0:0:
64,192,288698,128,0,289045:0:0:0:0:
320,192,288814,1,0,0:0:0:0:
192,192,288929,1,8,0:0:0:0:
448,192,288929,1,8,0:0:0:0:
320,192,289045,128,0,289391:0:0:0:0:
64,192,289160,1,0,0:0:0:0:
192,192,289275,1,0,0:0:0:0:
448,192,289391,128,8,289621:0:0:0:0:
64,192,289391,1,8,0:0:0:0:
320,192,289506,1,0,0:0:0:0:
192,192,289621,128,0,289968:0:0:0:0:
64,192,289737,1,0,0:0:0:0:
320,192,289852,1,8,0:0:0:0:
448,192,289852,1,8,0:0:0:0:
64,192,289968,128,0,290314:0:0:0:0:
192,192,290083,1,0,0:0:0:0:
448,192,290198,1,0,0:0:0:0:
320,192,290314,128,8,290545:0:0:0:0:
192,192,290314,1,8,0:0:0:0:
448,192,290429,1,0,0:0:0:0:
64,192,290545,1,4,0:0:0:0:
448,192,290545,1,0,0:0:0:0:
192,192,290545,128,4,290660:0:0:0:0:
320,192,290660,1,0,0:0:0:0:
64,192,290775,1,8,0:0:0:0:
192,192,290775,128,8,290891:0:0:0:0:
448,192,290891,128,0,291237:0:0:0:0:
64,192,291006,1,0,0:0:0:0:
320,192,291121,1,0,0:0:0:0:
64,192,291237,128,8,291468:0:0:0:0:
192,192,291237,1,8,0:0:0:0:
448,192,291352,1,0,0:0:0:0:
320,192,291468,128,4,291814:0:0:0:0:
192,192,291468,1,0,0:0:0:0:
448,192,291468,1,4,0:0:0:0:
64,192,291583,1,0,0:0:0:0:
192,192,291698,1,8,0:0:0:0:
448,192,291698,1,8,0:0:0:0:
64,192,291814,128,0,292160:0:0:0:0:
448,192,291929,1,0,0:0:0:0:
192,192,292045,1,0,0:0:0:0:
448,192,292160,128,8,292391:0:0:0:0:
320,192,292160,1,8,0:0:0:0:
64,192,292275,1,0,0:0:0:0:
64,192,292391,1,4,0:0:0:0:
192,192,292391,1,4,0:0:0:0:
320,192,292391,1,0,0:0:0:0:
448,192,292506,1,0,0:0:0:0:
192,192,292621,1,8,0:0:0:0:
64,192,292621,1,8,0:0:0:0:
320,192,292737,1,0,0:0:0:0:
448,192,292852,1,0,0:0:0:0:
192,192,292968,1,0,0:0:0:0:
448,192,293083,1,8,0:0:0:0:
64,192,293083,1,8,0:0:0:0:
320,192,293198,1,0,0:0:0:0:
64,192,293314,1,0,0:0:0:0:
320,192,293429,1,8,0:0:0:0:
192,192,293429,1,8,0:0:0:0:
448,192,293545,1,8,0:0:0:0:
64,192,293545,1,8,0:0:0:0:
192,192,293660,1,0,0:0:0:0:
320,192,293775,128,0,293891:0:0:0:0:
448,192,293891,128,0,294006:0:0:0:0:
64,192,294006,128,0,294121:0:0:0:0:
320,192,294121,128,0,294237:0:0:0:0:
64,192,294237,1,4,0:0:0:0:
448,192,294237,1,0,0:0:0:0:
192,192,294237,128,4,294583:0:0:0:0:
320,192,294352,1,0,0:0:0:0:
64,192,294468,1,8,0:0:0:0:
448,192,294468,1,8,0:0:0:0:
320,192,294583,128,0,294929:0:0:0:0:
64,192,294698,1,0,0:0:0:0:
448,192,294814,1,0,0:0:0:0:
192,192,294929,128,8,295160:0:0:0:0:
64,192,294929,1,8,0:0:0:0:
448,192,295045,1,0,0:0:0:0:
320,192,295160,128,0,295275:0:0:0:0:
448,192,295275,128,0,295506:0:0:0:0:
192,192,295391,1,8,0:0:0:0:
64,192,295391,1,8,0:0:0:0:
320,192,295506,128,0,295852:0:0:0:0:
448,192,295621,1,0,0:0:0:0:
64,192,295737,1,0,0:0:0:0:
192,192,295852,128,8,296083:0:0:0:0:
448,192,295852,1,8,0:0:0:0:
320,192,295968,1,0,0:0:0:0:
64,192,296083,128,0,296429:0:0:0:0:
448,192,296083,128,0,296198:0:0:0:0:
192,192,296198,1,0,0:0:0:0:
320,192,296314,1,8,0:0:0:0:
448,192,296314,1,8,0:0:0:0:
192,192,296429,128,0,296775:0:0:0:0:
64,192,296545,1,0,0:0:0:0:
448,192,296660,1,0,0:0:0:0:
320,192,296775,128,8,297006:0:0:0:0:
64,192,296775,1,8,0:0:0:0:
192,192,296891,1,0,0:0:0:0:
448,192,297006,128,0,297237:0:0:0:0:
64,192,297121,1,0,0:0:0:0:
192,192,297237,1,8,0:0:0:0:
320,192,297237,1,8,0:0:0:0:
64,192,297352,1,0,0:0:0:0:
448,192,297468,1,0,0:0:0:0:
320,192,297583,1,0,0:0:0:0:
448,192,297641,1,0,0:0:0:0:
64,192,297698,1,8,0:0:0:0:
192,192,297698,1,8,0:0:0:0:
320,192,297814,1,0,0:0:0:0:
64,192,297929,128,0,298275:0:0:0:0:
192,192,298045,1,0,0:0:0:0:
448,192,298160,1,8,0:0:0:0:
320,192,298160,1,8,0:0:0:0:
192,192,298275,128,0,298621:0:0:0:0:
64,192,298391,1,0,0:0:0:0:
320,192,298506,1,0,0:0:0:0:
448,192,298621,128,8,298852:0:0:0:0:
64,192,298621,1,8,0:0:0:0:
192,192,298737,1,0,0:0:0:0:
320,192,298852,128,0,299198:0:0:0:0:
448,192,298968,1,0,0:0:0:0:
192,192,299083,1,8,0:0:0:0:
64,192,299083,1,8,0:0:0:0:
448,192,299198,128,0,299545:0:0:0:0:
320,192,299314,1,0,0:0:0:0:
192,192,299429,1,0,0:0:0:0:
64,192,299545,128,8,299775:0:0:0:0:
320,192,299545,1,8,0:0:0:0:
448,192,299660,1,0,0:0:0:0:
320,192,299775,128,0,299891:0:0:0:0:
192,192,299891,128,0,300121:0:0:0:0:
64,192,300006,1,8,0:0:0:0:
448,192,300006,1,8,0:0:0:0:
320,192,300121,128,0,300468:0:0:0:0:
448,192,300237,1,0,0:0:0:0:
64,192,300352,1,0,0:0:0:0:
448,192,300468,128,8,300698:0:0:0:0:
192,192,300468,1,8,0:0:0:0:
320,192,300583,1,0,0:0:0:0:
64,192,300698,1,0,0:0:0:0:
192,192,300814,1,0,0:0:0:0:
320,192,300929,1,8,0:0:0:0:
448,192,300929,1,8,0:0:0:0:
64,192,300929,1,4,0:0:0:0:
192,192,301045,1,0,0:0:0:0:
448,192,301160,1,0,0:0:0:0:
320,192,301275,1,0,0:0:0:0:
448,192,301391,1,4,0:0:0:0:
64,192,301391,1,8,0:0:0:0:
192,192,301391,1,8,0:0:0:0:
320,192,301506,1,0,0:0:0:0:
448,192,301621,1,0,0:0:0:0:
192,192,301621,1,4,0:0:0:0:
64,192,301621,128,4,301737:0:0:0:0:
320,192,301737,1,0,0:0:0:0:
448,192,301852,1,8,0:0:0:0:
64,192,301852,128,8,301968:0:0:0:0:
192,192,301968,128,0,302314:0:0:0:0:
320,192,302083,1,0,0:0:0:0:
448,192,302198,1,0,0:0:0:0:
64,192,302314,128,8,302545:0:0:0:0:
320,192,302314,1,8,0:0:0:0:
192,192,302429,1,0,0:0:0:0:
448,192,302545,128,0,302891:0:0:0:0:
320,192,302660,1,0,0:0:0:0:
192,192,302775,1,8,0:0:0:0:
64,192,302775,1,8,0:0:0:0:
320,192,302891,128,0,303237:0:0:0:0:
64,192,303006,1,0,0:0:0:0:
192,192,303121,1,0,0:0:0:0:
64,192,303237,128,8,303468:0:0:0:0:
448,192,303237,1,8,0:0:0:0:
320,192,303352,1,0,0:0:0:0:
448,192,303468,128,0,303814:0:0:0:0:
192,192,303583,1,0,0:0:0:0:
320,192,303698,1,8,0:0:0:0:
64,192,303698,1,8,0:0:0:0:
192,192,303814,128,0,304160:0:0:0:0:
448,192,303929,1,0,0:0:0:0:
320,192,304045,128,0,304160:0:0:0:0:
64,192,304160,128,8,304391:0:0:0:0:
448,192,304160,1,8,0:0:0:0:
192,192,304275,1,0,0:0:0:0:
320,192,304391,128,0,304737:0:0:0:0:
448,192,304506,1,0,0:0:0:0:
192,192,304621,1,8,0:0:0:0:
64,192,304621,1,8,0:0:0:0:
448,192,304737,128,0,305083:0:0:0:0:
320,192,304852,1,0,0:0:0:0:
64,192,304968,1,0,0:0:0:0:
192,192,305083,128,8,305314:0:0:0:0:
320,192,305083,1,8,0:0:0:0:
64,192,305198,1,0,0:0:0:0:
448,192,305314,1,4,0:0:0:0:
64,192,305314,1,0,0:0:0:0:
320,192,305314,128,4,305429:0:0:0:0:
192,192,305429,1,0,0:0:0:0:
448,192,305545,1,8,0:0:0:0:
320,192,305545,128,8,305660:0:0:0:0:
64,192,305660,128,0,306006:0:0:0:0:
448,192,305775,1,0,0:0:0:0:
192,192,305891,1,0,0:0:0:0:
448,192,306006,128,8,306237:0:0:0:0:
320,192,306006,1,8,0:0:0:0:
64,192,306121,1,0,0:0:0:0:
192,192,306237,128,4,306583:0:0:0:0:
320,192,306237,1,0,0:0:0:0:
64,192,306237,1,4,0:0:0:0:
448,192,306352,1,0,0:0:0:0:
320,192,306468,1,8,0:0:0:0:
64,192,306468,1,8,0:0:0:0:
448,192,306583,128,0,306929:0:0:0:0:
64,192,306698,1,0,0:0:0:0:
320,192,306814,1,0,0:0:0:0:
64,192,306929,128,8,307160:0:0:0:0:
192,192,306929,1,8,0:0:0:0:
448,192,307045,1,0,0:0:0:0:
448,192,307160,1,4,0:0:0:0:
320,192,307160,1,4,0:0:0:0:
192,192,307160,1,0,0:0:0:0:
64,192,307275,1,8,0:0:0:0:
192,192,307275,1,8,0:0:0:0:
320,192,307391,1,8,0:0:0:0:
448,192,307391,1,8,0:0:0:0:
192,192,307506,1,8,0:0:0:0:
64,192,307506,1,8,0:0:0:0:
320,192,307621,1,8,0:0:0:0:
448,192,307621,1,8,0:0:0:0:
192,192,307679,1,8,0:0:0:0:
64,192,307679,1,8,0:0:0:0:
320,192,307737,1,8,0:0:0:0:
448,192,307737,1,8,0:0:0:0:
192,192,307852,1,8,0:0:0:0:
64,192,307852,1,8,0:0:0:0:
448,192,307968,1,0,0:0:0:0:
320,192,308025,1,0,0:0:0:0:
192,192,308083,1,0,0:0:0:0:
448,192,308198,1,0,0:0:0:0:
64,192,308314,1,0,0:0:0:0:
192,192,308371,1,0,0:0:0:0:
320,192,308429,1,0,0:0:0:0:
192,192,308545,128,0,308660:0:0:0:0:
448,192,308660,128,0,308775:0:0:0:0:
64,192,308775,128,0,308891:0:0:0:0:
320,192,308891,128,0,309006:0:0:0:0:
192,192,309006,128,4,309352:0:0:0:0:
448,192,309006,1,0,0:0:0:0:
64,192,309006,1,4,0:0:0:0:
320,192,309121,1,0,0:0:0:0:
64,192,309237,1,8,0:0:0:0:
448,192,309237,1,8,0:0:0:0:
320,192,309352,128,0,309698:0:0:0:0:
192,192,309468,1,0,0:0:0:0:
448,192,309583,1,0,0:0:0:0:
64,192,309698,128,8,309929:0:0:0:0:
192,192,309698,1,8,0:0:0:0:
320,192,309814,128,0,310045:0:0:0:0:
192,192,309929,128,0,310045:0:0:0:0:
448,192,310045,128,0,310275:0:0:0:0:
192,192,310160,1,8,0:0:0:0:
64,192,310160,1,8,0:0:0:0:
320,192,310275,128,0,310621:0:0:0:0:
448,192,310391,1,0,0:0:0:0:
64,192,310506,1,0,0:0:0:0:
192,192,310621,128,8,310852:0:0:0:0:
448,192,310621,1,8,0:0:0:0:
320,192,310737,1,0,0:0:0:0:
64,192,310852,128,0,311198:0:0:0:0:
192,192,310968,1,0,0:0:0:0:
320,192,311083,1,8,0:0:0:0:
448,192,311083,1,8,0:0:0:0:
192,192,311198,128,0,311545:0:0:0:0:
64,192,311314,1,0,0:0:0:0:
448,192,311429,1,0,0:0:0:0:
320,192,311545,128,8,311775:0:0:0:0:
64,192,311545,1,8,0:0:0:0:
192,192,311660,1,0,0:0:0:0:
448,192,311775,128,0,312006:0:0:0:0:
64,192,311891,128,0,312006:0:0:0:0:
320,192,312006,1,8,0:0:0:0:
192,192,312006,128,8,312121:0:0:0:0:
448,192,312121,128,0,312237:0:0:0:0:
192,192,312237,128,0,312352:0:0:0:0:
448,192,312352,128,0,312468:0:0:0:0:
64,192,312468,1,8,0:0:0:0:
192,192,312468,128,8,312583:0:0:0:0:
320,192,312583,128,0,312698:0:0:0:0:
64,192,312698,128,0,313045:0:0:0:0:
192,192,312814,1,0,0:0:0:0:
448,192,312929,1,8,0:0:0:0:
320,192,312929,1,8,0:0:0:0:
192,192,313045,128,0,313391:0:0:0:0:
64,192,313160,1,0,0:0:0:0:
320,192,313275,1,0,0:0:0:0:
448,192,313391,128,8,313621:0:0:0:0:
64,192,313391,1,8,0:0:0:0:
192,192,313506,1,0,0:0:0:0:
320,192,313621,128,0,313968:0:0:0:0:
448,192,313737,1,0,0:0:0:0:
192,192,313852,1,8,0:0:0:0:
64,192,313852,1,8,0:0:0:0:
448,192,313968,128,0,314314:0:0:0:0:
320,192,314083,1,0,0:0:0:0:
192,192,314198,1,0,0:0:0:0:
64,192,314314,128,8,314545:0:0:0:0:
320,192,314314,1,8,0:0:0:0:
448,192,314429,1,0,0:0:0:0:
320,192,314545,128,0,314660:0:0:0:0:
192,192,314660,128,0,314891:0:0:0:0:
64,192,314775,1,8,0:0:0:0:
448,192,314775,1,8,0:0:0:0:
320,192,314891,128,0,315237:0:0:0:0:
448,192,315006,1,0,0:0:0:0:
64,192,315121,1,0,0:0:0:0:
448,192,315237,128,8,315468:0:0:0:0:
192,192,315237,1,8,0:0:0:0:
320,192,315352,1,0,0:0:0:0:
64,192,315468,1,0,0:0:0:0:
192,192,315583,1,0,0:0:0:0:
320,192,315698,1,8,0:0:0:0:
448,192,315698,1,8,0:0:0:0:
64,192,315698,1,4,0:0:0:0:
192,192,315814,1,0,0:0:0:0:
448,192,315929,1,0,0:0:0:0:
320,192,316045,1,0,0:0:0:0:
448,192,316160,1,4,0:0:0:0:
64,192,316160,1,8,0:0:0:0:
192,192,316160,1,8,0:0:0:0:
320,192,316275,1,0,0:0:0:0:
448,192,316391,1,0,0:0:0:0:
192,192,316391,1,4,0:0:0:0:
64,192,316391,128,4,316506:0:0:0:0:
320,192,316506,1,0,0:0:0:0:
448,192,316621,1,8,0:0:0:0:
64,192,316621,128,8,316737:0:0:0:0:
192,192,316737,128,0,317083:0:0:0:0:
320,192,316852,1,0,0:0:0:0:
448,192,316968,1,0,0:0:0:0:
64,192,317083,128,8,317314:0:0:0:0:
320,192,317083,1,8,0:0:0:0:
192,192,317198,1,0,0:0:0:0:
448,192,317314,128,0,317660:0:0:0:0:
320,192,317429,1,0,0:0:0:0:
192,192,317545,1,8,0:0:0:0:
64,192,317545,1,8,0:0:0:0:
320,192,317660,128,0,318006:0:0:0:0:
64,192,317775,1,0,0:0:0:0:
192,192,317891,1,0,0:0:0:0:
64,192,318006,128,8,318237:0:0:0:0:
448,192,318006,1,8,0:0:0:0:
320,192,318121,1,0,0:0:0:0:
448,192,318237,128,0,318583:0:0:0:0:
192,192,318352,1,0,0:0:0:0:
320,192,318468,1,8,0:0:0:0:
64,192,318468,1,8,0:0:0:0:
192,192,318583,128,0,318929:0:0:0:0:
448,192,318698,1,0,0:0:0:0:
320,192,318814,128,0,318929:0:0:0:0:
64,192,318929,128,8,319160:0:0:0:0:
448,192,318929,1,8,0:0:0:0:
192,192,319045,1,0,0:0:0:0:
320,192,319160,128,0,319506:0:0:0:0:
448,192,319275,1,0,0:0:0:0:
192,192,319391,1,8,0:0:0:0:
64,192,319391,1,8,0:0:0:0:
448,192,319506,128,0,319852:0:0:0:0:
320,192,319621,1,0,0:0:0:0:
64,192,319737,1,0,0:0:0:0:
192,192,319852,128,8,320083:0:0:0:0:
320,192,319852,1,8,0:0:0:0:
64,192,319968,1,0,0:0:0:0:
448,192,320083,1,4,0:0:0:0:
64,192,320083,1,0,0:0:0:0:
320,192,320083,128,4,320198:0:0:0:0:
192,192,320198,1,0,0:0:0:0:
448,192,320314,1,8,0:0:0:0:
320,192,320314,128,8,320429:0:0:0:0:
64,192,320429,128,0,320775:0:0:0:0:
448,192,320545,1,0,0:0:0:0:
192,192,320660,1,0,0:0:0:0:
448,192,320775,128,8,321006:0:0:0:0:
320,192,320775,1,8,0:0:0:0:
64,192,320891,1,0,0:0:0:0:
192,192,321006,128,4,321352:0:0:0:0:
320,192,321006,1,0,0:0:0:0:
64,192,321006,1,4,0:0:0:0:
448,192,321121,1,0,0:0:0:0:
320,192,321237,1,8,0:0:0:0:
64,192,321237,1,8,0:0:0:0:
448,192,321352,128,0,321698:0:0:0:0:
64,192,321468,1,0,0:0:0:0:
320,192,321583,1,0,0:0:0:0:
64,192,321698,128,8,321929:0:0:0:0:
192,192,321698,1,8,0:0:0:0:
448,192,321814,1,0,0:0:0:0:
448,192,321929,1,4,0:0:0:0:
320,192,321929,1,4,0:0:0:0:
192,192,321929,1,0,0:0:0:0:
64,192,322045,1,0,0:0:0:0:
192,192,322160,1,8,0:0:0:0:
320,192,322160,1,8,0:0:0:0:
448,192,322275,1,0,0:0:0:0:
192,192,322391,1,0,0:0:0:0:
320,192,322506,1,0,0:0:0:0:
64,192,322621,1,8,0:0:0:0:
448,192,322621,1,8,0:0:0:0:
192,192,322737,1,0,0:0:0:0:
320,192,322852,1,0,0:0:0:0:
192,192,322968,1,8,0:0:0:0:
64,192,322968,1,8,0:0:0:0:
320,192,323083,1,8,0:0:0:0:
448,192,323083,1,8,0:0:0:0:
64,192,323198,1,8,0:0:0:0:
192,192,323198,1,8,0:0:0:0:
320,192,323314,128,8,323429:0:0:0:0:
448,192,323314,1,8,0:0:0:0:
192,192,323429,128,0,323545:0:0:0:0:
448,192,323545,128,0,323660:0:0:0:0:
192,192,323660,128,0,323775:0:0:0:0:
64,192,323775,128,0,323891:0:0:0:0:
448,192,323775,1,4,0:0:0:0:
320,192,323775,1,4,0:0:0:0:
192,192,323891,1,0,0:0:0:0:
448,192,324006,1,8,0:0:0:0:
64,192,324006,128,8,324121:0:0:0:0:
192,192,324121,128,0,324468:0:0:0:0:
320,192,324237,1,0,0:0:0:0:
448,192,324352,1,0,0:0:0:0:
64,192,324468,128,8,324698:0:0:0:0:
320,192,324468,1,8,0:0:0:0:
192,192,324583,1,0,0:0:0:0:
448,192,324698,128,0,325045:0:0:0:0:
320,192,324814,1,0,0:0:0:0:
192,192,324929,1,8,0:0:0:0:
64,192,324929,1,8,0:0:0:0:
320,192,325045,128,0,325391:0:0:0:0:
64,192,325160,1,0,0:0:0:0:
192,192,325275,1,0,0:0:0:0:
64,192,325391,128,8,325621:0:0:0:0:
448,192,325391,1,8,0:0:0:0:
320,192,325506,1,0,0:0:0:0:
448,192,325621,128,4,325968:0:0:0:0:
192,192,325621,1,0,0:0:0:0:
320,192,325621,1,4,0:0:0:0:
64,192,325737,1,0,0:0:0:0:
320,192,325852,1,8,0:0:0:0:
64,192,325852,1,8,0:0:0:0:
192,192,325968,128,0,326314:0:0:0:0:
448,192,326083,1,0,0:0:0:0:
320,192,326198,128,0,326314:0:0:0:0:
64,192,326314,128,8,326545:0:0:0:0:
448,192,326314,1,8,0:0:0:0:
192,192,326429,1,0,0:0:0:0:
320,192,326545,128,0,326775:0:0:0:0:
64,192,326660,1,0,0:0:0:0:
192,192,326775,1,8,0:0:0:0:
64,192,326775,1,8,0:0:0:0:
448,192,326775,1,4,0:0:0:0:
320,192,326891,1,0,0:0:0:0:
192,192,327006,1,0,0:0:0:0:
320,192,327083,1,0,0:0:0:0:
448,192,327160,1,0,0:0:0:0:
64,192,327237,1,0,0:0:0:0:
320,192,327314,1,0,0:0:0:0:
192,192,327391,1,0,0:0:0:0:
448,192,327468,1,8,0:0:0:0:
64,192,327468,1,4,0:0:0:0:
320,192,327468,128,8,327583:0:0:0:0:
192,192,327583,1,0,0:0:0:0:
320,192,327698,128,0,327814:0:0:0:0:
64,192,327814,128,0,328160:0:0:0:0:
448,192,327929,1,8,0:0:0:0:
320,192,327929,1,8,0:0:0:0:
192,192,327929,1,4,0:0:0:0:
192,192,328045,1,0,0:0:0:0:
448,192,328160,128,0,328391:0:0:0:0:
64,192,328275,1,0,0:0:0:0:
320,192,328391,1,8,0:0:0:0:
192,192,328391,1,8,0:0:0:0:
64,192,328468,1,0,0:0:0:0:
192,192,328545,1,0,0:0:0:0:
320,192,328621,1,0,0:0:0:0:
448,192,328698,1,0,0:0:0:0:
64,192,328775,1,0,0:0:0:0:
320,192,328852,1,0,0:0:0:0:
192,192,328929,1,0,0:0:0:0:
448,192,329006,1,0,0:0:0:0:
64,192,329083,1,0,0:0:0:0:
192,192,329160,1,0,0:0:0:0:
448,192,329237,1,0,0:0:0:0:
192,192,329314,1,4,0:0:0:0:
320,192,329314,128,0,330006:0:0:0:0:
64,192,329314,1,4,0:0:0:0:
448,192,329468,128,0,329583:0:0:0:0:
192,192,329583,128,0,329698:0:0:0:0:
448,192,329698,128,0,329814:0:0:0:0:
64,192,329775,128,0,330006:0:0:0:0:
192,192,329891,128,0,330006:0:0:0:0:
448,192,330006,1,0,0:0:0:0:
192,192,330083,1,0,0:0:0:0:
320,192,330160,1,0,0:0:0:0:
64,192,330237,1,0,0:0:0:0:
448,192,330314,1,0,0:0:0:0:
192,192,330391,1,0,0:0:0:0:
64,192,330468,1,0,0:0:0:0:
320,192,330545,1,0,0:0:0:0:
192,192,330621,1,0,0:0:0:0:
64,192,330698,1,8,0:0:0:0:
448,192,330698,1,8,0:0:0:0:
64,192,330814,1,8,0:0:0:0:
448,192,330814,1,8,0:0:0:0:
320,192,330929,1,8,0:0:0:0:
192,192,330929,1,8,0:0:0:0:
192,192,331045,1,8,0:0:0:0:
320,192,331045,1,8,0:0:0:0:
64,192,331160,1,4,0:0:0:0:
192,192,331160,1,4,0:0:0:0:
448,192,331160,1,0,0:0:0:0:
320,192,331275,1,8,0:0:0:0:
448,192,331275,1,8,0:0:0:0:
64,192,331391,128,2,331506:0:0:0:0:
192,192,331506,128,10,331621:0:0:0:0:
320,192,331506,1,8,0:0:0:0:
448,192,331621,1,0,0:0:0:0:
320,192,331737,128,10,331852:0:0:0:0:
64,192,331737,1,8,0:0:0:0:
448,192,331852,128,2,331968:0:0:0:0:
64,192,331968,1,8,0:0:0:0:
192,192,331968,1,8,0:0:0:0:
320,192,332083,128,2,332198:0:0:0:0:
64,192,332198,128,10,332314:0:0:0:0:
448,192,332198,1,8,0:0:0:0:
320,192,332314,1,0,0:0:0:0:
192,192,332429,128,10,332545:0:0:0:0:
64,192,332429,1,8,0:0:0:0:
448,192,332545,1,0,0:0:0:0:
320,192,332660,1,8,0:0:0:0:
64,192,332660,1,8,0:0:0:0:
192,192,332775,128,2,332891:0:0:0:0:
448,192,332891,128,10,333006:0:0:0:0:
64,192,332891,1,8,0:0:0:0:
320,192,333006,1,0,0:0:0:0:
192,192,333121,1,8,0:0:0:0:
64,192,333121,1,8,0:0:0:0:
448,192,333237,128,2,333352:0:0:0:0:
320,192,333352,128,10,333468:0:0:0:0:
192,192,333352,1,8,0:0:0:0:
64,192,333468,1,0,0:0:0:0:
192,192,333583,128,10,333698:0:0:0:0:
448,192,333583,1,8,0:0:0:0:
64,192,333698,128,2,333814:0:0:0:0:
448,192,333814,1,8,0:0:0:0:
320,192,333814,1,8,0:0:0:0:
192,192,333929,128,2,334045:0:0:0:0:
448,192,334045,128,10,334160:0:0:0:0:
64,192,334045,1,8,0:0:0:0:
192,192,334160,1,0,0:0:0:0:
320,192,334275,128,10,334391:0:0:0:0:
448,192,334275,1,8,0:0:0:0:
192,192,334391,1,0,0:0:0:0:
448,192,334506,1,8,0:0:0:0:
64,192,334506,1,8,0:0:0:0:
320,192,334621,128,10,334737:0:0:0:0:
192,192,334621,1,8,0:0:0:0:
64,192,334737,128,10,334852:0:0:0:0:
448,192,334737,1,8,0:0:0:0:
192,192,334852,1,0,0:0:0:0:
320,192,334852,1,4,0:0:0:0:
448,192,334852,1,4,0:0:0:0:
192,192,334968,1,8,0:0:0:0:
64,192,334968,1,8,0:0:0:0:
448,192,335083,128,2,335198:0:0:0:0:
320,192,335198,1,8,0:0:0:0:
192,192,335198,1,8,0:0:0:0:
64,192,335314,1,0,0:0:0:0:
320,192,335429,128,10,335545:0:0:0:0:
448,192,335429,1,8,0:0:0:0:
64,192,335545,1,0,0:0:0:0:
320,192,335660,1,8,0:0:0:0:
448,192,335660,1,8,0:0:0:0:
64,192,335775,128,2,335891:0:0:0:0:
320,192,335891,1,8,0:0:0:0:
192,192,335891,1,8,0:0:0:0:
448,192,336006,1,0,0:0:0:0:
192,192,336121,128,10,336237:0:0:0:0:
64,192,336121,1,8,0:0:0:0:
448,192,336237,1,0,0:0:0:0:
192,192,336352,1,8,0:0:0:0:
64,192,336352,1,8,0:0:0:0:
320,192,336468,128,2,336583:0:0:0:0:
448,192,336583,1,8,0:0:0:0:
192,192,336583,128,10,336698:0:0:0:0:
64,192,336698,1,0,0:0:0:0:
320,192,336698,1,4,0:0:0:0:
448,192,336698,1,4,0:0:0:0:
64,192,336814,1,8,0:0:0:0:
192,192,336814,1,8,0:0:0:0:
448,192,336929,128,2,337045:0:0:0:0:
320,192,337045,1,8,0:0:0:0:
192,192,337045,1,8,0:0:0:0:
64,192,337160,1,0,0:0:0:0:
448,192,337275,128,10,337391:0:0:0:0:
320,192,337275,1,8,0:0:0:0:
192,192,337391,1,0,0:0:0:0:
320,192,337506,128,10,337621:0:0:0:0:
64,192,337506,1,8,0:0:0:0:
448,192,337621,128,2,337737:0:0:0:0:
64,192,337737,1,8,0:0:0:0:
192,192,337737,1,8,0:0:0:0:
320,192,337852,1,8,0:0:0:0:
64,192,337852,1,8,0:0:0:0:
192,192,337968,1,8,0:0:0:0:
448,192,337968,1,8,0:0:0:0:
448,192,338083,1,8,0:0:0:0:
320,192,338083,1,8,0:0:0:0:
64,192,338160,1,0,0:0:0:0:
320,192,338237,1,0,0:0:0:0:
192,192,338314,1,0,0:0:0:0:
448,192,338391,1,0,0:0:0:0:
320,192,338468,1,0,0:0:0:0:
448,192,338545,1,0,0:0:0:0:
192,192,338545,1,4,0:0:0:0:
64,192,338545,1,4,0:0:0:0:
320,192,338660,1,8,0:0:0:0:
192,192,338660,1,8,0:0:0:0:
64,192,338775,128,2,338891:0:0:0:0:
192,192,338891,128,10,339006:0:0:0:0:
320,192,338891,1,8,0:0:0:0:
448,192,339006,1,0,0:0:0:0:
320,192,339121,128,10,339237:0:0:0:0:
64,192,339121,1,8,0:0:0:0:
448,192,339237,128,2,339352:0:0:0:0:
64,192,339352,1,8,0:0:0:0:
192,192,339352,1,8,0:0:0:0:
320,192,339468,128,2,339583:0:0:0:0:
64,192,339583,128,10,339698:0:0:0:0:
448,192,339583,1,8,0:0:0:0:
320,192,339698,1,0,0:0:0:0:
192,192,339814,128,10,339929:0:0:0:0:
64,192,339814,1,8,0:0:0:0:
448,192,339929,1,0,0:0:0:0:
320,192,340045,1,8,0:0:0:0:
64,192,340045,1,8,0:0:0:0:
192,192,340160,128,2,340275:0:0:0:0:
448,192,340275,128,10,340391:0:0:0:0:
64,192,340275,1,8,0:0:0:0:
320,192,340391,1,0,0:0:0:0:
192,192,340506,1,8,0:0:0:0:
64,192,340506,1,8,0:0:0:0:
448,192,340621,128,2,340737:0:0:0:0:
320,192,340737,128,10,340852:0:0:0:0:
192,192,340737,1,8,0:0:0:0:
64,192,340852,1,0,0:0:0:0:
192,192,340968,128,10,341083:0:0:0:0:
448,192,340968,1,8,0:0:0:0:
64,192,341083,128,2,341198:0:0:0:0:
448,192,341198,1,8,0:0:0:0:
320,192,341198,1,8,0:0:0:0:
192,192,341314,128,2,341429:0:0:0:0:
448,192,341429,128,10,341545:0:0:0:0:
64,192,341429,1,8,0:0:0:0:
192,192,341545,1,0,0:0:0:0:
320,192,341660,128,10,341775:0:0:0:0:
448,192,341660,1,8,0:0:0:0:
192,192,341775,1,0,0:0:0:0:
448,192,341891,1,8,0:0:0:0:
64,192,341891,1,8,0:0:0:0:
320,192,342006,128,2,342121:0:0:0:0:
64,192,342121,128,10,342237:0:0:0:0:
448,192,342121,1,8,0:0:0:0:
192,192,342237,1,0,0:0:0:0:
320,192,342237,1,4,0:0:0:0:
448,192,342237,1,4,0:0:0:0:
192,192,342352,1,8,0:0:0:0:
64,192,342352,1,8,0:0:0:0:
448,192,342468,128,2,342583:0:0:0:0:
320,192,342583,1,8,0:0:0:0:
192,192,342583,1,8,0:0:0:0:
64,192,342698,1,0,0:0:0:0:
320,192,342814,128,10,342929:0:0:0:0:
448,192,342814,1,8,0:0:0:0:
64,192,342929,1,0,0:0:0:0:
320,192,343045,1,8,0:0:0:0:
448,192,343045,1,8,0:0:0:0:
64,192,343160,128,2,343275:0:0:0:0:
320,192,343275,1,8,0:0:0:0:
192,192,343275,1,8,0:0:0:0:
448,192,343391,1,0,0:0:0:0:
192,192,343506,128,10,343621:0:0:0:0:
64,192,343506,1,8,0:0:0:0:
448,192,343621,1,0,0:0:0:0:
192,192,343737,1,8,0:0:0:0:
64,192,343737,1,8,0:0:0:0:
320,192,343852,128,10,343968:0:0:0:0:
64,192,343852,1,8,0:0:0:0:
448,192,343968,1,8,0:0:0:0:
192,192,343968,128,10,344083:0:0:0:0:
64,192,344083,1,0,0:0:0:0:
320,192,344083,1,4,0:0:0:0:
448,192,344083,1,4,0:0:0:0:
192,192,344198,1,8,0:0:0:0:
64,192,344198,1,8,0:0:0:0:
448,192,344314,1,8,0:0:0:0:
320,192,344314,1,8,0:0:0:0:
64,192,344429,1,8,0:0:0:0:
192,192,344429,1,8,0:0:0:0:
64,192,344545,1,8,0:0:0:0:
192,192,344545,1,8,0:0:0:0:
320,192,344660,1,8,0:0:0:0:
448,192,344660,1,8,0:0:0:0:
64,192,344775,1,8,0:0:0:0:
192,192,344775,1,8,0:0:0:0:
320,192,344891,1,8,0:0:0:0:
448,192,344891,1,8,0:0:0:0:
320,192,345006,1,4,0:0:0:0:
448,192,345006,1,4,0:0:0:0:
64,192,345006,1,0,0:0:0:0:
192,192,345121,1,8,0:0:0:0:
64,192,345121,1,8,0:0:0:0:
448,192,345237,1,8,0:0:0:0:
320,192,345237,1,8,0:0:0:0:
320,192,345352,1,8,0:0:0:0:
448,192,345352,1,8,0:0:0:0:
192,192,345468,1,8,0:0:0:0:
64,192,345468,1,8,0:0:0:0:
192,192,345583,1,8,0:0:0:0:
320,192,345583,1,8,0:0:0:0:
320,192,345698,1,8,0:0:0:0:
448,192,345698,1,8,0:0:0:0:
64,192,345814,1,8,0:0:0:0:
192,192,345814,1,8,0:0:0:0:
448,192,345929,1,4,0:0:0:0:
64,192,345929,1,0,0:0:0:0:
320,192,345929,1,4,0:0:0:0:
320,192,346045,1,8,0:0:0:0:
192,192,346045,1,8,0:0:0:0:
448,192,346160,128,2,346275:0:0:0:0:
320,192,346275,128,10,346391:0:0:0:0:
192,192,346275,1,8,0:0:0:0:
64,192,346391,1,0,0:0:0:0:
192,192,346506,128,10,346621:0:0:0:0:
448,192,346506,1,8,0:0:0:0:
64,192,346621,128,2,346737:0:0:0:0:
448,192,346737,1,8,0:0:0:0:
320,192,346737,1,8,0:0:0:0:
192,192,346852,128,2,346968:0:0:0:0:
448,192,346968,128,10,347083:0:0:0:0:
64,192,346968,1,8,0:0:0:0:
192,192,347083,1,0,0:0:0:0:
320,192,347198,128,10,347314:0:0:0:0:
448,192,347198,1,8,0:0:0:0:
64,192,347314,1,0,0:0:0:0:
192,192,347429,1,8,0:0:0:0:
448,192,347429,1,8,0:0:0:0:
320,192,347545,128,2,347660:0:0:0:0:
64,192,347660,128,10,347775:0:0:0:0:
448,192,347660,1,8,0:0:0:0:
192,192,347775,1,0,0:0:0:0:
320,192,347891,1,8,0:0:0:0:
448,192,347891,1,8,0:0:0:0:
64,192,348006,128,2,348121:0:0:0:0:
192,192,348121,128,10,348237:0:0:0:0:
320,192,348121,1,8,0:0:0:0:
448,192,348237,1,0,0:0:0:0:
320,192,348352,128,10,348468:0:0:0:0:
64,192,348352,1,8,0:0:0:0:
448,192,348468,128,2,348583:0:0:0:0:
64,192,348583,1,8,0:0:0:0:
192,192,348583,1,8,0:0:0:0:
320,192,348698,128,2,348814:0:0:0:0:
64,192,348814,128,10,348929:0:0:0:0:
448,192,348814,1,8,0:0:0:0:
320,192,348929,1,0,0:0:0:0:
192,192,349045,128,10,349160:0:0:0:0:
64,192,349045,1,8,0:0:0:0:
320,192,349160,1,0,0:0:0:0:
64,192,349275,1,8,0:0:0:0:
448,192,349275,1,8,0:0:0:0:
192,192,349391,128,10,349506:0:0:0:0:
320,192,349391,1,8,0:0:0:0:
448,192,349506,128,10,349621:0:0:0:0:
64,192,349506,1,8,0:0:0:0:
320,192,349621,1,0,0:0:0:0:
192,192,349621,1,4,0:0:0:0:
64,192,349621,1,4,0:0:0:0:
320,192,349737,1,8,0:0:0:0:
448,192,349737,1,8,0:0:0:0:
64,192,349852,128,2,349968:0:0:0:0:
192,192,349968,1,8,0:0:0:0:
320,192,349968,1,8,0:0:0:0:
448,192,350083,1,0,0:0:0:0:
192,192,350198,128,10,350314:0:0:0:0:
64,192,350198,1,8,0:0:0:0:
448,192,350314,1,0,0:0:0:0:
192,192,350429,1,8,0:0:0:0:
64,192,350429,1,8,0:0:0:0:
448,192,350545,128,2,350660:0:0:0:0:
192,192,350660,1,8,0:0:0:0:
320,192,350660,1,8,0:0:0:0:
64,192,350775,1,0,0:0:0:0:
320,192,350891,128,10,351006:0:0:0:0:
448,192,350891,1,8,0:0:0:0:
64,192,351006,1,0,0:0:0:0:
320,192,351121,1,8,0:0:0:0:
448,192,351121,1,8,0:0:0:0:
192,192,351237,128,2,351352:0:0:0:0:
64,192,351352,1,8,0:0:0:0:
320,192,351352,128,10,351468:0:0:0:0:
448,192,351468,1,0,0:0:0:0:
192,192,351468,1,4,0:0:0:0:
64,192,351468,1,4,0:0:0:0:
320,192,351583,1,0,0:0:0:0:
192,192,351698,1,8,0:0:0:0:
64,192,351698,1,8,0:0:0:0:
448,192,351814,1,0,0:0:0:0:
320,192,351871,1,0,0:0:0:0:
64,192,351929,1,8,0:0:0:0:
192,192,351929,1,8,0:0:0:0:
448,192,352045,1,0,0:0:0:0:
320,192,352102,1,0,0:0:0:0:
64,192,352160,1,8,0:0:0:0:
192,192,352160,1,8,0:0:0:0:
448,192,352275,1,0,0:0:0:0:
320,192,352333,1,0,0:0:0:0:
192,192,352391,1,8,0:0:0:0:
64,192,352391,1,8,0:0:0:0:
448,192,352468,1,0,0:0:0:0:
320,192,352545,1,0,0:0:0:0:
64,192,352621,1,0,0:0:0:0:
448,192,352698,1,0,0:0:0:0:
192,192,352775,1,0,0:0:0:0:
320,192,352852,1,0,0:0:0:0:
64,192,352929,1,0,0:0:0:0:
448,192,353006,1,0,0:0:0:0:
320,192,353083,1,0,0:0:0:0:
64,192,353160,1,0,0:0:0:0:
192,192,353237,1,0,0:0:0:0:
448,192,353314,1,4,0:0:0:0:
320,192,353314,1,4,0:0:0:0:
64,192,353314,1,0,0:0:0:0:
320,192,353429,1,8,0:0:0:0:
192,192,353429,1,8,0:0:0:0:
448,192,353545,128,2,353660:0:0:0:0:
320,192,353660,128,10,353775:0:0:0:0:
192,192,353660,1,8,0:0:0:0:
64,192,353775,1,0,0:0:0:0:
192,192,353891,128,10,354006:0:0:0:0:
448,192,353891,1,8,0:0:0:0:
64,192,354006,128,2,354121:0:0:0:0:
448,192,354121,1,8,0:0:0:0:
320,192,354121,1,8,0:0:0:0:
192,192,354237,128,2,354352:0:0:0:0:
448,192,354352,128,10,354468:0:0:0:0:
64,192,354352,1,8,0:0:0:0:
192,192,354468,1,0,0:0:0:0:
320,192,354583,128,10,354698:0:0:0:0:
448,192,354583,1,8,0:0:0:0:
64,192,354698,1,0,0:0:0:0:
192,192,354814,1,8,0:0:0:0:
448,192,354814,1,8,0:0:0:0:
320,192,354929,128,2,355045:0:0:0:0:
64,192,355045,128,10,355160:0:0:0:0:
448,192,355045,1,8,0:0:0:0:
192,192,355160,1,0,0:0:0:0:
320,192,355275,1,8,0:0:0:0:
448,192,355275,1,8,0:0:0:0:
64,192,355391,128,2,355506:0:0:0:0:
192,192,355506,128,10,355621:0:0:0:0:
320,192,355506,1,8,0:0:0:0:
448,192,355621,1,0,0:0:0:0:
320,192,355737,128,10,355852:0:0:0:0:
64,192,355737,1,8,0:0:0:0:
448,192,355852,128,2,355968:0:0:0:0:
64,192,355968,1,8,0:0:0:0:
192,192,355968,1,8,0:0:0:0:
320,192,356083,128,2,356198:0:0:0:0:
64,192,356198,128,10,356314:0:0:0:0:
448,192,356198,1,8,0:0:0:0:
320,192,356314,1,0,0:0:0:0:
192,192,356429,128,10,356545:0:0:0:0:
64,192,356429,1,8,0:0:0:0:
320,192,356545,1,0,0:0:0:0:
64,192,356660,1,8,0:0:0:0:
448,192,356660,1,8,0:0:0:0:
192,192,356775,128,2,356891:0:0:0:0:
448,192,356891,128,10,357006:0:0:0:0:
64,192,356891,1,8,0:0:0:0:
320,192,357006,1,0,0:0:0:0:
192,192,357006,1,4,0:0:0:0:
64,192,357006,1,4,0:0:0:0:
320,192,357121,1,8,0:0:0:0:
448,192,357121,1,8,0:0:0:0:
64,192,357237,128,2,357352:0:0:0:0:
192,192,357352,1,8,0:0:0:0:
320,192,357352,1,8,0:0:0:0:
448,192,357468,1,0,0:0:0:0:
192,192,357583,128,10,357698:0:0:0:0:
64,192,357583,1,8,0:0:0:0:
448,192,357698,1,0,0:0:0:0:
192,192,357814,1,8,0:0:0:0:
64,192,357814,1,8,0:0:0:0:
448,192,357929,128,2,358045:0:0:0:0:
192,192,358045,1,8,0:0:0:0:
320,192,358045,1,8,0:0:0:0:
64,192,358160,1,0,0:0:0:0:
320,192,358275,128,10,358391:0:0:0:0:
448,192,358275,1,8,0:0:0:0:
64,192,358391,1,0,0:0:0:0:
320,192,358506,1,8,0:0:0:0:
448,192,358506,1,8,0:0:0:0:
192,192,358621,128,2,358737:0:0:0:0:
448,192,358621,1,8,0:0:0:0:
64,192,358737,1,8,0:0:0:0:
320,192,358737,128,10,358852:0:0:0:0:
448,192,358852,1,0,0:0:0:0:
192,192,358852,1,4,0:0:0:0:
64,192,358852,1,4,0:0:0:0:
320,192,358968,1,0,0:0:0:0:
192,192,359083,1,8,0:0:0:0:
448,192,359083,1,4,0:0:0:0:
64,192,359083,1,8,0:0:0:0:
320,192,359198,1,0,0:0:0:0:
448,192,359314,1,0,0:0:0:0:
192,192,359429,1,4,0:0:0:0:
320,192,359429,1,8,0:0:0:0:
64,192,359429,1,8,0:0:0:0:
448,192,359545,1,0,0:0:0:0:
192,192,359660,1,0,0:0:0:0:
320,192,359775,1,8,0:0:0:0:
448,192,359775,1,8,0:0:0:0:
192,192,359833,1,8,0:0:0:0:
64,192,359833,1,0,0:0:0:0:
320,192,359891,1,0,0:0:0:0:
448,192,360006,1,0,0:0:0:0:
192,192,360064,1,0,0:0:0:0:
320,192,360121,1,0,0:0:0:0:
64,192,360179,1,0,0:0:0:0:
448,192,360237,1,0,0:0:0:0:
320,192,360295,1,0,0:0:0:0:
64,192,360352,1,0,0:0:0:0:
192,192,360410,1,0,0:0:0:0:
448,192,360468,1,8,0:0:0:0:
320,192,360468,1,8,0:0:0:0:
64,192,360583,1,8,0:0:0:0:
192,192,360583,1,8,0:0:0:0:
320,192,360698,1,4,0:0:0:0:
448,192,360698,1,4,0:0:0:0:
64,192,360698,1,0,0:0:0:0:
192,192,360814,1,0,0:0:0:0:
320,192,360929,1,0,0:0:0:0:
320,192,361045,1,0,0:0:0:0:
448,192,361160,1,4,0:0:0:0:
64,192,361160,1,8,0:0:0:0:
192,192,361160,1,8,0:0:0:0:
320,192,361391,1,0,0:0:0:0:
448,192,361468,1,0,0:0:0:0:
192,192,361545,1,0,0:0:0:0:
64,192,361621,1,0,0:0:0:0:
320,192,361621,1,4,0:0:0:0:
448,192,361621,1,4,0:0:0:0:
320,192,361968,1,0,0:0:0:0:
192,192,362083,1,8,0:0:0:0:
64,192,362083,1,8,0:0:0:0:
448,192,362083,1,4,0:0:0:0:
320,192,362198,1,0,0:0:0:0:
192,192,362314,1,0,0:0:0:0:
192,192,362545,1,4,0:0:0:0:
64,192,362545,1,4,0:0:0:0:
448,192,362545,1,0,0:0:0:0:
320,192,362660,1,0,0:0:0:0:
192,192,362775,1,0,0:0:0:0:
192,192,362891,1,0,0:0:0:0:
64,192,363006,1,4,0:0:0:0:
448,192,363006,1,8,0:0:0:0:
320,192,363006,1,8,0:0:0:0:
192,192,363237,1,0,0:0:0:0:
64,192,363314,1,0,0:0:0:0:
320,192,363391,1,0,0:0:0:0:
448,192,363468,1,0,0:0:0:0:
192,192,363468,1,4,0:0:0:0:
64,192,363468,1,4,0:0:0:0:
448,192,363698,1,0,0:0:0:0:
320,192,363775,1,0,0:0:0:0:
192,192,363852,1,0,0:0:0:0:
320,192,363929,1,8,0:0:0:0:
448,192,363929,1,8,0:0:0:0:
64,192,363929,1,4,0:0:0:0:
192,192,364045,1,0,0:0:0:0:
320,192,364160,1,8,0:0:0:0:
64,192,364160,1,8,0:0:0:0:
192,192,364275,1,8,0:0:0:0:
448,192,364275,1,8,0:0:0:0:
320,192,364391,1,4,0:0:0:0:
448,192,364391,1,4,0:0:0:0:
64,192,364391,1,0,0:0:0:0:
192,192,364506,1,0,0:0:0:0:
448,192,364621,1,0,0:0:0:0:
448,192,364737,1,0,0:0:0:0:
320,192,364852,1,4,0:0:0:0:
64,192,364852,1,8,0:0:0:0:
192,192,364852,1,8,0:0:0:0:
448,192,364968,1,0,0:0:0:0:
64,192,365083,1,0,0:0:0:0:
64,192,365198,1,0,0:0:0:0:
192,192,365314,1,0,0:0:0:0:
320,192,365314,1,4,0:0:0:0:
448,192,365314,1,4,0:0:0:0:
64,192,365429,1,8,0:0:0:0:
320,192,365429,1,8,0:0:0:0:
192,192,365545,1,0,0:0:0:0:
320,192,365660,1,0,0:0:0:0:
192,192,365775,1,8,0:0:0:0:
64,192,365775,1,8,0:0:0:0:
448,192,365775,1,4,0:0:0:0:
320,192,365891,1,0,0:0:0:0:
192,192,366006,1,0,0:0:0:0:
320,192,366121,1,0,0:0:0:0:
192,192,366237,1,4,0:0:0:0:
64,192,366237,1,4,0:0:0:0:
448,192,366237,1,0,0:0:0:0:
320,192,366352,1,0,0:0:0:0:
64,192,366468,1,0,0:0:0:0:
64,192,366583,1,0,0:0:0:0:
192,192,366698,1,4,0:0:0:0:
448,192,366698,1,8,0:0:0:0:
320,192,366698,1,8,0:0:0:0:
64,192,366814,1,0,0:0:0:0:
448,192,366929,1,0,0:0:0:0:
448,192,367045,1,0,0:0:0:0:
320,192,367160,1,0,0:0:0:0:
192,192,367160,1,4,0:0:0:0:
64,192,367160,1,4,0:0:0:0:
192,192,367275,1,8,0:0:0:0:
448,192,367275,1,8,0:0:0:0:
64,192,367391,1,0,0:0:0:0:
192,192,367506,1,0,0:0:0:0:
320,192,367621,1,8,0:0:0:0:
448,192,367621,1,8,0:0:0:0:
192,192,367737,1,8,0:0:0:0:
64,192,367737,1,8,0:0:0:0:
320,192,367852,1,8,0:0:0:0:
448,192,367852,1,8,0:0:0:0:
192,192,367968,1,8,0:0:0:0:
64,192,367968,1,8,0:0:0:0:
320,192,368083,1,4,0:0:0:0:
448,192,368083,1,4,0:0:0:0:
64,192,368083,1,0,0:0:0:0:
448,192,368198,1,0,0:0:0:0:
320,192,368314,1,8,0:0:0:0:
192,192,368314,1,8,0:0:0:0:
192,192,368429,1,0,0:0:0:0:
64,192,368545,1,0,0:0:0:0:
448,192,368660,1,0,0:0:0:0:
192,192,368775,1,8,0:0:0:0:
320,192,368775,1,8,0:0:0:0:
320,192,368891,1,0,0:0:0:0:
64,192,369006,1,0,0:0:0:0:
64,192,369121,1,0,0:0:0:0:
320,192,369237,1,8,0:0:0:0:
448,192,369237,1,8,0:0:0:0:
448,192,369352,1,0,0:0:0:0:
192,192,369468,1,0,0:0:0:0:
192,192,369583,1,0,0:0:0:0:
64,192,369698,1,8,0:0:0:0:
448,192,369698,1,8,0:0:0:0:
192,192,369814,1,0,0:0:0:0:
64,192,369929,1,0,0:0:0:0:
448,192,369929,1,4,0:0:0:0:
320,192,369929,1,4,0:0:0:0:
448,192,370045,1,0,0:0:0:0:
192,192,370160,1,8,0:0:0:0:
320,192,370160,1,8,0:0:0:0:
192,192,370275,1,0,0:0:0:0:
64,192,370391,1,0,0:0:0:0:
448,192,370506,1,0,0:0:0:0:
320,192,370621,1,8,0:0:0:0:
192,192,370621,1,8,0:0:0:0:
320,192,370737,1,0,0:0:0:0:
64,192,370852,1,0,0:0:0:0:
64,192,370968,1,0,0:0:0:0:
448,192,371083,1,8,0:0:0:0:
320,192,371083,1,8,0:0:0:0:
448,192,371198,1,0,0:0:0:0:
192,192,371314,1,0,0:0:0:0:
192,192,371429,1,0,0:0:0:0:
448,192,371545,1,8,0:0:0:0:
64,192,371545,1,4,0:0:0:0:
320,192,371545,1,8,0:0:0:0:
192,192,371660,1,0,0:0:0:0:
448,192,371775,1,8,0:0:0:0:
320,192,371775,1,8,0:0:0:0:
64,192,371775,1,4,0:0:0:0:
192,192,371891,1,0,0:0:0:0:
64,192,372006,1,4,0:0:0:0:
448,192,372006,1,8,0:0:0:0:
320,192,372006,1,8,0:0:0:0:
192,192,372121,1,0,0:0:0:0:
320,192,372237,1,0,0:0:0:0:
448,192,372352,1,0,0:0:0:0:
320,192,372468,1,4,0:0:0:0:
64,192,372468,1,8,0:0:0:0:
192,192,372468,1,8,0:0:0:0:
448,192,372583,1,0,0:0:0:0:
320,192,372698,1,4,0:0:0:0:
192,192,372698,1,8,0:0:0:0:
64,192,372698,1,8,0:0:0:0:
448,192,372814,1,0,0:0:0:0:
320,192,372929,1,0,0:0:0:0:
192,192,373045,1,8,0:0:0:0:
448,192,373045,1,4,0:0:0:0:
64,192,373045,1,8,0:0:0:0:
320,192,373160,1,0,0:0:0:0:
192,192,373275,1,8,0:0:0:0:
64,192,373275,1,8,0:0:0:0:
448,192,373275,1,4,0:0:0:0:
64,192,373391,1,4,0:0:0:0:
448,192,373391,1,8,0:0:0:0:
320,192,373391,1,8,0:0:0:0:
192,192,373506,1,0,0:0:0:0:
64,192,373621,1,4,0:0:0:0:
320,192,373621,1,8,0:0:0:0:
448,192,373621,1,8,0:0:0:0:
192,192,373737,1,0,0:0:0:0:
320,192,373852,1,8,0:0:0:0:
64,192,373852,1,4,0:0:0:0:
448,192,373852,1,8,0:0:0:0:
192,192,373968,1,0,0:0:0:0:
320,192,374083,1,0,0:0:0:0:
448,192,374198,1,0,0:0:0:0:
320,192,374314,1,4,0:0:0:0:
192,192,374314,1,8,0:0:0:0:
64,192,374314,1,8,0:0:0:0:
448,192,374429,1,0,0:0:0:0:
320,192,374545,1,4,0:0:0:0:
64,192,374545,1,8,0:0:0:0:
192,192,374545,1,8,0:0:0:0:
448,192,374660,1,0,0:0:0:0:
320,192,374775,1,0,0:0:0:0:
192,192,374891,1,8,0:0:0:0:
64,192,374891,1,8,0:0:0:0:
448,192,374891,1,4,0:0:0:0:
320,192,375006,1,0,0:0:0:0:
448,192,375121,1,4,0:0:0:0:
192,192,375121,1,8,0:0:0:0:
64,192,375121,1,8,0:0:0:0:
64,192,375237,1,4,0:0:0:0:
320,192,375237,1,8,0:0:0:0:
448,192,375237,1,8,0:0:0:0:
