osu file format v14

[General]
AudioFilename: audio.mp3
AudioLeadIn: 0
PreviewTime: 323723
Countdown: 0
SampleSet: None
StackLeniency: 0.7
Mode: 2
LetterboxInBreaks: 0
WidescreenStoryboard: 0

[Editor]
Bookmarks: 2083,16852,46390,52390,96697,111467,155774,183467,190851,207467,222236,249928,264697,279467,331159,360697,375467
DistanceSpacing: 1.5
BeatDivisor: 4
GridSize: 4
TimelineZoom: 3.899999

[Metadata]
Title:Plastic Mind ~ Alice in Underground
TitleUnicode:プラスチックマインド ~ Alice in Underground
Artist:Demetori
ArtistUnicode:Demetori
Creator:JBHyperion
Version:Phantom of the Grand Guignol
Source:東方怪綺談 ~ Mystic Square
Tags:東方Project 東方プロジェクト Touhou Kaikidan Bizarre Romantic Story PC-98 Stage 3 Boss theme アリス・マーガトロイド Margatroid Girl Death Forest Magic doll Makai BEGIERDE DES ZAUBERER Desire of the Magician Comiket 81 guitar metal
BeatmapID:959753
BeatmapSetID:446947

[Difficulty]
HPDrainRate:5
CircleSize:4
OverallDifficulty:9.6
ApproachRate:9.6
SliderMultiplier:1.4
SliderTickRate:2

[Events]
//Background and Video events
0,0,"Alice.jpg",0,0
//Break Periods
//Storyboard Layer 0 (Background)
//Storyboard Layer 1 (Fail)
//Storyboard Layer 2 (Pass)
//Storyboard Layer 3 (Foreground)
//Storyboard Sound Samples

[TimingPoints]
1160,230.769230769231,4,3,2,40,1,0
1621,-100,4,3,3,40,0,0
2084,-100,4,3,3,70,0,0
8775,-100,4,3,2,70,0,0
9006,-100,4,3,3,40,0,0
9467,-100,4,3,3,75,0,0
9813,-100,4,3,3,40,0,0
9929,-100,4,3,3,75,0,0
11544,-100,4,3,3,40,0,0
11660,-100,4,3,3,75,0,0
14083,-100,4,3,3,80,0,0
15006,-100,4,3,2,80,0,0
15929,-100,4,3,2,40,0,0
16852,-80,4,3,2,80,0,1
22391,-80,4,3,2,85,0,1
22852,-80,4,3,2,90,0,1
23314,-80,4,3,2,95,0,1
23775,-80,4,3,3,60,0,1
23852,-80,4,3,2,70,0,1
24006,-80,4,3,3,70,0,1
24083,-80,4,3,2,70,0,1
24237,-80,4,3,2,80,0,1
29775,-80,4,3,2,70,0,1
30006,-80,4,3,2,80,0,1
30352,-80,4,3,2,85,0,1
30698,-80,4,3,2,90,0,1
31160,-80,4,3,2,80,0,1
31563,-100,4,3,2,80,0,0
31621,-80,4,3,2,80,0,1
38083,-80,4,3,3,60,0,1
38198,-80,4,3,2,80,0,1
38314,-66.6666666666667,4,3,2,90,0,1
38487,-80,4,3,2,40,0,1
38544,-80,4,3,2,70,0,1
39006,-80,4,3,2,80,0,1
44544,-80,4,3,2,70,0,1
44775,-80,4,3,2,80,0,1
45121,-80,4,3,2,85,0,1
45467,-80,4,3,3,70,0,1
45544,-80,4,3,2,70,0,1
45698,-80,4,3,3,70,0,1
45775,-80,4,3,2,70,0,1
45929,-80,4,3,2,90,0,1
46390,-100,4,3,3,80,0,0
48929,-100,4,3,2,70,0,0
49160,-100,4,3,3,70,0,0
50160,-100,4,3,2,70,0,0
50544,230.769230769231,4,3,2,70,1,0
50890,-100,4,3,2,75,0,0
51236,-100,4,3,2,80,0,0
51582,-100,4,3,2,85,0,0
51928,-100,4,3,2,90,0,0
52390,-100,4,3,2,80,0,0
52447,-100,4,3,2,70,0,0
55851,-66.6666666666667,4,3,2,60,0,0
56024,-100,4,3,2,30,0,0
56082,-100,4,3,2,70,0,0
59774,-100,4,3,2,80,0,0
59832,-100,4,3,2,70,0,0
63236,-66.6666666666667,4,3,2,80,0,0
63351,-100,4,3,2,30,0,0
63467,-100,4,3,2,80,0,0
63524,-100,4,3,2,70,0,0
64159,-66.6666666666667,4,3,2,80,0,0
64390,-100,4,3,2,70,0,0
66236,-100,4,3,2,80,0,0
66467,-66.6666666666667,4,3,2,90,0,0
66640,-100,4,3,2,40,0,0
66697,-100,4,3,2,80,0,0
66928,-66.6666666666667,4,3,2,90,0,0
67101,-100,4,3,2,40,0,0
67159,-100,4,3,2,80,0,0
67217,-100,4,3,2,70,0,0
70620,-66.6666666666667,4,3,2,70,0,0
70794,-100,4,3,2,30,0,0
70851,-100,4,3,2,70,0,0
74544,-100,4,3,2,80,0,0
74601,-100,4,3,2,70,0,0
77313,-100,4,3,3,80,0,0
77428,-100,4,3,2,70,0,0
77544,-100,4,3,3,80,0,0
77659,-100,4,3,2,70,0,0
77890,-100,4,3,2,60,0,0
78005,-100,4,3,2,70,0,0
78120,-100,4,3,2,60,0,0
78236,-100,4,3,2,80,0,0
78294,-100,4,3,2,70,0,0
81005,-100,4,3,2,80,0,0
81467,-100,4,3,3,60,0,0
81524,-100,4,3,2,70,0,0
81928,-100,4,3,2,80,0,0
86082,-80,4,3,2,80,0,0
86544,-66.6666666666667,4,3,2,80,0,0
87005,-100,4,3,2,80,0,0
87467,-100,4,3,2,90,0,0
88851,-100,4,3,2,70,0,0
89313,-100,4,3,2,85,0,0
92544,-66.6666666666667,4,3,2,70,0,0
92774,-100,4,3,2,80,0,0
93005,-100,4,3,2,90,0,0
94390,-80,4,3,2,70,0,0
94774,-100,4,3,2,30,0,0
94851,-100,4,3,2,80,0,0
95082,-100,4,3,3,70,0,0
95313,-100,4,3,2,80,0,0
95544,-100,4,3,3,70,0,0
95774,-100,4,3,2,80,0,0
96697,-80,4,3,2,80,0,1
102236,-80,4,3,2,85,0,1
102697,-80,4,3,2,90,0,1
103159,-80,4,3,2,95,0,1
103620,-80,4,3,3,60,0,1
103697,-80,4,3,2,70,0,1
104082,-80,4,3,2,80,0,1
109620,-80,4,3,2,70,0,1
109851,-80,4,3,2,80,0,1
110197,-80,4,3,2,85,0,1
110544,-80,4,3,2,90,0,1
111005,-80,4,3,2,80,0,1
111236,-80,4,3,2,70,0,1
111467,-100,4,3,2,80,0,0
111524,-100,4,3,2,70,0,0
114928,-66.6666666666667,4,3,2,80,0,0
115101,-100,4,3,2,40,0,0
115159,-100,4,3,2,70,0,0
118851,-100,4,3,2,80,0,0
118909,-100,4,3,2,70,0,0
122313,-74.0740740740741,4,3,2,80,0,0
122544,-100,4,3,2,70,0,0
123236,-66.6666666666667,4,3,2,70,0,0
123467,-100,4,3,2,70,0,0
125544,-66.6666666666667,4,3,2,80,0,0
125717,-100,4,3,2,40,0,0
125774,-80,4,3,2,70,0,0
126005,-66.6666666666667,4,3,2,80,0,0
126178,-100,4,3,2,40,0,0
126236,-100,4,3,2,80,0,0
126294,-100,4,3,2,70,0,0
129697,-66.6666666666667,4,3,2,80,0,0
129870,-100,4,3,2,40,0,0
129928,-100,4,3,2,80,0,0
129986,-100,4,3,2,70,0,0
133620,-100,4,3,2,80,0,0
133678,-100,4,3,2,70,0,0
136390,-100,4,3,3,80,0,0
136505,-100,4,3,2,70,0,0
136621,-100,4,3,3,80,0,0
136736,-100,4,3,2,70,0,0
136967,-100,4,3,2,60,0,0
137082,-100,4,3,2,70,0,0
137197,-100,4,3,2,60,0,0
137313,-100,4,3,2,80,0,0
137371,-100,4,3,2,70,0,0
139159,-100,4,3,2,80,0,0
140082,-100,4,3,2,60,0,0
140544,-100,4,3,2,70,0,0
141005,-100,4,3,2,80,0,0
146544,-100,4,3,2,60,0,0
147928,-100,4,3,2,70,0,0
153236,-66.6666666666667,4,3,2,80,0,0
153351,-100,4,3,2,80,0,0
153697,-66.6666666666667,4,3,2,80,0,0
153813,-100,4,3,2,80,0,0
153928,-100,4,3,3,70,0,0
154044,-100,4,3,2,90,0,0
154274,-100,4,3,2,90,0,0
154390,-100,4,3,3,70,0,0
154505,-100,4,3,2,90,0,0
154736,-100,4,3,2,90,0,0
154851,-100,4,3,3,90,0,0
154967,-100,4,3,2,80,0,0
155082,-100,4,3,3,90,0,0
155197,-100,4,3,2,80,0,0
155428,-100,4,3,2,70,0,0
155544,-100,4,3,2,80,0,0
155659,-100,4,3,2,70,0,0
155774,-80,4,3,2,80,0,1
157620,-66.6666666666667,4,3,2,80,0,1
158544,-80,4,3,2,80,0,1
161313,-66.6666666666667,4,3,2,80,0,1
162005,-80,4,3,2,80,0,1
162928,-80,4,3,2,60,0,1
163044,-80,4,3,2,80,0,1
169620,-80,4,3,3,70,0,1
169736,-80,4,3,2,70,0,1
169851,-80,4,3,3,70,0,1
169967,-80,4,3,2,70,0,1
170082,-80,4,3,2,70,0,1
170197,-80,4,3,2,60,0,1
170313,-80,4,3,2,70,0,1
170428,-80,4,3,2,60,0,1
170486,-100,4,3,2,80,0,0
170544,-80,4,3,2,80,0,1
172390,-66.6666666666667,4,3,2,80,0,1
173313,-80,4,3,2,80,0,1
176082,-66.6666666666667,4,3,2,80,0,1
176774,-80,4,3,2,80,0,1
177005,-80,4,3,3,70,0,1
177121,-80,4,3,2,70,0,1
177236,-80,4,3,3,70,0,1
177352,-80,4,3,2,70,0,1
177467,-80,4,3,2,70,0,1
177582,-80,4,3,2,60,0,1
177698,-80,4,3,2,70,0,1
177813,-80,4,3,2,60,0,1
177928,-80,4,3,2,80,0,1
182544,-80,4,3,3,70,0,1
182659,-80,4,3,2,90,0,1
183005,-80,4,3,3,70,0,1
183120,-80,4,3,2,90,0,1
183467,-66.6666666666667,4,3,3,80,0,0
183582,-66.6666666666667,4,3,3,50,0,0
184274,-100,4,3,4,60,0,0
185313,-100,4,3,2,70,0,0
185774,-100,4,3,2,65,0,0
186236,-100,4,3,2,60,0,0
186697,-100,4,3,3,70,0,0
187005,-100,4,3,2,55,0,0
187159,-100,4,3,2,70,0,0
187736,-66.6666666666667,4,3,2,70,0,0
187967,-100,4,3,2,70,0,0
188082,-90.9090909090909,4,3,2,80,0,0
189005,-83.3333333333333,4,3,2,90,0,0
189582,-66.6666666666667,4,3,2,90,0,0
189813,-100,4,3,2,90,0,0
189928,-76.9230769230769,4,3,2,100,0,0
190851,-80,4,3,2,60,0,0
190967,-100,4,3,2,60,0,0
192236,-100,4,3,2,50,0,0
192697,-100,4,3,2,60,0,0
194082,-100,4,3,2,50,0,0
194544,-100,4,3,2,60,0,0
196390,-100,4,3,2,80,0,0
197774,-100,4,3,3,70,0,0
197890,-100,4,3,2,70,0,0
198005,-100,4,3,3,70,0,0
198120,-100,4,3,2,70,0,0
198236,-100,4,3,2,80,0,0
201870,-100,4,3,2,40,0,0
201928,-100,4,3,2,80,0,0
203544,-100,4,3,2,50,0,0
203620,-100,4,3,2,80,0,0
205620,-100,4,3,3,80,0,0
205697,-100,4,3,2,80,0,0
205851,-100,4,3,3,80,0,0
205928,-100,4,3,2,80,0,0
206082,-100,4,3,3,80,0,0
206159,-100,4,3,2,80,0,0
206313,-100,4,3,3,80,0,0
206390,-100,4,3,2,80,0,0
206544,-76.9230769230769,4,3,3,90,0,0
206659,-76.9230769230769,4,3,2,80,0,0
206774,-76.9230769230769,4,3,3,90,0,0
206890,-76.9230769230769,4,3,2,80,0,0
207467,-80,4,3,2,70,0,0
214390,-80,4,3,3,50,0,0
214447,-80,4,3,2,65,0,0
214851,-80,4,3,2,70,0,0
218544,-80,4,3,2,80,0,0
219928,-80,4,3,3,80,0,0
220044,-80,4,3,2,80,0,0
220159,-80,4,3,3,80,0,0
220274,-80,4,3,2,80,0,0
220390,-80,4,3,2,70,0,0
220851,-80,4,3,2,75,0,0
221313,-80,4,3,3,80,0,0
221428,-80,4,3,2,70,0,0
221544,-80,4,3,3,80,0,0
221659,-80,4,3,2,70,0,0
221774,-80,4,3,2,85,0,0
221890,-80,4,3,2,75,0,0
222005,-80,4,3,2,85,0,0
222120,-80,4,3,2,75,0,0
222236,-66.6666666666667,4,3,2,70,0,0
222294,-66.6666666666667,4,3,2,60,0,0
222697,-66.6666666666667,4,3,3,80,0,0
223390,-66.6666666666667,4,3,2,60,0,0
224544,-66.6666666666667,4,3,3,80,0,0
225236,-66.6666666666667,4,3,2,60,0,0
225928,-66.6666666666667,4,3,3,90,0,0
227774,-100,4,3,2,60,0,0
228928,-74.0740740740741,4,3,2,50,0,0
229044,-100,4,3,2,60,0,0
229390,-66.6666666666667,4,3,2,60,0,0
229620,-66.6666666666667,4,3,2,70,0,0
229678,-66.6666666666667,4,3,2,60,0,0
232794,-66.6666666666667,4,3,2,30,0,0
232851,-66.6666666666667,4,3,2,70,0,0
235159,-66.6666666666667,4,3,2,80,0,0
235274,-66.6666666666667,4,3,3,80,0,0
235390,-66.6666666666667,4,3,2,80,0,0
235505,-66.6666666666667,4,3,3,80,0,0
235620,-66.6666666666667,4,3,2,80,0,0
235736,-66.6666666666667,4,3,3,80,0,0
235851,-66.6666666666667,4,3,2,80,0,0
235967,-66.6666666666667,4,3,3,80,0,0
236082,-66.6666666666667,4,3,2,80,0,0
236197,-66.6666666666667,4,3,3,80,0,0
236313,-66.6666666666667,4,3,2,80,0,0
236428,-66.6666666666667,4,3,3,80,0,0
236544,-66.6666666666667,4,3,2,80,0,0
236659,-66.6666666666667,4,3,3,80,0,0
236774,-66.6666666666667,4,3,2,80,0,0
236890,-66.6666666666667,4,3,3,80,0,0
237005,-66.6666666666667,4,3,2,80,0,0
237120,-66.6666666666667,4,3,3,80,0,0
237236,-66.6666666666667,4,3,2,80,0,0
237351,-66.6666666666667,4,3,3,80,0,0
237467,-66.6666666666667,4,3,2,80,0,0
237582,-66.6666666666667,4,3,3,80,0,0
237697,-66.6666666666667,4,3,2,80,0,0
237813,-66.6666666666667,4,3,3,80,0,0
237928,-66.6666666666667,4,3,2,80,0,0
238390,-66.6666666666667,4,3,3,60,0,0
238851,-50,4,3,3,90,0,0
239774,-66.6666666666667,4,3,3,90,0,0
240697,-100,4,3,2,70,0,0
241620,-100,4,3,3,60,0,0
242082,-100,4,3,2,70,0,0
242544,-100,4,3,2,80,0,0
246236,-100,4,3,2,75,0,0
246697,-100,4,3,2,70,0,0
247159,-100,4,3,2,65,0,0
247620,-100,4,3,3,50,0,0
247774,-100,4,3,2,60,0,0
248082,-100,4,3,2,50,0,0
249928,-80,4,3,2,80,0,1
255467,-80,4,3,2,85,0,1
255928,-80,4,3,2,90,0,1
256390,-80,4,3,2,95,0,1
256851,-80,4,3,3,60,0,1
256928,-80,4,3,2,70,0,1
257313,-80,4,3,2,80,0,1
262851,-80,4,3,3,70,0,1
263313,-80,4,3,2,60,0,1
263774,-80,4,3,2,70,0,1
264697,-100,4,3,2,70,0,0
269313,-66.6666666666667,4,3,2,70,0,0
269544,-100,4,3,2,70,0,0
270005,-100,4,3,2,60,0,0
271620,-100,4,3,3,60,0,0
272082,-100,4,3,2,70,0,0
275313,-100,4,3,3,60,0,0
275428,-100,4,3,2,60,0,0
275544,-100,4,3,2,50,0,0
275774,-100,4,3,2,70,0,0
277620,-100,4,3,3,60,0,0
277736,-100,4,3,2,80,0,0
277967,-100,4,3,3,60,0,0
278082,-100,4,3,2,80,0,0
278313,-100,4,3,3,60,0,0
278428,-100,4,3,2,80,0,0
278544,-80,4,3,3,70,0,0
278660,-80,4,3,2,70,0,0
278775,-80,4,3,3,70,0,0
278891,-80,4,3,2,70,0,0
279006,-80,4,3,2,70,0,0
279121,-80,4,3,2,60,0,0
279237,-80,4,3,2,70,0,0
279352,-80,4,3,2,60,0,0
279467,-66.6666666666667,4,3,2,80,0,1
286159,-66.6666666666667,4,3,2,60,0,1
286274,-66.6666666666667,4,3,2,80,0,1
291467,-57.1428571428571,4,3,2,80,0,1
292159,-66.6666666666667,4,3,2,80,0,1
293313,-66.6666666666667,4,3,3,70,0,1
293774,-66.6666666666667,4,3,3,60,0,1
293832,-66.6666666666667,4,3,2,70,0,1
294005,-66.6666666666667,4,3,2,60,0,1
294178,-100,4,3,2,60,0,0
294236,-66.6666666666667,4,3,2,80,0,1
300928,-66.6666666666667,4,3,2,70,0,1
301044,-66.6666666666667,4,3,2,80,0,1
306236,-57.1428571428571,4,3,2,80,0,1
306813,-66.6666666666667,4,3,2,80,0,1
307159,-66.6666666666667,4,3,3,60,0,1
307851,-66.6666666666667,4,3,3,50,0,1
308082,-66.6666666666667,4,3,2,70,0,1
308313,-66.6666666666667,4,3,3,50,0,1
308370,-66.6666666666667,4,3,2,60,0,1
308544,-66.6666666666667,4,3,2,50,0,1
308774,-66.6666666666667,4,3,2,40,0,1
308947,-100,4,3,2,40,0,0
309005,-57.1428571428571,4,3,2,80,0,1
309063,-57.1428571428571,4,3,2,90,0,1
315697,-57.1428571428571,4,3,2,70,0,1
315813,-57.1428571428571,4,3,2,90,0,1
316390,-57.1428571428571,4,3,2,70,0,1
316447,-57.1428571428571,4,3,2,90,0,1
320082,-50,4,3,2,90,0,1
321697,-57.1428571428571,4,3,3,80,0,1
321928,-57.1428571428571,4,3,2,90,0,1
322851,-57.1428571428571,4,3,3,80,0,1
323313,-57.1428571428571,4,3,3,60,0,1
323370,-57.1428571428571,4,3,2,70,0,1
323544,-57.1428571428571,4,3,2,60,0,1
323717,-100,4,3,2,60,0,0
323774,-66.6666666666667,4,3,2,80,0,1
323832,-66.6666666666667,4,3,2,90,0,1
327005,-66.6666666666667,4,3,3,80,0,1
327082,-66.6666666666667,4,3,2,90,0,1
328620,-66.6666666666667,4,3,2,80,0,1
328851,-66.6666666666667,4,3,2,70,0,1
329082,-66.6666666666667,4,3,2,60,0,1
329313,-100,4,2,1,30,0,0
330005,-100,4,3,2,60,0,0
330236,-100,4,3,2,50,0,0
331159,-80,4,3,2,80,0,1
336697,-80,4,3,2,85,0,1
337159,-80,4,3,2,90,0,1
337620,-80,4,3,3,95,0,1
338082,-80,4,3,3,60,0,1
338159,-80,4,3,2,70,0,1
338544,-80,4,3,2,80,0,1
344081,-80,4,3,2,70,0,1
344313,-80,4,3,2,80,0,1
344659,-80,4,3,2,85,0,1
345005,-80,4,3,2,90,0,1
345467,-80,4,3,2,80,0,1
345870,-100,4,3,2,80,0,0
345928,-80,4,3,2,80,0,1
349390,-80,4,3,3,70,0,1
349620,-80,4,3,2,80,0,1
351697,-80,4,3,3,70,0,1
351755,-80,4,3,2,80,0,1
351928,-80,4,3,3,70,0,1
351986,-80,4,3,2,80,0,1
352159,-80,4,3,3,70,0,1
352274,-80,4,3,2,80,0,1
352851,-80,4,3,2,70,0,1
353082,-80,4,3,2,60,0,1
353313,-80,4,3,2,80,0,1
358851,-80,4,3,2,70,0,1
359082,-80,4,3,2,80,0,1
359428,-80,4,3,2,85,0,1
359774,-80,4,3,3,70,0,1
359832,-80,4,3,2,70,0,1
360236,-80,4,3,2,90,0,1
360467,-80,4,3,3,80,0,1
360697,-100,4,3,3,70,0,0
361390,-100,4,3,2,70,0,0
361967,-100,4,3,3,70,0,0
363236,-100,4,3,2,70,0,0
363813,-100,4,3,3,70,0,0
364390,-100,4,3,2,80,0,0
367620,-100,4,3,3,80,0,0
368082,-100,4,3,3,90,0,0
371774,-80,4,3,2,90,0,0
373620,-66.6666666666667,4,3,2,80,0,0
375236,-50,4,3,2,80,0,0
375467,-50,4,3,2,30,0,0

[Colours]
Combo1 : 230,100,105
Combo2 : 65,65,255
Combo3 : 255,30,30
Combo4 : 105,130,135

[HitObjects]
188,192,1160,6,0,L|120:192,2,46.6666666666667,2|0|0,0:0|0:0|0:0,0:0:0:0:
304,192,1390,2,0,L|372:192,2,46.6666666666667,2|0|0,0:0|0:0|0:0,0:0:0:0:
80,192,1621,2,0,P|20:160|104:56,1,245,4|0,0:0|0:0,0:0:0:0:
304,56,2083,5,10,0:0:0:0:
408,56,2198,1,0,0:0:0:0:
316,56,2313,2,0,P|248:72|200:132,1,140,0|2,0:0|0:0,0:0:0:0:
380,192,2775,2,0,L|440:148,1,70
172,192,3006,1,10,0:0:0:0:
312,192,3236,2,0,L|256:148,1,70
396,264,3467,2,0,L|408:344,1,70,2|0,0:0|0:0,0:0:0:0:
176,264,3698,2,0,L|168:348,1,70
452,192,3929,5,2,0:0:0:0:
360,192,4044,1,0,0:0:0:0:
432,192,4160,2,0,P|480:152|428:116,1,140,0|2,0:0|0:0,0:0:0:0:
236,192,4621,2,0,L|173:156,1,70
440,192,4852,1,10,0:0:0:0:
300,192,5083,2,0,L|338:122,1,70
212,116,5313,2,0,L|248:51,1,70,2|0,0:0|0:0,0:0:0:0:
20,120,5544,2,0,L|12:32,1,70
368,52,5775,6,0,L|440:52,1,70,10|0,0:0|0:0,0:0:0:0:
296,52,6006,2,0,P|232:80|208:144,1,140,0|2,0:0|0:0,0:0:0:0:
404,192,6467,2,0,L|332:192,1,70
52,192,6698,1,10,0:0:0:0:
196,192,6929,2,0,L|252:148,1,70
108,128,7160,2,0,L|180:72,1,70,2|0,0:0|0:0,0:0:0:0:
412,148,7390,2,0,L|395:79,1,70
112,80,7621,5,10,0:0:0:0:
196,80,7736,1,0,0:0:0:0:
100,80,7852,2,0,P|36:102|20:168,1,140,0|2,0:0|0:0,0:0:0:0:
216,192,8313,2,0,L|153:156,1,70
400,192,8544,1,10,0:0:0:0:
232,192,8775,1,2,0:0:0:0:
108,192,8890,1,2,0:0:0:0:
432,192,9006,2,0,P|496:140|396:64,1,245,4|0,0:0|0:0,0:0:0:0:
188,64,9467,5,2,0:0:0:0:
132,64,9583,1,0,0:0:0:0:
236,64,9698,2,0,L|296:116,1,70
40,64,9929,1,10,0:0:0:0:
208,192,10160,2,0,L|136:192,1,70
456,192,10390,1,2,0:0:0:0:
272,192,10621,2,0,L|204:164,1,70
488,264,10852,2,0,L|500:344,1,70,10|0,0:0|0:0,0:0:0:0:
372,264,11083,2,0,L|304:324,1,70
32,264,11313,6,0,L|104:264,3,70,2|0|0|0,0:0|0:0|0:0|0:0,0:0:0:0:
368,192,11775,1,10,0:0:0:0:
188,192,12006,2,0,L|124:160,1,70
424,192,12236,1,2,0:0:0:0:
256,192,12467,2,0,L|316:156,1,70
48,40,12698,2,0,L|56:128,1,70,10|0,0:0|0:0,0:0:0:0:
180,40,12929,2,0,L|112:84,1,70
404,40,13160,6,0,L|445:118,1,70,10|0,0:0|0:0,0:0:0:0:
328,108,13390,2,0,L|324:192,1,70
64,192,13621,1,10,0:0:0:0:
16,252,13736,1,0,0:0:0:0:
52,315,13852,1,0,0:0:0:0:
120,315,13967,1,0,0:0:0:0:
384,312,14083,6,0,L|456:312,1,70,10|0,0:0|0:0,0:0:0:0:
208,240,14313,2,0,L|132:240,1,70,10|0,0:0|0:0,0:0:0:0:
420,152,14544,2,0,L|340:152,1,70,10|0,0:0|0:0,0:0:0:0:
104,96,14775,2,0,L|192:96,1,70,10|0,0:0|0:0,0:0:0:0:
456,88,15006,5,8,0:0:0:0:
490,133,15063,1,2,0:0:0:0:
481,189,15121,1,10,0:0:0:0:
435,223,15179,1,2,0:0:0:0:
228,224,15236,1,2,0:0:0:0:
164,247,15313,1,2,0:0:0:0:
136,310,15390,1,2,0:0:0:0:
446,316,15467,5,8,0:0:0:0:
505,262,15544,1,2,0:0:0:0:
436,223,15621,1,2,0:0:0:0:
136,310,15698,1,10,0:0:0:0:
88,248,15775,1,2,0:0:0:0:
76,172,15852,1,2,0:0:0:0:
368,88,15929,6,0,B|512:88|512:296|376:296|324:280|308:112|240:112|192:172|196:248,1,525
404,308,16852,6,0,L|492:308,1,87.5,4|2,0:0|0:0,0:0:0:0:
164,248,17083,2,0,L|72:248,2,87.5,8|0|0,0:0|0:0|0:0,0:0:0:0:
428,192,17429,2,0,L|500:144,1,87.5,0|2,0:0|0:0,0:0:0:0:
372,148,17660,1,2,0:0:0:0:
152,144,17775,2,0,L|64:144,2,87.5,8|2|2,0:0|0:0|0:0,0:0:0:0:
372,64,18121,2,0,L|292:20,1,87.5,8|2,0:0|0:0,0:0:0:0:
392,64,18352,1,2,0:0:0:0:
132,64,18467,2,0,L|36:64,1,87.5,8|0,0:0|0:0,0:0:0:0:
352,144,18698,6,0,L|400:252,1,87.5,2|2,0:0|0:0,0:0:0:0:
168,232,18929,2,0,L|252:256,2,87.5,8|0|0,0:0|0:0|0:0,0:0:0:0:
264,232,19275,1,0,0:0:0:0:
36,232,19390,2,0,L|100:168,1,87.5,2|2,0:0|0:0,0:0:0:0:
340,152,19621,2,0,L|244:128,2,87.5,10|2|2,0:0|0:0|0:0,0:0:0:0:
120,60,19967,2,0,L|24:36,2,87.5,10|0|2,0:0|0:0|0:0,0:0:0:0:
332,64,20313,1,8,0:0:0:0:
216,64,20429,1,8,0:0:0:0:
424,64,20544,6,0,L|424:156,1,87.5,6|2,0:0|0:0,0:0:0:0:
244,152,20775,2,0,L|164:192,2,87.5,8|2|2,0:0|0:0|0:0,0:0:0:0:
120,272,21121,2,0,L|40:312,2,87.5,8|2|2,0:0|0:0|0:0,0:0:0:0:
336,272,21467,2,0,L|408:212,1,87.5,8|2,0:0|0:0,0:0:0:0:
316,272,21698,1,2,0:0:0:0:
464,192,21813,2,0,L|380:128,1,87.5,8|2,0:0|0:0,0:0:0:0:
288,140,22044,1,2,0:0:0:0:
67,138,22160,2,0,L|155:138,1,87.5,8|0,0:0|0:0,0:0:0:0:
374,138,22390,6,0,L|418:61,1,87.5,6|0,0:0|0:0,0:0:0:0:
155,138,22621,2,0,L|93:75,1,87.5,8|0,0:0|0:0,0:0:0:0:
402,138,22852,2,0,L|479:94,1,87.5,2|0,0:0|0:0,0:0:0:0:
126,138,23083,2,0,L|41:115,1,87.5,8|0,0:0|0:0,0:0:0:0:
432,220,23313,6,0,L|400:132,1,87.5,8|2,0:0|0:0,0:0:0:0:
96,220,23544,2,0,L|128:132,1,87.5,8|2,0:0|0:0,0:0:0:0:
402,137,23775,1,8,0:0:0:0:
456,196,23852,1,2,0:0:0:0:
392,252,23929,1,2,0:0:0:0:
320,224,24006,1,2,0:0:0:0:
256,256,24083,1,2,0:0:0:0:
244,328,24160,1,2,0:0:0:0:
420,220,24236,6,0,L|475:323,1,87.5,6|2,0:0|0:0,0:0:0:0:
188,88,24467,2,0,L|96:88,2,87.5,8|0|0,0:0|0:0|0:0,0:0:0:0:
407,164,24813,2,0,L|324:212,1,87.5,2|2,0:0|0:0,0:0:0:0:
228,208,25044,1,2,0:0:0:0:
448,296,25160,2,0,L|376:228,2,87.5,8|2|2,0:0|0:0|0:0,0:0:0:0:
184,296,25506,2,0,L|264:340,1,87.5,8|2,0:0|0:0,0:0:0:0:
164,296,25736,1,2,0:0:0:0:
404,296,25852,2,0,L|500:296,1,87.5,8|2,0:0|0:0,0:0:0:0:
224,192,26083,6,0,L|132:192,1,87.5,2|2,0:0|0:0,0:0:0:0:
400,104,26313,2,0,L|488:104,2,87.5,8|0|2,0:0|0:0|0:0,0:0:0:0:
296,104,26660,1,2,0:0:0:0:
52,104,26775,2,0,L|156:104,1,87.5,2|2,0:0|0:0,0:0:0:0:
424,192,27006,2,0,L|520:216,2,87.5,8|2|2,0:0|0:0|0:0,0:0:0:0:
204,216,27352,2,0,L|119:194,2,87.5,8|2|2,0:0|0:0|0:0,0:0:0:0:
424,268,27698,1,8,0:0:0:0:
312,268,27813,1,8,0:0:0:0:
92,328,27929,6,0,L|76:237,1,87.5,6|2,0:0|0:0,0:0:0:0:
204,216,28160,2,0,L|145:140,2,87.5,8|2|2,0:0|0:0|0:0,0:0:0:0:
72,144,28506,2,0,L|131:68,2,87.5,8|2|2,0:0|0:0|0:0,0:0:0:0:
292,84,28852,2,0,L|272:172,1,87.5,8|2,0:0|0:0,0:0:0:0:
184,168,29083,1,2,0:0:0:0:
328,84,29198,2,0,L|308:172,1,87.5,8|2,0:0|0:0,0:0:0:0:
220,168,29429,1,2,0:0:0:0:
392,244,29544,2,0,L|308:280,1,87.5,8|2,0:0|0:0,0:0:0:0:
96,264,29775,6,0,L|8:264,1,87.5,2|2,0:0|0:0,0:0:0:0:
228,188,30006,1,12,0:0:0:0:
316,188,30121,1,2,0:0:0:0:
404,188,30236,1,2,0:0:0:0:
184,104,30352,1,12,0:0:0:0:
292,104,30467,1,2,0:0:0:0:
400,104,30583,1,2,0:0:0:0:
140,32,30698,6,0,L|48:32,1,87.5,8|2,0:0|0:0,0:0:0:0:
364,104,30929,2,0,L|456:104,1,87.5,8|2,0:0|0:0,0:0:0:0:
240,192,31160,1,8,0:0:0:0:
356,192,31275,1,2,0:0:0:0:
256,192,31390,1,2,0:0:0:0:
340,192,31506,1,2,0:0:0:0:
120,292,31621,6,0,L|32:292,1,87.5,6|2,0:0|0:0,0:0:0:0:
256,192,31852,2,0,L|348:148,2,87.5,8|0|0,0:0|0:0|0:0,0:0:0:0:
472,192,32198,2,0,L|400:144,1,87.5,2|2,0:0|0:0,0:0:0:0:
496,144,32429,1,2,0:0:0:0:
188,80,32544,2,0,L|100:80,1,87.5,8|2,0:0|0:0,0:0:0:0:
196,80,32775,1,2,0:0:0:0:
456,44,32890,2,0,L|364:44,1,87.5,8|2,0:0|0:0,0:0:0:0:
464,44,33121,1,2,0:0:0:0:
156,80,33236,2,0,L|60:80,1,87.5,8|0,0:0|0:0,0:0:0:0:
396,288,33467,6,0,L|492:288,1,87.5,2|2,0:0|0:0,0:0:0:0:
264,188,33698,2,0,L|356:144,2,87.5,8|0|0,0:0|0:0|0:0,0:0:0:0:
44,188,34044,2,0,L|116:140,1,87.5,2|2,0:0|0:0,0:0:0:0:
20,140,34275,1,2,0:0:0:0:
304,76,34390,2,0,L|212:76,1,87.5,8|2,0:0|0:0,0:0:0:0:
312,76,34621,1,2,0:0:0:0:
92,40,34736,2,0,L|0:40,1,87.5,8|2,0:0|0:0,0:0:0:0:
100,40,34967,1,2,0:0:0:0:
400,76,35083,2,0,L|496:76,1,87.5,8|0,0:0|0:0,0:0:0:0:
180,120,35313,6,0,L|92:120,1,87.5,6|2,0:0|0:0,0:0:0:0:
216,192,35544,1,8,0:0:0:0:
304,192,35660,1,2,0:0:0:0:
392,192,35775,1,2,0:0:0:0:
216,272,35890,1,8,0:0:0:0:
281,272,36006,1,2,0:0:0:0:
347,272,36121,1,2,0:0:0:0:
128,192,36236,2,0,L|216:192,2,87.5,8|2|2,0:0|0:0|0:0,0:0:0:0:
271,120,36583,2,0,L|179:120,2,87.5,8|2|2,0:0|0:0|0:0,0:0:0:0:
492,120,36929,2,0,L|392:120,1,87.5,8|2,0:0|0:0,0:0:0:0:
184,120,37160,5,2,0:0:0:0:
288,120,37275,1,2,0:0:0:0:
68,120,37390,1,10,0:0:0:0:
28,168,37448,1,2,0:0:0:0:
28,228,37506,1,2,0:0:0:0:
84,248,37563,1,2,0:0:0:0:
372,192,37621,1,10,0:0:0:0:
424,212,37679,1,2,0:0:0:0:
432,272,37736,1,2,0:0:0:0:
388,320,37794,1,2,0:0:0:0:
172,328,37852,2,0,L|80:328,1,87.5,8|2,0:0|0:0,0:0:0:0:
128,328,38025,1,2,0:0:0:0:
284,192,38083,6,0,L|380:192,1,87.5,4|2,0:0|0:0,0:0:0:0:
155,120,38313,2,0,P|88:88|72:36,1,131.25,12|0,0:0|0:0,0:0:0:0:
264,24,38544,1,8,0:0:0:0:
404,24,38660,1,8,0:0:0:0:
284,24,38775,1,2,0:0:0:0:
388,24,38890,1,2,0:0:0:0:
112,192,39006,6,0,L|16:192,1,87.5,6|2,0:0|0:0,0:0:0:0:
332,60,39236,2,0,L|424:60,2,87.5,8|0|0,0:0|0:0|0:0,0:0:0:0:
112,136,39583,2,0,L|15:136,1,87.5,2|2,0:0|0:0,0:0:0:0:
132,136,39813,1,2,0:0:0:0:
352,192,39929,2,0,L|272:236,1,87.5,8|2,0:0|0:0,0:0:0:0:
364,232,40160,1,2,0:0:0:0:
144,236,40275,2,0,L|64:280,1,87.5,8|2,0:0|0:0,0:0:0:0:
156,276,40506,1,2,0:0:0:0:
400,276,40621,2,0,L|488:276,1,87.5,8|0,0:0|0:0,0:0:0:0:
200,192,40852,6,0,L|108:192,1,87.5,2|2,0:0|0:0,0:0:0:0:
376,104,41083,2,0,L|464:104,2,87.5,8|0|0,0:0|0:0|0:0,0:0:0:0:
288,104,41429,1,2,0:0:0:0:
68,104,41544,2,0,L|172:104,1,87.5,2|2,0:0|0:0,0:0:0:0:
384,192,41775,2,0,L|288:167,2,87.5,8|2|2,0:0|0:0|0:0,0:0:0:0:
144,216,42121,2,0,L|240:240,2,87.5,8|2|2,0:0|0:0|0:0,0:0:0:0:
408,296,42467,2,0,L|500:296,1,87.5,8|0,0:0|0:0,0:0:0:0:
204,296,42698,6,0,L|100:296,1,87.5,6|2,0:0|0:0,0:0:0:0:
248,216,42929,2,0,L|252:108,1,87.5,8|0,0:0|0:0,0:0:0:0:
144,132,43160,1,0,0:0:0:0:
320,220,43275,2,0,L|324:120,1,87.5,8|0,0:0|0:0,0:0:0:0:
220,136,43506,1,2,0:0:0:0:
464,192,43621,5,8,0:0:0:0:
399,192,43736,1,2,0:0:0:0:
333,192,43852,1,2,0:0:0:0:
200,272,43967,1,8,0:0:0:0:
265,272,44083,1,2,0:0:0:0:
331,272,44198,1,2,0:0:0:0:
200,192,44313,1,8,0:0:0:0:
333,192,44429,1,8,0:0:0:0:
113,108,44544,6,0,L|25:108,1,87.5,6|2,0:0|0:0,0:0:0:0:
244,108,44775,1,8,0:0:0:0:
144,108,44890,1,2,0:0:0:0:
44,108,45006,1,2,0:0:0:0:
280,192,45121,1,8,0:0:0:0:
172,192,45236,1,2,0:0:0:0:
64,192,45352,1,2,0:0:0:0:
352,184,45467,5,4,0:0:0:0:
408,240,45544,1,2,0:0:0:0:
352,296,45621,1,2,0:0:0:0:
60,272,45698,1,2,0:0:0:0:
93,348,45775,1,2,0:0:0:0:
176,361,45852,1,2,0:0:0:0:
352,184,45929,2,0,L|448:184,1,87.5,8|8,0:0|0:0,0:0:0:0:
312,112,46160,2,0,L|404:112,1,87.5,8|8,0:0|0:0,0:0:0:0:
152,312,46390,6,0,L|148:232,1,70,2|0,0:0|0:0,0:0:0:0:
36,192,46621,2,0,L|48:112,1,70
300,124,46852,2,0,L|364:88,1,70,8|0,0:0|0:0,0:0:0:0:
248,64,47083,2,0,L|168:20,1,70
436,124,47313,2,0,P|480:164|428:200,1,140,2|0,0:0|0:0,0:0:0:0:
340,200,47660,1,0,0:0:0:0:
96,200,47775,6,0,L|168:200,1,70,8|0,0:0|0:0,0:0:0:0:
272,272,48006,2,0,L|344:272,1,70
164,124,48236,2,0,L|240:124,1,70,2|0,0:0|0:0,0:0:0:0:
340,76,48467,2,0,L|420:76,1,70
160,48,48698,2,0,P|104:80|96:156,1,140,8|2,0:0|0:0,0:0:0:0:
152,192,49006,1,2,0:0:0:0:
224,192,49083,1,2,0:0:0:0:
428,192,49160,6,0,P|468:216|420:272,1,140,10|2,0:0|0:0,0:0:0:0:
336,272,49506,1,0,0:0:0:0:
120,272,49621,2,0,L|184:224,1,70,10|0,0:0|0:0,0:0:0:0:
288,192,49852,2,0,L|212:160,1,70,2|0,0:0|0:0,0:0:0:0:
398,112,50083,1,10,0:0:0:0:
464,152,50160,1,2,0:0:0:0:
464,228,50236,1,2,0:0:0:0:
156,164,50313,1,2,0:0:0:0:
92,124,50390,1,2,0:0:0:0:
92,48,50467,1,2,0:0:0:0:
328,48,50544,6,0,L|398:48,2,70,12|2|2,0:0|0:0|0:0,0:0:0:0:
116,124,50890,2,0,L|46:124,2,70,12|2|2,0:0|0:0|0:0,0:0:0:0:
292,240,51236,2,0,L|222:240,2,70,12|2|2,0:0|0:0|0:0,0:0:0:0:
116,336,51582,2,0,L|186:336,2,70,12|2|2,0:0|0:0|0:0,0:0:0:0:
292,192,51928,5,8,0:0:0:0:
116,192,52044,1,8,0:0:0:0:
324,192,52159,1,8,0:0:0:0:
84,192,52274,1,8,0:0:0:0:
432,192,52390,6,0,P|480:172|468:96,1,140,4|8,0:0|0:0,0:0:0:0:
364,96,52736,1,0,0:0:0:0:
260,96,52851,2,0,L|256:188,1,70,2|2,0:0|0:0,0:0:0:0:
432,192,53082,2,0,L|440:268,1,70,8|2,0:0|0:0,0:0:0:0:
312,264,53313,2,0,L|408:264,1,70,2|0,0:0|0:0,0:0:0:0:
172,304,53544,2,0,L|76:304,1,70,8|0,0:0|0:0,0:0:0:0:
228,232,53774,2,0,L|132:232,1,70,2|0,0:0|0:0,0:0:0:0:
336,160,54005,2,0,L|416:160,1,70,8|0,0:0|0:0,0:0:0:0:
155,159,54236,6,0,P|108:196|157:231,1,140,2|8,0:0|0:0,0:0:0:0:
240,252,54582,1,0,0:0:0:0:
368,252,54697,2,0,L|372:160,1,70,2|2,0:0|0:0,0:0:0:0:
196,156,54928,2,0,L|188:80,1,70,8|2,0:0|0:0,0:0:0:0:
308,88,55159,2,0,L|384:88,1,70,2|2,0:0|0:0,0:0:0:0:
188,88,55390,2,0,L|100:88,1,70,8|0,0:0|0:0,0:0:0:0:
244,156,55620,2,0,L|148:156,1,70,2|0,0:0|0:0,0:0:0:0:
400,156,55851,2,0,P|456:212|408:252,1,157.500006008148,6|0,0:0|0:0,0:0:0:0:
200,252,56082,6,0,L|124:252,2,70,8|2|2,0:0|0:0|0:0,0:0:0:0:
376,252,56428,2,0,L|456:252,1,70,8|2,0:0|0:0,0:0:0:0:
236,168,56659,2,0,L|320:168,1,70,8|2,0:0|0:0,0:0:0:0:
484,84,56890,2,0,L|392:84,1,70,8|2,0:0|0:0,0:0:0:0:
204,48,57120,2,0,L|296:48,1,70,8|2,0:0|0:0,0:0:0:0:
96,120,57351,2,0,L|192:120,1,70,8|2,0:0|0:0,0:0:0:0:
376,192,57582,2,0,L|304:192,1,70,8|2,0:0|0:0,0:0:0:0:
216,192,57813,1,8,0:0:0:0:
392,84,57928,6,0,L|468:84,2,70,0|2|2,0:0|0:0|0:0,0:0:0:0:
216,84,58274,2,0,L|136:84,1,70,8|2,0:0|0:0,0:0:0:0:
356,168,58505,2,0,L|272:168,1,70,8|2,0:0|0:0,0:0:0:0:
108,252,58736,2,0,L|200:252,1,70,8|2,0:0|0:0,0:0:0:0:
356,288,58967,1,8,0:0:0:0:
148,328,59082,2,0,L|56:328,1,70,2|8,0:0|0:0,0:0:0:0:
286,168,59313,2,0,L|372:168,1,70,2|8,0:0|0:0,0:0:0:0:
108,168,59544,2,0,L|36:168,1,70,8|8,0:0|0:0,0:0:0:0:
316,168,59774,6,0,P|332:220|264:240,1,140,6|8,0:0|0:0,0:0:0:0:
182,240,60120,1,0,0:0:0:0:
288,240,60236,2,0,L|260:152,1,70,2|2,0:0|0:0,0:0:0:0:
84,148,60467,2,0,L|124:84,1,70,8|2,0:0|0:0,0:0:0:0:
248,88,60697,2,0,L|318:88,1,70,2|0,0:0|0:0,0:0:0:0:
140,192,60928,2,0,L|76:142,1,70,8|0,0:0|0:0,0:0:0:0:
296,196,61159,2,0,L|372:196,1,70,2|0,0:0|0:0,0:0:0:0:
240,268,61390,2,0,L|320:268,1,70,8|0,0:0|0:0,0:0:0:0:
100,268,61620,6,0,P|40:232|28:160,1,140,2|8,0:0|0:0,0:0:0:0:
108,184,61967,1,0,0:0:0:0:
304,192,62082,2,0,L|216:156,1,70,2|2,0:0|0:0,0:0:0:0:
452,172,62313,2,0,P|496:132|448:88,1,140,8|2,0:0|0:0,0:0:0:0:
364,88,62659,1,2,0:0:0:0:
188,132,62774,2,0,L|242:87,1,70,8|0,0:0|0:0,0:0:0:0:
36,192,63005,2,0,L|100:232,1,70,2|0,0:0|0:0,0:0:0:0:
328,192,63236,2,0,L|436:192,1,105.000004005432,8|0,0:0|0:0,0:0:0:0:
152,192,63467,6,0,L|140:284,1,70,6|0,0:0|0:0,0:0:0:0:
268,260,63697,2,0,L|268:336,1,70,8|0,0:0|0:0,0:0:0:0:
396,328,63928,2,0,L|404:252,1,70,2|0,0:0|0:0,0:0:0:0:
152,192,64159,2,0,P|60:152|104:72,1,210.000008010865,8|2,0:0|0:0,0:0:0:0:
188,72,64505,1,2,0:0:0:0:
364,72,64620,1,8,0:0:0:0:
152,192,64851,1,2,0:0:0:0:
198,192,64928,1,2,0:0:0:0:
245,192,65005,1,2,0:0:0:0:
412,192,65082,2,0,L|496:192,1,70,8|0,0:0|0:0,0:0:0:0:
236,276,65313,6,0,L|92:276,1,140,2|8,0:0|0:0,0:0:0:0:
308,352,65659,2,0,L|452:352,1,140,2|2,0:0|0:0,0:0:0:0:
236,276,66005,2,0,L|236:200,1,70,8|2,0:0|0:0,0:0:0:0:
448,152,66236,1,2,0:0:0:0:
401,152,66313,1,2,0:0:0:0:
354,152,66390,1,2,0:0:0:0:
140,152,66467,2,0,P|72:128|44:44,1,157.500006008148,8|0,0:0|0:0,0:0:0:0:
224,56,66697,1,2,0:0:0:0:
284,56,66774,1,2,0:0:0:0:
341,56,66851,1,2,0:0:0:0:
128,56,66928,2,0,P|84:100|144:152,1,157.500006008148,8|0,0:0|0:0,0:0:0:0:
352,192,67159,6,0,B|423:192|423:192|448:264,1,140,6|8,0:0|0:0,0:0:0:0:
344,264,67505,1,0,0:0:0:0:
244,264,67620,2,0,L|152:228,1,70,2|2,0:0|0:0,0:0:0:0:
356,120,67851,2,0,L|427:120,1,70,8|2,0:0|0:0,0:0:0:0:
300,44,68082,2,0,L|396:44,1,70,2|0,0:0|0:0,0:0:0:0:
160,44,68313,2,0,L|64:44,1,70,8|0,0:0|0:0,0:0:0:0:
268,120,68544,2,0,L|364:120,1,70,2|0,0:0|0:0,0:0:0:0:
160,192,68774,2,0,L|64:192,1,70,8|0,0:0|0:0,0:0:0:0:
372,192,69005,6,0,P|440:244|444:308,1,140,2|8,0:0|0:0,0:0:0:0:
352,284,69351,1,0,0:0:0:0:
448,192,69467,2,0,L|452:100,1,70,2|2,0:0|0:0,0:0:0:0:
276,120,69697,2,0,L|196:120,1,70,8|2,0:0|0:0,0:0:0:0:
296,36,69928,2,0,L|372:36,1,70,2|0,0:0|0:0,0:0:0:0:
152,36,70159,2,0,L|232:36,1,70,8|0,0:0|0:0,0:0:0:0:
364,180,70390,2,0,L|368:104,1,70,2|0,0:0|0:0,0:0:0:0:
156,108,70620,2,0,P|88:128|94:206,1,157.500006008148,8|0,0:0|0:0,0:0:0:0:
308,112,70851,6,0,L|384:112,2,70,6|2|2,0:0|0:0|0:0,0:0:0:0:
132,112,71197,2,0,L|200:180,1,70,8|2,0:0|0:0,0:0:0:0:
392,192,71428,2,0,L|308:192,1,70,8|2,0:0|0:0,0:0:0:0:
144,248,71659,2,0,L|52:248,1,70,8|2,0:0|0:0,0:0:0:0:
320,276,71890,2,0,L|412:276,1,70,8|2,0:0|0:0,0:0:0:0:
212,348,72120,2,0,L|308:348,1,70,8|2,0:0|0:0,0:0:0:0:
460,348,72351,1,8,0:0:0:0:
144,248,72467,2,0,L|214:248,1,70,2|2,0:0|0:0,0:0:0:0:
424,248,72697,6,0,L|500:248,2,70,8|2|2,0:0|0:0|0:0,0:0:0:0:
248,248,73044,2,0,L|168:248,1,70,8|2,0:0|0:0,0:0:0:0:
388,168,73274,2,0,L|472:168,1,70,8|2,0:0|0:0,0:0:0:0:
280,80,73505,2,0,L|372:80,1,70,8|2,0:0|0:0,0:0:0:0:
172,80,73736,1,8,0:0:0:0:
380,248,73851,2,0,L|468:248,1,70,2|8,0:0|0:0,0:0:0:0:
204,324,74082,2,0,L|134:324,1,70,2|8,0:0|0:0,0:0:0:0:
416,324,74313,2,0,L|346:324,1,70,8|8,0:0|0:0,0:0:0:0:
56,304,74544,6,0,P|14:252|40:191,1,140,6|8,0:0|0:0,0:0:0:0:
143,120,74890,1,0,0:0:0:0:
243,120,75005,2,0,L|247:212,1,70,2|2,0:0|0:0,0:0:0:0:
424,180,75236,2,0,L|416:256,1,70,8|2,0:0|0:0,0:0:0:0:
232,284,75467,2,0,L|136:284,1,70,2|0,0:0|0:0,0:0:0:0:
288,356,75697,2,0,L|192:356,1,70,8|0,0:0|0:0,0:0:0:0:
394,192,75928,2,0,L|490:192,1,70,2|0,0:0|0:0,0:0:0:0:
288,120,76159,2,0,L|206:120,1,70,8|0,0:0|0:0,0:0:0:0:
464,192,76390,6,0,P|418:258|355:250,1,140,2|8,0:0|0:0,0:0:0:0:
276,256,76736,1,0,0:0:0:0:
394,192,76851,2,0,L|398:100,1,70,2|2,0:0|0:0,0:0:0:0:
152,124,77082,2,0,L|68:124,1,70,8|0,0:0|0:0,0:0:0:0:
292,124,77313,1,8,0:0:0:0:
192,204,77428,1,2,0:0:0:0:
368,272,77544,2,0,L|400:352,1,70,8|2,0:0|0:0,0:0:0:0:
268,340,77774,2,0,L|209:303,1,70,2|2,0:0|0:0,0:0:0:0:
336,192,78005,2,0,L|406:192,1,70,2|2,0:0|0:0,0:0:0:0:
84,192,78236,6,0,P|40:168|24:68,1,140,6|2,0:0|0:0,0:0:0:0:
116,88,78582,1,2,0:0:0:0:
292,88,78697,2,0,L|304:172,1,70,8|2,0:0|0:0,0:0:0:0:
116,88,78928,2,0,L|136:236,1,140,6|2,0:0|0:0,0:0:0:0:
232,240,79274,1,2,0:0:0:0:
296,296,79390,1,2,0:0:0:0:
327,376,79505,1,2,0:0:0:0:
116,376,79620,2,0,P|76:368|32:264,1,140,8|2,0:0|0:0,0:0:0:0:
128,288,79967,1,2,0:0:0:0:
372,232,80082,6,0,L|372:88,1,140,6|2,0:0|0:0,0:0:0:0:
124,192,80428,2,0,L|112:52,1,140,6|2,0:0|0:0,0:0:0:0:
252,36,80774,2,0,L|332:36,1,70,8|2,0:0|0:0,0:0:0:0:
124,192,81005,2,0,L|32:192,3,70
263,194,81467,5,4,0:0:0:0:
304,232,81524,1,2,0:0:0:0:
284,284,81582,1,2,0:0:0:0:
232,288,81640,1,2,0:0:0:0:
188,272,81697,1,2,0:0:0:0:
132,272,81755,1,2,0:0:0:0:
117,327,81813,1,2,0:0:0:0:
156,360,81870,1,2,0:0:0:0:
328,356,81928,6,0,L|412:356,1,70,6|2,0:0|0:0,0:0:0:0:
496,276,82159,2,0,L|420:276,1,70,2|2,0:0|0:0,0:0:0:0:
284,192,82390,2,0,L|214:192,1,70,8|2,0:0|0:0,0:0:0:0:
312,112,82620,2,0,L|382:112,1,70,2|2,0:0|0:0,0:0:0:0:
100,112,82851,2,0,L|80:188,1,70,8|0,0:0|0:0,0:0:0:0:
200,192,83082,2,0,L|200:276,1,70,2|2,0:0|0:0,0:0:0:0:
312,192,83313,2,0,L|312:276,1,70,8|2,0:0|0:0,0:0:0:0:
428,112,83544,2,0,L|448:188,1,70,2|2,0:0|0:0,0:0:0:0:
176,60,83774,6,0,P|112:100|100:164,1,140,10|2,0:0|0:0,0:0:0:0:
188,148,84120,1,2,0:0:0:0:
328,180,84236,2,0,L|420:180,1,70,8|2,0:0|0:0,0:0:0:0:
272,260,84467,1,2,0:0:0:0:
176,260,84582,1,2,0:0:0:0:
316,260,84697,2,0,L|392:260,1,70,8|2,0:0|0:0,0:0:0:0:
272,336,84928,2,0,L|368:336,1,70,2|2,0:0|0:0,0:0:0:0:
132,192,85159,2,0,L|56:192,1,70,8|2,0:0|0:0,0:0:0:0:
176,116,85390,2,0,L|80:116,1,70,2|2,0:0|0:0,0:0:0:0:
316,116,85620,6,0,L|392:116,3,70,12|2|2|2,0:0|0:0|0:0|0:0,0:0:0:0:
149,192,86082,2,8,L|61:192,3,87.5,8|2|2|0,0:0|0:0|0:0|0:0,0:0:0:0:
304,256,86544,2,0,L|416:256,3,105.000004005432,8|2|2|2,0:0|0:0|0:0|0:0,0:0:0:0:
156,192,87005,2,8,L|72:192,1,70,8|2,0:0|0:0,0:0:0:0:
272,192,87236,1,8,0:0:0:0:
86,192,87351,1,8,0:0:0:0:
318,192,87467,6,0,L|410:192,1,70,6|2,0:0|0:0,0:0:0:0:
178,104,87697,2,0,L|86:104,1,70,8|0,0:0|0:0,0:0:0:0:
234,104,87928,2,0,L|314:104,1,70,2|0,0:0|0:0,0:0:0:0:
92,104,88159,2,0,L|20:104,1,70,8|0,0:0|0:0,0:0:0:0:
148,32,88390,2,0,L|56:32,1,70,2|0,0:0|0:0,0:0:0:0:
204,32,88620,2,0,L|300:32,1,70,8|0,0:0|0:0,0:0:0:0:
72,192,88851,6,0,L|16:192,2,46.6666666666667,2|2|2,0:0|0:0|0:0,0:0:0:0:
264,248,89082,2,0,L|320:248,2,46.6666666666667,2|2|2,0:0|0:0|0:0,0:0:0:0:
64,148,89313,5,14,0:0:0:0:
40,92,89390,1,2,0:0:0:0:
64,32,89467,1,2,0:0:0:0:
108,32,89544,1,2,0:0:0:0:
164,32,89620,1,2,0:0:0:0:
228,32,89697,1,2,0:0:0:0:
64,148,89774,1,10,0:0:0:0:
25,199,89851,1,2,0:0:0:0:
26,263,89928,1,2,0:0:0:0:
65,313,90005,1,2,0:0:0:0:
127,330,90082,1,2,0:0:0:0:
186,305,90159,1,2,0:0:0:0:
352,172,90236,5,10,0:0:0:0:
411,150,90313,1,2,0:0:0:0:
427,89,90390,1,2,0:0:0:0:
388,40,90467,1,2,0:0:0:0:
325,44,90544,1,2,0:0:0:0:
291,97,90620,1,2,0:0:0:0:
476,192,90697,5,10,0:0:0:0:
495,277,90774,1,2,0:0:0:0:
421,324,90851,1,2,0:0:0:0:
170,305,90928,1,2,0:0:0:0:
96,257,91005,1,2,0:0:0:0:
115,172,91082,1,2,0:0:0:0:
416,156,91159,5,14,0:0:0:0:
469,143,91236,1,2,0:0:0:0:
479,94,91313,1,2,0:0:0:0:
435,61,91390,1,2,0:0:0:0:
381,47,91467,1,2,0:0:0:0:
325,44,91544,1,2,0:0:0:0:
115,172,91620,1,10,0:0:0:0:
45,191,91697,1,2,0:0:0:0:
28,256,91774,1,2,0:0:0:0:
45,322,91851,1,2,0:0:0:0:
115,341,91928,1,2,0:0:0:0:
174,300,92005,1,2,0:0:0:0:
352,192,92082,5,10,0:0:0:0:
367,129,92159,1,2,0:0:0:0:
346,68,92236,1,2,0:0:0:0:
295,29,92313,1,2,0:0:0:0:
231,25,92390,1,2,0:0:0:0:
175,57,92467,1,2,0:0:0:0:
352,192,92544,2,0,P|424:240|340:288,1,210.000008010865,10|2,0:0|0:0,0:0:0:0:
276,276,92851,1,2,0:0:0:0:
232,216,92928,1,2,0:0:0:0:
400,120,93005,6,0,L|496:120,1,93.3333333333333,8|2,0:0|0:0,0:0:0:0:
232,216,93236,2,0,L|136:216,1,93.3333333333333,8|2,0:0|0:0,0:0:0:0:
376,292,93467,2,0,L|472:292,1,93.3333333333333,8|2,0:0|0:0,0:0:0:0:
140,332,93697,2,0,L|44:332,1,93.3333333333333,8|2,0:0|0:0,0:0:0:0:
380,208,93928,5,10,0:0:0:0:
435,169,94005,1,2,0:0:0:0:
442,102,94082,1,2,0:0:0:0:
156,76,94159,1,2,0:0:0:0:
69,100,94236,1,2,0:0:0:0:
38,184,94313,1,2,0:0:0:0:
380,208,94390,2,0,P|500:260|416:344,1,291.666666666667,8|0,0:0|0:0,0:0:0:0:
206,258,94851,6,0,L|158:258,2,46.6666666666667,2|2|2,0:0|0:0|0:0,0:0:0:0:
396,100,95082,1,4,0:0:0:0:
264,216,95313,1,2,0:0:0:0:
312,216,95390,1,2,0:0:0:0:
360,216,95467,1,2,0:0:0:0:
124,76,95544,1,4,0:0:0:0:
280,28,95774,1,2,0:0:0:0:
340,28,95851,1,2,0:0:0:0:
400,28,95928,1,2,0:0:0:0:
118,192,96005,2,0,L|6:192,1,93.3333333333333,8|2,0:0|0:0,0:0:0:0:
356,292,96236,2,0,L|468:292,1,93.3333333333333,8|2,0:0|0:0,0:0:0:0:
172,76,96697,6,0,L|84:76,1,87.5,6|2,0:0|0:0,0:0:0:0:
348,136,96928,2,0,L|440:136,2,87.5,8|0|0,0:0|0:0|0:0,0:0:0:0:
84,192,97274,2,0,L|12:240,1,87.5,2|2,0:0|0:0,0:0:0:0:
140,236,97505,1,2,0:0:0:0:
360,240,97620,2,0,L|448:240,2,87.5,8|2|2,0:0|0:0|0:0,0:0:0:0:
140,320,97967,2,0,L|36:320,1,87.5,8|2,0:0|0:0,0:0:0:0:
168,320,98197,1,2,0:0:0:0:
472,320,98313,2,0,L|384:320,1,87.5,8|0,0:0|0:0,0:0:0:0:
76,232,98544,6,0,L|40:152,1,87.5,2|2,0:0|0:0,0:0:0:0:
304,152,98774,2,0,L|392:152,2,87.5,8|0|0,0:0|0:0|0:0,0:0:0:0:
216,152,99120,1,2,0:0:0:0:
456,152,99236,2,0,L|380:100,1,87.5,2|2,0:0|0:0,0:0:0:0:
144,44,99467,2,0,L|240:68,2,87.5,8|2|2,0:0|0:0|0:0,0:0:0:0:
384,24,99813,2,0,L|288:48,2,87.5,8|2|2,0:0|0:0|0:0,0:0:0:0:
144,120,100159,1,8,0:0:0:0:
324,120,100274,1,8,0:0:0:0:
56,120,100390,6,0,L|144:120,1,87.5,6|2,0:0|0:0,0:0:0:0:
388,232,100620,2,0,L|468:192,2,87.5,8|2|2,0:0|0:0|0:0,0:0:0:0:
244,232,100967,2,0,L|324:192,2,87.5,8|2|2,0:0|0:0|0:0,0:0:0:0:
468,112,101313,2,0,L|364:112,1,87.5,8|2,0:0|0:0,0:0:0:0:
488,112,101544,1,2,0:0:0:0:
312,112,101659,2,0,L|216:112,1,87.5,8|2,0:0|0:0,0:0:0:0:
332,112,101890,1,2,0:0:0:0:
92,192,102005,2,0,L|188:192,1,87.5,8|0,0:0|0:0,0:0:0:0:
404,192,102236,6,0,L|448:269,1,87.5,6|0,0:0|0:0,0:0:0:0:
185,192,102467,2,0,L|123:255,1,87.5,8|0,0:0|0:0,0:0:0:0:
432,192,102697,2,0,L|509:236,1,87.5,2|0,0:0|0:0,0:0:0:0:
96,192,102928,2,0,L|11:215,1,87.5,8|0,0:0|0:0,0:0:0:0:
280,192,103159,5,8,0:0:0:0:
176,192,103274,1,2,0:0:0:0:
300,192,103390,1,8,0:0:0:0:
196,192,103505,1,2,0:0:0:0:
456,192,103620,1,10,0:0:0:0:
498,145,103697,1,2,0:0:0:0:
478,80,103774,1,2,0:0:0:0:
417,49,103851,1,2,0:0:0:0:
348,55,103928,1,2,0:0:0:0:
283,82,104005,1,2,0:0:0:0:
80,164,104082,6,0,L|25:61,1,87.5,6|2,0:0|0:0,0:0:0:0:
304,296,104313,2,0,L|396:296,2,87.5,8|0|0,0:0|0:0|0:0,0:0:0:0:
85,220,104659,2,0,L|8:176,1,87.5,2|2,0:0|0:0,0:0:0:0:
112,180,104890,1,2,0:0:0:0:
376,192,105005,2,0,L|480:192,2,87.5,8|2|2,0:0|0:0|0:0,0:0:0:0:
156,88,105351,2,0,L|260:88,1,87.5,8|2,0:0|0:0,0:0:0:0:
332,88,105582,1,2,0:0:0:0:
108,88,105697,2,0,L|12:88,1,87.5,8|0,0:0|0:0,0:0:0:0:
328,192,105928,6,0,L|420:192,1,87.5,2|2,0:0|0:0,0:0:0:0:
152,280,106159,2,0,L|64:280,2,87.5,8|0|0,0:0|0:0|0:0,0:0:0:0:
240,280,106505,1,2,0:0:0:0:
20,192,106620,2,0,L|112:144,1,87.5,2|2,0:0|0:0,0:0:0:0:
344,112,106851,2,0,L|448:112,2,87.5,8|2|2,0:0|0:0|0:0,0:0:0:0:
120,192,107197,1,8,0:0:0:0:
224,192,107313,1,2,0:0:0:0:
328,192,107428,1,2,0:0:0:0:
104,192,107544,2,0,L|16:192,1,87.5,8|0,0:0|0:0,0:0:0:0:
368,56,107774,6,0,L|456:56,1,87.5,6|2,0:0|0:0,0:0:0:0:
208,192,108005,2,0,L|104:192,2,87.5,8|2|2,0:0|0:0|0:0,0:0:0:0:
332,248,108351,2,0,L|437:248,2,87.5,8|2|2,0:0|0:0|0:0,0:0:0:0:
100,280,108697,2,0,L|212:280,1,87.5,8|2,0:0|0:0,0:0:0:0:
80,280,108928,1,2,0:0:0:0:
220,280,109044,2,0,L|308:280,1,87.5,8|2,0:0|0:0,0:0:0:0:
412,280,109274,1,2,0:0:0:0:
168,192,109390,2,0,L|80:192,1,87.5,8|0,0:0|0:0,0:0:0:0:
408,120,109620,6,0,L|496:120,1,87.5,6|2,0:0|0:0,0:0:0:0:
268,192,109851,1,8,0:0:0:0:
168,192,109967,1,2,0:0:0:0:
68,192,110082,1,2,0:0:0:0:
332,280,110197,1,8,0:0:0:0:
218,280,110313,1,2,0:0:0:0:
104,280,110428,1,2,0:0:0:0:
412,352,110544,6,0,L|504:352,1,87.5,8|2,0:0|0:0,0:0:0:0:
192,280,110774,2,0,L|100:280,1,87.5,8|2,0:0|0:0,0:0:0:0:
324,192,111005,1,8,0:0:0:0:
80,280,111120,1,2,0:0:0:0:
352,192,111236,1,8,0:0:0:0:
56,280,111351,1,2,0:0:0:0:
408,192,111467,6,0,P|464:164|440:96,1,140,6|8,0:0|0:0,0:0:0:0:
340,96,111813,1,0,0:0:0:0:
236,100,111928,2,0,L|232:192,1,70,2|2,0:0|0:0,0:0:0:0:
408,192,112159,2,0,L|416:268,1,70,8|2,0:0|0:0,0:0:0:0:
288,264,112390,2,0,L|192:264,1,70,2|0,0:0|0:0,0:0:0:0:
428,304,112620,2,0,L|524:304,1,70,8|0,0:0|0:0,0:0:0:0:
372,232,112851,2,0,L|468:232,1,70,2|0,0:0|0:0,0:0:0:0:
264,160,113082,2,0,L|192:160,1,70,8|0,0:0|0:0,0:0:0:0:
380,148,113313,6,0,P|349:217|289:233,1,140,2|8,0:0|0:0,0:0:0:0:
204,232,113659,1,0,0:0:0:0:
325,229,113774,2,0,L|330:160,1,70,2|2,0:0|0:0,0:0:0:0:
140,156,114005,2,0,L|132:80,1,70,8|2,0:0|0:0,0:0:0:0:
260,84,114236,2,0,L|336:84,1,70,2|0,0:0|0:0,0:0:0:0:
120,84,114467,2,0,L|196:84,1,70,8|0,0:0|0:0,0:0:0:0:
316,160,114697,2,0,L|220:160,1,70,2|0,0:0|0:0,0:0:0:0:
456,152,114928,2,0,P|436:220|356:252,1,157.500006008148,8|0,0:0|0:0,0:0:0:0:
176,252,115159,6,0,L|100:252,2,70,8|2|2,0:0|0:0|0:0,0:0:0:0:
352,252,115505,2,0,L|432:252,1,70,8|2,0:0|0:0,0:0:0:0:
212,168,115736,2,0,L|296:168,1,70,8|2,0:0|0:0,0:0:0:0:
460,84,115967,2,0,L|368:84,1,70,8|2,0:0|0:0,0:0:0:0:
176,48,116197,2,0,L|88:48,1,70,8|2,0:0|0:0,0:0:0:0:
282,168,116428,2,0,L|186:168,1,70,8|2,0:0|0:0,0:0:0:0:
24,192,116659,2,0,L|96:192,1,70,8|2,0:0|0:0,0:0:0:0:
180,192,116890,1,2,0:0:0:0:
388,84,117005,6,0,L|464:84,2,70,8|2|2,0:0|0:0|0:0,0:0:0:0:
122,84,117351,2,0,L|48:84,1,70,8|2,0:0|0:0,0:0:0:0:
332,168,117582,2,0,L|262:168,1,70,8|2,0:0|0:0,0:0:0:0:
30,252,117813,2,0,L|122:252,1,70,8|2,0:0|0:0,0:0:0:0:
278,252,118044,1,8,0:0:0:0:
102,332,118159,2,0,L|26:332,1,70,2|2,0:0|0:0,0:0:0:0:
242,332,118390,2,0,L|172:332,1,70,8|2,0:0|0:0,0:0:0:0:
356,332,118620,1,8,0:0:0:0:
108,184,118736,1,8,0:0:0:0:
388,176,118851,6,0,P|440:156|420:80,1,140,6|8,0:0|0:0,0:0:0:0:
328,84,119197,1,0,0:0:0:0:
216,84,119313,2,0,L|308:84,1,70,2|2,0:0|0:0,0:0:0:0:
462,176,119544,2,0,L|366:176,1,70,8|2,0:0|0:0,0:0:0:0:
268,252,119774,2,0,L|338:252,1,70,2|0,0:0|0:0,0:0:0:0:
128,252,120005,2,0,L|52:252,1,70,8|0,0:0|0:0,0:0:0:0:
236,176,120236,2,0,L|170:138,1,70,2|0,0:0|0:0,0:0:0:0:
352,124,120467,2,0,L|312:54,1,70,8|0,0:0|0:0,0:0:0:0:
108,56,120697,6,0,P|40:104|36:164,1,140,2|8,0:0|0:0,0:0:0:0:
116,140,121044,1,0,0:0:0:0:
240,140,121159,2,0,L|288:196,1,70,2|2,0:0|0:0,0:0:0:0:
88,192,121390,2,0,P|104:248|184:288,1,140,8|2,0:0|0:0,0:0:0:0:
256,284,121736,1,2,0:0:0:0:
128,208,121851,2,0,L|116:140,1,70,8|0,0:0|0:0,0:0:0:0:
328,144,122082,2,0,L|404:144,1,70,2|0,0:0|0:0,0:0:0:0:
132,52,122313,2,0,L|32:52,1,94.5000003604889,8|0,0:0|0:0,0:0:0:0:
344,192,122544,6,0,L|356:284,1,70,6|0,0:0|0:0,0:0:0:0:
228,260,122774,2,0,L|240:340,1,70,8|0,0:0|0:0,0:0:0:0:
353,261,123005,2,0,L|363:331,1,70,2|0,0:0|0:0,0:0:0:0:
112,260,123236,2,0,P|60:204|148:144,1,210.000008010865,8|2,0:0|0:0,0:0:0:0:
232,144,123582,1,2,0:0:0:0:
468,64,123697,1,8,0:0:0:0:
304,64,123928,1,2,0:0:0:0:
258,64,124005,1,2,0:0:0:0:
211,64,124082,1,2,0:0:0:0:
374,64,124159,2,0,L|290:64,1,70,8|2,0:0|0:0,0:0:0:0:
36,192,124390,6,0,B|36:264|36:264|104:264,1,140,2|8,0:0|0:0,0:0:0:0:
316,268,124736,2,0,B|316:340|316:340|248:340,1,140,2|2,0:0|0:0,0:0:0:0:
36,192,125082,2,0,L|112:192,1,70,12|0,0:0|0:0,0:0:0:0:
216,192,125313,1,2,0:0:0:0:
180,192,125390,1,2,0:0:0:0:
144,192,125467,1,2,0:0:0:0:
356,192,125544,2,0,P|424:168|452:84,1,157.500006008148,8|0,0:0|0:0,0:0:0:0:
260,96,125774,2,0,L|156:96,1,87.5,2|2,0:0|0:0,0:0:0:0:
368,96,126005,2,0,P|412:140|352:192,1,157.500006008148,8|0,0:0|0:0,0:0:0:0:
156,192,126236,6,0,B|85:192|85:192|44:268,1,140,6|8,0:0|0:0,0:0:0:0:
156,264,126582,1,0,0:0:0:0:
260,264,126697,2,0,L|180:216,1,70,2|2,0:0|0:0,0:0:0:0:
24,112,126928,2,0,L|92:152,1,70,8|2,0:0|0:0,0:0:0:0:
212,44,127159,2,0,L|116:44,1,70,2|0,0:0|0:0,0:0:0:0:
352,44,127390,2,0,L|448:44,1,70,8|0,0:0|0:0,0:0:0:0:
244,120,127620,2,0,L|148:120,1,70,2|0,0:0|0:0,0:0:0:0:
352,192,127851,2,0,L|276:192,1,70,8|0,0:0|0:0,0:0:0:0:
480,192,128082,6,0,P|440:264|380:268,1,140,2|8,0:0|0:0,0:0:0:0:
304,272,128428,1,0,0:0:0:0:
176,188,128544,2,0,L|172:96,1,70,2|2,0:0|0:0,0:0:0:0:
360,156,128774,2,0,L|368:80,1,70,8|2,0:0|0:0,0:0:0:0:
240,24,129005,2,0,L|170:24,1,70,2|0,0:0|0:0,0:0:0:0:
380,16,129236,2,0,L|450:16,1,70,8|0,0:0|0:0,0:0:0:0:
255,118,129467,2,0,L|185:118,1,70,2|0,0:0|0:0,0:0:0:0:
416,128,129697,2,0,P|448:184|384:232,1,157.500006008148,8|0,0:0|0:0,0:0:0:0:
192,232,129928,6,0,L|136:285,3,70,6|2|2|2,0:0|0:0|0:0|0:0,0:0:0:0:
318,232,130390,2,0,L|390:256,3,70,8|2|2|2,0:0|0:0|0:0|0:0,0:0:0:0:
268,232,130851,1,2,0:0:0:0:
444,232,130967,1,8,0:0:0:0:
340,144,131082,2,0,L|388:88,1,70,2|2,0:0|0:0,0:0:0:0:
180,92,131313,2,0,L|92:92,3,70,8|2|2|2,0:0|0:0|0:0|0:0,0:0:0:0:
352,144,131774,6,0,L|368:236,1,70,2|2,0:0|0:0,0:0:0:0:
232,220,132005,2,0,L|248:308,1,70,2|2,0:0|0:0,0:0:0:0:
32,144,132236,2,0,L|16:236,1,70,8|2,0:0|0:0,0:0:0:0:
148,220,132467,2,0,L|132:308,1,70,2|2,0:0|0:0,0:0:0:0:
260,288,132697,1,2,0:0:0:0:
160,288,132813,1,8,0:0:0:0:
284,192,132928,2,0,L|364:192,1,70,0|2,0:0|0:0,0:0:0:0:
152,112,133159,2,0,L|72:112,1,70,8|2,0:0|0:0,0:0:0:0:
312,80,133390,1,8,0:0:0:0:
100,40,133505,1,8,0:0:0:0:
312,80,133620,6,0,P|380:100|432:168,1,140,6|8,0:0|0:0,0:0:0:0:
320,244,133967,1,0,0:0:0:0:
216,244,134082,2,0,L|212:152,1,70,2|2,0:0|0:0,0:0:0:0:
388,176,134313,2,0,L|464:136,1,70,8|2,0:0|0:0,0:0:0:0:
324,80,134544,2,0,L|264:28,1,70,2|0,0:0|0:0,0:0:0:0:
448,32,134774,2,0,L|352:32,1,70,8|0,0:0|0:0,0:0:0:0:
168,192,135005,2,0,L|72:192,1,70,2|0,0:0|0:0,0:0:0:0:
276,264,135236,2,0,L|358:264,1,70,8|0,0:0|0:0,0:0:0:0:
104,268,135467,6,0,P|32:228|28:168,1,140,2|8,0:0|0:0,0:0:0:0:
112,180,135813,1,0,0:0:0:0:
240,184,135928,2,0,L|253:106,1,70,2|2,0:0|0:0,0:0:0:0:
68,268,136159,1,8,0:0:0:0:
25,176,136274,1,2,0:0:0:0:
200,268,136390,2,0,L|283:269,1,70,8|2,0:0|0:0,0:0:0:0:
68,84,136620,1,8,0:0:0:0:
264,196,136736,1,2,0:0:0:0:
176,128,136851,2,0,L|260:128,1,70,2|2,0:0|0:0,0:0:0:0:
132,196,137082,2,0,L|220:196,1,70,2|2,0:0|0:0,0:0:0:0:
444,192,137313,6,0,P|500:228|496:296,1,140,6|2,0:0|0:0,0:0:0:0:
412,296,137659,1,2,0:0:0:0:
236,296,137774,2,0,L|224:212,1,70,8|2,0:0|0:0,0:0:0:0:
412,296,138005,2,0,P|448:240|404:192,1,140,6|2,0:0|0:0,0:0:0:0:
308,192,138351,1,2,0:0:0:0:
224,148,138467,1,2,0:0:0:0:
200,56,138582,1,2,0:0:0:0:
376,56,138697,2,0,P|416:64|460:168,1,140,8|2,0:0|0:0,0:0:0:0:
364,144,139044,1,2,0:0:0:0:
120,188,139159,5,8,0:0:0:0:
120,188,139217,1,8,0:0:0:0:
120,188,139274,1,8,0:0:0:0:
248,192,139390,1,2,0:0:0:0:
20,188,139505,1,8,0:0:0:0:
20,188,139563,1,8,0:0:0:0:
20,188,139620,1,8,0:0:0:0:
148,188,139736,1,2,0:0:0:0:
368,64,139851,2,0,L|280:64,1,70,8|8,0:0|0:0,0:0:0:0:
156,64,140082,5,2,0:0:0:0:
128,64,140159,1,2,0:0:0:0:
156,64,140236,1,2,0:0:0:0:
252,136,140313,1,2,0:0:0:0:
280,136,140390,1,2,0:0:0:0:
252,136,140467,1,2,0:0:0:0:
112,188,140544,1,10,0:0:0:0:
64,188,140620,1,2,0:0:0:0:
112,188,140697,1,2,0:0:0:0:
296,220,140774,1,2,0:0:0:0:
360,220,140851,1,2,0:0:0:0:
384,280,140928,1,2,0:0:0:0:
104,276,141005,5,6,0:0:0:0:
46,248,141082,1,2,0:0:0:0:
21,189,141159,1,2,0:0:0:0:
43,129,141236,1,2,0:0:0:0:
99,99,141313,1,2,0:0:0:0:
161,115,141390,1,2,0:0:0:0:
348,220,141467,1,10,0:0:0:0:
400,200,141544,1,2,0:0:0:0:
348,189,141620,1,2,0:0:0:0:
296,176,141697,1,2,0:0:0:0:
244,164,141774,1,2,0:0:0:0:
284,120,141851,1,2,0:0:0:0:
464,72,141928,5,2,0:0:0:0:
496,128,142005,1,2,0:0:0:0:
499,192,142082,1,2,0:0:0:0:
473,252,142159,1,2,0:0:0:0:
423,293,142236,1,2,0:0:0:0:
360,307,142313,1,2,0:0:0:0:
196,308,142390,2,0,L|140:308,2,46.6666666666667,10|2|2,0:0|0:0|0:0,0:0:0:0:
248,308,142620,1,2,0:0:0:0:
296,280,142697,1,2,0:0:0:0:
304,224,142774,1,2,0:0:0:0:
80,192,142851,5,6,0:0:0:0:
80,145,142928,1,2,0:0:0:0:
96,101,143005,1,2,0:0:0:0:
126,66,143082,1,2,0:0:0:0:
165,41,143159,1,2,0:0:0:0:
211,32,143236,1,2,0:0:0:0:
476,352,143313,1,10,0:0:0:0:
475,305,143390,1,2,0:0:0:0:
459,261,143467,1,2,0:0:0:0:
429,226,143544,1,2,0:0:0:0:
390,201,143620,1,2,0:0:0:0:
344,192,143697,1,2,0:0:0:0:
172,192,143774,5,2,0:0:0:0:
132,230,143851,1,2,0:0:0:0:
127,284,143928,1,2,0:0:0:0:
159,329,144005,1,2,0:0:0:0:
213,342,144082,1,2,0:0:0:0:
261,318,144159,1,2,0:0:0:0:
64,252,144236,1,10,0:0:0:0:
16,228,144313,1,2,0:0:0:0:
62,201,144390,1,2,0:0:0:0:
108,172,144467,1,2,0:0:0:0:
108,116,144544,1,2,0:0:0:0:
48,116,144620,1,2,0:0:0:0:
272,116,144697,5,6,0:0:0:0:
342,131,144774,1,2,0:0:0:0:
378,194,144851,1,2,0:0:0:0:
356,262,144928,1,2,0:0:0:0:
289,292,145005,1,2,0:0:0:0:
223,262,145082,1,2,0:0:0:0:
428,248,145159,1,10,0:0:0:0:
483,200,145236,1,2,0:0:0:0:
495,127,145313,1,2,0:0:0:0:
458,64,145390,1,2,0:0:0:0:
389,39,145467,1,2,0:0:0:0:
320,64,145544,1,2,0:0:0:0:
88,64,145620,5,2,0:0:0:0:
32,64,145697,1,2,0:0:0:0:
60,152,145774,1,2,0:0:0:0:
116,152,145851,1,2,0:0:0:0:
144,240,145928,1,2,0:0:0:0:
88,240,146005,1,2,0:0:0:0:
292,312,146082,2,0,L|368:312,1,70,8|2,0:0|0:0,0:0:0:0:
184,240,146313,1,8,0:0:0:0:
380,240,146428,1,8,0:0:0:0:
160,172,146544,6,0,L|84:172,1,70,2|2,0:0|0:0,0:0:0:0:
368,120,146774,2,0,L|456:120,1,70,8|0,0:0|0:0,0:0:0:0:
312,48,147005,2,0,L|404:48,1,70,2|2,0:0|0:0,0:0:0:0:
136,100,147236,2,0,L|40:100,1,70,8|0,0:0|0:0,0:0:0:0:
192,192,147467,2,0,L|280:192,1,70,2|2,0:0|0:0,0:0:0:0:
88,240,147697,2,0,L|4:240,1,70,8|2,0:0|0:0,0:0:0:0:
336,240,147928,1,8,0:0:0:0:
436,240,148044,1,2,0:0:0:0:
332,156,148159,1,8,0:0:0:0:
436,152,148274,1,2,0:0:0:0:
160,76,148390,5,6,0:0:0:0:
114,76,148467,1,2,0:0:0:0:
76,76,148544,1,2,0:0:0:0:
48,76,148620,1,2,0:0:0:0:
29,76,148697,1,2,0:0:0:0:
20,76,148774,1,2,0:0:0:0:
200,160,148851,1,10,0:0:0:0:
276,152,148928,1,2,0:0:0:0:
332,208,149005,1,2,0:0:0:0:
328,284,149082,1,2,0:0:0:0:
260,316,149159,1,2,0:0:0:0:
189,292,149236,1,2,0:0:0:0:
352,76,149313,5,6,0:0:0:0:
398,76,149390,1,2,0:0:0:0:
436,76,149467,1,2,0:0:0:0:
464,76,149544,1,2,0:0:0:0:
483,76,149620,1,2,0:0:0:0:
492,76,149697,1,2,0:0:0:0:
277,192,149774,5,10,0:0:0:0:
229,192,149851,1,2,0:0:0:0:
181,192,149928,1,2,0:0:0:0:
349,120,150005,1,2,0:0:0:0:
301,120,150082,1,2,0:0:0:0:
253,120,150159,1,2,0:0:0:0:
76,120,150236,5,6,0:0:0:0:
29,164,150313,1,2,0:0:0:0:
17,227,150390,1,2,0:0:0:0:
45,285,150467,1,2,0:0:0:0:
102,315,150544,1,2,0:0:0:0:
165,307,150620,1,2,0:0:0:0:
349,120,150697,1,10,0:0:0:0:
395,164,150774,1,2,0:0:0:0:
407,227,150851,1,2,0:0:0:0:
379,285,150928,1,2,0:0:0:0:
322,315,151005,1,2,0:0:0:0:
259,307,151082,1,2,0:0:0:0:
448,184,151159,6,0,L|500:184,2,46.6666666666667,10|2|2,0:0|0:0|0:0,0:0:0:0:
216,120,151390,2,0,L|164:120,2,46.6666666666667,2|2|2,0:0|0:0|0:0,0:0:0:0:
356,120,151620,1,8,0:0:0:0:
180,192,151736,1,2,0:0:0:0:
392,192,151851,1,8,0:0:0:0:
148,264,151967,1,8,0:0:0:0:
424,264,152082,6,0,P|466:219|452:140,1,140,6|8,0:0|0:0,0:0:0:0:
372,148,152428,1,0,0:0:0:0:
244,148,152544,2,0,L|232:240,1,70,2|2,0:0|0:0,0:0:0:0:
424,264,152774,2,0,L|436:344,1,70,8|2,0:0|0:0,0:0:0:0:
308,336,153005,2,0,L|380:336,1,70,2|2,0:0|0:0,0:0:0:0:
176,220,153236,2,0,L|72:220,1,105,8|2,0:0|0:0,0:0:0:0:
196,148,153467,2,0,L|120:148,1,70,2|2,0:0|0:0,0:0:0:0:
336,148,153697,2,0,L|440:148,1,105,12|2,0:0|0:0,0:0:0:0:
160,64,153928,5,4,0:0:0:0:
336,64,154044,1,2,0:0:0:0:
224,64,154159,1,8,0:0:0:0:
320,64,154274,1,2,0:0:0:0:
126,148,154390,1,4,0:0:0:0:
302,148,154505,1,2,0:0:0:0:
108,148,154620,1,8,0:0:0:0:
320,148,154736,1,2,0:0:0:0:
368,148,154794,1,2,0:0:0:0:
400,148,154851,6,0,L|328:148,1,70,8|2,0:0|0:0,0:0:0:0:
204,224,155082,2,0,L|276:224,1,70,8|2,0:0|0:0,0:0:0:0:
400,224,155313,2,0,L|464:256,1,70,2|2,0:0|0:0,0:0:0:0:
336,296,155544,2,0,L|332:372,1,70,2|2,0:0|0:0,0:0:0:0:
120,364,155774,6,0,P|68:348|104:260,1,175,6|8,0:0|0:0,0:0:0:0:
208,260,156120,1,0,0:0:0:0:
48,192,156236,2,0,L|80:104,1,87.5,2|2,0:0|0:0,0:0:0:0:
300,112,156467,2,0,L|200:112,1,87.5,8|2,0:0|0:0,0:0:0:0:
432,112,156697,2,0,P|460:160|376:216,1,175,2|8,0:0|0:0,0:0:0:0:
268,216,157044,1,2,0:0:0:0:
416,292,157159,2,0,L|445:374,1,87.5,2|2,0:0|0:0,0:0:0:0:
224,372,157390,2,0,L|124:372,1,87.5,8|2,0:0|0:0,0:0:0:0:
400,292,157620,6,0,P|464:260|384:196,1,210.000008010865,2|8,0:0|0:0,0:0:0:0:
176,192,157967,2,0,P|116:188|60:64,1,210.000008010865,2|2,0:0|0:0,0:0:0:0:
272,68,158313,2,0,L|380:68,1,105.000004005432,8|2,0:0|0:0,0:0:0:0:
68,140,158544,2,0,P|20:168|80:248,1,175,2|8,0:0|0:0,0:0:0:0:
172,248,158890,1,2,0:0:0:0:
368,248,159005,2,0,L|460:248,1,87.5,2|2,0:0|0:0,0:0:0:0:
192,332,159236,2,0,L|100:332,1,87.5,8|2,0:0|0:0,0:0:0:0:
412,324,159467,6,0,P|464:308|428:220,1,175,2|8,0:0|0:0,0:0:0:0:
128,208,159813,2,0,P|76:192|112:104,1,175,2|2,0:0|0:0,0:0:0:0:
308,104,160159,2,0,L|221:104,1,87.5,8|2,0:0|0:0,0:0:0:0:
440,104,160390,2,0,P|416:176|328:216,1,175,2|8,0:0|0:0,0:0:0:0:
68,220,160736,2,0,P|92:292|180:332,1,175,2|2,0:0|0:0,0:0:0:0:
356,332,161082,2,0,L|456:332,1,87.5,8|2,0:0|0:0,0:0:0:0:
132,220,161313,6,0,P|36:191|15:93,1,210.000008010865,2|8,0:0|0:0,0:0:0:0:
343,221,161659,2,0,P|316:296|196:332,1,210.000008010865,2|2,0:0|0:0,0:0:0:0:
376,148,162005,2,0,L|288:148,1,87.5,8|2,0:0|0:0,0:0:0:0:
40,148,162236,2,0,L|28:44,1,87.5,2|0,0:0|0:0,0:0:0:0:
320,64,162467,2,0,L|412:64,1,87.5,8|0,0:0|0:0,0:0:0:0:
148,148,162697,2,0,L|136:52,1,87.5,2|0,0:0|0:0,0:0:0:0:
495,64,162928,2,0,L|407:64,1,87.5,4|0,0:0|0:0,0:0:0:0:
100,296,163159,6,0,P|48:248|112:192,1,175,2|8,0:0|0:0,0:0:0:0:
212,192,163505,1,2,0:0:0:0:
16,104,163620,2,0,L|104:104,1,87.5,2|0,0:0|0:0,0:0:0:0:
304,48,163851,2,0,L|216:48,1,87.5,8|0,0:0|0:0,0:0:0:0:
440,48,164082,2,0,P|460:112|372:152,1,175,2|8,0:0|0:0,0:0:0:0:
276,152,164428,1,2,0:0:0:0:
472,236,164544,2,0,L|384:236,1,87.5,2|0,0:0|0:0,0:0:0:0:
164,296,164774,2,0,L|251:296,1,87.5,8|0,0:0|0:0,0:0:0:0:
448,44,165005,6,0,P|500:60|464:148,1,175,2|8,0:0|0:0,0:0:0:0:
200,160,165351,2,0,P|156:196|224:264,1,175,2|2,0:0|0:0,0:0:0:0:
420,264,165697,2,0,L|333:264,1,87.5,8|2,0:0|0:0,0:0:0:0:
76,260,165928,2,0,P|100:188|188:148,1,175,2|8,0:0|0:0,0:0:0:0:
448,144,166274,2,0,P|424:72|336:32,1,175,2|2,0:0|0:0,0:0:0:0:
140,32,166620,2,0,L|232:32,1,87.5,8|2,0:0|0:0,0:0:0:0:
28,192,166851,6,0,L|20:372,1,175,2|8,0:0|0:0,0:0:0:0:
284,368,167197,2,0,L|276:188,1,175,2|2,0:0|0:0,0:0:0:0:
168,192,167544,2,0,L|68:192,1,87.5,8|2,0:0|0:0,0:0:0:0:
320,192,167774,2,0,L|496:192,1,175,2|8,0:0|0:0,0:0:0:0:
232,104,168120,2,0,L|56:104,1,175,2|2,0:0|0:0,0:0:0:0:
256,28,168467,2,0,L|156:28,1,87.5,8|2,0:0|0:0,0:0:0:0:
432,104,168697,6,0,L|440:200,1,87.5,6|0,0:0|0:0,0:0:0:0:
320,192,168928,2,0,L|320:288,1,87.5,8|0,0:0|0:0,0:0:0:0:
196,280,169159,2,0,L|188:372,1,87.5,2|0,0:0|0:0,0:0:0:0:
388,364,169390,2,0,L|460:308,1,87.5,8|0,0:0|0:0,0:0:0:0:
196,280,169620,1,8,0:0:0:0:
88,280,169736,1,2,0:0:0:0:
212,280,169851,1,8,0:0:0:0:
304,280,169967,1,2,0:0:0:0:
108,192,170082,1,2,0:0:0:0:
196,192,170197,1,2,0:0:0:0:
88,192,170313,1,2,0:0:0:0:
216,192,170428,1,2,0:0:0:0:
17,36,170544,6,0,P|33:112|93:196,1,175,6|8,0:0|0:0,0:0:0:0:
196,192,170890,1,0,0:0:0:0:
416,196,171005,2,0,L|424:284,1,87.5,2|2,0:0|0:0,0:0:0:0:
204,272,171236,2,0,L|304:272,1,87.5,8|2,0:0|0:0,0:0:0:0:
72,272,171467,2,0,P|48:224|132:168,1,175,2|8,0:0|0:0,0:0:0:0:
232,168,171813,1,2,0:0:0:0:
476,168,171928,2,0,L|396:116,1,87.5,2|2,0:0|0:0,0:0:0:0:
184,88,172159,2,0,L|110:40,1,87.5,8|2,0:0|0:0,0:0:0:0:
424,84,172390,6,0,P|488:116|408:180,1,210.000008010865,2|8,0:0|0:0,0:0:0:0:
200,184,172736,2,0,P|140:188|84:312,1,210.000008010865,2|2,0:0|0:0,0:0:0:0:
320,308,173082,2,0,L|212:308,1,105.000004005432,8|2,0:0|0:0,0:0:0:0:
436,244,173313,2,0,P|476:208|404:136,1,175,2|8,0:0|0:0,0:0:0:0:
312,136,173659,1,2,0:0:0:0:
116,136,173774,2,0,L|24:136,1,87.5,2|2,0:0|0:0,0:0:0:0:
336,52,174005,2,0,L|428:52,1,87.5,8|2,0:0|0:0,0:0:0:0:
72,60,174236,6,0,P|20:76|56:164,1,175,2|8,0:0|0:0,0:0:0:0:
320,176,174582,2,0,P|312:224|208:280,1,175,2|2,0:0|0:0,0:0:0:0:
408,280,174928,2,0,L|495:280,1,87.5,8|2,0:0|0:0,0:0:0:0:
208,280,175159,2,0,P|136:256|96:168,1,175,2|8,0:0|0:0,0:0:0:0:
304,176,175505,2,0,P|376:152|416:64,1,175,2|2,0:0|0:0,0:0:0:0:
192,68,175851,2,0,L|92:68,1,87.5,8|2,0:0|0:0,0:0:0:0:
420,176,176082,6,0,P|496:232|424:288,1,210.000008010865,2|8,0:0|0:0,0:0:0:0:
160,176,176428,2,0,P|187:101|307:65,1,210.000008010865,2|2,0:0|0:0,0:0:0:0:
104,64,176774,2,0,L|16:64,1,87.5,8|2,0:0|0:0,0:0:0:0:
272,176,177005,2,0,L|368:176,1,87.5,8|2,0:0|0:0,0:0:0:0:
140,176,177236,1,8,0:0:0:0:
384,176,177351,1,2,0:0:0:0:
272,176,177467,2,0,L|236:264,1,87.5,2|2,0:0|0:0,0:0:0:0:
368,264,177697,2,0,L|332:356,1,87.5,2|2,0:0|0:0,0:0:0:0:
96,336,177928,6,0,P|112:272|204:228,1,175,6|8,0:0|0:0,0:0:0:0:
312,228,178274,1,2,0:0:0:0:
92,144,178390,2,0,L|4:144,1,87.5,2|2,0:0|0:0,0:0:0:0:
268,76,178620,2,0,L|356:76,1,87.5,8|2,0:0|0:0,0:0:0:0:
92,76,178851,2,0,P|32:120|60:204,1,175,2|8,0:0|0:0,0:0:0:0:
160,204,179197,1,2,0:0:0:0:
384,208,179313,2,0,L|472:208,1,87.5,2|2,0:0|0:0,0:0:0:0:
164,308,179544,2,0,L|77:308,1,87.5,8|2,0:0|0:0,0:0:0:0:
424,108,179774,6,0,P|476:124|440:212,1,175,6|8,0:0|0:0,0:0:0:0:
176,224,180120,2,0,P|152:272|236:328,1,175,2|2,0:0|0:0,0:0:0:0:
36,328,180467,2,0,L|123:328,1,87.5,8|2,0:0|0:0,0:0:0:0:
340,328,180697,2,0,P|412:304|452:216,1,175,2|8,0:0|0:0,0:0:0:0:
176,224,181044,2,0,B|88:224|88:224|24:160,1,175,2|2,0:0|0:0,0:0:0:0:
224,116,181390,2,0,L|132:116,1,87.5,8|2,0:0|0:0,0:0:0:0:
353,336,181620,6,0,P|405:278|341:233,1,175,6|2,0:0|0:0,0:0:0:0:
240,232,181967,1,2,0:0:0:0:
416,228,182082,2,0,P|492:192|500:108,1,175,8|2,0:0|0:0,0:0:0:0:
400,108,182428,1,2,0:0:0:0:
180,108,182544,2,0,L|80:108,1,87.5,8|2,0:0|0:0,0:0:0:0:
376,36,182774,2,0,L|468:36,1,87.5,8|2,0:0|0:0,0:0:0:0:
132,36,183005,2,0,L|40:36,1,87.5,8|2,0:0|0:0,0:0:0:0:
396,108,183236,2,0,L|488:108,1,87.5,8|2,0:0|0:0,0:0:0:0:
176,296,183467,6,0,B|120:364|32:364|0:304|0:204|64:128|184:128|240:192|240:284|288:368|376:368|436:312|440:244|388:184|328:184,1,735.000028038026,2|0,0:0|0:0,0:0:0:0:
248,184,184390,1,2,0:0:0:0:
167,159,184505,1,0,0:0:0:0:
135,80,184620,1,0,0:0:0:0:
260,56,184736,1,2,0:0:0:0:
240,132,184851,1,0,0:0:0:0:
167,159,184967,1,0,0:0:0:0:
248,184,185082,1,2,0:0:0:0:
332,184,185197,1,0,0:0:0:0:
68,192,185313,5,10,0:0:0:0:
56,259,185390,1,2,0:0:0:0:
87,321,185467,1,2,0:0:0:0:
148,356,185544,1,2,0:0:0:0:
216,360,185620,1,2,0:0:0:0:
280,336,185697,1,2,0:0:0:0:
128,192,185774,1,10,0:0:0:0:
68,192,185851,1,2,0:0:0:0:
80,140,185928,1,2,0:0:0:0:
140,116,186005,1,2,0:0:0:0:
156,64,186082,1,2,0:0:0:0:
96,64,186159,1,2,0:0:0:0:
320,64,186236,5,10,0:0:0:0:
388,40,186313,1,2,0:0:0:0:
449,79,186390,1,2,0:0:0:0:
456,151,186467,1,10,0:0:0:0:
404,201,186544,1,2,0:0:0:0:
333,192,186620,1,2,0:0:0:0:
92,192,186697,2,0,L|185:138,2,93.3333333333333,8|8|2,0:0|0:0|0:0,0:0:0:0:
420,284,187159,6,0,L|324:284,2,70,12|2|2,0:0|0:0|0:0,0:0:0:0:
140,284,187505,2,0,L|68:284,1,70,8|2,0:0|0:0,0:0:0:0:
376,284,187736,2,0,P|452:248|384:180,1,210.000008010865,12|2,0:0|0:0,0:0:0:0:
76,84,188082,2,0,L|172:84,2,77.0000023498536,12|2|2,0:0|0:0|0:0,0:0:0:0:
340,84,188428,2,0,L|420:84,1,77.0000023498536,8|2,0:0|0:0,0:0:0:0:
212,84,188659,1,2,0:0:0:0:
417,84,188774,2,0,L|499:84,1,77.0000023498536,8|2,0:0|0:0,0:0:0:0:
140,192,189005,6,0,L|40:192,1,83.9999974365235,12|2,0:0|0:0,0:0:0:0:
352,296,189236,2,0,L|252:296,1,83.9999974365235,8|2,0:0|0:0,0:0:0:0:
368,296,189467,1,2,0:0:0:0:
96,296,189582,2,0,P|25:248|104:192,1,210.000008010865,12|0,0:0|0:0,0:0:0:0:
400,192,189928,2,0,L|496:192,2,90.9999958343508,12|2|2,0:0|0:0|0:0,0:0:0:0:
124,84,190274,2,0,L|32:84,1,90.9999958343508,8|2,0:0|0:0,0:0:0:0:
336,84,190505,1,2,0:0:0:0:
44,160,190620,2,0,L|136:160,1,90.9999958343508,8|2,0:0|0:0,0:0:0:0:
372,192,190851,6,0,L|464:192,1,87.5,8|2,0:0|0:0,0:0:0:0:
104,248,191197,2,0,P|60:229|92:160,1,140,2|2,0:0|0:0,0:0:0:0:
376,120,191544,2,0,L|452:120,1,70,8|2,0:0|0:0,0:0:0:0:
108,176,191890,2,0,L|236:120,1,140,2|2,0:0|0:0,0:0:0:0:
52,64,192236,5,10,0:0:0:0:
57,131,192313,1,2,0:0:0:0:
108,176,192390,1,2,0:0:0:0:
344,192,192467,1,2,0:0:0:0:
394,236,192544,1,2,0:0:0:0:
400,304,192620,1,2,0:0:0:0:
120,176,192697,6,0,L|44:176,1,70,8|2,0:0|0:0,0:0:0:0:
400,176,193044,2,0,B|504:176|504:176|456:144,1,140,2|2,0:0|0:0,0:0:0:0:
190,176,193390,2,0,L|114:176,1,70,8|2,0:0|0:0,0:0:0:0:
440,60,193736,2,0,P|488:96|492:176,1,140,2|2,0:0|0:0,0:0:0:0:
212,60,194082,6,0,L|144:60,2,46.6666666666667,10|2|2,0:0|0:0|0:0,0:0:0:0:
165,60,194313,2,0,L|97:60,2,46.6666666666667,2|2|2,0:0|0:0|0:0,0:0:0:0:
308,192,194544,5,12,0:0:0:0:
204,192,194659,1,2,0:0:0:0:
412,300,194890,2,0,P|458:252|429:192,1,140,2|2,0:0|0:0,0:0:0:0:
220,152,195236,1,8,0:0:0:0:
324,152,195351,1,2,0:0:0:0:
132,152,195582,2,0,P|88:200|136:240,1,140,2|2,0:0|0:0,0:0:0:0:
404,248,195928,5,10,0:0:0:0:
454,292,196005,1,2,0:0:0:0:
460,360,196082,1,2,0:0:0:0:
168,232,196159,1,10,0:0:0:0:
117,187,196236,1,2,0:0:0:0:
112,120,196313,1,2,0:0:0:0:
352,124,196390,6,0,L|428:124,2,70,8|2|2,0:0|0:0|0:0,0:0:0:0:
160,124,196736,2,0,L|236:124,2,70,8|2|2,0:0|0:0|0:0,0:0:0:0:
372,52,197082,2,0,L|448:52,1,70,8|2,0:0|0:0,0:0:0:0:
231,54,197313,2,0,L|229:128,1,70,8|2,0:0|0:0,0:0:0:0:
464,192,197544,2,0,L|388:192,1,70,8|2,0:0|0:0,0:0:0:0:
220,192,197774,5,8,0:0:0:0:
412,192,197890,1,2,0:0:0:0:
200,192,198005,1,8,0:0:0:0:
432,192,198120,1,2,0:0:0:0:
116,192,198236,5,10,0:0:0:0:
87,253,198313,1,2,0:0:0:0:
120,312,198390,1,2,0:0:0:0:
312,316,198467,1,2,0:0:0:0:
120,312,198582,2,0,P|88:256|116:192,1,140,2|2,0:0|0:0,0:0:0:0:
364,192,198928,2,0,L|284:192,1,70,8|2,0:0|0:0,0:0:0:0:
464,192,199274,1,2,0:0:0:0:
208,48,199390,2,0,L|108:48,1,70,8|2,0:0|0:0,0:0:0:0:
348,48,199620,6,0,L|381:81,2,46.6666666666667,10|2|2,0:0|0:0|0:0,0:0:0:0:
168,136,199851,2,0,L|112:136,2,46.6666666666667,10|2|2,0:0|0:0|0:0,0:0:0:0:
404,192,200082,5,10,0:0:0:0:
432,253,200159,1,2,0:0:0:0:
399,312,200236,1,2,0:0:0:0:
208,316,200313,1,2,0:0:0:0:
400,312,200428,2,0,P|468:300|504:244,1,140,2|2,0:0|0:0,0:0:0:0:
220,192,200774,2,0,L|144:192,1,70,8|2,0:0|0:0,0:0:0:0:
400,192,201120,1,2,0:0:0:0:
152,268,201236,2,0,L|76:268,1,70,8|2,0:0|0:0,0:0:0:0:
308,272,201467,5,2,0:0:0:0:
368,232,201524,1,2,0:0:0:0:
429,191,201582,1,2,0:0:0:0:
255,192,201697,2,0,B|148:192,1,105,8|0,0:0|0:0,0:0:0:0:
292,192,201928,5,10,0:0:0:0:
344,132,202005,1,2,0:0:0:0:
288,72,202082,1,2,0:0:0:0:
96,68,202159,1,2,0:0:0:0:
288,72,202274,2,0,P|356:84|392:140,1,140,2|2,0:0|0:0,0:0:0:0:
108,192,202620,2,0,L|32:192,1,70,8|2,0:0|0:0,0:0:0:0:
196,192,202967,1,2,0:0:0:0:
378,340,203082,2,0,L|308:340,1,70,8|2,0:0|0:0,0:0:0:0:
132,340,203313,5,10,0:0:0:0:
160,284,203390,1,2,0:0:0:0:
216,264,203467,1,2,0:0:0:0:
380,192,203544,1,12,0:0:0:0:
352,136,203620,1,2,0:0:0:0:
296,112,203697,1,2,0:0:0:0:
116,248,203774,6,0,L|40:248,2,70,12|2|2,0:0|0:0|0:0,0:0:0:0:
292,108,204120,2,0,L|368:108,2,70,8|2|2,0:0|0:0|0:0,0:0:0:0:
472,192,204467,1,8,0:0:0:0:
463,125,204582,1,2,0:0:0:0:
404,92,204697,1,2,0:0:0:0:
222,108,204813,1,8,0:0:0:0:
162,140,204928,1,2,0:0:0:0:
153,207,205044,1,2,0:0:0:0:
380,192,205159,5,10,0:0:0:0:
399,257,205236,1,2,0:0:0:0:
362,314,205313,1,2,0:0:0:0:
131,195,205390,1,2,0:0:0:0:
94,252,205467,1,2,0:0:0:0:
114,318,205544,1,2,0:0:0:0:
380,192,205620,5,8,0:0:0:0:
440,192,205697,1,2,0:0:0:0:
500,192,205774,1,2,0:0:0:0:
336,84,205851,1,8,0:0:0:0:
276,84,205928,1,2,0:0:0:0:
216,84,206005,1,2,0:0:0:0:
380,192,206082,1,8,0:0:0:0:
352,192,206159,1,8,0:0:0:0:
276,192,206236,1,2,0:0:0:0:
94,252,206313,1,8,0:0:0:0:
124,252,206390,1,2,0:0:0:0:
200,252,206467,1,2,0:0:0:0:
368,256,206544,6,0,L|492:256,1,121.333327779134,8|2,0:0|0:0,0:0:0:0:
228,340,206774,2,0,L|104:340,1,121.333327779134,8|2,0:0|0:0,0:0:0:0:
464,340,207005,1,8,0:0:0:0:
502,250,207082,1,8,0:0:0:0:
424,192,207159,1,8,0:0:0:0:
104,192,207236,1,8,0:0:0:0:
26,133,207313,1,8,0:0:0:0:
64,44,207390,1,8,0:0:0:0:
360,44,207467,6,0,L|452:44,1,87.5,6|2,0:0|0:0,0:0:0:0:
228,192,207697,2,0,L|112:192,1,87.5,8|0,0:0|0:0,0:0:0:0:
405,280,207928,2,0,L|321:240,2,87.5,2|2|2,0:0|0:0|0:0,0:0:0:0:
156,272,208274,2,0,L|248:272,1,87.5,8|0,0:0|0:0,0:0:0:0:
493,152,208505,2,0,L|401:152,1,87.5,2|0,0:0|0:0,0:0:0:0:
308,152,208736,1,2,0:0:0:0:
432,152,208851,2,0,L|348:112,1,87.5,2|2,0:0|0:0,0:0:0:0:
228,112,209082,1,8,0:0:0:0:
344,112,209197,1,0,0:0:0:0:
124,72,209313,6,0,L|32:72,1,87.5,2|2,0:0|0:0,0:0:0:0:
273,220,209544,2,0,L|389:220,1,87.5,8|0,0:0|0:0,0:0:0:0:
96,308,209774,2,0,L|180:268,2,87.5,2|2|2,0:0|0:0|0:0,0:0:0:0:
360,312,210120,2,0,L|375:225,1,87.5,8|0,0:0|0:0,0:0:0:0:
124,160,210351,2,0,L|108:73,1,87.5,2|0,0:0|0:0,0:0:0:0:
208,72,210582,1,2,0:0:0:0:
348,72,210697,2,0,L|428:28,1,87.5,2|2,0:0|0:0,0:0:0:0:
284,120,210928,2,0,L|204:164,1,87.5,8|0,0:0|0:0,0:0:0:0:
472,192,211159,6,0,L|384:192,1,87.5,6|2,0:0|0:0,0:0:0:0:
164,280,211390,2,0,L|251:280,1,87.5,8|0,0:0|0:0,0:0:0:0:
32,192,211620,2,0,L|116:152,2,87.5,2|2|2,0:0|0:0|0:0,0:0:0:0:
296,192,211967,2,0,L|388:192,1,87.5,8|0,0:0|0:0,0:0:0:0:
120,72,212197,2,0,L|28:72,1,87.5,2|0,0:0|0:0,0:0:0:0:
136,72,212428,1,2,0:0:0:0:
356,72,212544,1,2,0:0:0:0:
268,72,212659,1,2,0:0:0:0:
372,72,212774,1,8,0:0:0:0:
248,72,212890,1,0,0:0:0:0:
468,72,213005,6,0,L|380:72,1,87.5,2|2,0:0|0:0,0:0:0:0:
136,192,213236,2,0,L|48:192,1,87.5,8|0,0:0|0:0,0:0:0:0:
268,280,213467,2,0,L|359:280,2,87.5,2|2|2,0:0|0:0|0:0,0:0:0:0:
144,280,213813,1,8,0:0:0:0:
248,192,213928,2,0,L|348:192,1,87.5,2|2,0:0|0:0,0:0:0:0:
108,192,214159,2,0,L|20:192,1,87.5,8|2,0:0|0:0,0:0:0:0:
400,192,214390,5,4,0:0:0:0:
427,141,214447,1,0,0:0:0:0:
417,85,214505,1,0,0:0:0:0:
373,48,214563,1,0,0:0:0:0:
52,136,214620,1,0,0:0:0:0:
45,192,214678,1,0,0:0:0:0:
74,242,214736,1,0,0:0:0:0:
128,263,214794,1,0,0:0:0:0:
388,320,214851,6,0,L|480:320,1,87.5,2|2,0:0|0:0,0:0:0:0:
219,172,215082,2,0,L|103:172,1,87.5,8|0,0:0|0:0,0:0:0:0:
396,84,215313,2,0,L|484:84,2,87.5,2|2|2,0:0|0:0|0:0,0:0:0:0:
132,84,215659,2,0,L|40:84,1,87.5,8|0,0:0|0:0,0:0:0:0:
264,244,215890,2,0,L|192:192,1,87.5,2|0,0:0|0:0,0:0:0:0:
104,192,216120,1,2,0:0:0:0:
236,348,216236,1,2,0:0:0:0:
132,348,216351,1,0,0:0:0:0:
372,348,216467,1,8,0:0:0:0:
268,348,216582,1,0,0:0:0:0:
48,160,216697,6,0,L|135:160,1,87.5,2|2,0:0|0:0,0:0:0:0:
396,164,216928,2,0,L|308:164,1,87.5,8|0,0:0|0:0,0:0:0:0:
68,88,217159,2,0,L|147:50,2,87.5,2|2|2,0:0|0:0|0:0,0:0:0:0:
308,164,217505,2,0,L|232:228,1,87.5,8|0,0:0|0:0,0:0:0:0:
136,220,217736,1,2,0:0:0:0:
356,220,217851,2,0,L|432:264,1,87.5,2|0,0:0|0:0,0:0:0:0:
212,312,218082,1,2,0:0:0:0:
300,312,218197,1,2,0:0:0:0:
194,312,218313,1,8,0:0:0:0:
318,312,218428,1,0,0:0:0:0:
116,192,218544,6,0,L|28:192,1,87.5,6|2,0:0|0:0,0:0:0:0:
248,112,218774,2,0,L|161:112,1,87.5,8|0,0:0|0:0,0:0:0:0:
380,112,219005,2,0,L|480:112,2,87.5,2|2|0,0:0|0:0|0:0,0:0:0:0:
116,264,219351,2,0,L|24:264,1,87.5,8|0,0:0|0:0,0:0:0:0:
248,192,219582,2,0,L|340:192,1,87.5,2|0,0:0|0:0,0:0:0:0:
220,192,219813,1,2,0:0:0:0:
352,272,219928,1,8,0:0:0:0:
220,272,220044,1,2,0:0:0:0:
440,272,220159,1,2,0:0:0:0:
176,272,220274,1,2,0:0:0:0:
484,272,220390,5,8,0:0:0:0:
472,185,220505,1,2,0:0:0:0:
431,108,220620,1,2,0:0:0:0:
367,50,220736,1,2,0:0:0:0:
36,204,220851,1,8,0:0:0:0:
54,119,220967,1,2,0:0:0:0:
113,55,221082,1,2,0:0:0:0:
196,32,221197,1,2,0:0:0:0:
384,52,221313,5,8,0:0:0:0:
165,142,221428,1,2,0:0:0:0:
385,142,221544,1,8,0:0:0:0:
165,142,221659,1,2,0:0:0:0:
270,224,221774,1,2,0:0:0:0:
156,224,221890,1,2,0:0:0:0:
261,224,222005,1,2,0:0:0:0:
165,224,222120,1,2,0:0:0:0:
428,228,222236,6,0,B|504:228|504:228|504:332|436:360|344:360,1,315.000012016297,6|0,0:0|0:0,0:0:0:0:
108,356,222697,2,0,B|48:356|22:302|24:252|68:224|224:224|276:192|276:132|224:88|64:88,1,525.000020027161,2|0,0:0|0:0,0:0:0:0:
336,84,223390,2,0,P|428:168|300:224,1,315.000012016297,8|0,0:0|0:0,0:0:0:0:
36,224,223851,2,0,L|148:224,1,105.000004005432,8|0,0:0|0:0,0:0:0:0:
405,308,224082,6,0,B|457:308|482:267|482:211|450:175|400:104|320:104,1,315.000012016297,2|0,0:0|0:0,0:0:0:0:
124,36,224544,2,0,B|72:36|16:72|16:208|44:280|128:312|216:312|284:268|288:208|256:172|192:168,1,525.000020027161,2|0,0:0|0:0,0:0:0:0:
16,288,225236,2,0,B|80:364|168:380|248:360|296:308,1,315.000012016297,8|0,0:0|0:0,0:0:0:0:
96,192,225697,2,0,P|52:172|36:120,1,105.000004005432,8|0,0:0|0:0,0:0:0:0:
300,52,225928,6,0,P|356:109|208:168,1,315.000012016297,2|0,0:0|0:0,0:0:0:0:
420,168,226390,2,0,P|476:225|328:284,1,315.000012016297,2|0,0:0|0:0,0:0:0:0:
120,52,226851,2,0,P|64:140|164:308,1,315.000012016297,2|0,0:0|0:0,0:0:0:0:
371,285,227313,2,0,P|372:169|208:169,1,315.000012016297,2|0,0:0|0:0,0:0:0:0:
420,284,227774,6,0,L|500:284,1,70,2|0,0:0|0:0,0:0:0:0:
364,192,228005,2,0,L|352:120,1,70,8|0,0:0|0:0,0:0:0:0:
464,132,228236,2,0,L|452:60,1,70,2|0,0:0|0:0,0:0:0:0:
324,124,228467,2,0,L|312:52,1,70,8|0,0:0|0:0,0:0:0:0:
184,124,228697,2,0,L|100:124,1,70,2|0,0:0|0:0,0:0:0:0:
312,120,228928,2,0,L|412:120,1,94.5000003604889,4|0,0:0|0:0,0:0:0:0:
276,192,229159,2,0,L|352:192,1,70,2|0,0:0|0:0,0:0:0:0:
136,192,229390,2,0,L|32:192,1,105,12|0,0:0|0:0,0:0:0:0:
400,192,229620,6,0,P|452:232|360:280,1,210.000008010865,4|0,0:0|0:0,0:0:0:0:
256,284,229967,1,0,0:0:0:0:
464,192,230082,2,0,L|368:132,1,105.000004005432,2|2,0:0|0:0,0:0:0:0:
112,136,230313,2,0,L|16:76,1,105.000004005432,8|0,0:0|0:0,0:0:0:0:
172,136,230544,2,0,L|118:36,1,105.000004005432,2|2,0:0|0:0,0:0:0:0:
382,136,230774,2,0,P|350:232|246:264,1,210.000008010865,8|2,0:0|0:0,0:0:0:0:
148,264,231120,1,2,0:0:0:0:
356,264,231236,2,0,L|444:204,1,105.000004005432,8|0,0:0|0:0,0:0:0:0:
116,192,231467,6,0,P|32:164|96:96,1,210.000008010865,2|8,0:0|0:0,0:0:0:0:
196,96,231813,1,0,0:0:0:0:
404,96,231928,2,0,L|500:156,1,105.000004005432,2|2,0:0|0:0,0:0:0:0:
232,192,232159,2,0,L|136:252,1,105.000004005432,8|0,0:0|0:0,0:0:0:0:
332,192,232390,2,0,L|436:260,1,105.000004005432,2|2,0:0|0:0,0:0:0:0:
142,247,232620,2,0,P|68:216|48:144,1,157.500006008148,8|0,0:0|0:0,0:0:0:0:
308,44,232851,5,10,0:0:0:0:
360,92,232928,1,2,0:0:0:0:
308,140,233005,1,2,0:0:0:0:
194,199,233082,1,2,0:0:0:0:
142,247,233159,1,2,0:0:0:0:
194,295,233236,1,2,0:0:0:0:
428,296,233313,6,0,P|492:272|464:156,1,210.000008010865,12|2,0:0|0:0,0:0:0:0:
360,160,233659,1,2,0:0:0:0:
80,160,233774,2,0,L|64:56,1,105.000004005432,8|2,0:0|0:0,0:0:0:0:
276,112,234005,2,0,L|296:0,1,105.000004005432,2|2,0:0|0:0,0:0:0:0:
80,160,234236,1,8,0:0:0:0:
184,160,234351,1,2,0:0:0:0:
68,160,234467,1,2,0:0:0:0:
172,160,234582,1,2,0:0:0:0:
364,160,234697,1,8,0:0:0:0:
190,160,234813,1,8,0:0:0:0:
382,160,234928,1,8,0:0:0:0:
172,160,235044,1,8,0:0:0:0:
456,244,235159,5,0,0:0:0:0:
192,244,235274,2,0,L|184:352,1,105.000004005432,8|2,0:0|0:0,0:0:0:0:
448,320,235505,2,0,L|436:212,1,105.000004005432,8|2,0:0|0:0,0:0:0:0:
172,244,235736,2,0,L|179:139,1,105.000004005432,8|2,0:0|0:0,0:0:0:0:
328,140,235967,1,8,0:0:0:0:
198,139,236082,1,2,0:0:0:0:
444,192,236197,2,0,L|472:300,1,105.000004005432,8|2,0:0|0:0,0:0:0:0:
220,244,236428,2,0,L|188:344,1,105.000004005432,8|2,0:0|0:0,0:0:0:0:
440,344,236659,2,0,L|404:244,1,105.000004005432,8|2,0:0|0:0,0:0:0:0:
144,240,236890,1,8,0:0:0:0:
400,192,237005,5,2,0:0:0:0:
156,192,237120,2,0,L|60:136,1,105.000004005432,8|2,0:0|0:0,0:0:0:0:
292,100,237351,2,0,L|388:44,1,105.000004005432,8|2,0:0|0:0,0:0:0:0:
128,96,237582,2,0,L|224:40,1,105.000004005432,8|2,0:0|0:0,0:0:0:0:
480,196,237813,1,8,0:0:0:0:
228,248,237928,6,0,L|120:248,1,105.000004005432,8|2,0:0|0:0,0:0:0:0:
376,48,238159,2,0,L|508:48,1,105.000004005432,8|2,0:0|0:0,0:0:0:0:
268,136,238390,1,8,0:0:0:0:
372,136,238505,1,8,0:0:0:0:
184,136,238620,1,8,0:0:0:0:
416,136,238736,1,8,0:0:0:0:
144,12,238851,6,0,B|-20:240|308:144|132:376,1,420,2|0,0:0|0:0,0:0:0:0:
368,12,239313,2,0,B|532:240|204:144|380:376,1,420,2|0,0:0|0:0,0:0:0:0:
132,328,239774,2,0,P|173:192|325:120,1,315.000012016297,2|0,0:0|0:0,0:0:0:0:
109,124,240236,2,0,P|23:241|133:328,1,315.000012016297,2|0,0:0|0:0,0:0:0:0:
364,328,240697,6,0,L|444:328,1,70,8|2,0:0|0:0,0:0:0:0:
308,272,240928,2,0,L|252:228,1,70,8|2,0:0|0:0,0:0:0:0:
380,124,241159,2,0,L|435:167,1,70,8|2,0:0|0:0,0:0:0:0:
308,120,241390,2,0,L|300:44,1,70,8|2,0:0|0:0,0:0:0:0:
106,56,241620,6,0,L|34:56,1,70,8|8,0:0|0:0,0:0:0:0:
212,56,241851,1,8,0:0:0:0:
36,56,241967,1,8,0:0:0:0:
244,216,242082,2,0,L|308:216,2,46.6666666666667,2|2|2,0:0|0:0|0:0,0:0:0:0:
80,192,242313,2,0,L|16:192,2,46.6666666666667,2|2|0,0:0|0:0|0:0,0:0:0:0:
388,328,242544,5,6,0:0:0:0:
442,333,242620,1,2,0:0:0:0:
485,299,242697,1,2,0:0:0:0:
494,245,242774,1,2,0:0:0:0:
464,200,242851,1,2,0:0:0:0:
411,187,242928,1,2,0:0:0:0:
180,188,243005,1,10,0:0:0:0:
126,148,243082,1,2,0:0:0:0:
139,84,243159,1,2,0:0:0:0:
372,112,243236,1,2,0:0:0:0:
426,72,243313,1,2,0:0:0:0:
413,8,243390,1,2,0:0:0:0:
72,44,243467,5,2,0:0:0:0:
29,92,243544,1,2,0:0:0:0:
24,156,243620,1,2,0:0:0:0:
59,210,243697,1,2,0:0:0:0:
120,231,243774,1,2,0:0:0:0:
181,212,243851,1,2,0:0:0:0:
416,180,243928,1,10,0:0:0:0:
477,219,244005,1,2,0:0:0:0:
497,289,244082,1,2,0:0:0:0:
465,354,244159,1,2,0:0:0:0:
397,381,244236,1,2,0:0:0:0:
328,356,244313,1,2,0:0:0:0:
102,308,244390,5,6,0:0:0:0:
50,272,244467,1,2,0:0:0:0:
86,220,244544,1,2,0:0:0:0:
150,220,244620,1,2,0:0:0:0:
186,168,244697,1,2,0:0:0:0:
134,132,244774,1,2,0:0:0:0:
418,308,244851,5,10,0:0:0:0:
470,272,244928,1,2,0:0:0:0:
434,220,245005,1,2,0:0:0:0:
370,220,245082,1,2,0:0:0:0:
334,168,245159,1,2,0:0:0:0:
386,132,245236,1,2,0:0:0:0:
120,28,245313,5,2,0:0:0:0:
57,43,245390,1,2,0:0:0:0:
18,93,245467,1,2,0:0:0:0:
19,158,245544,1,2,0:0:0:0:
60,207,245620,1,2,0:0:0:0:
123,220,245697,1,2,0:0:0:0:
386,132,245774,1,10,0:0:0:0:
448,148,245851,1,2,0:0:0:0:
488,198,245928,1,2,0:0:0:0:
486,262,246005,1,2,0:0:0:0:
445,312,246082,1,2,0:0:0:0:
383,325,246159,1,2,0:0:0:0:
136,192,246236,5,10,0:0:0:0:
82,183,246313,1,2,0:0:0:0:
51,138,246390,1,2,0:0:0:0:
64,85,246467,1,2,0:0:0:0:
111,57,246544,1,2,0:0:0:0:
163,73,246620,1,2,0:0:0:0:
396,288,246697,1,10,0:0:0:0:
464,264,246774,1,2,0:0:0:0:
496,199,246851,1,2,0:0:0:0:
473,130,246928,1,2,0:0:0:0:
408,97,247005,1,2,0:0:0:0:
339,120,247082,1,2,0:0:0:0:
152,288,247159,5,10,0:0:0:0:
100,244,247236,1,2,0:0:0:0:
140,192,247313,1,2,0:0:0:0:
216,192,247390,1,2,0:0:0:0:
252,140,247467,1,2,0:0:0:0:
204,96,247544,1,2,0:0:0:0:
68,288,247620,1,4,0:0:0:0:
208,288,247774,1,2,0:0:0:0:
92,288,247928,1,2,0:0:0:0:
392,377,248082,6,0,P|256:0|128:380,1,1050,4|0,0:0|0:0,0:0:0:0:
340,76,249928,6,0,L|428:76,1,87.5,6|2,0:0|0:0,0:0:0:0:
164,136,250159,2,0,L|72:136,2,87.5,8|0|0,0:0|0:0|0:0,0:0:0:0:
384,192,250505,2,0,L|456:240,1,87.5,2|2,0:0|0:0,0:0:0:0:
368,240,250736,1,2,0:0:0:0:
152,240,250851,2,0,L|64:240,2,87.5,8|2|2,0:0|0:0|0:0,0:0:0:0:
372,320,251197,2,0,L|476:320,1,87.5,8|2,0:0|0:0,0:0:0:0:
344,320,251428,1,2,0:0:0:0:
40,320,251544,2,0,L|128:320,1,87.5,8|0,0:0|0:0,0:0:0:0:
436,232,251774,6,0,L|472:152,1,87.5,2|2,0:0|0:0,0:0:0:0:
208,152,252005,2,0,L|120:152,2,87.5,8|0|0,0:0|0:0|0:0,0:0:0:0:
296,152,252351,1,2,0:0:0:0:
56,152,252467,2,0,L|132:100,1,87.5,2|2,0:0|0:0,0:0:0:0:
368,44,252697,2,0,L|272:68,2,87.5,8|2|2,0:0|0:0|0:0,0:0:0:0:
128,24,253044,2,0,L|224:48,2,87.5,8|2|2,0:0|0:0|0:0,0:0:0:0:
368,120,253390,1,8,0:0:0:0:
188,120,253505,1,0,0:0:0:0:
456,120,253620,6,0,L|368:120,1,87.5,6|2,0:0|0:0,0:0:0:0:
140,240,253851,2,0,L|220:200,2,87.5,8|2|2,0:0|0:0|0:0,0:0:0:0:
264,248,254197,2,0,L|344:208,2,87.5,8|2|2,0:0|0:0|0:0,0:0:0:0:
44,112,254544,2,0,L|148:112,1,87.5,8|2,0:0|0:0,0:0:0:0:
24,112,254774,1,2,0:0:0:0:
200,112,254890,2,0,L|296:112,1,87.5,8|2,0:0|0:0,0:0:0:0:
180,112,255120,1,2,0:0:0:0:
444,192,255236,2,0,L|348:192,1,87.5,8|8,0:0|0:0,0:0:0:0:
132,192,255467,6,0,L|88:269,1,87.5,6|0,0:0|0:0,0:0:0:0:
340,192,255697,2,0,L|402:255,1,87.5,8|0,0:0|0:0,0:0:0:0:
88,267,255928,2,0,L|165:311,1,87.5,2|0,0:0|0:0,0:0:0:0:
485,231,256159,2,0,L|400:254,1,87.5,8|0,0:0|0:0,0:0:0:0:
181,192,256390,5,8,0:0:0:0:
61,192,256505,1,2,0:0:0:0:
201,192,256620,1,8,0:0:0:0:
81,192,256736,1,2,0:0:0:0:
345,192,256851,1,4,0:0:0:0:
408,143,256928,1,2,0:0:0:0:
369,73,257005,1,2,0:0:0:0:
133,72,257082,1,2,0:0:0:0:
54,102,257159,1,2,0:0:0:0:
38,184,257236,1,2,0:0:0:0:
432,164,257313,6,0,L|487:61,1,87.5,6|2,0:0|0:0,0:0:0:0:
192,296,257544,2,0,L|100:296,2,87.5,8|0|0,0:0|0:0|0:0,0:0:0:0:
411,220,257890,2,0,L|488:176,1,87.5,2|2,0:0|0:0,0:0:0:0:
400,180,258120,1,2,0:0:0:0:
136,192,258236,2,0,L|32:192,2,87.5,8|2|2,0:0|0:0|0:0,0:0:0:0:
356,88,258582,2,0,L|252:88,1,87.5,8|2,0:0|0:0,0:0:0:0:
180,88,258813,1,2,0:0:0:0:
404,88,258928,2,0,L|500:88,1,87.5,8|0,0:0|0:0,0:0:0:0:
184,192,259159,6,0,L|92:192,1,87.5,2|2,0:0|0:0,0:0:0:0:
360,280,259390,2,0,L|448:280,2,87.5,8|0|0,0:0|0:0|0:0,0:0:0:0:
272,280,259736,1,2,0:0:0:0:
492,192,259851,2,0,L|400:144,1,87.5,2|2,0:0|0:0,0:0:0:0:
168,112,260082,2,0,L|64:112,2,87.5,8|2|2,0:0|0:0|0:0,0:0:0:0:
392,192,260428,1,8,0:0:0:0:
289,192,260544,1,2,0:0:0:0:
188,192,260659,1,2,0:0:0:0:
408,192,260774,2,0,L|496:192,1,87.5,8|0,0:0|0:0,0:0:0:0:
144,56,261005,6,0,L|56:56,1,87.5,6|2,0:0|0:0,0:0:0:0:
304,192,261236,2,0,L|408:192,2,87.5,8|2|2,0:0|0:0|0:0,0:0:0:0:
180,248,261582,2,0,L|75:248,2,87.5,8|2|2,0:0|0:0|0:0,0:0:0:0:
412,280,261928,2,0,L|300:280,1,87.5,8|2,0:0|0:0,0:0:0:0:
432,280,262159,1,2,0:0:0:0:
292,280,262274,2,0,L|204:280,1,87.5,8|2,0:0|0:0,0:0:0:0:
116,280,262505,1,2,0:0:0:0:
344,192,262620,2,0,L|432:192,1,87.5,8|0,0:0|0:0,0:0:0:0:
124,192,262851,5,8,0:0:0:0:
228,192,262967,1,8,0:0:0:0:
52,192,263082,2,0,L|156:192,1,87.5,8|8,0:0|0:0,0:0:0:0:
360,192,263313,1,10,0:0:0:0:
411,138,263390,1,2,0:0:0:0:
343,109,263467,1,2,0:0:0:0:
136,112,263544,1,2,0:0:0:0:
67,83,263620,1,2,0:0:0:0:
119,29,263697,1,2,0:0:0:0:
380,32,263774,6,0,L|472:32,1,87.5,6|2,0:0|0:0,0:0:0:0:
360,112,264005,1,2,0:0:0:0:
492,112,264120,1,8,0:0:0:0:
192,192,264236,2,0,L|100:192,1,87.5,2|0,0:0|0:0,0:0:0:0:
244,260,264467,2,0,L|336:260,1,87.5,8|2,0:0|0:0,0:0:0:0:
96,28,264697,6,0,P|40:60|20:140,1,140,6|2,0:0|0:0,0:0:0:0:
104,116,265044,1,2,0:0:0:0:
300,120,265159,2,0,P|364:152|380:228,1,140,8|2,0:0|0:0,0:0:0:0:
300,204,265505,1,0,0:0:0:0:
124,272,265620,2,0,L|144:196,1,70,2|2,0:0|0:0,0:0:0:0:
268,272,265851,2,0,L|248:196,1,70,2|2,0:0|0:0,0:0:0:0:
72,204,266082,2,0,L|92:128,1,70,8|0,0:0|0:0,0:0:0:0:
216,204,266313,2,0,L|232:132,1,70,2|2,0:0|0:0,0:0:0:0:
428,28,266544,6,0,P|488:60|476:124,1,140,6|2,0:0|0:0,0:0:0:0:
392,124,266890,1,2,0:0:0:0:
184,124,267005,2,0,B|84:124|84:124|128:124,1,140,8|2,0:0|0:0,0:0:0:0:
208,124,267351,1,0,0:0:0:0:
28,192,267467,2,0,L|104:192,1,70,2|2,0:0|0:0,0:0:0:0:
224,264,267697,2,0,L|128:264,1,70,2|2,0:0|0:0,0:0:0:0:
415,195,267928,2,0,L|339:195,1,70,8|0,0:0|0:0,0:0:0:0:
219,123,268159,2,0,L|315:123,1,70,2|2,0:0|0:0,0:0:0:0:
44,192,268390,5,6,0:0:0:0:
128,192,268505,1,2,0:0:0:0:
28,192,268620,1,2,0:0:0:0:
112,192,268736,1,2,0:0:0:0:
320,192,268851,1,10,0:0:0:0:
236,192,268967,1,2,0:0:0:0:
336,192,269082,1,2,0:0:0:0:
252,192,269197,1,2,0:0:0:0:
464,192,269313,6,0,P|500:132|408:56,1,210.000008010865,6|8,0:0|0:0,0:0:0:0:
232,104,269659,1,8,0:0:0:0:
472,192,269774,1,10,0:0:0:0:
491,245,269832,1,2,0:0:0:0:
475,300,269890,1,2,0:0:0:0:
429,335,269947,1,2,0:0:0:0:
216,336,270005,1,2,0:0:0:0:
150,324,270063,1,2,0:0:0:0:
128,261,270120,1,2,0:0:0:0:
172,211,270178,1,2,0:0:0:0:
402,192,270236,6,0,L|472:192,1,70,6|0,0:0|0:0,0:0:0:0:
344,124,270467,2,0,L|272:76,1,70,2|0,0:0|0:0,0:0:0:0:
472,28,270697,2,0,L|392:28,1,70,8|0,0:0|0:0,0:0:0:0:
274,123,270928,2,0,L|344:124,1,70,2|0,0:0|0:0,0:0:0:0:
120,192,271159,2,0,L|28:192,1,70,2|0,0:0|0:0,0:0:0:0:
176,192,271390,2,0,L|272:192,1,70,2|0,0:0|0:0,0:0:0:0:
72,276,271620,1,8,0:0:0:0:
248,280,271736,1,8,0:0:0:0:
56,276,271851,1,8,0:0:0:0:
268,280,271967,1,8,0:0:0:0:
32,192,272082,5,2,0:0:0:0:
12,151,272159,1,2,0:0:0:0:
32,112,272236,1,2,0:0:0:0:
244,112,272313,2,0,L|356:112,1,93.3333333333333,12|0,0:0|0:0,0:0:0:0:
244,112,272544,1,2,0:0:0:0:
208,72,272620,1,2,0:0:0:0:
244,32,272697,1,2,0:0:0:0:
456,32,272774,2,0,L|363:32,1,93.3333333333333,12|0,0:0|0:0,0:0:0:0:
128,32,273005,5,2,0:0:0:0:
72,32,273082,1,2,0:0:0:0:
16,32,273159,1,2,0:0:0:0:
228,72,273236,2,0,L|336:72,1,93.3333333333333,12|0,0:0|0:0,0:0:0:0:
228,148,273467,1,2,0:0:0:0:
284,148,273544,1,2,0:0:0:0:
336,148,273620,1,2,0:0:0:0:
128,192,273697,2,0,L|20:192,1,93.3333333333333,12|0,0:0|0:0,0:0:0:0:
316,248,273928,5,2,0:0:0:0:
372,248,274005,1,2,0:0:0:0:
428,248,274082,1,2,0:0:0:0:
216,364,274159,2,0,L|120:364,1,93.3333333333333,12|0,0:0|0:0,0:0:0:0:
216,248,274390,1,2,0:0:0:0:
160,248,274467,1,2,0:0:0:0:
104,248,274544,1,2,0:0:0:0:
316,248,274620,2,0,L|409:248,1,93.3333333333333,12|0,0:0|0:0,0:0:0:0:
180,104,274851,6,0,L|128:104,2,46.6666666666667,2|2|2,0:0|0:0|0:0,0:0:0:0:
369,104,275082,2,0,L|441:104,1,70,12|2,0:0|0:0,0:0:0:0:
265,104,275313,1,4,0:0:0:0:
369,104,275428,1,2,0:0:0:0:
277,104,275544,1,2,0:0:0:0:
480,192,275774,6,0,L|488:284,1,70,6|0,0:0|0:0,0:0:0:0:
372,260,276005,2,0,L|368:336,1,70,2|0,0:0|0:0,0:0:0:0:
88,192,276236,2,0,L|80:284,1,70,8|0,0:0|0:0,0:0:0:0:
196,260,276467,2,0,L|200:336,1,70,2|0,0:0|0:0,0:0:0:0:
72,328,276697,1,2,0:0:0:0:
308,264,276813,2,0,L|384:264,2,70,0|2|0,0:0|0:0|0:0,0:0:0:0:
60,192,277159,2,0,L|144:192,1,70,8|0,0:0|0:0,0:0:0:0:
412,192,277390,2,0,L|332:192,1,70,2|0,0:0|0:0,0:0:0:0:
96,112,277620,5,4,0:0:0:0:
208,112,277736,1,2,0:0:0:0:
112,112,277851,1,2,0:0:0:0:
340,36,277967,1,4,0:0:0:0:
228,36,278082,1,2,0:0:0:0:
324,36,278197,1,2,0:0:0:0:
80,36,278313,2,0,L|4:36,1,70,4|2,0:0|0:0,0:0:0:0:
60,36,278486,1,2,0:0:0:0:
236,132,278544,5,8,0:0:0:0:
308,132,278659,1,2,0:0:0:0:
224,132,278774,1,8,0:0:0:0:
324,132,278890,1,2,0:0:0:0:
116,132,279005,1,8,0:0:0:0:
360,132,279120,1,2,0:0:0:0:
80,132,279236,1,8,0:0:0:0:
396,132,279351,1,2,0:0:0:0:
44,132,279467,6,0,P|64:224|180:256,1,210.000008010865,6|8,0:0|0:0,0:0:0:0:
272,260,279813,1,0,0:0:0:0:
80,132,279928,2,0,L|168:68,1,105.000004005432,2|2,0:0|0:0,0:0:0:0:
448,72,280159,2,0,L|340:72,1,105.000004005432,8|0,0:0|0:0,0:0:0:0:
80,260,280390,2,0,P|92:328|216:372,1,210.000008010865,2|8,0:0|0:0,0:0:0:0:
320,372,280736,1,2,0:0:0:0:
40,192,280851,2,0,L|60:88,1,105.000004005432,2|2,0:0|0:0,0:0:0:0:
376,192,281082,2,0,L|356:296,1,105.000004005432,8|0,0:0|0:0,0:0:0:0:
72,88,281313,6,0,P|8:120|88:184,1,210.000008010865,2|8,0:0|0:0,0:0:0:0:
352,192,281659,2,0,P|412:196|468:320,1,210.000008010865,2|2,0:0|0:0,0:0:0:0:
204,320,282005,2,0,L|96:320,1,105.000004005432,8|2,0:0|0:0,0:0:0:0:
416,192,282236,2,0,P|404:120|272:88,1,210.000008010865,2|8,0:0|0:0,0:0:0:0:
180,84,282582,1,2,0:0:0:0:
416,192,282697,2,0,L|508:136,1,105.000004005432,2|2,0:0|0:0,0:0:0:0:
264,136,282928,2,0,L|364:76,1,105.000004005432,8|0,0:0|0:0,0:0:0:0:
88,84,283159,6,0,P|36:100|104:192,1,210.000008010865,2|8,0:0|0:0,0:0:0:0:
360,200,283505,2,0,P|440:232|484:348,1,210.000008010865,2|2,0:0|0:0,0:0:0:0:
244,340,283851,2,0,B|252:232,1,105.000004005432,8|2,0:0|0:0,0:0:0:0:
16,196,284082,2,0,P|48:104|160:76,1,210.000008010865,2|8,0:0|0:0,0:0:0:0:
384,192,284428,2,0,P|352:284|240:312,1,210.000008010865,2|2,0:0|0:0,0:0:0:0:
488,192,284774,2,0,B|468:84,1,105.000004005432,8|2,0:0|0:0,0:0:0:0:
144,192,285005,6,0,P|48:163|27:65,1,210.000008010865,2|8,0:0|0:0,0:0:0:0:
328,32,285351,2,0,P|403:59|439:179,1,210.000008010865,2|2,0:0|0:0,0:0:0:0:
200,192,285697,2,0,L|92:192,1,105.000004005432,8|2,0:0|0:0,0:0:0:0:
464,192,285928,2,0,L|476:76,1,105.000004005432,2|2,0:0|0:0,0:0:0:0:
232,108,286159,1,4,0:0:0:0:
340,108,286274,1,2,0:0:0:0:
56,192,286390,2,0,L|44:88,1,105.000004005432,2|2,0:0|0:0,0:0:0:0:
284,108,286620,1,8,0:0:0:0:
176,108,286736,1,0,0:0:0:0:
432,108,286851,6,0,P|464:156|360:216,1,210.000008010865,6|8,0:0|0:0,0:0:0:0:
256,216,287197,1,0,0:0:0:0:
492,312,287313,2,0,L|380:312,1,105.000004005432,2|2,0:0|0:0,0:0:0:0:
148,360,287544,2,0,L|256:360,1,105.000004005432,8|0,0:0|0:0,0:0:0:0:
491,312,287774,2,0,P|460:212|364:184,1,210.000008010865,2|8,0:0|0:0,0:0:0:0:
260,180,288120,1,2,0:0:0:0:
480,120,288236,2,0,L|468:12,1,105.000004005432,2|2,0:0|0:0,0:0:0:0:
248,116,288467,2,0,L|248:8,1,105.000004005432,8|0,0:0|0:0,0:0:0:0:
28,116,288697,6,0,P|28:168|152:232,1,210.000008010865,2|8,0:0|0:0,0:0:0:0:
420,48,289044,2,0,P|492:72|424:156,1,210.000008010865,2|2,0:0|0:0,0:0:0:0:
224,156,289390,1,8,0:0:0:0:
340,156,289505,1,2,0:0:0:0:
132,156,289620,2,0,P|72:216|160:256,1,210.000008010865,2|8,0:0|0:0,0:0:0:0:
264,260,289967,1,2,0:0:0:0:
44,368,290082,2,0,L|176:368,1,105.000004005432,2|2,0:0|0:0,0:0:0:0:
380,368,290313,1,8,0:0:0:0:
192,368,290428,1,0,0:0:0:0:
476,240,290544,6,0,L|484:24,1,210.000008010865,6|8,0:0|0:0,0:0:0:0:
168,240,290890,2,0,L|156:30,1,210.000008010865,2|2,0:0|0:0,0:0:0:0:
400,240,291236,2,0,L|505:240,1,105.000004005432,8|2,0:0|0:0,0:0:0:0:
100,240,291467,2,0,P|12:192|96:172,1,245.000002336502,6|8,0:0|0:0,0:0:0:0:
392,64,291813,2,0,P|478:103|388:131,1,245.000002336502,2|2,0:0|0:0,0:0:0:0:
124,128,292159,1,8,0:0:0:0:
332,128,292274,1,2,0:0:0:0:
96,292,292390,6,0,L|96:184,1,105.000004005432,6|0,0:0|0:0,0:0:0:0:
213,183,292620,2,0,L|109:119,1,105.000004005432,8|0,0:0|0:0,0:0:0:0:
244,64,292851,2,0,L|136:64,1,105.000004005432,2|0,0:0|0:0,0:0:0:0:
272,64,293082,2,0,L|380:64,1,105.000004005432,8|0,0:0|0:0,0:0:0:0:
164,192,293313,5,8,0:0:0:0:
384,192,293428,1,8,0:0:0:0:
136,192,293544,1,8,0:0:0:0:
356,192,293659,1,8,0:0:0:0:
128,304,293774,2,0,L|116:360,1,52.5000020027161,4|2,0:0|0:0,0:0:0:0:
252,304,293890,2,0,L|240:360,1,52.5000020027161,2|2,0:0|0:0,0:0:0:0:
122,280,294005,2,0,L|110:336,1,52.5000020027161,2|2,0:0|0:0,0:0:0:0:
248,280,294120,2,0,L|236:336,1,52.5000020027161,2|2,0:0|0:0,0:0:0:0:
56,192,294236,6,0,P|70:93|164:60,1,210.000008010865,6|8,0:0|0:0,0:0:0:0:
272,60,294582,1,0,0:0:0:0:
36,164,294697,2,0,L|32:52,1,105.000004005432,2|2,0:0|0:0,0:0:0:0:
268,164,294928,2,0,L|272:55,1,105.000004005432,8|0,0:0|0:0,0:0:0:0:
496,164,295159,2,0,P|452:244|348:296,1,210.000008010865,2|8,0:0|0:0,0:0:0:0:
244,296,295505,1,2,0:0:0:0:
476,192,295620,2,0,L|388:136,1,105.000004005432,2|0,0:0|0:0,0:0:0:0:
128,144,295851,2,0,L|40:88,1,105.000004005432,8|0,0:0|0:0,0:0:0:0:
414,46,296082,6,0,P|478:78|398:142,1,210.000008010865,2|8,0:0|0:0,0:0:0:0:
128,144,296428,2,0,P|68:148|132:220,1,210.000008010865,2|2,0:0|0:0,0:0:0:0:
364,224,296774,2,0,L|256:224,1,105.000004005432,8|2,0:0|0:0,0:0:0:0:
484,220,297005,2,0,P|480:168|348:116,1,210.000008010865,2|8,0:0|0:0,0:0:0:0:
456,116,297351,1,2,0:0:0:0:
244,116,297467,2,0,L|136:116,1,105.000004005432,2|2,0:0|0:0,0:0:0:0:
376,32,297697,2,0,L|268:32,1,105.000004005432,8|0,0:0|0:0,0:0:0:0:
44,28,297928,6,0,P|13:73|129:121,1,210.000008010865,2|8,0:0|0:0,0:0:0:0:
380,136,298274,2,0,P|464:200|472:300,1,210.000008010865,2|2,0:0|0:0,0:0:0:0:
236,300,298620,2,0,L|356:300,1,105.000004005432,8|2,0:0|0:0,0:0:0:0:
100,296,298851,2,0,P|28:272|105:209,1,210.000008010865,2|8,0:0|0:0,0:0:0:0:
336,204,299197,2,0,P|428:164|468:64,1,210.000008010865,2|2,0:0|0:0,0:0:0:0:
252,68,299544,1,8,0:0:0:0:
368,68,299659,1,8,0:0:0:0:
96,68,299774,6,0,P|144:160|244:192,1,210.000008010865,2|8,0:0|0:0,0:0:0:0:
20,192,300120,2,0,P|116:288|188:308,1,210.000008010865,2|2,0:0|0:0,0:0:0:0:
420,312,300467,2,0,L|308:312,1,105.000004005432,8|2,0:0|0:0,0:0:0:0:
48,192,300697,2,0,L|36:76,1,105.000004005432,2|2,0:0|0:0,0:0:0:0:
280,108,300928,1,4,0:0:0:0:
164,108,301044,1,2,0:0:0:0:
452,192,301159,2,0,L|464:88,1,105.000004005432,2|2,0:0|0:0,0:0:0:0:
220,108,301390,1,8,0:0:0:0:
336,108,301505,1,2,0:0:0:0:
72,40,301620,6,0,P|88:112|208:148,1,210.000008010865,6|8,0:0|0:0,0:0:0:0:
312,148,301967,1,0,0:0:0:0:
92,232,302082,2,0,L|200:232,1,105.000004005432,2|2,0:0|0:0,0:0:0:0:
420,304,302313,2,0,L|312:304,1,105.000004005432,8|0,0:0|0:0,0:0:0:0:
80,300,302544,2,0,P|24:236|104:164,1,210.000008010865,2|8,0:0|0:0,0:0:0:0:
204,164,302890,1,2,0:0:0:0:
452,168,303005,2,0,L|464:60,1,105.000004005432,2|2,0:0|0:0,0:0:0:0:
144,164,303236,2,0,L|155:268,1,105.000004005432,8|0,0:0|0:0,0:0:0:0:
404,268,303467,6,0,P|488:224|452:128,1,210.000008010865,2|8,0:0|0:0,0:0:0:0:
220,164,303813,2,0,P|232:104|356:40,1,210.000008010865,2|2,0:0|0:0,0:0:0:0:
140,40,304159,1,8,0:0:0:0:
256,40,304274,1,0,0:0:0:0:
24,40,304390,2,0,P|64:136|160:160,1,210.000008010865,2|8,0:0|0:0,0:0:0:0:
432,164,304736,2,0,P|456:244|356:296,1,210.000008010865,2|2,0:0|0:0,0:0:0:0:
148,296,305082,1,8,0:0:0:0:
336,296,305197,1,2,0:0:0:0:
80,192,305313,6,0,P|3:152|83:124,1,210.000008010865,6|8,0:0|0:0,0:0:0:0:
424,148,305659,2,0,P|500:181|424:213,1,210.000008010865,2|2,0:0|0:0,0:0:0:0:
200,216,306005,2,0,L|312:216,1,105.000004005432,8|2,0:0|0:0,0:0:0:0:
60,324,306236,2,0,P|8:216|60:108,1,245.000002336502,6|8,0:0|0:0,0:0:0:0:
452,216,306582,2,0,P|504:108|452:0,1,245.000002336502,2|2,0:0|0:0,0:0:0:0:
124,128,306928,1,8,0:0:0:0:
336,132,307044,1,8,0:0:0:0:
72,192,307159,5,8,0:0:0:0:
293,275,307274,2,0,L|191:238,2,105.000004005432,8|8|8,0:0|0:0|0:0,0:0:0:0:
88,316,307620,1,4,0:0:0:0:
64,316,307678,1,8,0:0:0:0:
40,316,307736,1,8,0:0:0:0:
312,340,307851,2,0,L|428:340,1,105.000004005432,8|8,0:0|0:0,0:0:0:0:
376,340,308024,1,2,0:0:0:0:
195,240,308082,6,0,L|140:148,1,105.000004005432,2|2,0:0|0:0,0:0:0:0:
414,192,308313,1,4,0:0:0:0:
456,140,308370,1,2,0:0:0:0:
464,72,308428,1,2,0:0:0:0:
272,72,308544,2,0,L|221:21,1,52.5000020027161,2|2,0:0|0:0,0:0:0:0:
414,192,308659,2,0,L|459:146,1,52.5000020027161,2|2,0:0|0:0,0:0:0:0:
245,240,308774,2,0,L|193:210,1,52.5000020027161,2|2,0:0|0:0,0:0:0:0:
434,300,308890,2,0,L|479:274,1,52.5000020027161,2|2,0:0|0:0,0:0:0:0:
128,360,309005,6,0,P|36:324|32:192,1,245.000002336502,6|8,0:0|0:0,0:0:0:0:
156,188,309351,1,0,0:0:0:0:
384,188,309467,2,0,L|484:108,1,122.500001168251,2|2,0:0|0:0,0:0:0:0:
236,104,309697,2,0,L|116:56,1,122.500001168251,8|0,0:0|0:0,0:0:0:0:
412,188,309928,2,0,P|444:256|320:320,1,245.000002336502,2|8,0:0|0:0,0:0:0:0:
200,320,310274,1,2,0:0:0:0:
412,188,310390,2,0,L|292:148,1,122.500001168251,2|2,0:0|0:0,0:0:0:0:
20,192,310620,2,0,L|32:64,1,122.500001168251,8|0,0:0|0:0,0:0:0:0:
340,192,310851,6,0,L|340:56,1,122.500001168251,2|0,0:0|0:0,0:0:0:0:
92,300,311082,2,0,L|24:182,1,122.500001168251,8|0,0:0|0:0,0:0:0:0:
308,304,311313,2,0,L|425:236,1,122.500001168251,2|0,0:0|0:0,0:0:0:0:
136,300,311544,2,0,L|40:216,1,122.500001168251,8|0,0:0|0:0,0:0:0:0:
276,192,311774,1,2,0:0:0:0:
164,192,311890,1,2,0:0:0:0:
376,192,312005,2,0,L|268:133,1,122.500001168251,8|2,0:0|0:0,0:0:0:0:
20,192,312236,2,0,L|84:87,1,122.500001168251,2|2,0:0|0:0,0:0:0:0:
332,192,312467,2,0,L|332:68,1,122.500001168251,8|2,0:0|0:0,0:0:0:0:
16,272,312697,6,0,L|56:388,1,122.500001168251,2|2,0:0|0:0,0:0:0:0:
276,276,312928,2,0,L|364:188,1,122.500001168251,8|0,0:0|0:0,0:0:0:0:
140,192,313159,2,0,L|228:104,1,122.500001168251,2|0,0:0|0:0,0:0:0:0:
472,56,313390,2,0,L|356:104,1,122.500001168251,8|0,0:0|0:0,0:0:0:0:
116,192,313620,2,0,P|48:264|152:324,1,245.000002336502,2|8,0:0|0:0,0:0:0:0:
272,328,313967,1,2,0:0:0:0:
484,192,314082,2,0,L|451:72,1,122.500001168251,2|2,0:0|0:0,0:0:0:0:
224,88,314313,2,0,L|100:88,1,122.500001168251,8|0,0:0|0:0,0:0:0:0:
380,88,314544,6,0,P|476:124|400:192,1,245.000002336502,2|8,0:0|0:0,0:0:0:0:
152,192,314890,2,0,P|64:224|32:364,1,245.000002336502,2|2,0:0|0:0,0:0:0:0:
280,360,315236,2,0,L|176:296,1,122.500001168251,8|2,0:0|0:0,0:0:0:0:
448,192,315467,2,0,L|460:60,1,122.500001168251,2|2,0:0|0:0,0:0:0:0:
172,108,315697,1,4,0:0:0:0:
376,108,315813,1,2,0:0:0:0:
116,192,315928,2,0,L|104:68,1,122.500001168251,2|2,0:0|0:0,0:0:0:0:
392,108,316159,1,8,0:0:0:0:
188,108,316274,1,2,0:0:0:0:
480,192,316390,6,0,P|447:305|335:343,1,245.000002336502,6|8,0:0|0:0,0:0:0:0:
212,344,316736,1,2,0:0:0:0:
488,192,316851,2,0,L|388:112,1,122.500001168251,2|2,0:0|0:0,0:0:0:0:
168,192,317082,2,0,L|268:116,1,122.500001168251,8|2,0:0|0:0,0:0:0:0:
40,192,317313,2,0,P|8:260|124:344,1,245.000002336502,2|8,0:0|0:0,0:0:0:0:
248,344,317659,1,2,0:0:0:0:
24,108,317774,2,0,L|144:76,1,122.500001168251,2|2,0:0|0:0,0:0:0:0:
488,52,318005,2,0,L|368:88,1,122.500001168251,8|2,0:0|0:0,0:0:0:0:
88,108,318236,6,0,P|36:124|112:232,1,245.000002336502,2|8,0:0|0:0,0:0:0:0:
336,224,318582,2,0,P|360:296|228:348,1,245.000002336502,2|2,0:0|0:0,0:0:0:0:
472,314,318928,2,0,L|357:356,1,122.500001168251,8|2,0:0|0:0,0:0:0:0:
100,304,319159,2,0,P|132:200|256:152,1,245.000002336502,2|8,0:0|0:0,0:0:0:0:
496,252,319505,2,0,P|472:144|376:44,1,245.000002336502,2|2,0:0|0:0,0:0:0:0:
160,48,319851,1,8,0:0:0:0:
432,48,319967,1,8,0:0:0:0:
84,192,320082,6,0,P|32:276|168:319,1,280,6|8,0:0|0:0,0:0:0:0:
480,320,320428,2,0,L|488:40,1,280,2|2,0:0|0:0,0:0:0:0:
232,240,320774,2,0,L|100:192,1,140,8|2,0:0|0:0,0:0:0:0:
440,192,321005,2,0,P|492:108|355:64,1,280,6|8,0:0|0:0,0:0:0:0:
44,64,321351,2,0,L|36:344,1,280,2|2,0:0|0:0,0:0:0:0:
256,192,321697,1,8,0:0:0:0:
36,192,321813,1,8,0:0:0:0:
280,268,321928,6,0,L|394:202,1,122.500001168251,2|0,0:0|0:0,0:0:0:0:
256,192,322159,2,0,L|363:130,1,122.500001168251,8|0,0:0|0:0,0:0:0:0:
144,144,322390,2,0,L|29:77,1,122.500001168251,2|0,0:0|0:0,0:0:0:0:
168,72,322620,2,0,L|60:10,1,122.500001168251,8|0,0:0|0:0,0:0:0:0:
276,192,322851,5,8,0:0:0:0:
56,192,322967,1,8,0:0:0:0:
252,192,323082,1,8,0:0:0:0:
32,192,323197,1,8,0:0:0:0:
256,296,323313,2,0,L|268:360,1,61.2500005841255,4|2,0:0|0:0,0:0:0:0:
144,296,323428,2,0,L|136:356,1,61.2500005841255,2|2,0:0|0:0,0:0:0:0:
300,296,323544,2,0,L|312:356,1,61.2500005841255,2|2,0:0|0:0,0:0:0:0:
100,296,323659,2,0,L|92:356,1,61.2500005841255,2|2,0:0|0:0,0:0:0:0:
372,84,323774,6,0,P|448:152|380:208,1,210.000008010865,6|8,0:0|0:0,0:0:0:0:
280,208,324120,1,2,0:0:0:0:
80,192,324236,2,0,L|100:300,1,105.000004005432,2|2,0:0|0:0,0:0:0:0:
308,296,324467,2,0,L|432:296,1,105.000004005432,8|2,0:0|0:0,0:0:0:0:
164,380,324697,2,0,P|132:320|232:224,1,210.000008010865,2|8,0:0|0:0,0:0:0:0:
340,224,325044,1,2,0:0:0:0:
80,228,325159,2,0,L|168:156,1,105.000004005432,2|2,0:0|0:0,0:0:0:0:
404,160,325390,2,0,L|312:92,1,105.000004005432,8|2,0:0|0:0,0:0:0:0:
56,100,325620,6,0,P|44:152|152:248,1,210.000008010865,6|8,0:0|0:0,0:0:0:0:
412,248,325967,2,0,P|488:280|428:360,1,210.000008010865,2|2,0:0|0:0,0:0:0:0:
164,360,326313,2,0,L|56:360,1,105.000004005432,8|2,0:0|0:0,0:0:0:0:
304,192,326544,2,0,L|400:136,1,105.000004005432,2|2,0:0|0:0,0:0:0:0:
120,192,326774,2,0,B|68:192|68:192|36:136,1,105.000004005432,8|2,0:0|0:0,0:0:0:0:
104,136,326947,1,2,0:0:0:0:
395,139,327005,1,4,0:0:0:0:
424,212,327082,1,2,0:0:0:0:
365,263,327159,1,2,0:0:0:0:
92,188,327236,1,2,0:0:0:0:
36,240,327313,1,2,0:0:0:0:
62,312,327390,1,2,0:0:0:0:
380,344,327467,6,0,L|488:344,1,105.000004005432,12|0,0:0|0:0,0:0:0:0:
148,264,327697,2,0,L|136:156,1,105.000004005432,2|2,0:0|0:0,0:0:0:0:
452,192,327928,2,0,L|344:192,1,105.000004005432,12|2,0:0|0:0,0:0:0:0:
32,160,328159,2,0,L|44:52,1,105.000004005432,2|2,0:0|0:0,0:0:0:0:
412,52,328390,6,0,P|472:80|496:148,1,140.000005340576,8|2,0:0|0:0,0:0:0:0:
216,192,328620,2,0,L|144:192,2,70.0000026702882,2|2|2,0:0|0:0|0:0,0:0:0:0:
396,192,328851,2,0,L|459:228,2,70.0000026702882,2|2|2,0:0|0:0|0:0,0:0:0:0:
216,192,329082,2,0,L|180:254,2,70.0000026702882,2|2|2,0:0|0:0|0:0,0:0:0:0:
360,332,329313,6,0,L|376:260,1,70,2|2,0:0|0:0,0:0:0:0:
292,260,329544,2,0,L|276:188,1,70,2|2,0:0|0:0,0:0:0:0:
192,192,329774,2,0,L|208:120,1,70,2|2,0:0|0:0,0:0:0:0:
332,124,330005,2,0,L|380:124,2,46.6666666666667,2|2|2,0:0|0:0|0:0,0:0:0:0:
140,236,330236,5,2,0:0:0:0:
76,178,330313,1,2,0:0:0:0:
121,105,330390,1,2,0:0:0:0:
336,32,330467,1,2,0:0:0:0:
399,89,330544,1,2,0:0:0:0:
354,162,330620,1,2,0:0:0:0:
192,236,330697,1,8,0:0:0:0:
408,240,330813,1,8,0:0:0:0:
176,236,330928,1,8,0:0:0:0:
392,240,331044,1,8,0:0:0:0:
112,28,331159,6,0,L|24:28,1,87.5,6|0,0:0|0:0,0:0:0:0:
352,88,331390,2,0,L|444:88,2,87.5,8|0|0,0:0|0:0|0:0,0:0:0:0:
88,144,331736,2,0,L|16:192,1,87.5,2|2,0:0|0:0,0:0:0:0:
144,188,331967,1,2,0:0:0:0:
364,192,332082,2,0,L|276:192,2,87.5,8|2|2,0:0|0:0|0:0,0:0:0:0:
144,272,332428,2,0,L|224:316,1,87.5,8|2,0:0|0:0,0:0:0:0:
328,312,332659,1,2,0:0:0:0:
56,272,332774,2,0,L|143:272,1,87.5,8|0,0:0|0:0,0:0:0:0:
416,192,333005,6,0,L|464:84,1,87.5,2|0,0:0|0:0,0:0:0:0:
232,104,333236,2,0,L|308:56,2,87.5,8|0|0,0:0|0:0|0:0,0:0:0:0:
128,108,333582,1,2,0:0:0:0:
388,112,333697,2,0,P|412:152|416:192,1,87.5,2|2,0:0|0:0,0:0:0:0:
176,184,333928,2,0,L|272:208,2,87.5,8|2|2,0:0|0:0|0:0,0:0:0:0:
396,256,334274,2,0,L|300:280,2,87.5,8|2|2,0:0|0:0|0:0,0:0:0:0:
132,276,334620,1,8,0:0:0:0:
312,278,334736,1,8,0:0:0:0:
48,56,334851,6,0,L|28:156,1,87.5,6|0,0:0|0:0,0:0:0:0:
272,124,335082,2,0,L|352:164,2,87.5,8|2|2,0:0|0:0|0:0,0:0:0:0:
120,244,335428,2,0,L|40:284,2,87.5,8|2|2,0:0|0:0|0:0,0:0:0:0:
368,244,335774,2,0,L|280:244,1,87.5,8|2,0:0|0:0,0:0:0:0:
184,244,336005,1,2,0:0:0:0:
340,168,336120,2,0,L|240:168,1,87.5,8|2,0:0|0:0,0:0:0:0:
148,168,336351,1,2,0:0:0:0:
388,92,336467,2,0,L|484:92,1,87.5,8|0,0:0|0:0,0:0:0:0:
160,92,336697,6,0,L|116:15,1,87.5,6|0,0:0|0:0,0:0:0:0:
388,92,336928,2,0,L|431:16,1,87.5,8|0,0:0|0:0,0:0:0:0:
74,92,337159,2,0,L|118:12,1,87.5,2|0,0:0|0:0,0:0:0:0:
474,92,337390,2,0,L|431:15,1,87.5,8|0,0:0|0:0,0:0:0:0:
172,176,337620,6,0,L|82:176,1,87.5,8|8,0:0|0:0,0:0:0:0:
390,184,337851,2,0,L|486:184,1,87.5,8|8,0:0|0:0,0:0:0:0:
34,112,338082,1,4,0:0:0:0:
12,188,338159,1,2,0:0:0:0:
72,236,338236,1,2,0:0:0:0:
306,176,338313,1,2,0:0:0:0:
390,184,338390,1,2,0:0:0:0:
406,264,338467,1,2,0:0:0:0:
94,174,338544,6,0,L|33:111,1,87.5,6|0,0:0|0:0,0:0:0:0:
256,324,338774,2,0,L|348:324,2,87.5,8|0|0,0:0|0:0|0:0,0:0:0:0:
476,244,339120,2,0,L|393:196,1,87.5,2|2,0:0|0:0,0:0:0:0:
296,200,339351,1,2,0:0:0:0:
76,112,339467,2,0,L|148:180,2,87.5,8|2|2,0:0|0:0|0:0,0:0:0:0:
312,112,339813,2,0,L|420:112,1,87.5,8|2,0:0|0:0,0:0:0:0:
268,112,340044,1,2,0:0:0:0:
488,40,340159,2,0,L|392:40,1,87.5,8|0,0:0|0:0,0:0:0:0:
136,216,340390,6,0,L|44:216,1,87.5,2|0,0:0|0:0,0:0:0:0:
312,304,340620,2,0,L|400:304,2,87.5,8|0|0,0:0|0:0|0:0,0:0:0:0:
204,304,340967,1,2,0:0:0:0:
443,304,341082,2,0,P|488:284|500:248,1,87.5,2|2,0:0|0:0,0:0:0:0:
280,192,341313,2,0,L|376:168,2,87.5,8|2|2,0:0|0:0|0:0,0:0:0:0:
56,136,341659,2,0,L|152:112,2,87.5,8|2|2,0:0|0:0|0:0,0:0:0:0:
320,116,342005,1,8,0:0:0:0:
140,115,342120,1,8,0:0:0:0:
373,349,342236,6,0,L|461:349,1,87.5,6|0,0:0|0:0,0:0:0:0:
287,187,342467,2,0,L|234:257,2,87.5,8|2|2,0:0|0:0|0:0,0:0:0:0:
412,184,342813,2,0,L|358:114,2,87.5,8|2|2,0:0|0:0|0:0,0:0:0:0:
181,125,343159,2,0,L|161:213,1,87.5,8|2,0:0|0:0,0:0:0:0:
251,209,343390,1,2,0:0:0:0:
412,184,343505,2,0,L|432:272,1,87.5,8|2,0:0|0:0,0:0:0:0:
344,268,343736,1,2,0:0:0:0:
100,288,343851,2,0,L|12:288,1,87.5,8|0,0:0|0:0,0:0:0:0:
368,288,344082,6,0,L|456:288,1,87.5,6|2,0:0|0:0,0:0:0:0:
236,212,344313,1,12,0:0:0:0:
132,212,344428,1,2,0:0:0:0:
28,212,344544,1,2,0:0:0:0:
292,128,344659,1,12,0:0:0:0:
118,128,344774,1,2,0:0:0:0:
292,128,344890,1,2,0:0:0:0:
36,128,345005,6,0,L|128:128,1,87.5,8|2,0:0|0:0,0:0:0:0:
476,52,345236,2,0,L|384:52,1,87.5,8|2,0:0|0:0,0:0:0:0:
96,212,345467,1,8,0:0:0:0:
420,212,345582,1,2,0:0:0:0:
108,212,345697,1,8,0:0:0:0:
404,212,345813,1,2,0:0:0:0:
120,72,345928,6,0,L|24:72,1,87.5,6|0,0:0|0:0,0:0:0:0:
252,172,346159,2,0,L|160:216,2,87.5,8|0|0,0:0|0:0|0:0,0:0:0:0:
356,172,346505,1,2,0:0:0:0:
112,208,346620,2,0,L|24:208,1,87.5,2|2,0:0|0:0,0:0:0:0:
308,264,346851,2,0,L|396:264,1,87.5,8|2,0:0|0:0,0:0:0:0:
292,264,347082,1,2,0:0:0:0:
48,300,347197,2,0,L|140:300,1,87.5,8|2,0:0|0:0,0:0:0:0:
32,300,347428,1,2,0:0:0:0:
364,340,347544,2,0,L|460:340,1,87.5,8|0,0:0|0:0,0:0:0:0:
144,300,347774,6,0,L|48:300,1,87.5,6|0,0:0|0:0,0:0:0:0:
276,200,348005,2,0,L|184:156,2,87.5,8|0|0,0:0|0:0|0:0,0:0:0:0:
172,200,348351,1,2,0:0:0:0:
400,160,348467,2,0,L|488:160,1,87.5,2|2,0:0|0:0,0:0:0:0:
236,84,348697,2,0,L|324:84,1,87.5,8|2,0:0|0:0,0:0:0:0:
428,84,348928,1,2,0:0:0:0:
172,200,349044,2,0,L|264:200,1,87.5,8|2,0:0|0:0,0:0:0:0:
364,200,349274,1,2,0:0:0:0:
100,200,349390,1,8,0:0:0:0:
364,200,349505,1,8,0:0:0:0:
104,48,349620,6,0,L|16:48,1,87.5,6|0,0:0|0:0,0:0:0:0:
244,124,349851,1,8,0:0:0:0:
178,124,349967,1,2,0:0:0:0:
113,124,350082,1,2,0:0:0:0:
252,200,350197,1,8,0:0:0:0:
186,200,350313,1,2,0:0:0:0:
121,200,350428,1,2,0:0:0:0:
376,200,350544,2,0,L|288:200,2,87.5,8|2|2,0:0|0:0|0:0,0:0:0:0:
244,124,350890,2,0,L|156:124,2,87.5,8|2|2,0:0|0:0|0:0,0:0:0:0:
448,96,351236,1,8,0:0:0:0:
148,124,351351,1,8,0:0:0:0:
360,132,351467,5,2,0:0:0:0:
184,132,351582,1,2,0:0:0:0:
440,132,351697,1,4,0:0:0:0:
488,188,351755,1,2,0:0:0:0:
468,256,351813,1,2,0:0:0:0:
400,272,351870,1,2,0:0:0:0:
120,204,351928,1,4,0:0:0:0:
52,220,351986,1,2,0:0:0:0:
32,288,352044,1,2,0:0:0:0:
80,344,352101,1,2,0:0:0:0:
300,344,352159,2,0,L|392:344,1,87.5,4|2,0:0|0:0,0:0:0:0:
336,344,352332,1,2,0:0:0:0:
140,132,352390,5,10,0:0:0:0:
176,132,352467,1,2,0:0:0:0:
240,132,352544,1,2,0:0:0:0:
428,96,352620,1,10,0:0:0:0:
392,96,352697,1,2,0:0:0:0:
328,96,352774,1,2,0:0:0:0:
152,228,352851,2,0,L|88:228,2,58.3333333333333,2|2|2,0:0|0:0|0:0,0:0:0:0:
328,228,353082,2,0,L|373:273,2,58.3333333333333,2|2|2,0:0|0:0|0:0,0:0:0:0:
136,152,353313,6,0,L|40:152,1,87.5,6|0,0:0|0:0,0:0:0:0:
356,20,353544,2,0,L|448:20,2,87.5,8|0|0,0:0|0:0|0:0,0:0:0:0:
136,96,353890,1,2,0:0:0:0:
400,96,354005,2,0,L|497:96,1,87.5,2|2,0:0|0:0,0:0:0:0:
272,192,354236,2,0,L|352:236,1,87.5,8|2,0:0|0:0,0:0:0:0:
260,232,354467,1,2,0:0:0:0:
480,236,354582,2,0,L|400:280,1,87.5,8|2,0:0|0:0,0:0:0:0:
492,276,354813,1,2,0:0:0:0:
188,276,354928,2,0,L|100:276,1,87.5,8|0,0:0|0:0,0:0:0:0:
408,164,355159,6,0,L|500:164,1,87.5,2|0,0:0|0:0,0:0:0:0:
232,76,355390,2,0,L|312:24,2,87.5,8|0|0,0:0|0:0|0:0,0:0:0:0:
452,76,355736,2,0,L|348:76,1,87.5,2|2,0:0|0:0,0:0:0:0:
468,76,355967,1,2,0:0:0:0:
136,192,356082,2,0,L|228:192,2,87.5,8|2|2,0:0|0:0|0:0,0:0:0:0:
400,260,356428,2,0,L|304:260,2,87.5,8|2|2,0:0|0:0|0:0,0:0:0:0:
136,296,356774,2,0,L|44:296,1,87.5,8|0,0:0|0:0,0:0:0:0:
400,260,357005,6,0,L|492:260,1,87.5,6|2,0:0|0:0,0:0:0:0:
232,192,357236,2,0,L|124:192,1,87.5,8|0,0:0|0:0,0:0:0:0:
320,152,357467,2,0,L|420:152,1,87.5,2|0,0:0|0:0,0:0:0:0:
232,72,357697,2,0,L|336:72,1,87.5,8|0,0:0|0:0,0:0:0:0:
79,192,357928,5,8,0:0:0:0:
144,192,358044,1,2,0:0:0:0:
210,192,358159,1,2,0:0:0:0:
36,268,358274,1,8,0:0:0:0:
101,268,358390,1,2,0:0:0:0:
167,268,358505,1,2,0:0:0:0:
384,192,358620,1,8,0:0:0:0:
98,192,358736,1,2,0:0:0:0:
404,72,358851,6,0,L|492:72,1,87.5,6|2,0:0|0:0,0:0:0:0:
272,72,359082,1,12,0:0:0:0:
368,72,359197,1,2,0:0:0:0:
464,72,359313,1,2,0:0:0:0:
216,156,359428,1,12,0:0:0:0:
392,156,359544,1,2,0:0:0:0:
216,156,359659,1,2,0:0:0:0:
424,156,359774,5,4,0:0:0:0:
476,172,359832,1,2,0:0:0:0:
504,220,359890,1,0,0:0:0:0:
508,272,359947,1,2,0:0:0:0:
112,192,360005,1,2,0:0:0:0:
64,212,360063,1,2,0:0:0:0:
32,256,360120,1,0,0:0:0:0:
28,308,360178,1,2,0:0:0:0:
276,344,360236,2,0,L|372:344,1,87.5,8|2,0:0|0:0,0:0:0:0:
312,344,360409,1,2,0:0:0:0:
156,280,360467,1,8,0:0:0:0:
352,280,360582,1,8,0:0:0:0:
96,280,360697,6,0,L|92:208,1,70,2|0,0:0|0:0,0:0:0:0:
220,192,360928,2,0,L|224:108,1,70,2|0,0:0|0:0,0:0:0:0:
436,124,361159,1,8,0:0:0:0:
296,76,361390,1,2,0:0:0:0:
358,102,361467,1,2,0:0:0:0:
383,166,361544,1,2,0:0:0:0:
148,192,361620,2,0,L|60:192,1,70,8|2,0:0|0:0,0:0:0:0:
248,192,361967,1,0,0:0:0:0:
40,268,362082,2,0,L|112:268,1,70,8|0,0:0|0:0,0:0:0:0:
236,312,362313,2,0,L|152:312,1,70
412,264,362544,6,0,L|476:232,1,70,2|0,0:0|0:0,0:0:0:0:
348,192,362774,2,0,L|420:156,1,70,2|0,0:0|0:0,0:0:0:0:
164,172,363005,1,8,0:0:0:0:
320,88,363236,2,0,L|392:88,2,46.6666666666667,2|2|2,0:0|0:0|0:0,0:0:0:0:
84,88,363467,2,0,L|12:88,1,70,8|2,0:0|0:0,0:0:0:0:
184,88,363813,1,0,0:0:0:0:
428,192,363928,2,0,L|356:192,1,70,8|0,0:0|0:0,0:0:0:0:
112,280,364159,2,0,L|196:280,1,70,8|8,0:0|0:0,0:0:0:0:
464,192,364390,6,0,L|460:120,1,70,6|0,0:0|0:0,0:0:0:0:
332,124,364620,2,0,L|328:48,1,70,2|0,0:0|0:0,0:0:0:0:
116,52,364851,1,8,0:0:0:0:
208,52,364967,1,0,0:0:0:0:
332,124,365082,2,0,L|262:124,1,70,2|0,0:0|0:0,0:0:0:0:
16,192,365313,2,0,L|96:192,1,70,2|2,0:0|0:0,0:0:0:0:
164,264,365544,2,0,L|84:264,1,70,0|2,0:0|0:0,0:0:0:0:
340,264,365774,1,8,0:0:0:0:
240,264,365890,1,2,0:0:0:0:
372,264,366005,1,2,0:0:0:0:
272,264,366120,1,2,0:0:0:0:
476,192,366236,6,0,L|484:120,1,70,6|0,0:0|0:0,0:0:0:0:
356,124,366467,2,0,L|318:58,1,70,2|0,0:0|0:0,0:0:0:0:
112,64,366697,2,0,L|120:144,1,70,8|0,0:0|0:0,0:0:0:0:
248,124,366928,2,0,L|324:124,1,70,2|0,0:0|0:0,0:0:0:0:
192,192,367159,1,2,0:0:0:0:
444,192,367274,1,8,0:0:0:0:
304,192,367505,1,2,0:0:0:0:
92,192,367620,5,8,0:0:0:0:
284,192,367736,1,8,0:0:0:0:
72,192,367851,1,8,0:0:0:0:
264,192,367967,1,8,0:0:0:0:
20,192,368082,6,0,L|16:120,1,70,10|0,0:0|0:0,0:0:0:0:
264,112,368313,2,0,L|268:24,1,70,8|0,0:0|0:0,0:0:0:0:
148,44,368544,2,0,L|64:44,1,70
340,112,368774,2,0,L|416:112,1,70,2|0,0:0|0:0,0:0:0:0:
128,192,369005,2,0,L|56:192,1,70,8|0,0:0|0:0,0:0:0:0:
184,192,369236,1,0,0:0:0:0:
464,192,369351,2,0,L|396:164,2,70,8|0|0,0:0|0:0|0:0,0:0:0:0:
228,192,369697,2,0,L|156:192,1,70,8|0,0:0|0:0,0:0:0:0:
476,192,369928,6,0,L|480:264,1,70,10|0,0:0|0:0,0:0:0:0:
232,272,370159,2,0,L|228:360,1,70,8|0,0:0|0:0,0:0:0:0:
352,340,370390,2,0,L|278:340,1,70
28,272,370620,2,0,L|98:272,1,70,2|0,0:0|0:0,0:0:0:0:
362,192,370851,2,0,L|274:192,1,70,8|0,0:0|0:0,0:0:0:0:
420,192,371082,1,0,0:0:0:0:
140,192,371197,2,0,L|72:212,2,70,8|0|0,0:0|0:0|0:0,0:0:0:0:
412,192,371544,2,0,L|482:192,1,70,8|0,0:0|0:0,0:0:0:0:
132,124,371774,6,0,L|44:124,1,87.5,12|2,0:0|0:0,0:0:0:0:
352,124,372005,2,0,L|356:36,1,87.5,8|0,0:0|0:0,0:0:0:0:
224,124,372236,2,0,L|152:76,1,87.5,2|0,0:0|0:0,0:0:0:0:
400,124,372467,2,0,L|488:124,1,87.5,8|0,0:0|0:0,0:0:0:0:
112,216,372697,2,0,L|200:216,2,87.5,8|2|2,0:0|0:0|0:0,0:0:0:0:
468,216,373044,2,0,L|380:216,1,87.5,8|2,0:0|0:0,0:0:0:0:
120,216,373274,1,2,0:0:0:0:
400,288,373390,2,0,L|488:288,1,87.5,8|0,0:0|0:0,0:0:0:0:
132,304,373620,6,0,L|24:304,1,105.000004005432,12|2,0:0|0:0,0:0:0:0:
380,216,373851,2,0,P|380:152|260:96,1,210.000008010865,12|0,0:0|0:0,0:0:0:0:
156,96,374197,1,2,0:0:0:0:
420,92,374313,2,0,B|472:92|472:92|504:156,1,105.000004005432,8|0,0:0|0:0,0:0:0:0:
180,192,374544,2,0,L|72:192,1,105.000004005432,12|2,0:0|0:0,0:0:0:0:
432,192,374774,1,2,0:0:0:0:
32,264,374890,2,0,L|144:264,1,105.000004005432,12|2,0:0|0:0,0:0:0:0:
472,264,375120,1,2,0:0:0:0:
74,192,375236,6,0,P|26:160|128:32,1,280,12|0,0:0|0:0,0:0:0:0:
