osu file format v14

[General]
AudioFilename: audio.mp3
AudioLeadIn: 0
PreviewTime: 110806
Countdown: 0
SampleSet: None
StackLeniency: 0.2
Mode: 0
LetterboxInBreaks: 0
WidescreenStoryboard: 0

[Editor]
Bookmarks: 12613,17258,25000,49774,62161,86935,99323,111710,136484,148606,167187,179574,204348,229122,253896
DistanceSpacing: 0.2
BeatDivisor: 6
GridSize: 32
TimelineZoom: 1.196001

[Metadata]
Title:Ningyou Saiban ~ Hito no Katachi Moteasobishi Shoujo
TitleUnicode:人形裁判 ~ 人の形弄びし少女
Artist:Demetori
ArtistUnicode:Demetori
Creator:Alheak
Version:ALHK
Source:東方妖々夢 ~ Perfect Cherry Blossom.
Tags:alice margatroid instrumental metal guitar drums doll judgement the girl who played with people shape touhou youyoumu
BeatmapID:1720756
BeatmapSetID:820926

[Difficulty]
HPDrainRate:6
CircleSize:5
OverallDifficulty:9
ApproachRate:9.4
SliderMultiplier:3.1
SliderTickRate:1

[Events]
//Background and Video events
0,0,"bg.jpg",0,0
//Break Periods
//Storyboard Layer 0 (Background)
//Storyboard Layer 1 (Fail)
//Storyboard Layer 2 (Pass)
//Storyboard Layer 3 (Foreground)
//Storyboard Sound Samples

[TimingPoints]
478,387.096774193548,4,3,1,75,1,0
478,-200,4,3,1,75,0,0
3187,309.278350515464,4,3,1,75,1,0
3290,368.098159509202,4,3,1,75,1,0
3412,408.163265306122,4,3,1,75,1,0
3412,-200,4,3,1,75,0,0
3684,566.037735849057,4,3,1,75,1,0
3964,387.096774193548,4,3,1,75,1,0
4222,379.746835443038,4,3,1,75,1,0
4222,-200,4,3,1,75,0,0
4475,387.096774193548,4,3,1,75,1,0
4991,387.096774193548,4,3,1,75,1,0
5765,-200,4,3,1,75,0,0
9378,294.117647058824,4,3,1,75,1,0
9476,387.096774193548,4,3,1,75,1,0
9476,-200,4,3,1,75,0,0
10637,-400,4,3,1,75,0,0
10895,512.820512820513,4,3,1,75,1,0
11065,387.096774193548,4,3,1,75,1,0
11065,-200,4,3,1,75,0,0
12613,-133.333333333333,4,3,1,75,0,0
17258,-100,4,3,1,75,0,0
17645,-200,4,3,1,75,0,0
18032,-100,4,3,1,75,0,0
18806,-133.333333333333,4,3,1,75,0,0
25000,-200,4,3,1,75,0,0
111710,-100,4,3,1,90,0,1
123323,-100,4,3,1,90,0,0
124097,-100,4,3,1,90,0,1
134935,-100,4,3,1,75,0,0
139322,588.235294117647,4,3,1,75,1,0
139820,387.096774193548,4,3,1,75,1,0
140981,402.684563758389,4,3,1,75,1,0
141383,387.096774193548,4,3,1,75,1,0
142544,387.096774193548,4,3,1,75,1,0
145253,560.747663551402,4,3,1,75,1,0
145478,392.156862745098,4,3,1,75,1,0
145870,413.793103448276,4,3,1,75,1,0
147058,387.096774193548,4,3,1,75,1,0
204348,-100,4,3,1,90,0,1
215961,-100,4,3,1,90,0,0
216735,-100,4,3,1,90,0,1
227574,-100,4,3,1,90,0,0
229122,-100,4,3,1,90,0,1
240735,-100,4,3,1,90,0,0
241509,-100,4,3,1,90,0,1
250799,-100,4,3,1,75,0,0

[Colours]
Combo1 : 159,107,190
Combo2 : 208,102,123
Combo3 : 201,95,75
Combo4 : 216,192,61
Combo5 : 103,186,162
Combo6 : 115,164,204
Combo7 : 104,100,191

[HitObjects]
189,49,478,6,0,P|175:99|153:146,1,103.333333333333,8|8,0:1|0:1,0:1:0:0:
148,63,2026,6,0,P|147:109|136:172,1,103.333333333333,8|8,0:1|0:1,0:1:0:0:
139,166,3290,1,0,0:0:0:0:
113,87,3412,6,0,P|125:132|131:196,1,103.333333333333,8|8,0:1|0:1,0:1:0:0:
248,171,3872,1,0,0:0:0:0:
257,149,3964,1,0,0:0:0:0:
330,136,4093,1,0,0:0:0:0:
402,125,4222,6,0,P|390:170|384:234,1,103.333333333333,4|8,0:1|0:0,0:0:0:0:
384,227,4733,1,8,0:0:0:0:
307,213,4862,1,4,0:0:0:0:
242,258,4991,1,4,0:1:0:0:
242,258,5249,5,8,0:0:0:0:
242,258,5507,5,8,0:0:0:0:
291,196,5636,1,8,0:0:0:0:
273,118,5765,2,0,P|248:109|215:104,1,51.6666666666667,8|8,0:0|0:0,0:0:0:0:
93,26,6023,1,8,0:1:0:0:
43,128,6152,1,8,0:0:0:0:
98,48,6281,1,4,0:0:0:0:
66,121,6410,1,4,0:0:0:0:
110,198,6539,22,0,P|162:214|212:240,1,103.333333333333,8|8,0:1|0:1,0:1:0:0:
205,236,7958,1,0,0:0:0:0:
89,244,8087,6,0,P|140:245|191:256,1,103.333333333333,8|8,0:1|0:1,0:1:0:0:
287,334,8603,1,8,0:0:0:0:
87,291,9476,6,0,P|137:278|188:276,1,103.333333333333,12|0,0:1|0:0,0:1:0:0:
268,320,9863,1,8,0:0:0:0:
332,272,9992,2,8,P|349:262|369:257,2,25.8333333333333
247,180,10250,1,8,0:0:0:0:
183,132,10379,2,8,P|166:122|146:117,2,25.8333333333333
337,90,10637,2,0,P|355:84|394:81,1,51.6666666666667,4|4,0:0|0:0,0:0:0:0:
134,280,11065,5,4,0:1:0:0:
134,280,11452,5,8,0:1:0:0:
112,269,11581,1,8,0:1:0:0:
87,266,11710,1,8,0:1:0:0:
185,191,11839,5,8,0:1:0:0:
249,166,11968,1,8,0:1:0:0:
318,167,12097,1,8,0:1:0:0:
150,89,12226,5,8,0:1:0:0:
72,74,12355,1,8,0:1:0:0:
0,108,12484,1,8,0:1:0:0:
21,329,12613,6,0,P|47:233|44:171,1,155.000005912781,12|0,0:1|0:0,0:1:0:0:
165,47,13000,5,12,0:1:0:0:
138,242,13129,1,0,0:0:0:0:
259,72,13258,5,0,0:0:0:0:
212,204,13387,1,0,0:0:0:0:
352,108,13516,5,0,0:0:0:0:
298,201,13645,1,0,0:0:0:0:
425,166,13774,5,8,0:1:0:0:
377,231,13903,1,0,0:0:0:0:
398,309,14032,1,0,0:0:0:0:
503,132,14161,38,0,P|425:131|352:107,1,155.000005912781
110,54,14548,5,8,0:1:0:0:
295,31,14677,1,0,0:0:0:0:
139,142,14806,5,0,0:0:0:0:
251,161,14935,1,0,0:0:0:0:
114,229,15064,5,0,0:0:0:0:
179,276,15194,1,0,0:0:0:0:
30,372,15323,5,8,0:1:0:0:
93,217,15452,1,0,0:0:0:0:
250,135,15581,1,0,0:0:0:0:
447,332,15710,38,0,P|447:254|471:181,1,155.000005912781
412,49,16097,5,8,0:1:0:0:
356,213,16226,1,0,0:0:0:0:
297,48,16355,5,0,0:0:0:0:
275,171,16484,1,0,0:0:0:0:
190,62,16613,5,0,0:0:0:0:
186,159,16742,1,0,0:0:0:0:
93,97,16871,5,8,0:1:0:0:
99,177,17000,1,0,0:0:0:0:
52,241,17129,1,0,0:0:0:0:
16,56,17258,6,0,P|119:60|220:39,1,206.666666666667,4|0,0:1|0:0,0:0:0:0:
424,76,17645,6,0,P|378:63|363:108,1,103.333333333333,12|0,0:2|0:0,0:0:0:0:
498,227,18032,86,0,P|397:206|294:210,1,206.666666666667,4|0,0:1|0:0,0:0:0:0:
54,282,18419,5,8,0:1:0:0:
116,232,18548,1,0,0:0:0:0:
42,204,18677,1,0,0:0:0:0:
1,373,18806,6,0,P|74:349|151:348,1,155.000005912781,4|0,0:1|0:0,0:0:0:0:
347,342,19194,5,8,0:1:0:0:
204,240,19323,1,0,0:0:0:0:
378,235,19452,5,0,0:0:0:0:
261,181,19581,1,0,0:0:0:0:
395,122,19710,5,0,0:0:0:0:
290,98,19839,1,0,0:0:0:0:
366,25,19968,5,8,0:1:0:0:
289,13,20097,1,0,0:0:0:0:
211,30,20226,1,0,0:0:0:0:
110,156,20355,38,0,P|187:156|260:180,1,155.000005912781
472,180,20742,5,8,0:1:0:0:
433,358,20871,1,0,0:0:0:0:
372,202,21000,5,0,0:0:0:0:
352,335,21129,1,0,0:0:0:0:
272,204,21258,5,0,0:0:0:0:
274,309,21387,1,0,0:0:0:0:
134,150,21516,5,8,0:1:0:0:
295,197,21645,1,0,0:0:0:0:
373,346,21774,1,0,0:0:0:0:
111,378,21903,38,0,P|110:300|86:227,1,155.000005912781
20,25,22290,5,8,0:1:0:0:
134,150,22419,1,0,0:0:0:0:
169,35,22548,5,0,0:0:0:0:
213,161,22677,1,0,0:0:0:0:
287,88,22806,5,0,0:0:0:0:
286,194,22935,1,0,0:0:0:0:
376,176,23064,6,0,P|363:218|344:250,2,77.5000029563905,12|0|0,0:1|0:0|0:0,0:0:0:0:
456,298,23452,6,0,P|421:313|383:320,1,77.5000029563905,0|8,0:0|0:0,0:0:0:0:
383,320,23645,1,8,0:0:0:0:
383,320,23710,1,8,0:0:0:0:
225,363,23839,5,8,0:2:0:0:
281,289,23968,1,8,0:2:0:0:
258,198,24097,1,8,0:2:0:0:
59,131,24226,86,0,P|94:146|133:153,1,77.5000029563905,8|8,0:1|0:0,0:0:0:0:
133,153,24419,1,8,0:0:0:0:
133,153,24484,1,8,0:0:0:0:
223,46,24613,5,0,0:0:0:0:
302,39,24742,2,4,P|321:44|339:52,2,38.7500014781952
291,183,25000,6,0,P|296:194|300:207,1,25.8333333333333
278,162,25129,1,0,0:0:0:0:
262,149,25258,1,0,0:0:0:0:
217,141,25387,5,0,0:0:0:0:
241,148,25516,1,0,0:0:0:0:
262,149,25645,1,0,0:0:0:0:
299,125,25774,5,0,0:0:0:0:
277,136,25903,1,0,0:0:0:0:
262,149,26032,1,0,0:0:0:0:
247,191,26161,5,0,0:0:0:0:
257,168,26290,1,0,0:0:0:0:
262,149,26419,1,0,0:0:0:0:
245,107,26548,6,0,P|243:94|244:80,1,25.8333333333333
251,129,26677,1,0,0:0:0:0:
262,149,26806,1,0,0:0:0:0:
300,170,26935,5,0,0:0:0:0:
282,156,27064,1,0,0:0:0:0:
262,149,27193,1,0,0:0:0:0:
217,157,27323,5,0,0:0:0:0:
241,156,27452,1,0,0:0:0:0:
262,149,27581,1,0,0:0:0:0:
289,113,27710,5,0,0:0:0:0:
273,129,27839,1,0,0:0:0:0:
262,149,27968,1,0,0:0:0:0:
257,242,28097,6,0,P|265:225|271:206,1,25.8333333333333
238,274,28226,1,0,0:0:0:0:
214,293,28355,1,0,0:0:0:0:
146,306,28484,5,0,0:0:0:0:
182,295,28613,1,0,0:0:0:0:
214,293,28742,1,0,0:0:0:0:
269,330,28871,5,0,0:0:0:0:
236,313,29000,1,0,0:0:0:0:
214,293,29129,1,0,0:0:0:0:
191,230,29258,5,0,0:0:0:0:
206,265,29387,1,0,0:0:0:0:
214,293,29516,1,0,0:0:0:0:
188,357,29645,6,0,P|186:377|187:397,1,25.8333333333333
197,324,29774,1,0,0:0:0:0:
214,293,29903,1,0,0:0:0:0:
271,262,30032,5,0,0:0:0:0:
244,283,30161,1,0,0:0:0:0:
214,293,30290,1,0,0:0:0:0:
146,281,30420,5,0,0:0:0:0:
182,283,30549,1,0,0:0:0:0:
214,293,30678,1,0,0:0:0:0:
254,348,30807,5,0,0:0:0:0:
230,324,30936,1,0,0:0:0:0:
214,293,31065,1,0,0:0:0:0:
208,197,31194,6,0,P|215:211|219:227,1,25.8333333333333
192,171,31323,1,0,0:0:0:0:
172,155,31452,1,0,0:0:0:0:
115,145,31581,5,0,0:0:0:0:
145,153,31710,1,0,0:0:0:0:
172,155,31839,1,0,0:0:0:0:
218,125,31968,5,0,0:0:0:0:
190,138,32097,1,0,0:0:0:0:
172,155,32226,1,0,0:0:0:0:
153,207,32355,5,0,0:0:0:0:
165,178,32484,1,0,0:0:0:0:
172,155,32613,1,0,0:0:0:0:
150,102,32742,6,0,P|148:85|149:69,1,25.8333333333333
158,130,32871,1,0,0:0:0:0:
172,155,33000,1,0,0:0:0:0:
219,181,33129,5,0,0:0:0:0:
197,163,33258,1,0,0:0:0:0:
172,155,33387,1,0,0:0:0:0:
115,165,33517,5,0,0:0:0:0:
145,163,33646,1,0,0:0:0:0:
172,155,33775,1,0,0:0:0:0:
205,110,33904,5,0,0:0:0:0:
185,130,34033,1,0,0:0:0:0:
172,155,34162,1,0,0:0:0:0:
192,249,34290,6,0,P|187:238|183:225,1,25.8333333333333
205,270,34419,1,0,0:0:0:0:
221,283,34548,1,0,0:0:0:0:
266,291,34677,5,0,0:0:0:0:
242,284,34806,1,0,0:0:0:0:
221,283,34935,1,0,0:0:0:0:
184,307,35064,5,0,0:0:0:0:
206,296,35193,1,0,0:0:0:0:
221,283,35322,1,0,0:0:0:0:
236,241,35451,5,0,0:0:0:0:
226,264,35580,1,0,0:0:0:0:
221,283,35709,1,0,0:0:0:0:
245,353,35839,5,0,0:0:0:0:
247,358,35903,1,0,0:0:0:0:
249,363,35968,1,0,0:0:0:0:
315,309,36097,5,0,0:0:0:0:
327,316,36226,1,0,0:0:0:0:
373,247,36355,5,0,0:0:0:0:
393,249,36484,1,0,0:0:0:0:
400,171,36613,5,0,0:0:0:0:
423,160,36742,1,0,0:0:0:0:
393,249,36871,5,0,0:0:0:0:
431,259,37000,1,0,0:0:0:0:
327,316,37129,5,0,0:0:0:0:
386,350,37258,1,0,0:0:0:0:
242,340,37387,22,0,P|247:352|253:364,1,25.8333333333333
237,317,37516,1,0,0:0:0:0:
240,297,37645,1,0,0:0:0:0:
266,259,37774,5,0,0:0:0:0:
253,281,37903,1,0,0:0:0:0:
240,297,38032,1,0,0:0:0:0:
197,305,38161,5,0,0:0:0:0:
220,298,38290,1,0,0:0:0:0:
240,297,38419,1,0,0:0:0:0:
280,315,38548,5,0,0:0:0:0:
256,307,38677,1,0,0:0:0:0:
240,297,38806,1,0,0:0:0:0:
222,255,38935,6,0,P|215:245|204:236,1,25.8333333333333
233,275,39064,1,0,0:0:0:0:
240,297,39193,1,0,0:0:0:0:
227,338,39322,5,0,0:0:0:0:
231,316,39451,1,0,0:0:0:0:
240,297,39580,1,0,0:0:0:0:
277,270,39710,5,0,0:0:0:0:
259,286,39839,1,0,0:0:0:0:
240,297,39968,1,0,0:0:0:0:
195,290,40097,5,0,0:0:0:0:
218,290,40226,1,0,0:0:0:0:
240,297,40355,1,0,0:0:0:0:
325,336,40484,6,0,P|305:338|285:340,1,25.8333333333333
360,325,40613,1,0,0:0:0:0:
384,307,40742,1,0,0:0:0:0:
415,245,40871,5,0,0:0:0:0:
394,277,41000,1,0,0:0:0:0:
384,307,41129,1,0,0:0:0:0:
407,370,41258,5,0,0:0:0:0:
399,333,41387,1,0,0:0:0:0:
384,307,41516,1,0,0:0:0:0:
330,269,41645,5,0,0:0:0:0:
359,291,41774,1,0,0:0:0:0:
384,307,41903,1,0,0:0:0:0:
453,298,42032,6,0,P|471:300|490:307,1,25.8333333333333
419,298,42161,1,0,0:0:0:0:
384,307,42290,1,0,0:0:0:0:
340,354,42419,5,0,0:0:0:0:
368,332,42548,1,0,0:0:0:0:
384,307,42677,1,0,0:0:0:0:
390,237,42807,5,0,0:0:0:0:
384,274,42936,1,0,0:0:0:0:
384,307,43065,1,0,0:0:0:0:
428,360,43194,5,0,0:0:0:0:
411,331,43323,1,0,0:0:0:0:
384,307,43452,1,0,0:0:0:0:
306,262,43581,6,0,P|311:277|320:291,1,25.8333333333333
299,231,43710,1,0,0:0:0:0:
303,207,43839,1,0,0:0:0:0:
336,159,43968,5,0,0:0:0:0:
320,185,44097,1,0,0:0:0:0:
303,207,44226,1,0,0:0:0:0:
249,218,44355,5,0,0:0:0:0:
278,207,44484,1,0,0:0:0:0:
303,207,44613,1,0,0:0:0:0:
353,230,44742,5,0,0:0:0:0:
324,218,44871,1,0,0:0:0:0:
303,207,45000,1,0,0:0:0:0:
281,154,45129,6,0,P|271:141|259:130,1,25.8333333333333
295,179,45258,1,0,0:0:0:0:
303,207,45387,1,0,0:0:0:0:
288,258,45516,5,0,0:0:0:0:
291,230,45645,1,0,0:0:0:0:
303,207,45774,1,0,0:0:0:0:
350,173,45904,5,0,0:0:0:0:
327,193,46033,1,0,0:0:0:0:
303,207,46162,1,0,0:0:0:0:
248,198,46291,5,0,0:0:0:0:
276,197,46420,1,0,0:0:0:0:
303,207,46549,1,0,0:0:0:0:
339,279,46677,6,0,P|351:280|365:283,1,25.8333333333333
316,281,46806,1,0,0:0:0:0:
297,289,46935,1,0,0:0:0:0:
267,324,47064,5,0,0:0:0:0:
285,305,47193,1,0,0:0:0:0:
297,289,47322,1,0,0:0:0:0:
294,245,47451,5,0,0:0:0:0:
293,269,47580,1,0,0:0:0:0:
297,289,47709,1,0,0:0:0:0:
325,323,47838,5,0,0:0:0:0:
311,302,47967,1,0,0:0:0:0:
297,289,48096,1,0,0:0:0:0:
221,267,48226,5,0,0:0:0:0:
215,266,48290,1,0,0:0:0:0:
210,265,48355,1,0,0:0:0:0:
245,187,48484,5,0,0:0:0:0:
235,177,48613,1,0,0:0:0:0:
291,115,48742,5,0,0:0:0:0:
283,97,48871,1,0,0:0:0:0:
357,70,49000,5,0,0:0:0:0:
362,44,49129,1,0,0:0:0:0:
283,97,49258,5,0,0:0:0:0:
263,63,49387,1,0,0:0:0:0:
235,177,49516,5,0,0:0:0:0:
187,130,49645,1,0,0:0:0:0:
238,273,49774,5,0,0:0:0:0:
