osu file format v14

[General]
AudioFilename: audio.ogg
AudioLeadIn: 0
PreviewTime: 201853
Countdown: 0
SampleSet: Soft
StackLeniency: 0.7
Mode: 0
LetterboxInBreaks: 1
WidescreenStoryboard: 1

[Editor]
DistanceSpacing: 1.2
BeatDivisor: 4
GridSize: 4
TimelineZoom: 2.3

[Metadata]
Title:Natsukashiki Touhou no Chi ~ Sic World
TitleUnicode:懐かしき東方の血 ~ Sic World
Artist:Demetori
ArtistUnicode:Demetori
Creator:chaser01
Version:LMT's Hyper
Source:東方永夜抄 ~ Imperishable Night.
Tags:nostalgic blood of the east stage 3 touhou video game metal instrumental 懐かしき東方の血 ~ Old World 東方project le Grimoire De reve LMT happy30 resahc MonsieurSebas visionary
BeatmapID:4048172
BeatmapSetID:1950158

[Difficulty]
HPDrainRate:5
CircleSize:3.5
OverallDifficulty:7
ApproachRate:8.2
SliderMultiplier:1.4
SliderTickRate:1

[Events]
//Background and Video events
0,0,"k.jpg",0,0
//Break Periods
//Storyboard Layer 0 (Background)
//Storyboard Layer 1 (Fail)
//Storyboard Layer 2 (Pass)
//Storyboard Layer 3 (Foreground)
//Storyboard Layer 4 (Overlay)
//Storyboard Sound Samples

[TimingPoints]
-493,306.122448979592,4,2,1,70,1,0
731,306.122448979592,4,2,1,75,1,0
5628,-100,4,2,2,75,0,0
7771,-100,4,2,1,75,0,0
8077,-100,4,2,17,75,0,0
9302,-100,4,2,3,75,0,0
9455,-100,4,2,1,75,0,0
9761,-100,4,2,3,75,0,0
9914,-100,4,2,1,75,0,0
10220,-100,4,2,4,75,0,0
10373,-100,4,2,2,75,0,0
10526,-100,4,2,2,80,0,0
12669,-100,4,2,3,80,0,0
12975,-100,4,2,17,80,0,0
15118,-100,4,2,3,80,0,0
15424,-100,4,2,17,80,0,0
17567,-100,4,2,3,80,0,0
17873,-100,4,2,17,80,0,0
19098,-100,4,2,3,80,0,0
19251,-100,4,2,4,80,0,0
19404,-100,4,2,1,80,0,0
19557,-100,4,2,2,80,0,0
19786,-100,4,2,1,80,0,0
20016,-100,4,2,5,80,0,0
20092,-100,4,2,2,80,0,0
20322,-100,4,2,6,80,0,0
20475,-100,4,2,1,80,0,0
20781,-100,4,2,4,80,0,0
20858,-100,4,2,1,80,0,0
20935,-100,4,2,5,80,0,0
21088,-100,4,2,1,80,0,0
21394,-100,4,2,4,80,0,0
21470,-100,4,2,1,80,0,0
21547,-100,4,2,5,80,0,0
21700,-100,4,2,1,80,0,0
22006,-100,4,2,4,80,0,0
22083,-100,4,2,1,80,0,0
22159,-100,4,2,5,80,0,0
22312,-100,4,2,1,80,0,0
22465,-100,4,2,7,80,0,0
22771,-100,4,2,6,80,0,0
22924,-100,4,2,1,80,0,0
23230,-100,4,2,4,80,0,0
23307,-100,4,2,1,80,0,0
23384,-100,4,2,5,80,0,0
23537,-100,4,2,1,80,0,0
23843,-100,4,2,4,80,0,0
23919,-100,4,2,1,80,0,0
23996,-100,4,2,5,80,0,0
24149,-100,4,2,1,80,0,0
24455,-100,4,2,4,80,0,0
24532,-100,4,2,1,80,0,0
24608,-100,4,2,5,80,0,0
24761,-100,4,2,1,80,0,0
24914,-100,4,2,7,80,0,0
25220,-100,4,2,2,70,0,0
27210,-100,4,2,1,70,0,0
27363,-100,4,2,3,70,0,0
29506,-100,4,2,1,70,0,0
30118,-100,4,2,1,75,0,0
34251,-100,4,2,2,75,0,0
34404,-100,4,2,8,75,0,0
34557,-100,4,2,1,75,0,0
34633,-100,4,2,8,75,0,0
34863,-100,4,2,2,75,0,0
35016,-100,4,2,1,75,0,0
39302,-100,4,2,8,75,0,0
39761,-100,4,2,2,75,0,0
39914,-100,4,2,1,75,0,0
44047,-100,4,2,2,75,0,0
44200,-100,4,2,8,75,0,0
44353,-100,4,2,1,75,0,0
44429,-100,4,2,8,75,0,0
44659,-100,4,2,2,75,0,0
44812,-100,4,2,1,75,0,0
49021,-100,4,2,8,75,0,0
49251,-100,4,2,4,75,0,0
49404,-100,4,2,3,75,0,0
49557,-83.3333333333333,4,2,2,75,0,0
49863,-83.3333333333333,4,2,9,75,0,0
50322,-83.3333333333333,4,2,7,75,0,0
50475,-83.3333333333333,4,2,1,75,0,0
50628,-83.3333333333333,4,2,6,75,0,0
50782,-83.3333333333333,4,2,1,75,0,0
51241,-83.3333333333333,4,2,9,75,0,0
51394,-83.3333333333333,4,2,1,75,0,0
51853,-83.3333333333333,4,2,9,75,0,0
52771,-83.3333333333333,4,2,7,75,0,0
52924,-83.3333333333333,4,2,1,75,0,0
53077,-83.3333333333333,4,2,6,75,0,0
53231,-83.3333333333333,4,2,1,75,0,0
53690,-83.3333333333333,4,2,9,75,0,0
53843,-83.3333333333333,4,2,1,75,0,0
53996,-83.3333333333333,4,2,7,75,0,0
54149,-83.3333333333333,4,2,1,75,0,0
54302,-83.3333333333333,4,2,6,75,0,0
54455,-83.3333333333333,4,2,9,75,0,0
55220,-83.3333333333333,4,2,7,75,0,0
55373,-83.3333333333333,4,2,1,75,0,0
55526,-83.3333333333333,4,2,6,75,0,0
55679,-83.3333333333333,4,2,1,75,0,0
56139,-83.3333333333333,4,2,9,75,0,0
56292,-83.3333333333333,4,2,1,75,0,0
56751,-83.3333333333333,4,2,6,75,0,0
56904,-83.3333333333333,4,2,10,75,0,0
57363,-83.3333333333333,4,2,9,75,0,0
57516,-83.3333333333333,4,2,4,75,0,0
57975,-83.3333333333333,4,2,6,75,0,0
58128,-83.3333333333333,4,2,1,75,0,0
58282,-83.3333333333333,4,2,11,75,0,0
58358,-83.3333333333333,4,2,2,75,0,0
58435,-83.3333333333333,4,2,1,75,0,0
58741,-83.3333333333333,4,2,11,75,0,0
58817,-83.3333333333333,4,2,2,75,0,0
58894,-83.3333333333333,4,2,1,75,0,0
59200,-83.3333333333333,4,2,2,75,0,0
59506,-100,4,2,2,65,0,0
59659,-100,4,2,1,65,0,0
60118,-100,4,2,2,65,0,0
60271,-100,4,2,1,65,0,0
60731,-100,4,2,2,65,0,0
60884,-100,4,2,1,65,0,0
61343,-100,4,2,2,65,0,0
61496,-100,4,2,1,65,0,0
61649,-100,4,2,3,65,0,0
61955,-100,4,2,2,65,0,0
62108,-100,4,2,1,65,0,0
62567,-100,4,2,2,65,0,0
62720,-100,4,2,1,65,0,0
63179,-100,4,2,2,65,0,0
63333,-100,4,2,1,65,0,0
63792,-100,4,2,2,65,0,0
63945,-100,4,2,1,65,0,0
64098,-100,4,2,3,65,0,0
64404,-100,4,2,2,65,0,0
64557,-100,4,2,1,65,0,0
65016,-100,4,2,2,65,0,0
65169,-100,4,2,1,65,0,0
65628,-100,4,2,2,65,0,0
65782,-100,4,2,1,65,0,0
66241,-100,4,2,2,65,0,0
66394,-100,4,2,1,65,0,0
66547,-100,4,2,3,65,0,0
66853,-100,4,2,2,65,0,0
67159,-100,4,2,8,65,0,0
67312,-100,4,2,11,65,0,0
67465,-100,4,2,1,65,0,0
67618,-100,4,2,3,65,0,0
67771,-100,4,2,2,65,0,0
68077,-100,4,2,17,65,0,0
68231,-100,4,2,14,65,0,0
68537,-100,4,2,11,65,0,0
68996,-100,4,2,2,65,0,0
69302,-100,4,2,1,75,0,0
69608,-83.3333333333333,4,2,10,75,0,0
69761,-83.3333333333333,4,2,1,75,0,0
70220,-83.3333333333333,4,2,10,75,0,0
70373,-83.3333333333333,4,2,1,75,0,0
70833,-83.3333333333333,4,2,10,75,0,0
70986,-83.3333333333333,4,2,1,75,0,0
71445,-83.3333333333333,4,2,10,75,0,0
71598,-83.3333333333333,4,2,1,75,0,0
72057,-83.3333333333333,4,2,10,75,0,0
72516,-83.3333333333333,4,2,1,75,0,0
72669,-83.3333333333333,4,2,10,75,0,0
72822,-83.3333333333333,4,2,1,75,0,0
73281,-83.3333333333333,4,2,10,75,0,0
73435,-83.3333333333333,4,2,5,75,0,0
73588,-83.3333333333333,4,2,1,75,0,0
73894,-83.3333333333333,4,2,8,75,0,0
73970,-83.3333333333333,4,2,4,75,0,0
74200,-83.3333333333333,4,2,1,75,0,0
74506,-83.3333333333333,4,2,10,75,0,0
74659,-83.3333333333333,4,2,1,75,0,0
75118,-83.3333333333333,4,2,10,75,0,0
75195,-83.3333333333333,4,2,1,75,0,0
75730,-83.3333333333333,4,2,10,75,0,0
75884,-83.3333333333333,4,2,1,75,0,0
76343,-83.3333333333333,4,2,10,75,0,0
76496,-83.3333333333333,4,2,1,75,0,0
76955,-83.3333333333333,4,2,10,75,0,0
77414,-83.3333333333333,4,2,1,75,0,0
77567,-83.3333333333333,4,2,10,75,0,0
77720,-83.3333333333333,4,2,1,75,0,0
78179,-83.3333333333333,4,2,6,75,0,0
78486,-83.3333333333333,4,2,8,75,0,0
78945,-83.3333333333333,4,2,2,75,0,0
79098,-83.3333333333333,4,2,1,75,0,0
79404,-83.3333333333333,4,2,8,75,0,0
79863,-83.3333333333333,4,2,1,75,0,0
80016,-83.3333333333333,4,2,8,75,0,0
80169,-83.3333333333333,4,2,1,75,0,0
80628,-83.3333333333333,4,2,8,75,0,0
80782,-83.3333333333333,4,2,1,75,0,0
81241,-83.3333333333333,4,2,8,75,0,0
81394,-83.3333333333333,4,2,1,75,0,0
81853,-83.3333333333333,4,2,8,75,0,0
82771,-83.3333333333333,4,2,1,75,0,0
83077,-83.3333333333333,4,2,8,75,0,0
83231,-83.3333333333333,4,2,5,75,0,0
83307,-83.3333333333333,4,2,1,75,0,0
83690,-83.3333333333333,4,2,8,75,0,0
83996,-83.3333333333333,4,2,1,75,0,0
84302,-83.3333333333333,4,2,8,75,0,0
84455,-83.3333333333333,4,2,1,75,0,0
85526,-83.3333333333333,4,2,8,75,0,0
85679,-83.3333333333333,4,2,1,75,0,0
86139,-83.3333333333333,4,2,8,75,0,0
86292,-83.3333333333333,4,2,1,75,0,0
86751,-83.3333333333333,4,2,8,75,0,0
87669,-83.3333333333333,4,2,1,75,0,0
87975,-83.3333333333333,4,2,8,75,0,0
88128,-83.3333333333333,4,2,3,75,0,0
88690,-83.3333333333333,4,2,8,75,0,0
88894,-83.3333333333333,4,2,10,75,0,0
89047,306.122448979592,4,2,10,75,1,0
89200,-100,4,2,8,75,0,0
89659,-100,4,2,1,75,0,0
89812,-100,4,2,7,75,0,0
89965,-100,4,2,1,75,0,0
90118,-66.6666666666667,4,2,10,75,0,0
90424,-66.6666666666667,4,2,8,75,0,0
90730,-66.6666666666667,4,2,7,75,0,0
91036,-66.6666666666667,4,2,8,75,0,0
91342,-66.6666666666667,4,2,10,75,0,0
91649,-66.6666666666667,4,2,8,75,0,0
92108,-66.6666666666667,4,2,1,75,0,0
92261,-66.6666666666667,4,2,7,75,0,0
92414,-66.6666666666667,4,2,1,75,0,0
92567,-66.6666666666667,4,2,10,75,0,0
93026,-66.6666666666667,4,2,8,75,0,0
93791,-66.6666666666667,4,2,10,75,0,0
94097,-66.6666666666667,4,2,8,75,0,0
94557,-66.6666666666667,4,2,1,75,0,0
94710,-66.6666666666667,4,2,7,75,0,0
94863,-66.6666666666667,4,2,1,75,0,0
95016,-66.6666666666667,4,2,10,75,0,0
95322,-66.6666666666667,4,2,8,75,0,0
95628,-66.6666666666667,4,2,7,75,0,0
95934,-66.6666666666667,4,2,8,75,0,0
96087,-66.6666666666667,4,2,3,75,0,0
96240,-66.6666666666667,4,2,8,75,0,0
96393,-66.6666666666667,4,2,9,75,0,0
97312,-66.6666666666667,4,2,3,75,0,0
97618,-66.6666666666667,4,2,1,75,0,0
98536,-66.6666666666667,4,2,7,75,0,0
98689,-66.6666666666667,4,2,1,75,0,0
98842,-76.9230769230769,4,2,6,85,0,1
99148,-76.9230769230769,4,2,9,85,0,1
99302,-76.9230769230769,4,2,13,85,0,1
99761,-76.9230769230769,4,2,9,85,0,1
99914,-76.9230769230769,4,2,1,85,0,1
100067,-76.9230769230769,4,2,6,85,0,1
100373,-76.9230769230769,4,2,9,85,0,1
100526,-76.9230769230769,4,2,13,85,0,1
100985,-76.9230769230769,4,2,9,85,0,1
101138,-76.9230769230769,4,2,1,85,0,1
101291,-76.9230769230769,4,2,6,85,0,1
101751,-76.9230769230769,4,2,5,85,0,1
102210,-76.9230769230769,4,2,6,85,0,1
102822,-76.9230769230769,4,2,9,85,0,1
103128,-76.9230769230769,4,2,13,85,0,1
103281,-76.9230769230769,4,2,6,85,0,1
103434,-76.9230769230769,4,2,9,85,0,1
103740,-76.9230769230769,4,2,6,85,0,1
104046,-76.9230769230769,4,2,9,85,0,1
104200,-76.9230769230769,4,2,13,85,0,1
104659,-76.9230769230769,4,2,9,85,0,1
104812,-76.9230769230769,4,2,1,85,0,1
104965,-76.9230769230769,4,2,6,85,0,1
105577,-76.9230769230769,4,2,5,85,0,1
105883,-76.9230769230769,4,2,6,85,0,1
106495,-76.9230769230769,4,2,9,85,0,1
107108,-76.9230769230769,4,2,7,85,0,1
107414,-76.9230769230769,4,2,6,85,0,1
107567,-76.9230769230769,4,2,2,85,0,1
107720,-76.9230769230769,4,2,13,85,0,1
107873,-76.9230769230769,4,2,1,85,0,1
108026,-76.9230769230769,4,2,8,85,0,1
108179,-76.9230769230769,4,2,6,85,0,1
108408,-76.9230769230769,4,2,2,85,0,1
108638,-76.9230769230769,4,2,6,85,0,1
108944,-76.9230769230769,4,2,9,85,0,1
109098,-76.9230769230769,4,2,13,85,0,1
109557,-76.9230769230769,4,2,9,85,0,1
109710,-76.9230769230769,4,2,1,85,0,1
109863,-76.9230769230769,4,2,6,85,0,1
110169,-76.9230769230769,4,2,9,85,0,1
110322,-76.9230769230769,4,2,13,85,0,1
110781,-76.9230769230769,4,2,9,85,0,1
110934,-76.9230769230769,4,2,1,85,0,1
111087,-76.9230769230769,4,2,6,85,0,1
111700,-76.9230769230769,4,2,5,85,0,1
112006,-76.9230769230769,4,2,6,85,0,1
112618,-76.9230769230769,4,2,9,85,0,1
112924,-76.9230769230769,4,2,13,85,0,1
113077,-76.9230769230769,4,2,6,85,0,1
113383,-76.9230769230769,4,2,1,85,0,1
113536,-76.9230769230769,4,2,6,85,0,1
113842,-76.9230769230769,4,2,9,85,0,1
113995,-76.9230769230769,4,2,13,85,0,1
114455,-76.9230769230769,4,2,9,85,0,1
114608,-76.9230769230769,4,2,1,85,0,1
114761,-76.9230769230769,4,2,6,85,0,1
115373,-76.9230769230769,4,2,5,85,0,1
115679,-76.9230769230769,4,2,7,85,0,1
115985,-76.9230769230769,4,2,6,85,0,1
116291,-76.9230769230769,4,2,9,85,0,1
116750,-76.9230769230769,4,2,6,85,0,1
117210,-76.9230769230769,4,2,6,75,0,1
117414,-76.9230769230769,4,2,6,75,0,0
117822,-76.9230769230769,4,2,8,75,0,0
118281,-76.9230769230769,4,2,2,75,0,1
118434,-83.3333333333333,4,2,2,75,0,0
118587,-83.3333333333333,4,2,1,75,0,0
119047,-83.3333333333333,4,2,2,75,0,0
119200,-83.3333333333333,4,2,1,75,0,0
119659,-83.3333333333333,4,2,2,75,0,0
119812,-83.3333333333333,4,2,1,75,0,0
120271,-83.3333333333333,4,2,2,75,0,0
120424,-83.3333333333333,4,2,1,75,0,0
120577,-83.3333333333333,4,2,3,75,0,0
120883,-83.3333333333333,4,2,2,75,0,0
121036,-83.3333333333333,4,2,1,75,0,0
121495,-83.3333333333333,4,2,2,75,0,0
121649,-83.3333333333333,4,2,1,75,0,0
122108,-83.3333333333333,4,2,2,75,0,0
122261,-83.3333333333333,4,2,1,75,0,0
122720,-83.3333333333333,4,2,2,75,0,0
122873,-83.3333333333333,4,2,1,75,0,0
123026,-83.3333333333333,4,2,3,75,0,0
123332,-83.3333333333333,4,2,2,75,0,0
123485,-83.3333333333333,4,2,1,75,0,0
123944,-83.3333333333333,4,2,2,75,0,0
124098,-83.3333333333333,4,2,1,75,0,0
124557,-83.3333333333333,4,2,2,75,0,0
124710,-83.3333333333333,4,2,1,75,0,0
125169,-83.3333333333333,4,2,2,75,0,0
125322,-83.3333333333333,4,2,1,75,0,0
125475,-83.3333333333333,4,2,3,75,0,0
125781,-83.3333333333333,4,2,1,75,0,0
127618,-83.3333333333333,4,2,3,75,0,0
127822,-83.3333333333333,4,2,4,75,0,0
128026,-83.3333333333333,4,2,1,75,0,0
128230,612.244897959184,4,2,1,60,1,0
131903,-50,4,2,4,60,0,0
132107,-50,4,2,1,60,0,0
132311,-50,4,2,4,60,0,0
132413,-50,4,2,1,60,0,0
137337,-50,4,2,2,60,0,0
137413,-50,4,2,1,60,0,0
137617,-50,4,2,2,60,0,0
137821,-50,4,2,1,60,0,0
138637,-50,4,2,6,60,0,0
138944,-50,4,2,1,60,0,0
141086,-50,4,2,6,60,0,0
141393,-50,4,2,1,60,0,0
143536,-50,4,2,2,60,0,0
143842,-50,4,2,1,60,0,0
146597,-50,4,2,11,60,0,0
147209,-50,4,2,4,60,0,0
147821,-50,4,2,1,60,0,0
150425,306.122448979592,4,2,1,85,1,0
150425,-83.3333333333333,4,2,1,85,0,0
154557,-83.3333333333333,4,2,4,85,0,0
154710,-83.3333333333333,4,2,1,85,0,0
154940,-83.3333333333333,4,2,2,85,0,0
155016,-83.3333333333333,4,2,5,85,0,0
155169,-83.3333333333333,4,2,2,85,0,0
155322,-83.3333333333333,4,2,1,85,0,0
159455,-83.3333333333333,4,2,3,85,0,0
159608,-83.3333333333333,4,2,1,85,0,0
159761,-83.3333333333333,4,2,5,85,0,0
159991,-83.3333333333333,4,2,2,85,0,0
160220,-83.3333333333333,4,2,6,85,0,0
160526,-83.3333333333333,4,2,5,85,0,0
160680,-83.3333333333333,4,2,1,85,0,0
160833,-83.3333333333333,4,2,5,85,0,0
160986,-83.3333333333333,4,2,1,85,0,0
161139,-83.3333333333333,4,2,5,85,0,0
161215,-83.3333333333333,4,2,1,85,0,0
161445,-83.3333333333333,4,2,5,85,0,0
161598,-83.3333333333333,4,2,1,85,0,0
161751,-83.3333333333333,4,2,5,85,0,0
161828,-83.3333333333333,4,2,1,85,0,0
162057,-83.3333333333333,4,2,17,85,0,0
162439,-83.3333333333333,4,2,4,85,0,0
162516,-83.3333333333333,4,2,1,85,0,0
162669,-83.3333333333333,4,2,5,85,0,0
163129,-83.3333333333333,4,2,1,85,0,0
163205,-83.3333333333333,4,2,4,85,0,0
163282,-83.3333333333333,4,2,5,85,0,0
163435,-83.3333333333333,4,2,1,85,0,0
163588,-83.3333333333333,4,2,5,85,0,0
163741,-83.3333333333333,4,2,1,85,0,0
163894,-83.3333333333333,4,2,5,85,0,0
164047,-83.3333333333333,4,2,1,85,0,0
164200,-83.3333333333333,4,2,5,85,0,0
164276,-83.3333333333333,4,2,4,85,0,0
164353,-83.3333333333333,4,2,1,85,0,0
164506,-83.3333333333333,4,2,5,85,0,0
164659,-83.3333333333333,4,2,1,85,0,0
164812,-83.3333333333333,4,2,7,85,0,0
164965,-83.3333333333333,4,2,2,85,0,0
165424,-83.3333333333333,4,2,14,85,0,0
166572,-83.3333333333333,4,2,4,85,0,0
166802,-83.3333333333333,4,2,1,85,0,0
166955,-83.3333333333333,4,2,2,85,0,0
167414,-83.3333333333333,4,2,1,85,0,0
167567,-83.3333333333333,4,2,6,85,0,0
167720,-83.3333333333333,4,2,1,85,0,0
167873,-83.3333333333333,4,2,17,85,0,0
168792,-83.3333333333333,4,2,6,85,0,0
168945,-83.3333333333333,4,2,17,85,0,0
169327,-83.3333333333333,4,2,1,85,0,0
169404,-83.3333333333333,4,2,6,85,0,0
169557,-83.3333333333333,4,2,11,85,0,0
169634,-83.3333333333333,4,2,4,85,0,0
169710,-83.3333333333333,4,2,12,85,0,0
169786,-83.3333333333333,4,2,2,85,0,0
169863,-83.3333333333333,4,2,5,85,0,0
170016,-83.3333333333333,4,2,11,85,0,0
170169,-83.3333333333333,4,2,1,85,0,0
170322,-83.3333333333333,4,2,13,85,0,0
170476,-83.3333333333333,4,2,4,85,0,0
170629,-83.3333333333333,4,2,14,85,0,0
171241,-83.3333333333333,4,2,15,85,0,0
171394,-83.3333333333333,4,2,1,85,0,0
171547,-83.3333333333333,4,2,13,85,0,0
171700,-83.3333333333333,4,2,4,85,0,0
171853,-83.3333333333333,4,2,14,85,0,0
172006,-83.3333333333333,4,2,1,85,0,0
172159,-83.3333333333333,4,2,3,85,0,0
172312,-83.3333333333333,4,2,1,85,0,0
172465,-83.3333333333333,4,2,11,85,0,0
172618,-83.3333333333333,4,2,1,85,0,0
172771,-83.3333333333333,4,2,13,85,0,0
172925,-83.3333333333333,4,2,4,85,0,0
173078,-83.3333333333333,4,2,14,85,0,0
173690,-83.3333333333333,4,2,15,85,0,0
173843,-83.3333333333333,4,2,1,85,0,0
173996,-83.3333333333333,4,2,13,85,0,0
174149,-83.3333333333333,4,2,4,85,0,0
174302,-83.3333333333333,4,2,14,85,0,0
174455,-83.3333333333333,4,2,1,85,0,0
174608,-83.3333333333333,4,2,3,85,0,0
174761,-83.3333333333333,4,2,1,85,0,0
174914,-83.3333333333333,4,2,11,85,0,0
175067,-83.3333333333333,4,2,1,85,0,0
175220,-83.3333333333333,4,2,13,85,0,0
175373,-83.3333333333333,4,2,4,85,0,0
175526,-83.3333333333333,4,2,14,85,0,0
175986,-83.3333333333333,4,2,1,85,0,0
176139,-83.3333333333333,4,2,11,85,0,0
176292,-83.3333333333333,4,2,1,85,0,0
176445,-83.3333333333333,4,2,13,85,0,0
176598,-83.3333333333333,4,2,4,85,0,0
176751,-83.3333333333333,4,2,14,85,0,0
176904,-83.3333333333333,4,2,1,85,0,0
177057,-83.3333333333333,4,2,3,85,0,0
177210,-83.3333333333333,4,2,1,85,0,0
177363,-83.3333333333333,4,2,11,85,0,0
177516,-83.3333333333333,4,2,1,85,0,0
177669,-83.3333333333333,4,2,13,85,0,0
177822,-83.3333333333333,4,2,4,85,0,0
177975,-83.3333333333333,4,2,14,85,0,0
178435,-83.3333333333333,4,2,1,85,0,0
178588,-83.3333333333333,4,2,11,85,0,0
178741,-83.3333333333333,4,2,1,85,0,0
178894,-83.3333333333333,4,2,13,85,0,0
179047,-83.3333333333333,4,2,16,85,0,0
179200,-83.3333333333333,4,2,14,85,0,0
179353,-83.3333333333333,4,2,1,85,0,0
179506,-83.3333333333333,4,2,5,85,0,0
179583,-83.3333333333333,4,2,2,85,0,0
179812,-100,4,2,6,85,0,1
179888,-100,4,2,14,85,0,1
180041,-100,4,2,4,85,0,1
180118,-100,4,2,7,85,0,1
180271,-100,4,2,1,85,0,1
180347,-100,4,2,4,85,0,1
180424,-100,4,2,17,85,0,1
180731,-100,4,2,7,85,0,1
180807,-100,4,2,1,85,0,1
180884,-100,4,2,4,85,0,1
181037,-100,4,2,5,85,0,1
181113,-100,4,2,14,85,0,1
181266,-100,4,2,4,85,0,1
181343,-100,4,2,7,85,0,1
181496,-100,4,2,1,85,0,1
181572,-100,4,2,4,85,0,1
181649,-100,4,2,17,85,0,1
181955,-100,4,2,15,85,0,1
182261,-100,4,2,6,85,0,1
182337,-100,4,2,14,85,0,1
182490,-100,4,2,4,85,0,1
182567,-100,4,2,7,85,0,1
182720,-100,4,2,1,85,0,1
182796,-100,4,2,4,85,0,1
182873,-100,4,2,17,85,0,1
183180,-100,4,2,7,85,0,1
183256,-100,4,2,1,85,0,1
183333,-100,4,2,4,85,0,1
183486,-100,4,2,5,85,0,1
183562,-100,4,2,14,85,0,1
183792,-100,4,2,7,85,0,1
183868,-100,4,2,1,85,0,1
184098,-100,4,2,17,85,0,1
184404,-100,4,2,15,85,0,1
184710,-100,4,2,6,85,0,1
184786,-100,4,2,14,85,0,1
184939,-100,4,2,4,85,0,1
185016,-100,4,2,7,85,0,1
185169,-100,4,2,1,85,0,1
185246,-100,4,2,4,85,0,1
185322,-100,4,2,17,85,0,1
185629,-100,4,2,7,85,0,1
185705,-100,4,2,1,85,0,1
185782,-100,4,2,4,85,0,1
185935,-100,4,2,5,85,0,1
186011,-100,4,2,14,85,0,1
186164,-100,4,2,4,85,0,1
186241,-100,4,2,7,85,0,1
186394,-100,4,2,1,85,0,1
186470,-100,4,2,4,85,0,1
186547,-100,4,2,17,85,0,1
186853,-100,4,2,15,85,0,1
186929,-100,4,2,2,85,0,1
187159,-100,4,2,6,85,0,1
187235,-100,4,2,14,85,0,1
187465,-100,4,2,7,85,0,1
187542,-100,4,2,1,85,0,1
187771,-100,4,2,17,85,0,1
188078,-100,4,2,7,85,0,1
188231,-100,4,2,4,85,0,1
188384,-100,4,2,6,85,0,1
188460,-100,4,2,14,85,0,1
188690,-100,4,2,7,85,0,1
188766,-100,4,2,4,85,0,1
188843,-100,4,2,1,85,0,1
188996,-100,4,2,5,85,0,1
189302,-100,4,2,15,85,0,1
189455,-100,4,2,2,85,0,1
189608,-100,4,2,17,85,0,1
189684,-100,4,2,1,85,0,1
189761,-100,4,2,4,85,0,1
189914,-100,4,2,9,85,0,1
190067,-100,4,2,1,85,0,1
190220,-100,4,2,4,85,0,1
190373,-100,4,2,9,85,0,1
190527,-100,4,2,1,85,0,1
190680,-100,4,2,4,85,0,1
190833,-100,4,2,1,85,0,1
190909,-100,4,2,2,85,0,1
191139,-100,4,2,1,85,0,1
191445,-100,4,2,4,85,0,1
191598,-100,4,2,1,85,0,1
191751,-100,4,2,5,85,0,1
191827,-100,4,2,2,85,0,1
192057,-100,4,2,1,75,0,0
195578,-83.3333333333333,4,2,1,75,0,0
196343,-83.3333333333333,4,2,14,75,0,0
196496,-83.3333333333333,4,2,1,75,0,0
196649,-83.3333333333333,4,2,13,75,0,0
196802,-83.3333333333333,4,2,1,75,0,0
199098,-83.3333333333333,4,2,9,75,0,0
199404,-83.3333333333333,4,2,1,75,0,0
200629,-83.3333333333333,4,2,11,75,0,0
200782,-83.3333333333333,4,2,1,75,0,0
200935,-83.3333333333333,4,2,7,75,0,0
201088,-83.3333333333333,4,2,4,75,0,0
201241,-83.3333333333333,4,2,13,75,0,0
201394,-83.3333333333333,4,2,1,75,0,0
202006,-100,4,2,2,75,0,0
202082,-100,4,2,1,75,0,0
202465,-100,4,2,2,75,0,0
202618,-100,4,2,1,75,0,0
202924,-100,4,2,2,75,0,0
203078,-100,4,2,1,75,0,0
203384,-100,4,2,2,75,0,0
203537,-100,4,2,1,75,0,0
204302,-76.9230769230769,4,2,6,80,0,1
204608,-76.9230769230769,4,2,9,80,0,1
204761,-76.9230769230769,4,2,13,80,0,1
205220,-76.9230769230769,4,2,9,80,0,1
205373,-76.9230769230769,4,2,1,80,0,1
205527,-76.9230769230769,4,2,6,80,0,1
205833,-76.9230769230769,4,2,9,80,0,1
205986,-76.9230769230769,4,2,13,80,0,1
206445,-76.9230769230769,4,2,9,80,0,1
206598,-76.9230769230769,4,2,1,80,0,1
206751,-76.9230769230769,4,2,6,80,0,1
207210,-76.9230769230769,4,2,5,80,0,1
207669,-76.9230769230769,4,2,6,80,0,1
208282,-76.9230769230769,4,2,9,80,0,1
208588,-76.9230769230769,4,2,13,80,0,1
208741,-76.9230769230769,4,2,6,80,0,1
208894,-76.9230769230769,4,2,9,80,0,1
209200,-76.9230769230769,4,2,6,80,0,1
209506,-76.9230769230769,4,2,9,80,0,1
209659,-76.9230769230769,4,2,13,80,0,1
210118,-76.9230769230769,4,2,9,80,0,1
210271,-76.9230769230769,4,2,1,80,0,1
210425,-76.9230769230769,4,2,6,80,0,1
211037,-76.9230769230769,4,2,5,80,0,1
211343,-76.9230769230769,4,2,6,80,0,1
211955,-76.9230769230769,4,2,9,80,0,1
212567,-76.9230769230769,4,2,7,80,0,1
212873,-76.9230769230769,4,2,6,80,0,1
213026,-76.9230769230769,4,2,2,80,0,1
213180,-76.9230769230769,4,2,13,80,0,1
213333,-76.9230769230769,4,2,1,80,0,1
213486,-76.9230769230769,4,2,8,80,0,1
213639,-76.9230769230769,4,2,6,80,0,1
213868,-76.9230769230769,4,2,2,80,0,1
214098,-76.9230769230769,4,2,6,80,0,1
214404,-76.9230769230769,4,2,13,80,0,1
214710,-76.9230769230769,4,2,9,80,0,1
214863,-76.9230769230769,4,2,13,80,0,1
215322,-76.9230769230769,4,2,6,80,0,1
215628,-76.9230769230769,4,2,13,80,0,1
215935,-76.9230769230769,4,2,9,80,0,1
216088,-76.9230769230769,4,2,13,80,0,1
216547,-76.9230769230769,4,2,6,80,0,1
216853,-76.9230769230769,4,2,5,80,0,1
217159,-76.9230769230769,4,2,6,80,0,1
217465,-76.9230769230769,4,2,5,80,0,1
217771,-76.9230769230769,4,2,6,80,0,1
218078,-76.9230769230769,4,2,13,80,0,1
218231,-76.9230769230769,4,2,6,80,0,1
218384,-76.9230769230769,4,2,9,80,0,1
218537,-76.9230769230769,4,2,6,80,0,1
218690,-76.9230769230769,4,2,18,80,0,1
218996,-76.9230769230769,4,2,6,80,0,1
219302,-76.9230769230769,4,2,13,80,0,1
219608,-76.9230769230769,4,2,9,80,0,1
219761,-76.9230769230769,4,2,13,80,0,1
220220,-76.9230769230769,4,2,6,80,0,1
220526,-76.9230769230769,4,2,5,80,0,1
220833,-76.9230769230769,4,2,6,80,0,1
221139,-76.9230769230769,4,2,1,80,0,1
221445,-76.9230769230769,4,2,6,80,0,1
221751,-76.9230769230769,4,2,13,80,0,1
221904,-76.9230769230769,4,2,2,80,0,1
222057,-76.9230769230769,4,2,8,80,0,1
222363,-76.9230769230769,4,2,6,80,0,1
222976,-76.9230769230769,4,2,13,80,0,1
223588,-76.9230769230769,4,2,6,80,0,1
223894,-76.9230769230769,4,2,2,70,0,0
225731,-76.9230769230769,4,2,8,70,0,0
225884,-100,4,2,1,70,0,0
226343,-100,4,2,6,80,0,0
226496,-76.9230769230769,4,2,1,80,0,0
226802,-76.9230769230769,4,2,4,80,0,0
226879,-76.9230769230769,4,2,1,80,0,0
226955,-76.9230769230769,4,2,5,80,0,0
227108,-76.9230769230769,4,2,1,80,0,0
227414,-76.9230769230769,4,2,4,80,0,0
227491,-76.9230769230769,4,2,1,80,0,0
227567,-76.9230769230769,4,2,5,80,0,0
227720,-76.9230769230769,4,2,1,80,0,0
228026,-76.9230769230769,4,2,4,80,0,0
228103,-76.9230769230769,4,2,1,80,0,0
228180,-76.9230769230769,4,2,5,80,0,0
228333,-76.9230769230769,4,2,1,80,0,0
228486,-76.9230769230769,4,2,7,80,0,0
228792,-76.9230769230769,4,2,6,80,0,0
228945,-76.9230769230769,4,2,1,80,0,0
229251,-76.9230769230769,4,2,4,80,0,0
229328,-76.9230769230769,4,2,1,80,0,0
229404,-76.9230769230769,4,2,5,80,0,0
229557,-76.9230769230769,4,2,1,80,0,0
229863,-76.9230769230769,4,2,4,80,0,0
229940,-76.9230769230769,4,2,1,80,0,0
230016,-76.9230769230769,4,2,5,80,0,0
230169,-76.9230769230769,4,2,1,80,0,0
230475,-76.9230769230769,4,2,4,80,0,0
230552,-76.9230769230769,4,2,1,80,0,0
230629,-76.9230769230769,4,2,5,80,0,0
230782,-76.9230769230769,4,2,1,80,0,0
230935,-76.9230769230769,4,2,7,80,0,0
231241,-76.9230769230769,4,2,6,80,0,0
231394,-76.9230769230769,4,2,1,80,0,0
231700,-76.9230769230769,4,2,4,80,0,0
231777,-76.9230769230769,4,2,1,80,0,0
231853,-76.9230769230769,4,2,5,80,0,0
232006,-76.9230769230769,4,2,1,80,0,0
232312,-76.9230769230769,4,2,4,80,0,0
232389,-76.9230769230769,4,2,1,80,0,0
232465,-76.9230769230769,4,2,5,80,0,0
232618,-76.9230769230769,4,2,1,80,0,0
232924,-76.9230769230769,4,2,4,80,0,0
233001,-76.9230769230769,4,2,1,80,0,0
233078,-76.9230769230769,4,2,5,80,0,0
233231,-76.9230769230769,4,2,1,80,0,0
233384,-76.9230769230769,4,2,7,80,0,0
233690,-76.9230769230769,4,2,6,80,0,0
233843,-76.9230769230769,4,2,1,80,0,0
234149,-76.9230769230769,4,2,4,80,0,0
234226,-76.9230769230769,4,2,1,80,0,0
234302,-76.9230769230769,4,2,5,80,0,0
234455,-76.9230769230769,4,2,1,80,0,0
234608,-76.9230769230769,4,2,7,80,0,0
234761,-76.9230769230769,4,2,4,80,0,0
234914,-76.9230769230769,4,2,6,80,0,0
235067,-76.9230769230769,4,2,4,80,0,0
235220,-76.9230769230769,4,2,6,80,0,0
235373,-76.9230769230769,4,2,3,80,0,0
235527,-76.9230769230769,4,2,19,80,0,0
235680,-76.9230769230769,4,2,1,80,0,0
235833,-76.9230769230769,4,2,6,80,0,0
235909,-76.9230769230769,4,2,2,80,0,0
236139,-76.9230769230769,4,2,6,80,0,0
236292,-76.9230769230769,4,2,1,80,0,0
236598,-76.9230769230769,4,2,4,80,0,0
236675,-76.9230769230769,4,2,1,80,0,0
236751,-76.9230769230769,4,2,5,80,0,0
236904,-76.9230769230769,4,2,1,80,0,0
237057,-76.9230769230769,4,2,7,80,0,0
237210,-76.9230769230769,4,2,4,80,0,0
237363,-76.9230769230769,4,2,5,80,0,0
237516,-76.9230769230769,4,2,1,80,0,0
237669,-76.9230769230769,4,2,7,80,0,0
237822,-76.9230769230769,4,2,4,80,0,0
237899,-76.9230769230769,4,2,1,80,0,0
237976,-76.9230769230769,4,2,5,80,0,0
238129,-76.9230769230769,4,2,1,80,0,0
238282,-76.9230769230769,4,2,7,80,0,0
238588,-76.9230769230769,4,2,6,80,0,0
238741,-76.9230769230769,4,2,1,80,0,0
239047,-76.9230769230769,4,2,4,80,0,0
239123,-76.9230769230769,4,2,1,80,0,0
239200,-76.9230769230769,4,2,5,80,0,0
239353,-76.9230769230769,4,2,1,80,0,0
239659,-76.9230769230769,4,2,4,80,0,0
239736,-76.9230769230769,4,2,1,80,0,0
239812,-76.9230769230769,4,2,5,80,0,0
239965,-76.9230769230769,4,2,1,80,0,0
240271,-76.9230769230769,4,2,4,80,0,0
240348,-76.9230769230769,4,2,1,80,0,0
240425,-76.9230769230769,4,2,5,80,0,0
240578,-76.9230769230769,4,2,1,80,0,0
240731,-76.9230769230769,4,2,7,80,0,0
241037,-76.9230769230769,4,2,2,85,0,0
241190,-76.9230769230769,4,2,1,85,0,0
241343,-76.9230769230769,4,2,4,85,0,0
241496,-76.9230769230769,4,2,14,85,0,0
241649,-76.9230769230769,4,2,2,85,0,0
241802,-76.9230769230769,4,2,1,85,0,0
241955,-76.9230769230769,4,2,4,85,0,0
242108,-76.9230769230769,4,2,14,85,0,0
242261,-76.9230769230769,4,2,2,85,0,0
242414,-76.9230769230769,4,2,1,85,0,0
242567,-76.9230769230769,4,2,4,85,0,0
242720,-76.9230769230769,4,2,14,85,0,0
242873,-76.9230769230769,4,2,2,85,0,0
243027,-76.9230769230769,4,2,1,85,0,0
243180,-76.9230769230769,4,2,5,85,0,0
243486,-76.9230769230769,4,2,1,60,0,0
245271,-76.9230769230769,4,2,2,60,0,0
245322,-76.9230769230769,4,2,1,60,0,0
245527,-76.9230769230769,4,2,4,60,0,0
245731,-76.9230769230769,4,2,1,60,0,0

[Colours]
Combo1 : 172,98,255
Combo2 : 255,45,45
Combo3 : 138,255,60
Combo4 : 247,136,255
Combo5 : 109,126,245
Combo6 : 255,203,94
Combo7 : 255,108,66
Combo8 : 113,220,255

[HitObjects]
102,160,731,5,2,1:2:0:0:
102,160,884,1,2,1:2:0:0:
252,202,1190,5,2,1:2:0:0:
252,202,1343,1,2,1:2:0:0:
252,202,1496,1,2,1:2:0:0:
404,251,1802,5,2,1:2:0:0:
404,251,1955,1,2,1:2:0:0:
404,251,2108,1,2,1:2:0:0:
506,160,2414,5,2,1:2:0:0:
506,160,2567,1,2,1:2:0:0:
506,160,2720,1,2,1:2:0:0:
435,107,2873,2,1,L|434:26,1,70,10|0,2:0|2:0,2:0:0:0:
359,2,3179,5,2,1:2:0:0:
359,2,3333,1,2,1:2:0:0:
237,62,3639,5,2,1:2:0:0:
237,62,3792,1,2,1:2:0:0:
237,62,3945,1,2,1:2:0:0:
107,121,4251,5,2,1:2:0:0:
107,121,4404,1,2,1:2:0:0:
107,121,4557,1,2,1:2:0:0:
54,233,4863,5,2,1:2:0:0:
54,233,5016,1,2,1:2:0:0:
54,233,5169,1,2,1:2:0:0:
114,287,5322,2,1,L|195:295,1,70,10|0,2:0|2:0,2:0:0:0:
260,364,5628,5,6,1:2:0:0:
260,364,5782,2,1,P|266:286|276:212,1,140,2|2,1:2|1:2,2:0:0:0:
211,176,6241,1,2,1:2:0:0:
211,176,6394,2,1,P|201:107|187:22,1,140,2|2,1:2|1:2,2:0:0:0:
189,37,6776,1,0,3:0:0:0:
189,37,6853,1,2,1:2:0:0:
273,5,7006,2,1,P|287:89|297:161,1,140,2|2,1:2|1:2,2:0:0:0:
294,143,7389,1,0,3:0:0:0:
294,143,7465,1,2,1:3:0:0:
377,161,7618,1,2,1:2:0:0:
454,173,7771,1,10,3:2:0:0:
250,353,8077,5,6,1:2:0:0:
250,353,8231,2,1,P|194:326|100:282,1,140,2|2,1:2|1:2,2:0:0:0:
61,246,8690,1,2,1:2:0:0:
134,213,8843,1,2,1:2:0:0:
209,188,8996,1,10,3:2:0:0:
415,123,9302,5,10,2:0:0:0:
415,123,9455,2,1,L|438:24,1,70,6|2,2:3|1:2,2:0:0:0:
353,211,9761,1,10,2:0:0:0:
353,211,9914,2,1,P|337:164|328:118,1,70,6|2,2:3|1:2,2:0:0:0:
436,221,10220,2,1,P|451:204|475:181,2,35,10|8|10,2:0|2:0|2:0,2:0:0:0:
377,288,10526,6,1,P|375:331|377:374,1,70,6|2,1:2|3:2,2:0:0:0:
179,232,10986,1,2,3:2:0:0:
179,232,11062,1,0,3:0:0:0:
179,232,11139,2,1,P|173:276|165:320,1,70,2|2,1:2|3:2,2:0:0:0:
282,133,11598,1,2,3:2:0:0:
282,133,11674,1,0,3:0:0:0:
282,133,11751,2,1,P|288:177|296:221,1,70,2|2,1:2|3:2,2:0:0:0:
155,32,12210,1,2,3:2:0:0:
155,32,12287,1,0,3:0:0:0:
155,32,12363,2,1,P|149:76|141:120,1,70,2|2,1:2|3:2,2:0:0:0:
76,137,12669,1,10,3:2:0:0:
318,30,12975,5,6,1:2:0:0:
396,18,13128,1,2,3:2:0:0:
428,169,13435,2,1,L|387:179,2,35,2|0|2,3:2|3:0|1:2,2:0:0:0:
507,159,13741,1,2,3:2:0:0:
389,296,14047,1,2,3:2:0:0:
389,296,14123,1,0,3:0:0:0:
389,296,14200,1,2,1:2:0:0:
465,304,14353,1,2,3:2:0:0:
290,208,14659,2,1,L|338:228,2,35,2|0|2,3:2|3:0|1:2,2:0:0:0:
221,171,14965,1,2,3:2:0:0:
151,209,15118,1,10,3:2:0:0:
60,313,15424,5,6,1:2:0:0:
24,242,15577,1,2,3:2:0:0:
173,344,15884,2,1,L|162:382,2,35,2|0|2,3:2|3:0|1:2,2:0:0:0:
241,308,16190,1,2,3:2:0:0:
387,358,16496,1,2,3:2:0:0:
387,358,16572,1,0,3:0:0:0:
387,358,16649,1,2,1:2:0:0:
358,279,16802,1,2,3:2:0:0:
460,127,17108,2,1,L|496:114,2,35,2|0|2,3:2|3:0|1:2,2:0:0:0:
388,157,17414,1,2,3:2:0:0:
328,100,17567,1,10,3:2:0:0:
107,47,17873,5,6,1:2:0:0:
171,94,18026,2,1,P|179:171|195:264,1,140,2|2,3:2|3:2,2:0:0:0:
188,232,18409,1,0,3:0:0:0:
188,232,18486,1,2,1:2:0:0:
213,316,18639,1,2,3:2:0:0:
290,295,18792,1,10,3:2:0:0:
379,219,19098,5,6,3:0:0:0:
379,219,19251,2,1,P|393:136|397:119,1,70,6|10,3:0|3:2,2:0:0:0:
465,126,19557,1,6,1:2:0:0:
466,208,19710,2,1,P|463:229|457:255,2,35,2|4|6,1:2|2:3|3:0,2:0:0:0:
416,313,20016,2,1,P|413:334|407:360,2,35,14|8|10,3:2|2:0|2:0,2:0:0:0:
324,352,20322,5,6,1:2:0:0:
262,304,20475,2,1,P|201:295|109:283,1,140,6|6,2:3|2:3,2:0:0:0:
123,284,20858,1,4,2:3:0:0:
123,284,20935,1,2,1:3:0:0:
46,226,21088,2,1,P|99:208|190:187,1,140,6|6,2:3|2:3,2:0:0:0:
180,188,21470,1,4,2:3:0:0:
180,188,21547,1,2,1:3:0:0:
267,123,21700,2,1,P|212:112|119:92,1,140,6|6,2:3|2:3,2:0:0:0:
129,94,22083,1,4,2:3:0:0:
129,94,22159,1,2,1:3:0:0:
156,23,22312,1,2,1:2:0:0:
235,30,22465,1,10,3:2:0:0:
495,67,22771,5,6,1:2:0:0:
432,112,22924,2,1,P|415:160|385:267,1,140,6|6,2:3|2:3,2:0:0:0:
390,245,23307,1,4,2:3:0:0:
390,245,23384,1,2,1:3:0:0:
483,198,23537,2,1,P|406:179|320:162,1,140,6|6,2:3|2:3,2:0:0:0:
346,166,23919,1,4,2:3:0:0:
346,166,23996,1,2,1:3:0:0:
319,92,24149,2,1,P|303:176|287:254,1,140,6|6,2:3|2:3,2:0:0:0:
292,229,24532,1,4,2:3:0:0:
292,229,24608,1,2,1:3:0:0:
283,313,24761,1,2,1:2:0:0:
347,364,24914,1,10,3:2:0:0:
20,352,25220,5,6,1:2:0:0:
20,352,25373,1,2,3:2:0:0:
118,243,25679,2,1,L|161:248,2,35,2|0|2,3:2|3:0|1:2,2:0:0:0:
43,233,25986,1,2,3:2:0:0:
170,116,26292,2,1,L|127:111,2,35,2|0|2,3:2|3:0|1:2,2:0:0:0:
247,125,26598,1,2,3:2:0:0:
320,229,26904,6,1,L|271:239,2,35,2|0|2,3:2|3:0|1:2,2:0:0:0:
398,209,27210,1,2,1:2:0:0:
475,192,27363,1,10,3:2:0:0:
485,264,29506,5,10,2:0:0:0:
358,301,29659,2,1,P|272:306|199:311,1,140,14|0,2:0|2:0,2:0:0:0:
148,270,30118,5,14,2:0:0:0:
148,270,30271,1,0,1:0:0:0:
77,229,30424,2,1,P|73:180|60:66,1,140,8|8,2:0|2:0,2:0:0:0:
145,85,30884,2,1,P|155:37|165:-15,1,70,2|8,1:2|2:0,2:0:0:0:
240,27,31190,1,2,1:2:0:0:
287,92,31343,6,1,P|303:136|393:124,1,140,14|8,2:0|2:0,2:0:0:0:
242,200,31802,2,1,P|203:205|151:216,1,70,2|8,1:2|2:0,2:0:0:0:
330,241,32108,1,2,1:2:0:0:
330,241,32185,1,0,1:0:0:0:
330,241,32261,2,1,P|356:252|402:269,1,70,8|2,2:0|1:2,2:0:0:0:
469,348,32567,5,14,2:0:0:0:
469,348,32720,1,0,1:0:0:0:
387,349,32873,2,1,P|314:346|226:369,1,140,8|8,2:0|2:0,2:0:0:0:
203,297,33333,2,1,P|148:293|110:282,1,70,0|8,1:0|2:0,2:0:0:0:
75,234,33639,1,0,1:0:0:0:
22,174,33792,6,1,P|32:128|124:114,1,140,12|8,2:0|2:0,2:0:0:0:
194,66,34251,2,1,P|197:117|204:161,1,70,4|10,2:3|2:0,2:0:0:0:
236,219,34557,2,1,L|232:267,2,35,4|4|10,2:3|2:3|2:0,2:0:0:0:
318,176,34863,1,8,2:0:0:0:
318,176,35016,6,1,P|353:169|395:154,1,70,14|0,2:0|1:0,2:0:0:0:
465,149,35322,2,1,P|472:79|484:10,1,140,8|8,2:0|2:0,2:0:0:0:
370,6,35782,2,1,P|386:53|393:86,1,70,2|8,1:2|2:0,2:0:0:0:
285,10,36088,1,2,1:2:0:0:
221,61,36241,6,1,P|174:83|99:38,1,140,14|8,2:0|2:0,2:0:0:0:
95,151,36700,2,1,P|46:132|9:123,1,70,2|8,1:2|2:0,2:0:0:0:
145,234,37006,2,1,P|123:238|97:248,2,35,2|0|8,1:2|1:0|2:0,2:0:0:0:
231,249,37312,1,2,1:2:0:0:
220,168,37465,6,1,L|307:142,1,70,14|0,2:0|1:0,2:0:0:0:
370,118,37771,2,1,B|379:152|379:152|351:276,1,140,8|8,2:0|2:0,2:0:0:0:
460,183,38231,2,1,L|437:278,1,70,0|8,1:0|2:0,2:0:0:0:
424,326,38537,1,0,1:0:0:0:
486,374,38690,6,1,L|318:339,1,140,12|8,2:0|2:0,2:0:0:0:
275,325,39149,1,4,2:3:0:0:
173,287,39302,6,1,P|129:308|99:333,1,70,10|4,2:0|2:3,2:0:0:0:
177,197,39608,2,1,P|116:194|91:184,1,70,10|8,2:0|2:0,2:0:0:0:
0,105,39914,6,1,P|27:97|86:86,1,70,14|0,2:0|1:0,2:0:0:0:
6,195,40220,2,1,P|12:257|17:353,1,140,8|8,2:0|2:0,2:0:0:0:
101,347,40679,2,1,P|101:301|96:258,1,70,2|8,1:2|2:0,2:0:0:0:
98,277,40909,1,0,2:0:0:0:
98,277,40986,1,2,1:2:0:0:
201,295,41139,6,1,P|237:335|319:316,1,140,12|8,2:0|2:0,2:0:0:0:
339,243,41598,2,1,P|295:222|253:210,1,70,2|8,1:2|2:0,2:0:0:0:
178,201,41904,2,1,P|150:208|130:217,2,35,2|0|8,1:2|1:0|2:0,2:0:0:0:
219,118,42210,1,2,1:2:0:0:
308,112,42363,6,1,P|341:102|383:88,1,70,14|0,2:0|1:0,2:0:0:0:
459,69,42669,2,1,P|405:53|303:15,1,140,8|8,2:0|2:0,2:0:0:0:
450,152,43128,2,1,P|438:190|428:233,1,70,0|8,1:0|2:0,2:0:0:0:
430,219,43435,1,0,1:0:0:0:
506,307,43588,6,1,P|456:316|341:342,1,140,12|8,2:0|2:0,2:0:0:0:
278,239,44047,2,1,P|325:251|349:257,1,70,4|10,2:3|2:0,2:0:0:0:
240,316,44353,2,1,P|262:335|288:360,2,35,4|4|10,2:3|2:3|2:0,2:0:0:0:
163,350,44659,1,8,2:0:0:0:
130,273,44812,6,1,P|112:240|89:206,1,70,14|0,2:0|1:0,2:0:0:0:
0,243,45118,2,1,P|13:205|40:96,1,140,8|8,2:0|2:0,2:0:0:0:
178,158,45577,2,1,P|132:135|103:120,1,70,2|8,1:2|2:0,2:0:0:0:
250,120,45884,1,2,1:2:0:0:
270,199,46037,6,1,P|304:233|379:186,1,140,14|8,2:0|2:0,2:0:0:0:
196,243,46496,2,1,P|209:288|211:323,1,70,2|8,1:2|2:0,2:0:0:0:
289,336,46802,2,1,P|284:355|279:373,2,35,2|0|8,1:2|1:0|2:0,2:0:0:0:
366,310,47108,1,2,1:2:0:0:
443,330,47261,6,1,L|521:320,1,70,14|0,2:0|1:0,2:0:0:0:
504,228,47567,2,1,B|495:131|495:131|442:87,1,140,8|8,2:0|2:0,2:0:0:0:
371,43,48026,2,1,L|380:136,1,70,0|8,1:0|2:0,2:0:0:0:
420,183,48333,1,0,1:0:0:0:
336,191,48486,6,1,P|285:181|246:173,1,70,12|0,2:0|1:0,2:0:0:0:
192,208,48792,2,1,P|152:196|115:186,1,70,8|4,2:0|2:3,2:0:0:0:
124,188,49021,1,4,2:3:0:0:
124,188,49098,1,10,2:0:0:0:
99,117,49251,1,6,2:3:0:0:
21,106,49404,1,10,2:0:0:0:
0,191,49557,6,1,P|56:235|52:354,1,168,6|0,1:2|1:0,2:0:0:0:
147,369,50016,1,10,2:0:0:0:
288,292,50322,5,2,1:3:0:0:
375,255,50475,1,2,1:2:0:0:
298,205,50628,1,10,2:0:0:0:
288,284,50782,2,1,P|296:223|312:90,1,168,2|0,1:2|1:0,2:0:0:0:
324,40,51241,1,10,2:0:0:0:
232,27,51394,2,1,P|189:83|96:108,1,168,2|0,2:0|1:0,2:0:0:0:
15,174,51853,1,10,2:0:0:0:
44,48,52006,6,1,P|91:129|131:226,1,168,2|0,1:3|1:0,2:0:0:0:
184,278,52465,1,10,2:0:0:0:
377,355,52771,5,2,1:3:0:0:
329,294,52924,1,2,1:2:0:0:
380,215,53077,1,10,2:0:0:0:
302,137,53231,2,1,B|282:182|282:182|324:323,1,168,6|0,1:2|1:0,2:0:0:0:
386,197,53690,6,1,L|403:92,1,84,10|6,2:0|2:3,2:0:0:0:
362,18,53996,2,1,L|254:4,1,84,2|2,1:3|1:2,2:0:0:0:
144,92,54302,1,10,2:0:0:0:
166,7,54455,6,1,B|183:35|183:35|185:208,1,168,2|0,1:3|1:0,2:0:0:0:
264,226,54914,1,10,2:0:0:0:
415,161,55220,5,2,1:3:0:0:
455,68,55373,1,2,1:2:0:0:
418,150,55526,1,10,2:0:0:0:
504,141,55679,2,1,L|341:83,1,168,6|0,1:2|1:0,2:0:0:0:
258,46,56139,1,10,2:0:0:0:
161,17,56292,1,2,2:0:0:0:
146,237,56598,6,1,L|164:347,1,84,0|10,1:0|2:0,2:0:0:0:
56,267,56904,1,2,1:3:0:0:
113,135,57057,6,1,B|216:129|216:129|279:187,1,168,6|10,1:2|2:0,2:0:0:0:
425,239,57516,2,1,L|220:277,1,168,6|0,2:3|1:0,2:0:0:0:
356,73,57975,2,1,L|351:174,1,84,10|0,2:0|1:0,2:0:0:0:
345,294,58282,6,1,L|340:361,2,42,6|4|4,2:3|2:3|2:3,2:0:0:0:
268,370,58588,1,0,1:0:0:0:
195,339,58741,2,1,L|130:324,2,42,6|4|4,2:3|2:3|2:3,2:0:0:0:
108,267,59047,1,0,1:0:0:0:
163,205,59200,1,14,2:0:0:0:
163,205,59276,1,8,2:0:0:0:
163,205,59353,1,8,2:0:0:0:
160,121,59506,6,1,P|203:114|232:110,1,70,6|2,1:2|1:2,2:0:0:0:
387,176,59965,1,2,3:2:0:0:
387,176,60042,1,0,3:0:0:0:
387,176,60118,2,1,P|439:164|482:158,1,70,2|2,1:2|1:2,2:0:0:0:
309,296,60577,1,2,3:2:0:0:
309,296,60654,1,0,3:0:0:0:
309,296,60731,2,1,P|361:306|404:314,1,70,2|2,1:2|1:2,2:0:0:0:
94,300,61190,1,2,3:2:0:0:
94,300,61266,1,0,3:0:0:0:
94,300,61343,2,1,P|142:291|189:282,1,70,2|2,1:2|1:2,2:0:0:0:
223,232,61649,1,10,2:0:0:0:
141,94,61955,5,6,1:2:0:0:
63,82,62108,1,2,1:2:0:0:
259,27,62414,2,1,L|218:37,2,35,2|0|2,3:2|3:0|1:2,2:0:0:0:
338,47,62720,1,2,1:2:0:0:
496,108,63026,1,2,3:2:0:0:
496,108,63103,1,0,3:0:0:0:
496,108,63179,1,2,1:2:0:0:
416,120,63333,1,2,1:2:0:0:
329,255,63639,2,1,L|377:235,2,35,2|0|2,3:2|3:0|1:2,2:0:0:0:
260,292,63945,1,2,1:2:0:0:
190,254,64098,1,10,2:0:0:0:
1,165,64404,5,6,1:2:0:0:
24,242,64557,1,2,1:2:0:0:
140,103,64863,2,1,L|129:141,2,35,2|0|2,3:2|3:0|1:2,2:0:0:0:
161,29,65169,1,2,1:2:0:0:
307,138,65475,1,2,3:2:0:0:
307,138,65552,1,0,3:0:0:0:
307,138,65628,1,2,1:2:0:0:
336,214,65782,1,2,1:2:0:0:
180,344,66088,2,1,L|193:380,2,35,2|0|2,3:2|3:0|1:2,2:0:0:0:
150,272,66394,1,2,1:2:0:0:
150,272,66470,1,0,2:0:0:0:
150,272,66547,1,10,2:0:0:0:
65,158,66853,5,6,1:2:0:0:
129,112,67006,2,1,L|184:91,2,35,2|4|10,1:2|3:0|3:2,2:0:0:0:
229,145,67312,2,1,P|266:128|322:111,1,70,6|6,3:0|3:0,2:0:0:0:
356,61,67618,1,10,3:2:0:0:
414,118,67771,2,1,P|463:113|499:107,1,70,6|2,1:2|1:2,2:0:0:0:
418,207,68077,5,14,3:2:0:0:
345,239,68231,2,1,P|325:253|301:273,2,35,6|4|2,3:0|3:0|1:2,2:0:0:0:
243,293,68537,1,14,3:2:0:0:
308,340,68690,2,1,P|350:354|382:367,1,70,2|10,1:2|1:2,2:0:0:0:
214,375,68996,5,14,3:2:0:0:
214,375,69072,1,8,3:2:0:0:
214,375,69149,1,10,3:2:0:0:
133,335,69302,5,6,1:2:0:0:
133,335,69608,2,1,P|115:274|108:228,1,84,2|10,1:3|2:0,2:0:0:0:
30,235,69914,1,0,1:0:0:0:
89,176,70067,2,1,P|101:124|120:74,1,84,10|2,2:0|1:3,2:0:0:0:
105,16,70373,1,10,2:0:0:0:
189,42,70526,5,2,1:2:0:0:
189,42,70833,1,2,1:3:0:0:
241,104,70986,2,1,P|249:172|254:228,1,84,10|0,2:0|1:0,2:0:0:0:
327,136,71292,1,10,2:0:0:0:
327,136,71445,2,1,P|339:81|354:22,1,84,2|10,1:3|2:0,2:0:0:0:
398,199,71751,6,1,P|351:220|318:355,1,168,6|2,1:2|1:3,2:0:0:0:
138,324,72363,1,0,1:0:0:0:
138,324,72516,2,1,P|108:284|63:241,1,84,8|2,2:0|1:3,2:0:0:0:
84,259,72822,1,8,2:0:0:0:
68,171,72975,6,1,P|146:155|243:123,1,168,4|2,1:2|1:3,2:0:0:0:
308,83,73435,2,1,P|322:44|347:-7,1,84,4|8,2:3|2:0,2:0:0:0:
403,106,73741,1,4,2:3:0:0:
403,106,73894,2,1,P|441:99|476:100,2,42,10|8|8,2:0|1:2|1:2,2:0:0:0:
459,182,74200,6,1,P|436:255|413:364,1,168,6|2,1:2|1:3,2:0:0:0:
318,227,74659,2,1,P|334:282|341:331,1,84,10|0,2:0|1:0,2:0:0:0:
212,299,74965,2,1,P|254:341|282:378,1,84,10|2,2:0|1:3,2:0:0:0:
269,360,75195,1,0,2:0:0:0:
269,360,75271,1,10,2:0:0:0:
171,378,75424,6,1,P|178:330|68:270,1,168,2|2,1:2|1:3,2:0:0:0:
134,174,75884,2,1,P|85:165|36:138,1,84,10|0,2:0|1:0,2:0:0:0:
223,195,76190,2,1,P|253:133|291:102,1,84,10|2,2:0|1:3,2:0:0:0:
262,122,76419,1,0,1:0:0:0:
262,122,76496,1,10,2:0:0:0:
326,56,76649,6,1,L|420:49,1,84,6|8,1:2|2:0,2:0:0:0:
493,107,76955,2,1,B|452:129|452:129|428:288,1,168,2|0,1:3|1:0,2:0:0:0:
352,144,77414,2,1,L|338:264,1,84,8|2,2:0|1:3,2:0:0:0:
342,227,77720,1,8,2:0:0:0:
300,316,77873,6,1,B|260:284|260:284|114:270,1,168,4|2,1:2|2:3,2:0:0:0:
201,187,78333,2,1,L|90:177,1,84,12|0,2:0|1:0,2:0:0:0:
70,102,78639,2,1,L|20:95,2,42,4|4|10,2:3|2:3|2:0,2:0:0:0:
115,31,78945,1,8,2:0:0:0:
167,97,79098,6,1,L|281:106,1,84,14|0,2:0|1:0,2:0:0:0:
323,39,79404,2,1,B|349:74|349:74|357:215,1,168,10|8,2:0|2:0,2:0:0:0:
506,267,79863,2,1,L|407:264,1,84,2|10,1:2|2:0,2:0:0:0:
340,338,80169,1,2,1:2:0:0:
288,265,80322,6,1,B|179:264|179:264|126:228,1,168,10|10,2:0|2:0,2:0:0:0:
38,245,80782,2,1,L|28:302,2,42,2|0|8,1:2|2:0|2:0,2:0:0:0:
34,160,81088,1,2,1:2:0:0:
122,136,81241,2,1,B|156:130|156:130|214:161,1,84,10|2,2:0|1:2,2:0:0:0:
287,158,81547,6,1,L|301:41,1,84,14|0,2:0|1:0,2:0:0:0:
405,152,81853,2,1,B|370:176|370:176|346:328,1,168,10|8,2:0|2:0,2:0:0:0:
457,235,82312,2,1,L|444:344,1,84,0|10,1:0|2:0,2:0:0:0:
447,318,82618,1,0,1:0:0:0:
379,382,82771,6,1,B|357:331|357:331|220:302,1,168,12|10,2:0|2:0,2:0:0:0:
155,376,83231,1,4,2:3:0:0:
155,376,83307,1,4,2:3:0:0:
155,376,83384,1,8,2:0:0:0:
79,332,83537,1,4,2:3:0:0:
8,300,83690,1,10,2:0:0:0:
59,146,83996,6,1,L|254:131,1,168,14|10,2:0|2:0,2:0:0:0:
300,62,84455,2,1,L|418:72,1,84,2|8,1:2|2:0,2:0:0:0:
436,161,84761,2,1,B|316:149|316:149|278:211,1,168,2|2,1:2|1:2,2:0:0:0:
190,233,85220,6,1,B|227:247|227:247|243:336|243:336|205:376,1,168,10|10,2:0|2:0,2:0:0:0:
331,364,85679,2,1,L|379:371,2,42,2|0|8,1:2|2:0|2:0,2:0:0:0:
315,280,85986,2,1,L|414:265,1,84,2|10,1:2|2:0,2:0:0:0:
477,254,86292,1,2,1:2:0:0:
493,171,86445,6,1,L|395:156,1,84,14|0,2:0|1:0,2:0:0:0:
360,77,86751,1,10,2:0:0:0:
119,213,87057,5,8,2:0:0:0:
182,142,87210,2,1,L|265:151,1,84,0|10,1:0|2:0,2:0:0:0:
404,321,87669,6,1,L|296:297,1,84,12|0,2:0|1:0,2:0:0:0:
236,355,87975,2,1,L|149:331,1,84,10|4,2:0|2:3,2:0:0:0:
63,332,88282,5,8,2:0:0:0:
0,215,88486,1,0,3:0:0:0:
28,87,88690,1,4,3:0:0:0:
149,41,88894,1,6,1:2:0:0:
156,53,89200,5,2,1:3:0:0:
180,140,89353,1,8,2:0:0:0:
372,168,89659,5,2,1:2:0:0:
372,168,89812,1,2,1:3:0:0:
347,262,89965,1,10,2:0:0:0:
408,329,90118,2,1,P|372:293|184:282,1,210,6|2,1:2|1:3,2:0:0:0:
117,273,90577,1,8,2:0:0:0:
51,180,90730,2,1,P|150:188|281:173,1,210,2|2,2:3|1:3,2:0:0:0:
357,175,91189,1,8,2:0:0:0:
402,99,91342,5,6,1:2:0:0:
402,99,91649,1,2,1:3:0:0:
495,79,91802,1,8,2:0:0:0:
234,27,92108,5,2,1:2:0:0:
157,94,92261,1,2,1:3:0:0:
76,59,92414,1,10,2:0:0:0:
140,0,92567,2,1,B|156:51|156:51|156:108|156:108|193:199|193:199|195:239|195:239|236:331,1,315,6|8,1:2|2:0,2:0:0:0:
456,235,93332,5,0,1:0:0:0:
364,233,93485,1,2,1:3:0:0:
457,220,93638,1,8,2:0:0:0:
372,248,93791,6,1,P|451:232|419:116,1,210,6|2,1:2|1:3,2:0:0:0:
348,81,94251,1,8,2:0:0:0:
213,234,94557,5,2,1:2:0:0:
129,269,94710,1,2,1:3:0:0:
68,203,94863,1,10,2:0:0:0:
3,261,95016,2,1,P|100:287|151:384,1,210,6|2,1:2|1:3,2:0:0:0:
240,334,95475,1,8,2:0:0:0:
337,370,95628,2,1,P|361:295|514:292,1,210,2|2,1:3|1:3,2:0:0:0:
489,166,96087,1,10,2:0:0:0:
407,112,96240,1,2,1:3:0:0:
407,112,96317,1,0,2:0:0:0:
407,112,96393,6,1,P|292:122|169:112,1,210,2|8,1:3|2:0,2:0:0:0:
174,234,96853,1,2,2:0:0:0:
79,265,97006,2,1,P|41:207|7:161,1,105,8|6,2:0|1:2,2:0:0:0:
6,73,97312,1,10,2:0:0:0:
118,106,97465,1,0,3:0:0:0:
118,106,97541,1,0,3:0:0:0:
118,106,97618,6,1,P|177:136|225:162,1,105,14|0,2:0|1:0,2:0:0:0:
302,220,97924,1,0,1:0:0:0:
286,331,98077,2,1,P|298:268|314:216,1,105,12|4,2:0|2:3,2:0:0:0:
370,151,98383,1,0,1:0:0:0:
480,189,98536,2,1,P|424:174|341:159,1,105,4|4,1:3|1:3,2:0:0:0:
227,131,98842,6,1,P|277:124|267:8,1,182,6|10,1:2|3:2,2:0:0:0:
200,116,99302,2,1,P|214:182|223:240,1,91,2|2,3:2|1:3,2:0:0:0:
89,227,99608,2,1,P|138:283|158:321,1,91,2|10,3:2|3:2,2:0:0:0:
60,360,99914,1,2,3:2:0:0:
60,360,99990,1,0,3:0:0:0:
60,360,100067,6,1,P|124:337|260:319,1,182,6|10,1:2|3:2,2:0:0:0:
310,240,100526,2,1,P|349:280|382:331,1,91,2|2,3:2|1:3,2:0:0:0:
421,162,100832,2,1,P|440:222|452:278,1,91,2|10,3:2|3:2,2:0:0:0:
494,85,101138,1,2,3:2:0:0:
494,85,101215,1,0,3:0:0:0:
494,85,101291,6,1,P|422:123|331:74,1,182,6|10,1:2|3:2,2:0:0:0:
336,82,101674,1,0,3:0:0:0:
336,82,101751,1,2,3:2:0:0:
277,147,101904,2,1,P|252:109|226:73,1,91,2|0,1:3|3:0,2:0:0:0:
114,147,102210,2,1,P|161:168|204:203,1,91,10|0,3:2|3:0,2:0:0:0:
1,74,102516,6,1,P|14:164|26:283,2,182,6|10|2,1:2|3:2|1:3,2:0:0:0:
81,24,103281,1,2,3:0:0:0:
81,24,103358,1,0,3:0:0:0:
81,24,103434,1,14,3:2:0:0:
304,44,103740,6,1,P|241:68|225:188,1,182,6|10,1:2|3:2,2:0:0:0:
401,164,104200,2,1,P|331:197|296:208,1,91,2|2,3:2|1:3,2:0:0:0:
332,325,104506,2,1,P|269:295|243:272,1,91,2|10,3:2|3:2,2:0:0:0:
161,249,104812,1,2,3:2:0:0:
104,341,104965,6,1,P|64:287|-22:212,1,182,6|10,1:2|3:2,2:0:0:0:
107,164,105424,1,0,3:0:0:0:
107,164,105501,1,0,3:0:0:0:
107,164,105577,2,1,P|147:110|233:35,1,182,2|10,1:3|3:2,2:0:0:0:
346,138,106036,1,0,3:0:0:0:
346,138,106113,1,0,3:0:0:0:
346,138,106189,6,1,P|366:207|410:340,1,182,6|10,1:2|3:2,2:0:0:0:
451,172,106649,2,1,P|373:232|291:302,1,182,0|0,3:0|3:0,2:0:0:0:
485,260,107108,1,10,3:2:0:0:
212,201,107414,5,14,3:2:0:0:
211,292,107567,2,1,L|194:348,2,45.5,4|4|2,3:0|3:0|1:3,2:0:0:0:
118,283,107873,2,1,B|132:222|132:222|99:167,1,91,14|6,3:2|3:0,2:0:0:0:
101,117,108179,1,0,1:0:0:0:
101,117,108256,1,0,1:0:0:0:
101,117,108332,2,1,L|34:103,2,45.5,14|8|8,3:2|3:2|3:2,2:0:0:0:
173,25,108638,6,1,P|188:100|291:79,1,182,6|10,1:2|3:2,2:0:0:0:
394,159,109098,2,1,P|382:101|384:58,1,91,2|2,3:2|1:3,2:0:0:0:
357,262,109404,2,1,P|318:226|277:200,1,91,2|10,3:2|3:2,2:0:0:0:
479,260,109710,1,2,3:2:0:0:
479,260,109786,1,0,3:0:0:0:
479,260,109863,6,1,P|423:264|380:373,1,182,6|10,1:2|3:2,2:0:0:0:
211,309,110322,2,1,P|262:339|299:379,1,91,2|2,3:2|1:3,2:0:0:0:
98,243,110628,2,1,P|160:225|209:203,1,91,2|10,3:2|3:2,2:0:0:0:
0,195,110934,1,2,3:2:0:0:
0,195,111011,1,2,3:2:0:0:
0,195,111087,6,1,P|56:149|158:60,1,182,6|10,1:2|3:2,2:0:0:0:
332,132,111547,1,0,3:0:0:0:
332,132,111623,1,0,3:0:0:0:
332,132,111700,2,1,P|275:91|193:-6,1,182,2|10,1:3|3:2,2:0:0:0:
482,122,112159,1,0,3:0:0:0:
482,122,112235,1,0,3:0:0:0:
482,122,112312,6,1,P|409:120|394:227,2,182,6|10|2,1:2|3:2|1:3,2:0:0:0:
344,280,113077,1,2,3:0:0:0:
123,295,113383,5,2,3:2:0:0:
123,295,113460,1,2,3:2:0:0:
123,295,113536,2,1,P|198:285|190:192,1,182,6|10,1:2|3:2,2:0:0:0:
40,236,113995,2,1,P|73:198|89:138,1,91,2|2,3:2|1:3,2:0:0:0:
232,111,114302,2,1,P|178:100|135:80,1,91,2|10,3:2|3:2,2:0:0:0:
236,2,114608,1,2,3:2:0:0:
236,2,114684,1,0,3:0:0:0:
236,2,114761,6,1,P|264:82|317:192,1,182,6|10,1:2|3:2,2:0:0:0:
433,73,115220,1,0,3:0:0:0:
433,73,115297,1,0,3:0:0:0:
433,73,115373,2,1,P|401:153|385:192,1,91,2|0,1:3|3:0,2:0:0:0:
363,247,115679,1,10,3:2:0:0:
224,357,115985,6,1,P|127:312|30:276,1,182,6|10,1:2|3:2,2:0:0:0:
186,236,116444,2,1,P|145:199|48:111,1,182,2|2,3:0|3:0,2:0:0:0:
209,119,116904,2,1,P|186:47|176:11,1,91,14|0,3:2|1:0,2:0:0:0:
269,11,117210,5,14,3:2:0:0:
395,59,117414,1,0,2:0:0:0:
430,191,117618,1,0,2:0:0:0:
388,313,117822,1,6,3:0:0:0:
372,329,118281,5,8,3:2:0:0:
372,329,118358,1,8,3:2:0:0:
372,329,118434,2,1,P|315:319|262:300,1,84,6|2,1:2|1:2,2:0:0:0:
68,222,118893,5,2,1:2:0:0:
158,200,119047,2,1,P|204:187|246:177,1,84,2|2,1:2|1:2,2:0:0:0:
429,88,119506,5,2,1:2:0:0:
339,66,119659,2,1,P|293:53|251:43,1,84,2|2,1:2|1:2,2:0:0:0:
53,29,120118,5,2,1:2:0:0:
51,105,120271,1,2,1:2:0:0:
129,104,120424,1,2,1:2:0:0:
129,28,120577,1,10,3:2:0:0:
212,194,120883,5,6,1:2:0:0:
224,270,121036,1,2,1:2:0:0:
358,183,121342,5,2,1:2:0:0:
367,261,121495,1,2,1:2:0:0:
379,339,121649,1,2,1:2:0:0:
222,198,121955,5,2,1:2:0:0:
231,276,122108,1,2,1:2:0:0:
243,354,122261,1,2,1:2:0:0:
368,179,122567,5,2,1:2:0:0:
372,254,122720,1,2,1:2:0:0:
450,247,122873,1,2,1:2:0:0:
443,171,123026,1,10,3:2:0:0:
377,49,123332,5,6,1:2:0:0:
377,49,123485,1,2,1:2:0:0:
252,70,123791,5,2,1:2:0:0:
252,70,123944,1,2,1:2:0:0:
252,70,124098,1,2,1:2:0:0:
136,92,124404,5,2,1:2:0:0:
136,92,124557,1,2,1:2:0:0:
136,92,124710,1,2,1:2:0:0:
41,194,125016,5,2,1:2:0:0:
45,269,125169,1,2,1:2:0:0:
123,262,125322,1,2,1:2:0:0:
116,186,125475,1,10,3:2:0:0:
272,311,125781,6,1,P|231:323|190:329,1,84,14|2,3:2|1:2,2:0:0:0:
326,252,126087,1,2,1:2:0:0:
360,323,126240,2,1,P|403:362|448:390,1,84,14|2,3:2|1:2,2:0:0:0:
326,238,126547,1,2,1:2:0:0:
247,225,126700,2,1,P|198:230|130:229,1,84,14|2,3:2|1:2,2:0:0:0:
297,153,127006,1,2,1:2:0:0:
377,159,127159,2,1,P|435:140|480:117,2,84,14|2|2,3:2|1:2|1:2,2:0:0:0:
311,63,127618,5,10,3:2:0:0:
171,44,127822,1,6,2:3:0:0:
68,131,128026,1,6,2:3:0:0:
87,259,128230,1,6,1:2:0:0:
256,192,128383,12,6,130066,1:2:0:0:
389,115,130678,5,6,1:2:0:0:
160,212,131903,6,1,L|147:142,2,46.6666666666667,6|4|6,2:3|2:3|2:3,2:0:0:0:
240,227,132209,2,1,L|258:305,2,46.6666666666667,0|6|4,1:0|2:3|2:3,2:0:0:0:
296,171,132515,1,14,2:0:0:0:
496,362,133127,1,6,1:2:0:0:
256,192,133281,12,4,134964,1:2:0:0:
110,99,135576,5,4,1:2:0:0:
250,356,136801,1,0,2:0:0:0:
338,184,137260,1,6,2:3:0:0:
338,184,137337,1,4,2:3:0:0:
338,184,137413,6,1,L|353:67,1,93.3333333333333,10|4,2:0|2:3,2:0:0:0:
227,40,137821,1,4,2:3:0:0:
108,81,138025,6,1,L|145:387,1,280,6|2,1:2|2:3,2:0:0:0:
324,348,138944,2,1,L|337:248,1,70,2|0,1:2|2:0,2:0:0:0:
345,202,139250,1,10,2:0:0:0:
198,127,139556,1,2,2:0:0:0:
429,88,139862,2,1,L|454:248,1,140,6|0,1:2|2:0,2:0:0:0:
327,19,140474,6,1,P|274:88|93:49,1,280,6|2,1:2|2:3,2:0:0:0:
20,214,141393,1,2,1:2:0:0:
20,214,141699,2,1,P|76:233|126:310,1,140,8|0,2:0|2:0,2:0:0:0:
277,379,142311,2,1,B|288:333|288:333|322:306|322:306|344:175,1,210,6|0,1:2|2:0,2:0:0:0:
412,144,142923,5,6,1:2:0:0:
412,144,143536,2,1,L|258:120,1,140,2|2,2:3|1:2,2:0:0:0:
246,22,144148,2,1,B|195:50|195:50|173:217|173:217|109:256,1,280,10|6,2:0|1:2,2:0:0:0:
130,245,145066,1,0,2:0:0:0:
238,335,145372,6,1,B|273:363|273:363|353:346|353:346|374:304|374:304|443:284|443:284|485:312,1,280,6|0,1:2|2:0,2:0:0:0:
471,107,146597,2,1,B|428:120|428:120|412:142|412:142|375:152|375:152|353:183|353:183|285:202|285:202|268:228|268:228|219:240,1,280,6|6,2:3|2:3,2:0:0:0:
49,82,147821,5,2,1:2:0:0:
49,82,147974,1,2,1:2:0:0:
49,82,148434,5,2,1:2:0:0:
49,82,148587,1,2,1:2:0:0:
49,82,149046,5,2,1:2:0:0:
49,82,149199,1,2,1:2:0:0:
171,376,150425,6,1,L|184:288,1,84,14|2,3:2|1:2,2:0:0:0:
262,384,150731,2,1,B|284:260|284:260|333:212,1,168,10|10,3:2|3:2,2:0:0:0:
254,163,151190,2,1,B|215:200|215:200|168:202,1,84,2|10,1:2|3:2,2:0:0:0:
107,251,151496,1,2,1:2:0:0:
57,163,151649,6,1,P|109:147|57:56,1,168,10|10,3:2|3:2,2:0:0:0:
219,6,152108,2,1,L|205:109,1,84,2|10,1:2|3:2,2:0:0:0:
315,21,152414,1,2,1:2:0:0:
315,21,152491,1,0,1:0:0:0:
315,21,152567,2,1,L|302:124,1,84,10|2,3:2|1:2,2:0:0:0:
411,147,152873,6,1,B|383:165|383:165|363:243,1,84,14|2,3:2|1:2,2:0:0:0:
285,244,153180,2,1,P|369:275|359:360,1,168,10|10,3:2|3:2,2:0:0:0:
274,361,153639,2,1,L|178:350,1,84,2|10,1:2|3:2,2:0:0:0:
89,368,153945,1,2,1:2:0:0:
28,284,154098,6,1,B|150:262|150:262|181:204,1,168,10|10,3:2|3:2,2:0:0:0:
169,134,154557,2,1,B|109:147|109:147|86:185,1,84,6|10,2:3|3:2,2:0:0:0:
251,175,154863,1,6,2:3:0:0:
251,175,154940,1,4,2:3:0:0:
251,175,155016,2,1,L|363:165,1,84,10|10,3:2|2:0,2:0:0:0:
439,114,155322,6,1,L|441:213,1,84,14|2,3:2|1:2,2:0:0:0:
499,44,155629,2,1,B|377:86|377:86|316:58,1,168,10|10,3:2|3:2,2:0:0:0:
203,43,156088,2,1,B|215:16|215:16|290:-3,1,84,2|10,1:2|3:2,2:0:0:0:
94,38,156394,1,2,1:2:0:0:
144,113,156547,6,1,L|158:283,1,168,10|10,3:2|3:2,2:0:0:0:
46,212,157006,2,1,L|142:206,1,84,2|10,1:2|3:2,2:0:0:0:
237,194,157312,1,2,1:2:0:0:
237,194,157389,1,0,1:0:0:0:
237,194,157465,2,1,B|243:258|243:258|285:294,1,84,10|2,3:2|1:2,2:0:0:0:
347,336,157771,6,1,L|357:229,1,84,14|2,3:2|1:2,2:0:0:0:
441,325,158078,2,1,B|451:208|451:208|391:161,1,168,10|10,3:2|3:2,2:0:0:0:
335,81,158537,2,1,L|329:186,1,84,2|10,1:2|3:2,2:0:0:0:
237,82,158843,1,2,1:2:0:0:
237,82,158919,1,0,2:0:0:0:
237,82,158996,6,1,L|123:71,1,84,14|2,3:2|1:2,2:0:0:0:
105,159,159302,2,1,L|17:138,1,84,10|6,3:2|2:3,2:0:0:0:
179,250,159608,2,1,L|71:270,1,84,10|4,3:2|2:3,2:0:0:0:
250,312,159914,1,10,3:2:0:0:
250,312,159991,1,8,2:0:0:0:
250,312,160067,1,14,2:0:0:0:
325,277,160220,6,1,B|360:243|360:243|485:241,1,168,6|2,1:2|1:3,2:0:0:0:
509,156,160680,1,10,3:2:0:0:
440,92,160833,2,1,L|346:77,1,84,2|10,1:3|3:2,2:0:0:0:
260,103,161139,2,1,L|245:49,2,42,2|6|10,1:3|3:0|3:2,2:0:0:0:
187,158,161445,6,1,L|197:248,1,84,2|10,1:3|3:2,2:0:0:0:
109,276,161751,1,2,1:3:0:0:
109,276,161828,1,6,3:0:0:0:
109,276,161904,2,1,L|116:371,2,84,10|2|10,3:2|1:3|3:2,2:0:0:0:
25,224,162363,2,1,L|8:287,2,42,2|6|10,1:3|3:0|3:2,2:0:0:0:
27,134,162669,6,1,B|63:94|63:94|204:66,1,168,2|2,1:3|1:3,2:0:0:0:
250,19,163129,2,1,L|308:6,2,42,10|6|2,3:2|3:0|1:3,2:0:0:0:
270,114,163435,1,10,3:2:0:0:
353,81,163588,2,1,L|440:73,1,84,2|10,1:3|3:2,2:0:0:0:
489,155,163894,2,1,B|427:164|427:164|402:198,1,84,2|10,1:3|3:2,2:0:0:0:
350,250,164200,2,1,L|300:248,2,42,2|6|10,1:3|3:0|3:2,2:0:0:0:
419,315,164506,2,1,B|481:306|481:306|506:272,1,84,2|10,1:3|3:2,2:0:0:0:
343,353,164812,1,10,3:2:0:0:
252,333,164965,1,10,3:2:0:0:
164,310,165118,6,1,B|142:198|142:198|179:130,2,168,6|4|0,1:2|3:0|1:0,2:0:0:0:
78,345,165884,1,10,2:0:0:0:
52,259,166037,2,1,L|38:206,2,42,6|4|10,3:0|2:3|2:0,2:0:0:0:
18,139,166343,6,1,B|37:105|37:105|126:71,2,126,2|6|10,1:2|2:3|2:0,2:0:0:0:
40,14,166955,2,1,L|224:32,1,168,0|0,1:0|1:0,2:0:0:0:
223,109,167414,1,10,2:0:0:0:
297,52,167567,6,1,L|311:145,1,84,6|10,1:2|3:2,2:0:0:0:
309,135,167797,1,0,3:0:0:0:
309,135,167873,1,2,1:3:0:0:
395,151,168027,2,1,L|384:240,1,84,10|2,3:2|1:3,2:0:0:0:
295,223,168333,1,10,3:2:0:0:
318,297,168486,2,1,L|336:379,1,84,2|10,1:3|3:2,2:0:0:0:
227,356,168792,6,1,L|155:336,2,42,6|0|10,1:2|3:0|3:2,2:0:0:0:
172,267,169098,1,2,1:3:0:0:
172,267,169175,1,2,1:2:0:0:
172,267,169251,2,1,L|101:278,2,42,10|6|6,3:2|3:0|1:2,2:0:0:0:
108,199,169557,1,10,3:2:0:0:
108,199,169634,1,6,3:0:0:0:
108,199,169710,2,1,L|27:190,2,42,10|10|10,3:2|3:2|3:2,2:0:0:0:
169,145,170016,6,1,L|252:131,2,84,6|6|14,1:3|2:3|3:2,2:0:0:0:
215,43,170476,2,1,L|316:50,2,84,6|6|6,2:3|1:3|2:3,2:0:0:0:
355,121,170935,1,14,3:2:0:0:
486,241,171241,6,1,L|403:255,2,84,6|6|14,1:3|1:3|3:2,2:0:0:0:
440,343,171700,2,1,L|339:336,2,84,6|6|6,1:3|1:3|1:3,2:0:0:0:
300,265,172159,1,14,3:2:0:0:
235,330,172312,1,6,1:3:0:0:
235,330,172389,1,6,2:3:0:0:
235,330,172465,6,1,L|135:346,2,84,6|6|14,1:3|2:3|3:2,2:0:0:0:
46,275,172925,2,1,L|152:254,2,84,6|6|6,2:3|1:3|2:3,2:0:0:0:
186,185,173384,1,14,3:2:0:0:
339,43,173690,6,1,L|346:158,2,84,6|6|14,1:3|1:3|3:2,2:0:0:0:
425,78,174149,2,1,B|430:143|430:143|455:180,2,84,6|6|6,1:3|1:3|1:3,2:0:0:0:
364,217,174608,1,14,3:2:0:0:
364,217,174685,1,0,2:0:0:0:
364,217,174761,1,6,1:3:0:0:
428,280,174914,6,1,B|384:304|384:304|349:354,2,84,6|6|14,1:3|2:3|3:2,2:0:0:0:
285,256,175373,2,1,B|288:290|288:290|256:349,2,84,6|6|6,2:3|1:3|2:3,2:0:0:0:
188,351,175833,1,14,3:2:0:0:
110,333,175986,1,6,1:3:0:0:
50,281,176139,6,1,B|35:170,2,84,6|6|14,1:3|1:3|3:2,2:0:0:0:
128,229,176598,2,1,B|121:174|121:174|146:128,2,84,6|6|6,1:3|1:3|1:3,2:0:0:0:
56,108,177057,1,14,3:2:0:0:
56,108,177134,1,0,2:0:0:0:
56,108,177210,1,6,1:3:0:0:
132,52,177363,6,1,L|221:46,2,84,6|6|14,1:3|2:3|3:2,2:0:0:0:
313,143,177822,2,1,L|213:128,2,84,6|6|6,2:3|1:3|2:3,2:0:0:0:
467,95,178282,1,14,2:0:0:0:
377,74,178435,1,6,1:3:0:0:
401,172,178588,6,1,L|394:275,1,84,6|6,1:3|1:3,2:0:0:0:
311,277,178894,1,14,3:2:0:0:
311,277,179047,2,1,L|320:364,2,84,6|6|6,1:3|1:3|1:3,2:0:0:0:
212,320,179506,1,14,3:2:0:0:
212,320,179583,1,8,2:0:0:0:
212,320,179659,1,10,2:0:0:0:
126,260,179812,6,1,L|76:251,4,35,6|6|2|6|10,1:2|3:0|1:2|3:0|3:2,2:0:0:0:
87,169,180271,2,1,L|28:159,2,35,6|6|6,3:0|3:0|3:0,2:0:0:0:
66,84,180578,1,2,1:2:0:0:
66,84,180654,1,2,1:2:0:0:
66,84,180731,2,1,L|20:73,2,35,10|6|6,3:2|3:0|3:0,2:0:0:0:
152,58,181037,6,1,L|208:48,4,35,2|6|2|6|10,1:3|3:0|1:2|3:0|3:2,2:0:0:0:
237,122,181496,2,1,L|300:128,2,35,6|6|6,3:0|3:0|3:0,2:0:0:0:
295,213,181802,1,2,1:2:0:0:
295,213,181879,1,2,1:2:0:0:
295,213,181955,1,10,3:2:0:0:
354,367,182261,6,1,L|404:354,4,35,6|6|2|6|10,1:2|3:0|1:2|3:0|3:2,2:0:0:0:
469,297,182720,2,1,L|416:284,2,35,6|6|6,3:0|3:0|3:0,2:0:0:0:
392,203,183027,1,2,1:2:0:0:
392,203,183103,1,2,1:2:0:0:
392,203,183180,2,1,L|453:195,2,35,10|6|6,3:2|3:0|3:0,2:0:0:0:
342,101,183486,6,1,L|350:55,2,35,2|6|2,1:3|3:0|1:2,2:0:0:0:
248,70,183792,1,10,3:2:0:0:
248,70,183868,1,6,3:0:0:0:
248,70,183945,1,6,3:0:0:0:
171,120,184098,2,1,L|131:80,2,35,6|2|2,3:0|1:2|1:2,2:0:0:0:
134,197,184404,1,10,3:2:0:0:
132,328,184710,6,1,L|124:372,4,35,6|6|2|6|10,1:2|3:0|1:2|3:0|3:2,2:0:0:0:
224,299,185169,1,6,3:0:0:0:
224,299,185246,1,6,3:0:0:0:
224,299,185322,2,1,L|235:248,2,35,6|2|2,3:0|1:2|1:2,2:0:0:0:
313,345,185629,2,1,L|333:285,2,35,10|6|6,3:2|3:0|3:0,2:0:0:0:
419,240,185935,6,1,L|384:246,4,35,6|6|2|6|10,1:3|3:0|1:2|3:0|3:2,2:0:0:0:
385,151,186394,1,6,3:0:0:0:
385,151,186470,1,6,3:0:0:0:
385,151,186547,2,1,L|331:143,2,35,6|2|2,3:0|1:2|1:2,2:0:0:0:
311,62,186853,2,1,L|255:27,2,35,10|10|10,3:2|3:2|3:2,2:0:0:0:
171,70,187159,6,1,L|157:17,2,35,6|6|2,1:2|3:0|1:2,2:0:0:0:
242,145,187465,1,10,3:2:0:0:
242,145,187542,1,6,3:0:0:0:
242,145,187618,2,1,L|219:235,1,70,6|6,3:0|3:0,2:0:0:0:
116,146,187925,1,6,1:2:0:0:
116,146,188001,1,2,1:2:0:0:
116,146,188078,2,1,L|132:229,1,70,10|6,3:2|3:0,2:0:0:0:
174,301,188384,6,1,L|188:354,2,35,14|6|2,3:2|3:0|1:2,2:0:0:0:
243,220,188690,1,10,3:2:0:0:
243,220,188766,1,6,3:0:0:0:
243,220,188843,2,1,L|220:130,1,70,6|6,3:0|1:3,2:0:0:0:
117,219,189149,1,2,1:2:0:0:
117,219,189226,1,2,1:2:0:0:
117,219,189302,2,1,L|133:136,1,70,10|10,3:2|3:2,2:0:0:0:
183,74,189608,6,1,L|169:21,2,35,14|0|6,1:2|2:0|1:3,2:0:0:0:
114,155,189914,1,6,2:3:0:0:
114,155,189991,1,0,2:0:0:0:
114,155,190067,2,1,L|137:245,1,70,14|6,1:2|1:3,2:0:0:0:
240,156,190373,1,6,2:3:0:0:
240,156,190450,1,0,2:0:0:0:
240,156,190527,2,1,L|224:239,1,70,14|6,1:2|1:3,2:0:0:0:
179,313,190833,6,1,L|125:332,6,35,14|4|4|4|4|4|8,2:0|2:3|2:3|2:3|2:3|2:3|2:0,2:0:0:0:
292,316,191445,1,6,2:3:0:0:
292,316,191521,1,4,2:3:0:0:
292,316,191598,1,4,2:3:0:0:
292,316,191675,1,4,2:3:0:0:
292,316,191751,2,1,L|336:306,2,35,10|8|8,2:0|2:0|2:0,2:0:0:0:
390,239,192057,6,1,L|480:217,1,70,14|8,2:0|2:0,2:0:0:0:
475,60,192976,1,2,1:2:0:0:
475,60,193052,1,0,1:0:0:0:
475,60,193129,2,1,L|331:53,1,140,14|8,2:0|2:0,2:0:0:0:
257,44,193588,1,8,2:0:0:0:
67,117,194353,5,0,1:0:0:0:
67,117,194430,1,0,1:0:0:0:
67,117,194506,2,1,L|83:203,1,70,14|8,2:0|2:0,2:0:0:0:
420,342,195578,6,1,P|356:304|231:294,1,168,6|0,1:2|1:0,2:0:0:0:
273,199,196037,2,1,P|215:214|176:218,1,84,8|2,2:0|1:2,2:0:0:0:
305,121,196343,1,14,2:0:0:0:
374,82,196496,1,6,1:3:0:0:
453,87,196649,1,14,2:0:0:0:
413,11,196802,6,1,P|346:41|239:11,1,168,6|0,1:2|1:0,2:0:0:0:
158,10,197261,1,8,2:0:0:0:
21,144,197567,5,2,1:2:0:0:
111,148,197720,1,2,1:2:0:0:
150,223,197873,1,10,2:0:0:0:
34,162,198027,2,1,P|114:149|199:77,1,168,6|0,1:2|1:0,2:0:0:0:
241,166,198486,1,8,2:0:0:0:
168,215,198639,2,1,P|228:199|352:184,1,168,6|8,2:3|2:0,2:0:0:0:
426,209,199098,1,2,1:3:0:0:
245,335,199404,6,1,P|323:348|417:367,1,168,6|8,1:2|2:0,2:0:0:0:
344,268,199863,2,1,P|396:255|526:200,1,168,2|0,1:2|1:0,2:0:0:0:
438,125,200322,2,1,P|482:86|503:46,1,84,10|0,2:0|1:0,2:0:0:0:
349,17,200629,5,14,2:0:0:0:
293,97,200782,1,4,1:3:0:0:
198,64,200935,2,1,L|96:10,1,84,12|6,2:0|1:3,2:0:0:0:
57,89,201241,5,14,2:0:0:0:
149,147,201394,1,4,1:3:0:0:
149,147,201470,1,0,2:0:0:0:
149,147,201547,2,1,L|164:246,1,84,10|0,2:0|1:0,2:0:0:0:
97,311,201853,5,14,2:0:0:0:
174,327,202006,2,1,P|200:336|230:345,2,35,4|4|0,2:3|2:3|1:0,2:0:0:0:
280,297,202312,2,1,P|316:306|374:322,1,70,12|4,2:0|2:3,2:0:0:0:
412,255,202618,1,0,1:0:0:0:
412,255,202695,1,0,2:0:0:0:
412,255,202771,2,1,P|459:243|494:233,1,70,12|4,2:0|2:3,2:0:0:0:
491,146,203078,5,0,1:0:0:0:
405,118,203231,2,1,P|368:107|318:95,1,70,12|4,2:0|2:3,2:0:0:0:
343,195,203537,1,0,1:0:0:0:
412,108,203690,1,12,2:0:0:0:
473,33,203843,1,8,2:0:0:0:
203,67,204302,6,1,P|153:74|0:14,1,182,6|10,1:2|3:2,2:0:0:0:
119,164,204761,2,1,P|137:224|142:288,1,91,2|2,3:2|1:3,2:0:0:0:
280,128,205067,2,1,P|231:184|218:229,1,91,2|10,3:2|3:2,2:0:0:0:
410,261,205373,1,2,3:2:0:0:
410,261,205450,1,0,3:0:0:0:
410,261,205527,6,1,P|346:238|210:220,1,182,6|10,1:2|3:2,2:0:0:0:
420,168,205986,2,1,P|459:128|492:77,1,91,2|2,3:2|1:3,2:0:0:0:
325,140,206292,2,1,P|306:80|294:24,1,91,2|10,3:2|3:2,2:0:0:0:
58,35,206598,1,2,3:2:0:0:
58,35,206675,1,0,3:0:0:0:
58,35,206751,6,1,P|130:73|221:24,1,182,6|10,1:2|3:2,2:0:0:0:
215,32,207134,1,0,3:0:0:0:
215,32,207210,1,2,3:2:0:0:
233,126,207363,2,1,P|208:164|182:200,1,91,2|0,1:3|3:0,2:0:0:0:
312,230,207669,2,1,P|265:251|222:286,1,91,10|0,3:2|3:0,2:0:0:0:
478,250,207976,6,1,P|383:282|385:386,2,182,6|10|2,1:2|3:2|1:3,2:0:0:0:
495,158,208741,1,2,3:0:0:0:
495,158,208817,1,0,3:0:0:0:
495,158,208894,1,14,3:2:0:0:
311,150,209200,6,1,P|213:137|100:131,1,182,6|10,1:2|3:2,2:0:0:0:
11,248,209659,2,1,P|81:215|116:204,1,91,2|2,3:2|1:3,2:0:0:0:
263,265,209965,2,1,P|200:235|174:212,1,91,2|10,3:2|3:2,2:0:0:0:
130,307,210271,1,2,3:2:0:0:
222,354,210425,6,1,P|262:300|348:225,1,182,6|10,1:2|3:2,2:0:0:0:
332,358,210884,1,0,3:0:0:0:
332,358,210960,1,0,3:0:0:0:
332,358,211037,2,1,P|292:304|206:229,1,182,2|10,1:3|3:2,2:0:0:0:
82,160,211496,1,0,3:0:0:0:
82,160,211572,1,0,3:0:0:0:
82,160,211649,6,1,P|151:140|284:96,1,182,6|10,1:2|3:2,2:0:0:0:
328,183,212108,2,1,P|406:123|488:53,1,182,0|0,3:0|3:0,2:0:0:0:
451,216,212567,1,10,3:2:0:0:
325,292,212873,6,1,L|226:273,1,91,14|4,3:2|3:0,2:0:0:0:
235,274,213103,1,4,3:0:0:0:
235,274,213180,1,2,1:3:0:0:
173,334,213333,2,1,B|112:320|112:320|57:353,1,91,14|6,3:2|3:0,2:0:0:0:
14,227,213639,1,0,1:0:0:0:
14,227,213715,1,0,1:0:0:0:
14,227,213792,2,1,L|28:294,2,45.5,14|8|8,3:2|3:2|3:2,2:0:0:0:
131,210,214098,6,1,P|116:135|13:156,1,182,14|2,3:2|1:3,2:0:0:0:
224,179,214557,2,1,P|274:142|332:118,1,91,2|10,3:2|3:2,2:0:0:0:
385,70,214863,2,1,P|404:143|503:143,1,182,2|2,3:2|3:2,2:0:0:0:
290,52,215322,6,1,P|296:111|311:248,1,182,14|2,3:2|1:3,2:0:0:0:
128,49,215782,2,1,P|178:57|201:115,1,91,2|10,3:2|3:2,2:0:0:0:
32,180,216088,2,1,P|112:176|232:176,1,182,2|2,3:2|3:2,2:0:0:0:
45,365,216547,6,1,P|62:312|200:300,1,182,14|2,3:2|1:3,2:0:0:0:
399,365,217006,1,0,3:0:0:0:
399,365,217083,1,0,3:0:0:0:
399,365,217159,2,1,P|382:312|244:300,1,182,14|2,3:2|1:3,2:0:0:0:
481,238,217618,1,0,3:0:0:0:
481,238,217695,1,0,3:0:0:0:
481,238,217771,6,1,L|469:295,2,45.5,14|0|0,3:2|3:0|3:0,2:0:0:0:
405,194,218078,1,2,1:3:0:0:
363,125,218231,2,1,P|348:64|329:9,1,91,2|10,3:0|3:2,2:0:0:0:
264,9,218537,1,2,3:0:0:0:
264,9,218613,1,0,3:0:0:0:
264,9,218690,1,6,1:2:0:0:
0,60,218996,6,1,P|75:70|67:163,1,182,6|10,3:2|1:2,2:0:0:0:
208,148,219455,2,1,P|175:186|159:246,1,91,2|2,3:2|3:2,2:0:0:0:
338,234,219761,2,1,P|283:244|241:265,1,91,2|10,3:2|1:2,2:0:0:0:
390,347,220067,1,2,3:2:0:0:
390,347,220144,1,0,3:0:0:0:
390,347,220220,6,1,P|418:267|471:157,1,182,6|10,3:2|1:2,2:0:0:0:
292,358,220680,1,0,3:0:0:0:
292,358,220756,1,0,3:0:0:0:
292,358,220833,2,1,P|260:278|244:239,1,91,2|0,3:2|3:0,2:0:0:0:
218,181,221139,1,10,1:2:0:0:
72,27,221445,6,1,P|27:124|-9:221,1,182,14|2,3:2|1:3,2:0:0:0:
190,99,221904,1,2,3:0:0:0:
238,26,222057,2,1,P|195:65|110:181,1,182,8|6,3:2|3:2,2:0:0:0:
333,71,222516,1,0,1:0:0:0:
333,71,222593,1,0,1:0:0:0:
333,71,222669,6,1,P|311:123|300:163,2,60.6666666666667,14|0|0,3:2|3:0|3:0,2:0:0:0:
366,189,222976,2,1,P|355:228|340:286,2,60.6666666666667,2|0|0,1:3|3:0|3:0,2:0:0:0:
424,287,223282,1,2,3:0:0:0:
432,303,223384,2,1,P|432:342|436:376,1,60.6666666666667,0|0,3:0|3:0,2:0:0:0:
353,369,223588,5,14,3:2:0:0:
321,350,223690,1,0,3:0:0:0:
288,342,223792,1,0,3:0:0:0:
254,346,223894,1,6,1:2:0:0:
33,153,225731,5,8,2:0:0:0:
161,112,225884,2,1,P|221:90|315:68,1,140,4|0,1:2|2:0,2:0:0:0:
391,75,226343,5,6,1:2:0:0:
449,152,226496,2,1,P|433:215|405:330,1,182,6|6,2:3|2:3,2:0:0:0:
405,328,226879,1,4,2:3:0:0:
405,328,226955,1,2,1:3:0:0:
331,376,227108,2,1,P|321:320|277:191,1,182,6|6,2:3|2:3,2:0:0:0:
281,201,227491,1,4,2:3:0:0:
281,201,227567,1,2,1:3:0:0:
359,169,227720,2,1,P|255:179|153:180,1,182,6|6,2:3|2:3,2:0:0:0:
177,180,228103,1,4,2:3:0:0:
177,180,228180,1,2,1:3:0:0:
104,202,228333,1,2,1:2:0:0:
27,213,228486,1,10,3:2:0:0:
21,32,228792,5,6,1:2:0:0:
113,44,228945,2,1,P|159:46|330:66,1,182,6|6,2:3|2:3,2:0:0:0:
294,60,229328,1,4,2:3:0:0:
294,60,229404,1,2,1:3:0:0:
250,139,229557,2,1,P|329:160|439:200,1,182,6|6,2:3|2:3,2:0:0:0:
423,193,229940,1,4,2:3:0:0:
423,193,230016,1,2,1:3:0:0:
512,192,230169,2,1,P|423:216|313:262,1,182,6|6,2:3|2:3,2:0:0:0:
339,249,230552,1,4,2:3:0:0:
339,249,230629,1,2,1:3:0:0:
277,297,230782,1,2,1:2:0:0:
212,341,230935,1,10,3:2:0:0:
44,209,231241,5,6,1:2:0:0:
38,125,231394,2,1,P|72:222|94:324,1,182,6|6,2:3|2:3,2:0:0:0:
89,299,231777,1,4,2:3:0:0:
89,299,231853,1,2,1:3:0:0:
0,283,232006,2,1,P|55:225|142:170,1,182,6|6,2:3|2:3,2:0:0:0:
140,170,232389,1,4,2:3:0:0:
140,170,232465,1,2,1:3:0:0:
183,255,232618,2,1,P|175:183|166:48,1,182,6|6,2:3|2:3,2:0:0:0:
167,73,233001,1,4,2:3:0:0:
167,73,233078,1,2,1:3:0:0:
243,40,233231,1,2,1:2:0:0:
323,27,233384,1,10,3:2:0:0:
479,132,233690,5,6,1:2:0:0:
389,182,233843,2,1,P|372:235|338:362,1,182,6|6,2:3|2:3,2:0:0:0:
339,356,234226,1,4,2:3:0:0:
339,356,234302,2,1,P|271:337|225:324,1,91,2|6,1:3|2:3,2:0:0:0:
65,318,234608,1,10,3:2:0:0:
153,372,234761,1,6,2:3:0:0:
159,270,234914,5,14,3:2:0:0:
159,270,235067,2,1,L|174:149,1,91,6|10,2:3|3:2,2:0:0:0:
76,168,235373,1,6,2:3:0:0:
166,170,235527,2,1,L|283:181,1,91,6|6,3:0|2:3,2:0:0:0:
355,187,235833,1,14,3:2:0:0:
355,187,235909,1,8,2:0:0:0:
355,187,235986,1,10,2:0:0:0:
446,200,236139,5,6,1:2:0:0:
494,134,236292,2,1,P|465:214|433:342,1,182,6|6,2:3|2:3,2:0:0:0:
439,307,236675,1,4,2:3:0:0:
439,307,236751,1,2,1:3:0:0:
366,352,236904,1,6,2:3:0:0:
279,314,237057,2,1,P|239:299|184:283,1,91,10|6,3:2|2:3,2:0:0:0:
63,281,237363,5,2,1:3:0:0:
36,188,237516,1,6,2:3:0:0:
129,168,237669,2,1,P|176:158|230:147,1,91,10|6,3:2|2:3,2:0:0:0:
218,149,237899,1,4,2:3:0:0:
218,149,237976,1,2,1:3:0:0:
315,143,238129,1,2,1:2:0:0:
415,133,238282,1,10,3:2:0:0:
265,23,238588,5,6,1:2:0:0:
358,25,238741,2,1,P|268:47|142:64,1,182,6|6,2:3|2:3,2:0:0:0:
179,60,239123,1,4,2:3:0:0:
179,60,239200,1,2,1:3:0:0:
259,11,239353,2,1,P|283:85|321:200,1,182,6|6,2:3|2:3,2:0:0:0:
315,183,239736,1,4,2:3:0:0:
315,183,239812,1,2,1:3:0:0:
403,163,239965,2,1,P|338:171|198:192,1,182,6|6,2:3|2:3,2:0:0:0:
222,187,240348,1,4,2:3:0:0:
222,187,240425,1,2,1:3:0:0:
141,212,240578,1,2,1:2:0:0:
50,232,240731,1,10,3:2:0:0:
222,363,241037,6,1,P|273:362|325:362,1,91,6|6,1:2|3:0,2:0:0:0:
428,363,241343,1,6,3:0:0:0:
428,363,241496,1,2,1:2:0:0:
428,363,241649,1,6,1:2:0:0:
428,363,241802,1,6,3:0:0:0:
428,363,241955,1,6,3:0:0:0:
428,363,242108,1,2,1:2:0:0:
376,275,242261,5,6,1:2:0:0:
376,275,242414,1,6,3:0:0:0:
376,275,242567,1,6,3:0:0:0:
376,275,242720,1,2,1:2:0:0:
376,275,242873,1,6,1:2:0:0:
376,275,243027,1,6,3:0:0:0:
467,250,243180,1,10,3:2:0:0:
512,65,243486,5,6,1:2:0:0:
512,65,243639,1,2,2:0:0:0:
347,100,243945,1,2,2:0:0:0:
347,100,244098,1,2,2:0:0:0:
186,133,244404,1,2,2:0:0:0:
186,133,244557,1,2,2:0:0:0:
22,161,244863,1,2,2:0:0:0:
22,161,245016,1,2,2:0:0:0:
53,241,245169,6,1,L|44:294,3,30.3333333333333,4|4|4|10,2:3|2:3|2:3|2:0,2:0:0:0:
182,282,245527,1,6,2:3:0:0:
310,290,245731,1,6,2:3:0:0:
