osu file format v14

[General]
AudioFilename: audio.mp3
AudioLeadIn: 0
PreviewTime: 98593
Countdown: 1
SampleSet: None
StackLeniency: 0.3
Mode: 0
LetterboxInBreaks: 0
WidescreenStoryboard: 0

[Editor]
Bookmarks: 16399,20225,27572,48389,59409,59868,66756,79001,87572,95531,98593,118185,125531,150021,169919,179409,191348,204205,225327,240634,245838
DistanceSpacing: 2.4
BeatDivisor: 4
GridSize: 4
TimelineZoom: 1

[Metadata]
Title:Natsukashiki Touhou No Chi ~ Sic World
TitleUnicode:懐かしき東方の血 ~ Sic World
Artist:Demetori
ArtistUnicode:Demetori
Creator:LwL
Version:Extra Stage
Source:東方永夜抄 ~ Imperishable Night
Tags:Touhou 8 c85 le grimoire de reve
BeatmapID:1365208
BeatmapSetID:644096

[Difficulty]
HPDrainRate:6
CircleSize:4.5
OverallDifficulty:9
ApproachRate:9.3
SliderMultiplier:2
SliderTickRate:1

[Events]
//Background and Video events
0,0,"sicbg.jpg",0,0
//Break Periods
//Storyboard Layer 0 (Background)
//Storyboard Layer 1 (Fail)
//Storyboard Layer 2 (Pass)
//Storyboard Layer 3 (Foreground)
//Storyboard Sound Samples

[TimingPoints]
634,306.122448979592,4,3,1,60,1,0
2776,-150.00000015,4,3,1,60,0,0
3082,-100,4,3,1,60,0,0
5225,-150.000015000001,4,3,1,60,0,0
5531,-100,4,3,1,60,0,0
7674,-150.000015000001,4,3,1,60,0,0
7827,-100,4,3,1,60,0,0
10429,-133.333333333333,4,3,1,60,0,0
18695,-100,4,3,1,60,0,0
22368,-133.333333333333,4,3,1,60,0,0
22674,-100,4,3,1,60,0,0
24817,-133.333333333333,4,3,1,60,0,0
25123,-100,4,3,1,60,0,0
27266,-133.333333333333,4,3,1,60,0,0
27572,-200,4,3,1,60,0,0
30021,-100,4,3,1,60,0,0
49460,-200,4,3,1,60,0,0
51909,-133.333333333333,4,3,1,60,0,0
52368,-200,4,3,1,60,0,0
56195,-133.333333333333,4,3,1,60,0,0
56960,-100,4,3,1,60,0,0
59409,-133.333333333333,4,3,1,60,0,0
69205,-100,4,3,1,60,0,0
88797,-200,4,3,1,60,0,0
88950,306.122448979592,4,3,1,60,1,0
90021,-200,4,3,1,60,0,0
91246,-133.333333333333,4,3,1,60,0,0
91552,-200,4,3,1,60,0,0
95531,-133.333333333333,4,3,1,60,0,0
96296,-100,4,3,1,60,0,0
98592,-100,4,3,1,60,0,1
117725,-200,4,3,1,60,0,1
118185,-100,4,3,1,60,0,0
179409,-100,4,3,1,60,0,1
191960,-100,4,3,1,60,0,0
204205,-100,4,3,1,60,0,1
226246,-100,4,3,1,60,0,0

[Colours]
Combo1 : 64,0,128
Combo2 : 128,128,255
Combo3 : 128,0,255
Combo4 : 0,64,128

[HitObjects]
189,160,634,5,0,0:0:0:0:
335,127,787,1,0,0:0:0:0:
335,127,1093,5,0,0:0:0:0:
291,270,1246,1,0,0:0:0:0:
258,125,1399,1,0,0:0:0:0:
258,125,1705,5,0,0:0:0:0:
401,169,1858,1,0,0:0:0:0:
255,202,2011,1,0,0:0:0:0:
255,202,2317,5,0,0:0:0:0:
300,60,2470,1,0,0:0:0:0:
333,206,2623,1,0,0:0:0:0:
231,96,2776,6,0,B|199:88|183:112|183:112|167:136|134:129,1,100,0|0,0:0|0:0,0:0:0:0:
126,149,3082,5,0,0:0:0:0:
215,270,3236,1,0,0:0:0:0:
215,270,3542,5,0,0:0:0:0:
276,133,3696,1,0,0:0:0:0:
154,221,3848,1,0,0:0:0:0:
154,221,4154,5,0,0:0:0:0:
292,283,4306,1,0,0:0:0:0:
204,161,4460,1,0,0:0:0:0:
204,161,4766,5,0,0:0:0:0:
143,299,4920,1,0,0:0:0:0:
265,210,5072,1,0,0:3:0:0:
115,227,5225,6,0,B|85:212|88:183|88:183|91:155|62:140,1,99.999989827475,0|0,0:0|0:0,0:0:0:0:
68,118,5531,6,0,L|102:81,1,50,0|0,0:0|0:0,0:0:0:0:
220,118,5685,2,0,L|167:169,3,50,0|0|0|0,0:0|0:0|0:0|0:0,0:0:0:0:
220,270,5991,5,0,0:0:0:0:
244,275,6067,1,0,0:0:0:0:
268,281,6144,2,0,L|316:292,1,50,0|0,0:0|0:0,0:0:0:0:
388,190,6297,2,0,L|339:178,3,50,0|0|0|0,0:0|0:0|0:0|0:0,0:0:0:0:
204,181,6603,5,0,0:0:0:0:
209,157,6679,1,0,0:0:0:0:
215,133,6756,2,0,L|226:85,1,50,0|0,0:0|0:0,0:0:0:0:
350,58,6909,2,0,L|338:107,3,50,0|0|0|0,0:0|0:0|0:0|0:0,0:0:0:0:
279,214,7215,6,0,L|328:226,1,50,0|0,0:0|0:0,0:0:0:0:
454,357,7368,2,0,L|405:369,1,50,0|0,0:0|0:0,0:0:0:0:
374,329,7521,2,0,L|325:341,1,50,0|0,0:0|0:0,0:0:0:0:
132,377,7674,6,0,B|97:362|105:316|105:316,1,66.6666598849833,0|0,0:0|0:0,0:0:0:0:
98,306,7903,1,0,0:0:0:0:
86,294,7980,1,0,0:0:0:0:
200,128,8134,1,0,0:0:0:0:
200,128,8440,5,0,0:0:0:0:
50,118,8593,2,0,L|31:172,1,50,0|0,0:0|0:0,0:0:0:0:
175,202,8746,2,0,P|229:200|271:164,1,100,0|0,0:0|0:0,0:0:0:0:
256,73,9052,1,0,0:0:0:0:
396,211,9205,6,0,P|388:238|303:230,1,100,0|0,0:0|0:0,0:0:0:0:
264,173,9511,1,0,0:0:0:0:
430,54,9664,2,0,P|421:27|337:35,1,100,0|0,0:0|0:0,0:0:0:0:
298,91,9970,1,0,0:0:0:0:
458,245,10123,5,0,0:0:0:0:
452,279,10199,1,0,0:0:0:0:
433,308,10276,1,0,0:0:0:0:
403,326,10352,1,0,0:0:0:0:
368,329,10429,5,0,0:0:0:0:
245,242,10582,2,0,B|265:208|299:202|299:202|303:227,1,75.0000028610231,0|0,0:0|0:0,0:0:0:0:
234,343,10889,1,0,0:0:0:0:
208,339,10965,1,0,0:0:0:0:
184,329,11042,5,0,0:0:0:0:
127,185,11195,2,0,B|87:185|65:211|65:211|85:227,1,75.0000028610231,0|0,0:0|0:0,0:0:0:0:
220,226,11501,1,0,0:0:0:0:
230,202,11577,1,0,0:0:0:0:
233,176,11654,5,0,0:0:0:0:
136,54,11807,2,0,B|156:19|189:13|189:13|193:38,1,75.0000028610231,0|0,0:0|0:0,0:0:0:0:
125,155,12113,1,0,0:0:0:0:
99,151,12189,1,0,0:0:0:0:
75,141,12266,5,0,0:0:0:0:
244,60,12419,1,0,0:0:0:0:
228,285,12572,6,0,B|253:304|253:304|286:229|379:267,1,150.000005722046,0|0,0:0|0:0,0:0:0:0:
409,120,13031,2,0,B|444:140|450:173|450:173|425:177,1,75.0000028610231,0|0,0:0|0:0,0:0:0:0:
302,122,13338,1,0,0:0:0:0:
305,97,13414,1,0,0:0:0:0:
314,72,13491,5,0,0:0:0:0:
357,215,13644,2,0,B|322:235|290:224|290:224|299:200,1,75.0000028610231,0|0,0:0|0:0,0:0:0:0:
408,121,13950,1,0,0:0:0:0:
428,136,14026,1,0,0:0:0:0:
446,156,14103,5,0,0:0:0:0:
299,122,14256,2,0,B|298:81|324:59|324:59|340:79,1,75.0000028610231,0|0,0:0|0:0,0:0:0:0:
354,213,14562,1,0,0:0:0:0:
331,222,14638,1,0,0:0:0:0:
305,228,14715,5,0,0:0:0:0:
204,74,14869,1,0,0:0:0:0:
97,269,15021,6,0,B|66:272|66:272|78:191|-20:173,1,150.000005722046,0|0,0:0|0:0,0:0:0:0:
155,148,15480,2,0,B|189:168|221:156|221:156|212:132,1,75.0000028610231,0|0,0:0|0:0,0:0:0:0:
123,35,15787,1,0,0:0:0:0:
87,44,15863,1,0,0:0:0:0:
60,70,15940,5,0,0:0:0:0:
119,208,16093,2,0,B|118:248|93:270|93:270|76:250,1,75.0000028610231,0|0,0:0|0:0,0:0:0:0:
13,136,16399,1,0,0:0:0:0:
49,144,16475,1,0,0:0:0:0:
86,138,16552,5,0,0:0:0:0:
167,12,16705,2,0,B|132:-7|100:3|100:3|109:27,1,75.0000028610231,0|0,0:0|0:0,0:0:0:0:
155,148,17011,1,0,0:0:0:0:
162,184,17087,1,0,0:0:0:0:
157,222,17164,5,0,0:0:0:0:
28,65,17317,1,0,0:0:0:0:
4,303,17470,6,0,B|16:331|16:331|81:280|145:356,1,150.000005722046,0|0,0:0|0:0,0:0:0:0:
127,184,17929,2,0,B|87:184|65:210|65:210|85:226,1,75.0000028610231,0|0,0:3|0:3,0:3:0:0:
220,225,18236,1,0,0:3:0:0:
229,201,18312,1,0,0:3:0:0:
233,175,18389,5,0,0:3:0:0:
137,54,18542,1,0,0:0:0:0:
385,23,18695,1,0,0:0:0:0:
324,160,18848,1,0,0:0:0:0:
56,89,19001,6,0,P|30:101|53:183,1,100,0|0,0:0|0:0,0:0:0:0:
56,181,19231,1,0,0:0:0:0:
89,173,19307,1,0,0:0:0:0:
240,29,19460,5,0,0:0:0:0:
274,29,19536,1,0,0:0:0:0:
299,52,19613,1,0,0:0:0:0:
304,86,19689,1,0,0:0:0:0:
284,114,19766,2,0,P|261:123|236:125,1,50,0|0,0:0|0:0,0:0:0:0:
104,24,19919,5,0,0:0:0:0:
81,33,19995,1,0,0:0:0:0:
66,53,20072,1,0,0:0:0:0:
62,77,20148,1,0,0:0:0:0:
72,100,20225,5,0,0:0:0:0:
269,29,20378,1,0,0:0:0:0:
329,108,20531,1,0,0:0:0:0:
193,269,20685,2,0,L|154:236,1,50,0|0,0:0|0:0,0:0:0:0:
209,169,20838,5,0,0:0:0:0:
366,307,20991,1,0,0:0:0:0:
281,360,21144,1,0,0:0:0:0:
288,137,21297,2,0,L|328:107,1,50,0|0,0:0|0:0,0:0:0:0:
276,33,21450,5,0,0:0:0:0:
109,160,21603,1,0,0:0:0:0:
158,246,21756,1,0,0:0:0:0:
366,223,21909,2,0,L|331:186,1,50,0|0,0:3|0:3,0:3:0:0:
266,243,22062,5,0,0:3:0:0:
446,135,22215,1,0,0:0:0:0:
351,355,22368,6,0,B|329:377|329:377|286:307|199:356,1,150.000005722046,0|0,0:0|0:0,0:0:0:0:
283,140,22827,1,0,0:0:0:0:
351,213,22980,1,0,0:0:0:0:
143,174,23134,2,0,L|107:137,1,50,0|0,0:0|0:0,0:0:0:0:
149,63,23287,5,0,0:0:0:0:
226,258,23440,1,0,0:0:0:0:
126,270,23593,1,0,0:0:0:0:
267,120,23746,2,0,L|210:59,1,50,0|0,0:0|0:0,0:0:0:0:
149,63,23899,5,0,0:0:0:0:
303,205,24052,1,0,0:0:0:0:
367,128,24205,1,0,0:0:0:0:
163,180,24358,2,0,L|205:231,1,50,0|0,0:0|0:0,0:0:0:0:
116,253,24511,1,0,0:0:0:0:
279,121,24664,1,0,0:0:0:0:
52,30,24817,6,0,B|26:36|26:36|65:109|4:142,1,150.000005722046,0|0,0:0|0:0,0:0:0:0:
183,32,25276,1,0,0:0:0:0:
183,32,25582,5,0,0:0:0:0:
180,56,25659,1,0,0:0:0:0:
177,80,25736,1,0,0:0:0:0:
370,160,25889,1,0,0:0:0:0:
370,160,26195,5,0,0:0:0:0:
367,136,26272,1,0,0:0:0:0:
364,112,26348,1,0,0:0:0:0:
159,159,26501,1,0,0:0:0:0:
159,159,26807,5,0,0:0:0:0:
178,174,26884,1,0,0:0:0:0:
216,205,26960,1,0,0:0:0:0:
281,59,27113,1,0,0:0:0:0:
36,269,27266,6,0,B|11:257|11:257|62:193|15:157,1,112.500004291535,0|0,0:0|0:0,0:0:0:0:
8,147,27572,6,0,L|72:112,2,50,0|0|0,0:0|0:0|0:0,0:0:0:0:
152,276,28031,2,0,L|195:252,2,50,0|0|0,0:0|0:0|0:0,0:0:0:0:
234,98,28491,2,0,L|298:63,2,50,0|0|0,0:0|0:0|0:0,0:0:0:0:
378,227,28950,2,0,L|421:203,1,50,0|0,0:0|0:0,0:0:0:0:
455,373,29256,6,0,L|433:385,3,16.6666666666667,0|0|0|0,0:0|0:0|0:0|0:0,0:0:0:0:
494,171,29562,1,0,0:0:0:0:
494,171,30021,6,0,P|484:232|448:264,1,100,0|0,0:0|0:0,0:0:0:0:
363,288,30327,1,0,0:0:0:0:
256,181,30480,2,0,P|306:144|354:147,1,100,0|0,0:0|0:0,0:0:0:0:
191,132,30787,2,0,P|134:106|113:63,1,100,0|0,0:0|0:0,0:0:0:0:
182,213,31093,1,0,0:0:0:0:
278,38,31246,6,0,P|339:31|379:58,1,100
423,135,31552,1,0,0:0:0:0:
277,171,31705,2,0,P|302:227|345:248,1,100,0|0,0:0|0:0,0:0:0:0:
196,180,32011,2,0,P|171:172|140:176,2,50,0|0|0,0:0|0:0|0:0,0:0:0:0:
229,106,32317,2,0,P|221:81|226:52,1,50,0|0,0:0|0:0,0:0:0:0:
89,108,32470,6,0,P|56:152|86:226,1,100,0|0,0:0|0:0,0:0:0:0:
131,264,32776,2,0,L|237:247,2,100,0|0|0,0:0|0:0|0:0,0:0:0:0:
155,361,33236,2,0,L|56:345,2,100,0|0|0,0:0|0:0|0:0,0:0:0:0:
229,248,33695,2,0,L|244:346,2,100,0|0|0,0:0|0:0|0:0,0:0:0:0:
326,272,34154,2,0,L|343:166,1,100,0|0,0:0|0:0,0:0:0:0:
410,100,34460,2,0,L|422:164,2,50,0|0|0,0:0|0:0|0:0,0:0:0:0:
310,87,34766,2,0,L|319:37,1,50,0|0,0:0|0:0,0:0:0:0:
196,121,34919,6,0,P|164:168|86:191,1,100,0|0,0:0|0:0,0:0:0:0:
32,154,35225,1,0,0:0:0:0:
69,8,35378,2,0,P|122:26|165:96,1,100,0|0,0:3|0:3,0:3:0:0:
302,52,35685,2,0,P|357:41|429:80,1,100,0|0,0:3|0:3,0:3:0:0:
302,169,35991,1,0,0:0:0:0:
426,325,36144,6,0,P|380:362|311:351,1,100,0|0,0:0|0:0,0:0:0:0:
259,306,36450,1,0,0:0:0:0:
374,209,36603,2,0,P|383:150|339:96,1,100,0|0,0:0|0:0,0:0:0:0:
448,240,36909,2,0,P|469:259|501:268,2,50
384,288,37215,2,0,P|375:314|352:338,1,50,0|0,0:0|0:0,0:0:0:0:
240,261,37368,6,0,P|221:208|163:155,1,100,0|0,0:0|0:0,0:0:0:0:
101,135,37674,2,0,L|-31:162,2,100,0|0|0,0:0|0:0|0:0,0:0:0:0:
83,35,38134,2,0,L|215:62,2,100,0|0|0,0:0|0:0|0:0,0:0:0:0:
101,135,38593,2,0,L|74:267,2,100,0|0|0,0:0|0:0|0:0,0:0:0:0:
201,153,39052,1,0,0:0:0:0:
326,267,39205,5,0,0:0:0:0:
258,340,39358,2,0,L|211:358,1,50,0|0,0:0|0:0,0:0:0:0:
165,230,39511,1,0,0:0:0:0:
258,195,39664,2,0,L|326:197,1,50,0|0,0:0|0:0,0:0:0:0:
438,273,39817,6,0,P|478:241|494:149,1,100,0|0,0:0|0:0,0:0:0:0:
469,101,40123,1,0,0:0:0:0:
321,101,40276,2,0,P|302:148|334:236,1,100,0|0,0:0|0:0,0:0:0:0:
244,60,40582,2,0,P|211:20|120:4,1,100,0|0,0:0|0:0,0:0:0:0:
319,14,40889,1,0,0:0:0:0:
139,101,41042,6,0,P|146:151|218:211,1,100,0|0,0:0|0:0,0:0:0:0:
271,217,41348,1,0,0:0:0:0:
378,112,41501,2,0,P|417:143|433:235,1,100,0|0,0:0|0:0,0:0:0:0:
407,40,41807,2,0,P|426:18|465:-4,2,50,0|0|0,0:0|0:0|0:0,0:0:0:0:
331,50,42113,2,0,P|303:39|262:43,1,50,0|0,0:0|0:0,0:0:0:0:
314,187,42266,6,0,P|305:238|246:310,1,100,0|0,0:0|0:0,0:0:0:0:
184,305,42572,2,0,L|56:279,2,100,0|0|0,0:0|0:0|0:0,0:0:0:0:
138,216,43031,2,0,L|266:190,2,100,0|0|0,0:0|0:0|0:0,0:0:0:0:
27,192,43491,2,0,L|2:59,2,100,0|0|0,0:0|0:0|0:0,0:0:0:0:
82,108,43950,2,0,L|107:-25,1,100,0|0,0:0|0:0,0:0:0:0:
195,41,44256,2,0,L|210:99,2,50,0|0|0,0:0|0:0|0:0,0:0:0:0:
284,85,44562,2,0,L|269:143,1,50,0|0,0:0|0:0,0:0:0:0:
385,232,44715,6,0,P|438:226|484:182,1,100,0|0,0:0|0:0,0:0:0:0:
479,98,45021,1,0,0:0:0:0:
331,59,45174,2,0,P|288:90|270:151,1,100,0|0,0:0|0:0,0:0:0:0:
150,221,45480,2,0,P|97:226|51:270,1,100,0|0,0:3|0:3,0:3:0:0:
198,315,45787,1,0,0:0:0:0:
351,184,45940,6,0,P|393:215|412:275,1,100,0|0,0:3|0:3,0:3:0:0:
392,355,46246,1,0,0:0:0:0:
261,281,46399,2,0,P|239:329|254:391,1,100,0|0,0:3|0:3,0:3:0:0:
202,230,46705,2,0,P|186:206|156:186,2,50,0|0|0,0:0|0:0|0:0,0:0:0:0:
276,205,47011,2,0,P|292:191|329:187,1,50,0|0,0:0|0:0,0:0:0:0:
166,92,47164,6,0,P|109:104|76:162,1,100,0|0,0:0|0:0,0:0:0:0:
44,226,47470,2,0,L|21:329,2,100,0|0|0,0:0|0:0|0:0,0:0:0:0:
123,287,47929,2,0,L|146:390,2,100,0|0|0,0:0|0:0|0:0,0:0:0:0:
240,162,48389,1,0,0:0:0:0:
335,189,48542,2,0,L|391:245,1,50,0|0,0:0|0:0,0:0:0:0:
271,323,48695,1,0,0:0:0:0:
197,254,48848,2,0,L|172:204,1,50,0|0,0:0|0:0,0:0:0:0:
237,83,49001,5,0,0:0:0:0:
87,81,49154,1,0,0:0:0:0:
292,31,49307,1,0,0:0:0:0:
70,154,49460,6,0,B|38:190|66:219|66:219|64:261,1,100
111,304,49919,1,0,0:0:0:0:
182,332,50072,1,0,0:0:0:0:
209,134,50225,1,0,0:0:0:0:
347,191,50378,1,0,0:0:0:0:
210,250,50531,1,0,0:0:0:0:
345,72,50685,6,0,B|388:66|413:93|413:93|440:91,1,100
509,66,51144,1,0,0:0:0:0:
469,236,51297,2,0,B|426:242|401:215|401:215|374:217,1,100,0|0,0:0|0:0,0:0:0:0:
305,242,51756,1,0,0:0:0:0:
109,90,51909,6,0,P|139:26|203:64,1,150.000005722046
218,123,52368,1,0,0:0:0:0:
200,196,52521,1,0,0:0:0:0:
399,206,52674,1,0,0:0:0:0:
341,344,52827,1,0,0:0:0:0:
275,208,52980,1,0,0:0:0:0:
463,344,53134,6,0,B|496:319|486:278|486:278|495:247,1,100,0|0,0:0|0:0,0:0:0:0:
469,182,53593,1,0,0:0:0:0:
315,115,53746,1,0,0:0:0:0:
370,198,53899,1,0,0:0:0:0:
270,204,54052,1,0,0:0:0:0:
325,287,54205,1,0,0:0:0:0:
137,218,54358,6,0,B|127:177|149:149|149:149|144:104,1,100
180,55,54817,1,0,0:0:0:0:
244,16,54970,1,0,0:0:0:0:
336,192,55123,1,0,0:0:0:0:
441,85,55276,1,0,0:0:0:0:
287,77,55429,1,0,0:0:0:0:
489,197,55582,6,0,B|491:235|475:261|475:261|479:315,1,100,0|0,0:0|0:0,0:0:0:0:
441,360,56042,1,0,0:0:0:0:
242,250,56195,6,0,B|221:212|247:176|247:176|236:137|274:86,1,150.000005722046
415,53,56654,2,0,P|434:92|421:132,1,75.0000028610231
212,55,56960,6,0,P|126:54|156:137,1,200
378,176,57419,2,0,P|403:257|317:256,1,200,0|0,0:0|0:0,0:0:0:0:
333,43,57878,2,0,P|321:8|256:17,1,100
166,244,58185,5,0,0:0:0:0:
135,265,58261,1,0,0:0:0:0:
98,268,58338,1,0,0:0:0:0:
64,253,58414,1,0,0:0:0:0:
43,223,58491,2,0,P|37:191|41:158,1,50,0|0,0:0|0:0,0:0:0:0:
172,117,58644,5,0,0:0:0:0:
192,81,58720,1,0,0:0:0:0:
187,40,58797,1,0,0:0:0:0:
157,10,58873,1,0,0:0:0:0:
116,4,58950,2,0,P|88:7|61:18,1,50,0|0,0:0|0:0,0:0:0:0:
106,148,59103,5,0,0:0:0:0:
138,191,59179,1,0,0:0:0:0:
186,218,59256,1,0,0:0:0:0:
240,224,59332,1,0,0:0:0:0:
292,208,59409,5,0,0:0:0:0:
433,261,59562,2,0,B|422:299|391:313|391:313|380:290,1,75.0000028610231,0|0,0:0|0:0,0:0:0:0:
349,163,59868,2,0,L|397:139,1,37.5000014305115,0|0,0:0|0:0,0:0:0:0:
430,60,60021,1,0,0:0:0:0:
282,30,60174,6,0,B|254:58|257:92|257:92|283:90,1,75.0000028610231,0|0,0:0|0:0,0:0:0:0:
384,3,60480,2,0,P|404:-9|441:-11,1,37.5000014305115,0|0,0:0|0:0,0:0:0:0:
510,37,60634,1,0,0:0:0:0:
425,160,60787,6,0,B|387:148|372:117|372:117|396:106,1,75.0000028610231,0|0,0:0|0:0,0:0:0:0:
506,125,61093,2,0,P|512:156|515:186,1,37.5000014305115,0|0,0:0|0:0,0:0:0:0:
468,247,61246,1,0,0:0:0:0:
324,167,61399,1,0,0:0:0:0:
241,376,61552,6,0,B|259:399|259:399|309:333|390:390,1,150.000005722046,0|0,0:0|0:0,0:0:0:0:
439,244,62011,2,0,B|410:216|376:219|376:219|378:245,1,75.0000028610231,0|0,0:0|0:0,0:0:0:0:
272,309,62317,2,0,L|223:287,1,37.5000014305115,0|0,0:0|0:0,0:0:0:0:
191,212,62470,1,0,0:0:0:0:
314,127,62623,6,0,B|323:166|304:194|304:194|282:179,1,75.0000028610231,0|0,0:0|0:0,0:0:0:0:
212,91,62929,2,0,L|143:77,1,37.5000014305115,0|0,0:0|0:0,0:0:0:0:
77,113,63082,1,0,0:0:0:0:
142,256,63236,6,0,B|180:244|195:213|195:213|171:202,1,75.0000028610231,0|0,0:0|0:0,0:0:0:0:
60,189,63542,1,0,0:0:0:0:
25,175,63618,1,0,0:0:0:0:
4,145,63695,1,0,0:0:0:0:
43,294,63848,1,0,0:0:0:0:
72,59,64001,6,0,B|99:48|99:48|109:130|208:121,1,150.000005722046,0|0,0:0|0:0,0:0:0:0:
177,269,64460,2,0,B|137:278|109:259|109:259|124:237,1,75.0000028610231,0|0,0:0|0:0,0:0:0:0:
227,186,64766,2,0,L|289:206,1,37.5000014305115,0|0,0:0|0:0,0:0:0:0:
312,114,64919,1,0,0:0:0:0:
179,53,65072,6,0,B|151:82|154:116|154:116|180:114,1,75.0000028610231,0|0,0:0|0:0,0:0:0:0:
275,51,65378,2,0,L|288:-12,1,37.5000014305115,0|0,0:0|0:0,0:0:0:0:
380,13,65531,1,0,0:0:0:0:
367,159,65685,6,0,B|327:168|299:149|299:149|314:127,1,75.0000028610231,0|0,0:0|0:0,0:0:0:0:
416,77,65991,2,0,L|478:97,1,37.5000014305115,0|0,0:0|0:0,0:0:0:0:
502,5,66144,1,0,0:0:0:0:
502,172,66297,1,0,0:0:0:0:
349,26,66450,6,0,P|296:23|237:78,1,112.500004291535,0|0,0:0|0:0,0:0:0:0:
244,93,66756,1,0,0:0:0:0:
250,106,66832,1,0,0:0:0:0:
247,143,66909,1,0,0:0:0:0:
253,156,66985,1,0,0:0:0:0:
240,207,67062,5,0,0:0:0:0:
253,211,67138,1,0,0:0:0:0:
280,237,67215,1,0,0:0:0:0:
294,239,67291,1,0,0:0:0:0:
309,244,67368,1,0,0:0:0:0:
322,250,67444,1,0,0:0:0:0:
342,299,67521,5,0,0:0:0:0:
353,308,67598,1,0,0:0:0:0:
355,345,67674,1,0,0:0:0:0:
343,354,67750,1,0,0:0:0:0:
331,362,67827,1,0,0:0:0:0:
317,368,67903,1,0,0:0:0:0:
266,355,67980,5,0,0:0:0:0:
256,343,68057,1,0,0:0:0:0:
219,332,68134,1,0,0:0:0:0:
208,321,68210,1,0,0:0:0:0:
198,309,68287,1,0,0:0:0:0:
191,296,68363,1,0,0:0:0:0:
160,275,68440,6,0,L|139:227,1,37.5000014305115,0|0,0:0|0:0,0:0:0:0:
196,185,68593,2,0,L|175:137,1,37.5000014305115,0|0,0:0|0:0,0:0:0:0:
110,124,68746,2,0,L|89:76,1,37.5000014305115,0|0,0:0|0:0,0:0:0:0:
146,34,68899,5,0,0:0:0:0:
158,26,68975,1,0,0:0:0:0:
179,17,69052,1,0,0:0:0:0:
208,10,69128,1,0,0:0:0:0:
246,11,69205,6,0,P|300:28|344:96,1,100,0|0,0:0|0:0,0:0:0:0:
357,155,69511,2,0,P|347:186|332:202,1,50,0|0,0:0|0:0,0:0:0:0:
202,227,69664,2,0,P|163:185|159:104,1,100,0|0,0:0|0:0,0:0:0:0:
160,294,69970,1,0,0:0:0:0:
100,345,70123,2,0,P|61:353|26:338,1,50,0|0,0:0|0:0,0:0:0:0:
174,371,70276,1,0,0:0:0:0:
57,191,70429,6,0,P|44:135|81:63,1,100,0|0,0:0|0:0,0:0:0:0:
140,40,70736,2,0,P|173:32|226:37,1,50,0|0,0:0|0:0,0:0:0:0:
298,171,70889,1,0,0:0:0:0:
234,219,71042,2,0,P|203:231|158:228,1,50,0|0,0:0|0:0,0:0:0:0:
307,250,71195,1,0,0:0:0:0:
370,298,71348,2,0,P|401:310|446:306,1,50,0|0,0:0|0:0,0:0:0:0:
296,328,71501,1,0,0:0:0:0:
345,109,71654,6,0,P|382:76|466:72,1,100,0|0,0:0|0:0,0:0:0:0:
498,137,71960,1,0,0:0:0:0:
494,162,72036,1,0,0:0:0:0:
491,186,72113,2,0,L|474:316,1,100,0|0,0:0|0:0,0:0:0:0:
392,342,72419,2,0,L|375:212,1,100,0|0,0:0|0:0,0:0:0:0:
375,217,72649,1,0,0:0:0:0:
371,192,72725,1,0,0:0:0:0:
291,131,72878,6,0,L|161:148,2,100,0|0|0,0:0|0:0|0:0,0:0:0:0:
309,114,73261,1,0,0:0:0:0:
328,98,73338,2,0,L|427:110,1,100,0|0,0:0|0:0,0:0:0:0:
452,113,73567,1,0,0:0:0:0:
477,116,73644,1,0,0:0:0:0:
444,21,73797,5,0,0:0:0:0:
411,9,73873,1,0,0:0:0:0:
376,3,73950,1,0,0:0:0:0:
341,2,74026,1,0,0:0:0:0:
307,6,74103,6,0,P|226:31|192:64,1,100,0|0,0:0|0:0,0:0:0:0:
166,126,74409,2,0,P|154:161|162:203,1,50,0|0,0:0|0:0,0:0:0:0:
288,232,74562,2,0,P|326:183|328:132,1,100,0|0,0:0|0:0,0:0:0:0:
334,296,74868,1,0,0:0:0:0:
402,339,75021,2,0,P|436:350|464:347,1,50,0|0,0:0|0:0,0:0:0:0:
332,375,75174,1,0,0:0:0:0:
453,198,75327,6,0,P|461:127|438:85,1,100
369,42,75634,2,0,P|329:30|284:30,1,50,0|0,0:0|0:0,0:0:0:0:
245,166,75787,1,0,0:0:0:0:
312,208,75940,2,0,P|352:223|396:221,1,50,0|0,0:0|0:0,0:0:0:0:
243,246,76093,1,0,0:0:0:0:
171,281,76246,2,0,P|139:288|92:280,1,50,0|0,0:0|0:0,0:0:0:0:
238,326,76399,1,0,0:0:0:0:
106,133,76552,5,0,0:0:0:0:
272,97,76705,1,0,0:0:0:0:
141,205,76858,1,0,0:0:0:0:
116,209,76934,1,0,0:0:0:0:
92,214,77011,2,0,L|-9:229,1,100,0|0,0:0|0:0,0:0:0:0:
42,315,77317,2,0,L|143:330,1,100,0|0,0:0|0:0,0:0:0:0:
164,332,77546,1,0,0:0:0:0:
189,336,77623,1,0,0:0:0:0:
271,194,77776,6,0,L|250:87,1,100
322,25,78082,2,0,L|338:87,1,50,0|0,0:0|0:0,0:0:0:0:
168,73,78236,2,0,P|91:68|42:93,1,100,0|0,0:0|0:0,0:0:0:0:
49,101,78465,1,0,0:0:0:0:
27,128,78541,1,0,0:0:0:0:
16,161,78618,1,0,0:0:0:0:
17,196,78695,5,0,0:0:0:0:
35,242,78771,1,0,0:0:0:0:
69,279,78848,1,0,0:0:0:0:
114,300,78924,1,0,0:0:0:0:
163,302,79001,6,0,P|207:295|265:256,1,100
140,102,79307,1,0,0:0:0:0:
339,85,79460,1,0,0:0:0:0:
351,106,79536,1,0,0:0:0:0:
361,129,79613,1,0,0:0:0:0:
164,197,79766,2,0,P|143:145|140:94,1,100
101,257,80072,1,0,0:0:0:0:
316,213,80225,6,0,P|382:218|435:262,1,100
337,329,80531,1,0,0:0:0:0:
512,232,80685,1,0,0:0:0:0:
508,208,80761,1,0,0:0:0:0:
499,184,80838,1,0,0:0:0:0:
299,116,80991,2,0,P|301:174|332:238,1,100
206,95,81297,1,0,0:0:0:0:
425,103,81450,5,0,0:0:0:0:
334,10,81603,1,0,0:0:0:0:
316,213,81756,1,0,0:0:0:0:
445,216,81909,1,0,0:0:0:0:
445,216,81986,1,0,0:0:0:0:
445,216,82062,1,0,0:0:0:0:
364,356,82215,1,0,0:0:0:0:
236,336,82368,1,0,0:0:0:0:
236,336,82445,1,0,0:0:0:0:
236,336,82521,1,0,0:0:0:0:
348,170,82674,5,0,0:0:0:0:
403,287,82827,1,0,0:0:0:0:
210,231,82980,1,0,0:0:0:0:
238,103,83134,1,0,0:0:0:0:
238,103,83210,1,0,0:0:0:0:
238,103,83287,2,0,P|177:104|121:130,1,100
88,310,83593,1,0,0:0:0:0:
105,320,83669,1,0,0:0:0:0:
133,330,83746,1,0,0:0:0:0:
171,337,83822,1,0,0:0:0:0:
211,337,83899,6,0,P|263:328|312:296,1,100
234,116,84205,1,0,0:0:0:0:
431,150,84358,1,0,0:0:0:0:
428,174,84434,1,0,0:0:0:0:
419,198,84511,1,0,0:0:0:0:
221,212,84664,2,0,P|218:159|239:107,1,100
142,247,84970,1,0,0:0:0:0:
351,265,85123,6,0,P|401:283|436:314,1,100
333,376,85429,1,0,0:0:0:0:
503,272,85582,1,0,0:0:0:0:
508,247,85658,1,0,0:0:0:0:
508,222,85735,1,0,0:0:0:0:
327,132,85889,2,0,P|329:190|360:254,1,100
234,111,86195,1,0,0:0:0:0:
453,119,86348,5,0,0:0:0:0:
362,26,86501,1,0,0:0:0:0:
344,229,86654,1,0,0:0:0:0:
473,232,86807,1,0,0:0:0:0:
406,343,86960,1,0,0:0:0:0:
396,129,87113,5,0,0:0:0:0:
282,191,87266,1,0,0:0:0:0:
393,259,87419,1,0,0:3:0:0:
292,74,87572,5,0,0:0:0:0:
421,77,87725,1,0,0:0:0:0:
322,250,87878,1,0,0:0:0:0:
240,127,88031,2,0,L|189:152,1,50
197,276,88185,5,0,0:0:0:0:
25,71,88389,5,0,0:0:0:0:
289,25,88593,5,0,0:0:0:0:
197,276,88797,6,0,B|149:285|138:246|138:246|101:227,1,100
61,182,89256,1,0,0:0:0:0:
40,110,89409,1,0,0:0:0:0:
239,122,89562,1,0,0:0:0:0:
145,5,89715,1,0,0:0:0:0:
129,154,89868,1,0,0:0:0:0:
284,9,90021,6,0,B|325:-2|353:27|353:27|391:26,1,100
452,21,90480,1,0,0:0:0:0:
458,198,90634,2,0,B|417:209|389:180|389:180|351:181,1,100
290,186,91093,1,0,0:0:0:0:
54,88,91246,6,0,P|50:41|136:73,1,150.000005722046
156,109,91705,1,0,0:0:0:0:
145,183,91858,1,0,0:0:0:0:
327,130,92011,1,8,0:0:0:0:
303,277,92164,1,0,0:0:0:0:
215,156,92317,1,0,0:0:0:0:
419,266,92470,6,0,B|449:244|439:197|439:197|450:167,1,100
446,149,92853,1,0,0:0:0:0:
436,126,92929,1,0,0:0:0:0:
274,90,93082,1,0,0:0:0:0:
360,179,93235,1,0,0:0:0:0:
240,209,93388,1,0,0:0:0:0:
326,298,93541,1,0,0:0:0:0:
133,266,93694,6,0,B|129:218|151:195|151:195|153:167,1,100
150,95,94154,1,0,0:0:0:0:
186,29,94307,1,0,0:0:0:0:
318,179,94460,1,0,0:0:0:0:
403,56,94613,1,0,0:0:0:0:
256,83,94766,1,0,0:0:0:0:
470,143,94919,6,0,B|491:182|468:219|468:219|469:256,1,100
456,312,95378,1,0,0:0:0:0:
222,278,95531,6,0,B|194:244|214:204|214:204|196:167|225:110,1,150.000005722046
355,49,95990,2,0,P|378:88|354:142,1,75.0000028610231
157,77,96296,6,0,P|86:69|152:141,1,200
342,187,96756,2,0,P|387:257|303:264,1,200
287,32,97215,2,0,P|253:2|207:51,1,100
155,238,97521,5,0,0:0:0:0:
46,82,97674,1,0,0:0:0:0:
234,116,97827,1,8,0:0:0:0:
31,251,97980,5,8,0:0:0:0:
219,285,98133,1,0,0:0:0:0:
110,129,98286,1,0,0:0:0:0:
158,372,98439,2,0,P|207:381|263:365,1,100
253,169,98745,5,0,0:0:0:0:
270,159,98821,1,0,0:0:0:0:
288,151,98898,1,0,0:0:0:0:
308,147,98974,1,0,0:0:0:0:
327,144,99052,2,0,P|352:146|376:153,1,50
368,304,99205,5,0,0:0:0:0:
354,289,99281,1,0,0:0:0:0:
342,273,99359,2,0,P|330:250|324:226,1,50
460,159,99511,1,0,0:0:0:0:
454,179,99587,1,0,0:0:0:0:
446,197,99665,2,0,P|432:217|414:235,1,50
327,144,99817,2,0,P|344:124|354:102,1,50
203,23,99970,5,0,0:0:0:0:
186,33,100046,1,0,0:0:0:0:
170,46,100123,1,0,0:0:0:0:
156,60,100199,1,0,0:0:0:0:
144,76,100276,2,0,P|127:108|120:139,1,50
271,218,100429,5,0,0:0:0:0:
265,198,100505,1,0,0:0:0:0:
258,180,100582,2,0,P|238:149|215:127,1,50
71,219,100736,1,0,0:0:0:0:
91,224,100812,1,0,0:0:0:0:
111,227,100889,2,0,P|147:225|177:216,1,50
197,73,101041,2,0,P|221:67|245:69,1,50
375,141,101194,5,0,0:0:0:0:
372,180,101270,1,0,0:0:0:0:
369,220,101347,2,0,L|366:270,1,50
222,358,101501,1,0,0:0:0:0:
224,318,101577,1,0,0:0:0:0:
227,278,101654,2,0,L|230:228,1,50
305,80,101807,5,0,0:0:0:0:
302,119,101883,1,0,0:0:0:0:
299,159,101960,2,0,L|294:230,1,50
152,297,102114,1,0,0:0:0:0:
154,257,102190,1,0,0:0:0:0:
157,217,102267,2,0,L|161:145,1,50
232,32,102419,5,0,0:0:0:0:
249,23,102495,1,0,0:0:0:0:
268,16,102572,1,0,0:0:0:0:
288,11,102648,1,0,0:0:0:0:
307,9,102725,1,0,0:0:0:0:
327,9,102801,1,0,0:0:0:0:
347,12,102878,1,0,0:0:0:0:
367,16,102954,1,0,0:0:0:0:
385,24,103031,1,0,0:0:0:0:
403,33,103107,1,0,0:0:0:0:
420,44,103184,1,0,0:0:0:0:
435,57,103260,1,0,0:0:0:0:
452,74,103337,2,0,P|472:112|472:144,1,50
280,136,103490,5,0,0:0:0:0:
234,117,103566,1,0,0:0:0:0:
184,115,103643,1,0,0:0:0:0:
168,127,103719,1,0,0:0:0:0:
153,141,103796,1,0,0:0:0:0:
142,158,103872,1,0,0:0:0:0:
133,176,103950,2,0,P|129:200|126:225,1,50
284,246,104103,5,0,0:0:0:0:
285,265,104179,1,0,0:0:0:0:
283,285,104257,2,0,P|275:308|265:331,1,50
128,294,104409,1,0,0:0:0:0:
127,313,104485,1,0,0:0:0:0:
128,333,104563,2,0,P|144:375|165:409,1,50
283,285,104715,2,0,P|262:256|228:239,1,50
80,233,104868,5,0,0:0:0:0:
67,217,104944,1,0,0:0:0:0:
56,200,105021,2,0,P|49:175|49:150,1,50
213,146,105174,1,0,0:0:0:0:
215,126,105250,1,0,0:0:0:0:
217,105,105327,2,0,P|210:82|187:46,1,50
41,43,105480,5,0,0:0:0:0:
57,31,105556,1,0,0:0:0:0:
72,22,105633,2,0,P|93:14|141:13,1,50
213,146,105786,1,0,0:0:0:0:
196,157,105862,1,0,0:0:0:0:
182,167,105939,2,0,P|161:175|113:176,1,50
211,26,106092,5,0,0:0:0:0:
230,21,106168,1,0,0:0:0:0:
250,19,106245,1,0,0:0:0:0:
270,19,106321,1,0,0:0:0:0:
290,20,106398,1,0,0:0:0:0:
309,24,106474,1,0,0:0:0:0:
329,30,106551,1,0,0:0:0:0:
329,30,106552,5,0,0:0:0:0:
358,56,106628,1,0,0:0:0:0:
377,91,106705,1,0,0:0:0:0:
384,130,106781,1,0,0:0:0:0:
376,169,106858,2,0,P|356:203|324:239,1,50
137,212,107011,2,0,L|174:163,3,50
111,36,107317,5,0,0:0:0:0:
65,56,107393,1,0,0:0:0:0:
31,94,107470,2,0,P|19:115|11:139,1,50
167,171,107623,2,0,P|176:148|191:129,1,50
350,164,107776,5,0,0:0:0:0:
374,207,107852,1,0,0:0:0:0:
379,257,107929,2,0,P|377:282|370:305,1,50
222,293,108082,2,0,P|224:265|214:215,1,50
64,228,108235,5,0,0:0:0:0:
60,277,108311,1,0,0:0:0:0:
74,325,108388,2,0,P|91:358|119:376,1,50
290,224,108541,5,0,0:0:0:0:
284,204,108617,1,0,0:0:0:0:
281,185,108694,1,0,0:0:0:0:
281,165,108770,1,0,0:0:0:0:
283,145,108847,2,0,P|293:112|313:85,1,50
450,133,109001,5,0,0:0:0:0:
432,143,109077,1,0,0:0:0:0:
414,151,109154,2,0,P|380:158|347:155,1,50
320,13,109307,1,0,0:0:0:0:
338,23,109383,1,0,0:0:0:0:
354,35,109460,2,0,P|377:60|390:90,1,50
282,144,109613,2,0,P|260:135|235:131,1,50
104,178,109766,5,0,0:0:0:0:
101,197,109842,1,0,0:0:0:0:
103,217,109919,1,0,0:0:0:0:
109,236,109995,1,0,0:0:0:0:
119,254,110072,2,0,P|141:283|173:299,1,50
300,207,110225,5,0,0:0:0:0:
280,202,110301,1,0,0:0:0:0:
259,202,110378,2,0,P|222:206|193:226,1,50
210,382,110532,1,0,0:0:0:0:
224,367,110608,1,0,0:0:0:0:
236,350,110684,2,0,P|250:316|247:280,1,50
118,254,110837,2,0,P|95:261|70:262,1,50
67,46,110990,5,0,0:0:0:0:
106,44,111066,1,0,0:0:0:0:
146,43,111143,2,0,L|195:42,1,50
329,176,111296,1,0,0:0:0:0:
289,177,111372,1,0,0:0:0:0:
250,179,111449,2,0,L|200:179,1,50
36,122,111603,5,0,0:0:0:0:
75,120,111679,1,0,0:0:0:0:
115,119,111756,2,0,L|164:118,1,50
298,252,111909,1,0,0:0:0:0:
258,253,111985,1,0,0:0:0:0:
219,255,112062,2,0,L|169:255,1,50
82,41,112215,5,0,0:0:0:0:
117,22,112291,1,0,0:0:0:0:
155,9,112368,1,0,0:0:0:0:
194,3,112444,1,0,0:0:0:0:
234,2,112521,1,0,0:0:0:0:
274,8,112597,1,0,0:0:0:0:
312,20,112674,1,0,0:0:0:0:
347,38,112750,1,0,0:0:0:0:
380,62,112827,2,0,P|410:97|433:138,1,50
251,203,112980,2,0,L|219:160,3,50
44,176,113286,5,0,0:0:0:0:
34,224,113362,1,0,0:0:0:0:
41,274,113439,1,0,0:0:0:0:
72,298,113515,1,0,0:0:0:0:
107,317,113592,1,0,0:0:0:0:
145,331,113668,1,0,0:0:0:0:
184,337,113745,2,0,P|209:338|234:335,1,50
251,203,113898,5,0,0:0:0:0:
290,199,113974,1,0,0:0:0:0:
329,201,114051,2,0,P|354:207|377:217,1,50
406,357,114205,1,0,0:0:0:0:
428,325,114281,1,0,0:0:0:0:
445,289,114358,2,0,P|453:265|456:240,1,50
351,155,114511,2,0,P|341:179|329:201,1,50
190,291,114664,5,0,0:0:0:0:
150,285,114740,1,0,0:0:0:0:
115,267,114817,2,0,P|94:253|76:235,1,50
201,143,114970,1,8,0:0:0:0:
175,110,115046,1,8,0:0:0:0:
142,89,115123,2,8,P|119:77|95:71,1,50
18,181,115276,5,8,0:0:0:0:
2,141,115352,1,8,0:0:0:0:
0,102,115429,2,8,P|1:77|8:53,1,50
207,12,115582,2,0,L|230:95,3,50
130,204,115888,5,0,0:0:0:0:
154,221,115964,1,0,0:0:0:0:
181,234,116041,1,0,0:0:0:0:
209,244,116117,1,0,0:0:0:0:
238,248,116194,2,0,P|263:250|288:248,1,50
364,93,116347,5,0,0:0:0:0:
402,102,116423,1,0,0:0:0:0:
436,123,116500,1,0,0:0:0:0:
462,153,116576,1,0,0:0:0:0:
477,190,116654,2,0,P|481:215|479:240,1,50
328,348,116807,1,0,0:0:0:0:
310,323,116883,1,0,0:0:0:0:
298,296,116960,2,0,P|289:259|288:222,1,50
220,107,117113,5,0,0:0:0:0:
6,345,117317,5,0,0:0:0:0:
73,32,117521,5,0,0:0:0:0:
172,337,117725,6,0,L|282:315,1,100
