osu file format v14

[General]
AudioFilename: audio.mp3
AudioLeadIn: 0
PreviewTime: 222168
Countdown: 0
SampleSet: Normal
StackLeniency: 0.7
Mode: 0
LetterboxInBreaks: 0
WidescreenStoryboard: 1

[Editor]
Bookmarks: 8360,12576,16144,21009,21820,21982,24414,24576,26361,26685,28307,28468,31063,32361,34468,39494,42900,47278,49629,57171,57820,58954,58955,59279,61388,74036,79225,79874,84415,88954,89602,118913,119197,119521,119846,120089,133062,133549,140684,141657,141981,142305,142630,142954,187631,222249,267006,285330
DistanceSpacing: 2
BeatDivisor: 4
GridSize: 4
TimelineZoom: 3.499999

[Metadata]
Title:Mystical Dreams ~ The Woman Who Sold the Moon
TitleUnicode:妖々夢 ~ The Woman Who Sold the Moon
Artist:Demetori
ArtistUnicode:Demetori
Creator:Venzire
Version:sporkv3-S
Source:東方Project
Tags:djent touhou c92 comiket ZUN
BeatmapID:2260017
BeatmapSetID:671195

[Difficulty]
HPDrainRate:7
CircleSize:4
OverallDifficulty:8
ApproachRate:9.5
SliderMultiplier:2.00000000596047
SliderTickRate:1

[Events]
//Background and Video events
0,0,"beatmapbg.jpg",0,0
//Break Periods
2,134721,139997
2,145748,151185
2,151910,157921
2,161041,165299
2,166586,242406
2,245314,262514
2,269152,289757
2,292989,295597
2,299962,304835
//Storyboard Layer 0 (Background)
//Storyboard Layer 1 (Fail)
//Storyboard Layer 2 (Pass)
//Storyboard Layer 3 (Foreground)
//Storyboard Layer 4 (Overlay)
//Storyboard Sound Samples

[TimingPoints]
9982,324.324324324324,4,2,0,100,1,0
9982,-100,4,3,0,5,0,0
16225,-100,4,3,0,5,0,0
16306,-100,4,1,0,100,0,0
16793,324.324324324324,4,2,0,100,1,0
16793,-100,4,1,0,100,0,0
17117,-100,4,1,0,100,0,0
18090,-100,4,1,0,100,0,0
18414,-100,4,1,0,100,0,0
19387,-100,4,1,0,100,0,0
19711,-100,4,1,0,100,0,0
21982,-100,4,1,0,100,0,0
23279,-100,4,1,0,100,0,0
26685,-100,4,1,0,100,0,0
31063,-76.9230769230769,4,1,0,100,0,0
31225,-100,4,1,0,100,0,0
36901,-66.6666666666667,4,1,0,100,0,0
37063,-100,4,1,0,100,0,0
37711,324.324324324324,4,3,0,100,1,0
53278,-142.857142857143,4,3,0,100,0,0
74035,-100,4,3,0,100,0,0
74521,-142.857142857143,4,3,0,100,0,0
78575,-200,4,3,0,100,0,0
78738,-300,4,3,0,100,0,0
79062,-100,4,3,0,5,0,0
79224,-100,4,3,0,100,0,0
116846,-76.9230769230769,4,3,0,100,0,0
117494,-76.9230769230769,4,1,0,100,0,0
118143,-800,4,1,0,100,0,0
122359,-800,4,1,0,100,0,0
124144,-800,4,3,0,5,0,0
124305,-100,4,3,0,100,0,1
124468,324.324324324324,4,3,0,100,1,0
124468,-66.6666666666667,4,3,0,100,0,1
125765,-76.9230769230769,4,3,0,100,0,1
126576,-71.4285714285714,4,3,0,100,0,1
142954,324.324324324324,4,3,0,100,1,1
158521,444.444444444444,4,3,0,100,1,1
158965,444.444444444444,7,3,0,100,1,1
168852.285607357,-100,7,3,0,100,0,0
168874.206212575,-100,7,3,0,100,0,0
192742,324.324324324324,4,3,0,100,1,0
201493,324.324324324324,4,3,0,100,1,0
243006,-100,4,3,0,100,0,1
261168,-100,4,3,0,100,0,0
276898,-100,4,3,0,100,0,1
307709,-100,4,3,0,100,0,0

[HitObjects]
60,286,116846,6,0,P|121:308|184:298,1,129.999994436503,4|0,0:0|0:0,0:0:0:0:
421,191,117170,1,0,0:0:0:0:
442,279,117332,1,0,0:0:0:0:
296,101,117494,6,0,P|311:146|372:188,1,86.6666629576687
337,173,117710,1,0,0:0:0:0:
458,123,117819,5,0,0:0:0:0:
458,123,117927,2,0,P|420:105|341:125,1,86.6666629576687
337,173,118143,1,0,0:0:0:0:
240,304,120900,5,8,0:0:0:0:
186,79,122359,2,0,L|176:216,1,137.500000409782,14|0,0:0|0:0,0:0:0:0:
372,260,124305,1,0,0:0:0:0:
421,263,124386,1,0,0:0:0:0:
470,267,124467,2,0,B|496:224|496:224|484:148,1,100.000000298023
193,51,124792,5,0,0:0:0:0:
212,122,124954,1,0,0:0:0:0:
267,72,125116,1,0,0:0:0:0:
54,172,125278,6,0,B|34:242|34:242|76:307,1,150.000006169081,4|0,0:0|0:0,0:0:0:0:
458,212,125603,6,0,B|478:142|478:142|436:77,1,150.000006169081,4|0,0:0|0:0,0:0:0:0:
192,266,125927,6,0,P|183:286|183:307,1,43.3333314788344,8|4,0:3|0:3,0:3:0:0:
330,216,126089,6,0,P|351:215|371:207,1,43.3333314788344,8|4,0:3|0:3,0:3:0:0:
216,131,126251,6,0,P|202:114|182:105,1,43.3333314788344,8|4,0:3|0:3,0:3:0:0:
143,192,126413,6,0,B|129:241|209:261|181:309,1,129.999994436503
244,37,126738,5,0,0:0:0:0:
106,296,126900,1,0,0:0:0:0:
384,202,127062,2,0,B|344:187|344:187|304:214|304:214|246:187,1,139.999996144772,8|0,0:0|0:0,0:0:0:0:
20,19,127387,5,0,0:0:0:0:
297,116,127549,1,4,0:0:0:0:
29,236,127711,1,0,0:0:0:0:
309,323,127873,1,4,0:0:0:0:
167,65,128035,2,0,B|152:105|152:105|179:145|179:145|152:203,1,139.999996144772,14|0,0:0|0:0,0:0:0:0:
446,132,128359,5,0,0:0:0:0:
158,189,128522,1,6,0:0:0:0:
407,34,128684,1,0,0:0:0:0:
344,321,128846,2,0,B|359:281|359:281|332:241|332:241|359:183,1,139.999996144772,14|0,0:0|0:0,0:0:0:0:
108,359,129170,1,0,0:0:0:0:
201,80,129332,2,0,P|193:114|181:153,1,69.999998072386,14|0,0:0|0:0,0:0:0:0:
106,275,129495,2,0,P|93:241|86:201,1,69.999998072386,14|0,0:0|0:0,0:0:0:0:
43,67,129657,1,12,0:0:0:0:
332,115,129819,1,0,0:0:0:0:
320,310,129981,5,8,0:0:0:0:
258,200,130143,1,0,0:0:0:0:
147,259,130305,5,0,0:0:0:0:
161,148,130467,1,8,0:0:0:0:
57,191,130630,5,8,0:0:0:0:
159,357,130792,1,0,0:0:0:0:
253,123,130954,1,4,0:0:0:0:
45,331,131116,1,0,0:0:0:0:
316,244,131278,6,0,B|359:243|359:243|386:283|386:283|453:266,1,139.999996144772,8|0,0:0|0:0,0:0:0:0:
151,359,131603,1,0,0:0:0:0:
372,166,131765,1,0,0:0:0:0:
79,196,131927,1,0,0:0:0:0:
310,14,132089,1,0,0:0:0:0:
17,40,132251,1,0,0:0:0:0:
160,296,132413,6,0,P|176:227|185:158,1,139.999996144772,8|0,0:0|0:0,0:0:0:0:
442,12,132738,5,0,0:0:0:0:
343,288,132900,1,0,0:0:0:0:
149,66,133062,2,0,L|217:53,1,69.999998072386
107,150,133224,2,0,L|38:162,1,69.999998072386
174,217,133386,1,0,0:0:0:0:
425,61,133549,1,0,0:0:0:0:
131,70,133711,1,0,0:0:0:0:
339,276,133873,1,0,0:0:0:0:
114,86,134035,5,0,0:0:0:0:
300,312,134197,1,0,0:0:0:0:
366,40,134359,2,0,P|312:85|267:138,1,139.999996144772,8|0,0:0|0:0,0:0:0:0:
219,124,140522,5,0,0:0:0:0:
219,124,140603,1,0,0:0:0:0:
219,124,140684,1,0,0:0:0:0:
141,237,140846,2,0,L|232:231,1,69.999998072386
302,200,141008,1,0,0:0:0:0:
363,102,141170,1,0,0:0:0:0:
363,102,141251,1,0,0:0:0:0:
363,102,141332,1,0,0:0:0:0:
31,54,141495,1,0,0:0:0:0:
392,230,141657,1,0,0:0:0:0:
392,230,141738,1,0,0:0:0:0:
392,230,141819,1,0,0:0:0:0:
392,230,141981,1,0,0:0:0:0:
298,188,142062,1,0,0:0:0:0:
298,188,142143,1,0,0:0:0:0:
298,188,142305,1,0,0:0:0:0:
298,188,142386,1,0,0:0:0:0:
302,341,142467,1,0,0:0:0:0:
302,341,142549,1,0,0:0:0:0:
302,341,142630,2,0,L|387:341,1,69.999998072386
249,264,142792,2,0,L|172:300,1,69.999998072386
348,169,142954,2,0,P|257:96|379:218,1,1600.00000476838
260,104,151710,5,0,0:0:0:0:
228,304,158521,6,0,P|176:348|80:320,1,150.000000447035
76,316,158965,2,0,P|100:252|92:204,1,100.000000298023
152,184,159298,1,0,0:0:0:0:
152,184,159409,6,0,P|116:128|64:116,1,100.000000298023
360,272,160508,2,0,P|392:284|464:200,1,150.000000447035
256,32,165899,5,0,0:0:0:0:
120,244,166061,1,0,0:0:0:0:
64,28,166224,5,0,0:0:0:0:
264,224,166386,1,0,0:0:0:0:
212,20,243006,5,0,0:0:0:0:
72,32,243168,1,0,0:0:0:0:
152,152,243330,1,0,0:0:0:0:
200,28,243492,1,0,0:0:0:0:
156,168,243655,1,0,0:0:0:0:
308,120,243817,1,0,0:0:0:0:
152,132,243979,2,0,L|32:144,1,100.000000298023
332,336,244303,2,0,L|304:112,1,200.000000596047
332,40,244790,1,0,0:0:0:0:
484,144,244952,1,0,0:0:0:0:
212,248,245114,1,0,0:0:0:0:
336,48,263114,5,0,0:0:0:0:
192,316,263520,1,0,0:0:0:0:
256,272,263601,2,0,L|256:196,1,50.0000001490117
400,72,263763,2,0,L|240:56,1,150.000000447035
120,324,264087,2,0,L|269:338,1,150.000000447035
348,204,264411,2,0,B|304:184|304:184|252:212|252:212|188:188,1,150.000000447035
272,136,264736,1,0,0:0:0:0:
272,136,264817,1,0,0:0:0:0:
272,136,264898,1,0,0:0:0:0:
272,136,264979,1,0,0:0:0:0:
272,136,265060,2,0,P|184:72|52:144,1,250.000000745059
256,76,265547,5,0,0:0:0:0:
124,204,265709,2,0,L|152:272,1,50.0000001490117
224,296,265871,1,0,0:0:0:0:
380,240,266844,5,0,0:0:0:0:
380,240,266925,1,0,0:0:0:0:
380,240,267007,1,8,0:0:0:0:
216,84,267168,1,0,0:0:0:0:
60,156,267330,1,0,0:0:0:0:
88,300,267492,1,0,0:0:0:0:
136,204,267655,1,0,0:0:0:0:
276,120,267817,2,0,L|436:92,1,150.000000447035
136,204,268141,2,0,L|252:176,2,100.000000298023
380,144,268628,1,0,0:0:0:0:
200,96,268790,1,0,0:0:0:0:
200,96,268871,1,0,0:0:0:0:
200,96,268952,1,0,0:0:0:0:
168,96,290357,5,0,0:0:0:0:
154,141,290438,1,0,0:0:0:0:
188,175,290519,1,0,0:0:0:0:
234,163,290600,1,0,0:0:0:0:
245,116,290681,1,0,0:0:0:0:
234,163,290763,1,0,0:0:0:0:
220,208,290844,1,0,0:0:0:0:
254,242,290925,1,0,0:0:0:0:
300,230,291006,1,0,0:0:0:0:
311,183,291087,1,0,0:0:0:0:
300,230,291168,1,0,0:0:0:0:
286,275,291249,1,0,0:0:0:0:
320,309,291330,1,0,0:0:0:0:
366,297,291411,1,0,0:0:0:0:
377,250,291492,1,0,0:0:0:0:
380,96,291655,1,0,0:0:0:0:
330,94,291736,1,0,0:0:0:0:
280,92,291817,1,0,0:0:0:0:
230,91,291898,1,0,0:0:0:0:
180,89,291979,1,0,0:0:0:0:
130,87,292060,1,0,0:0:0:0:
80,86,292141,1,0,0:0:0:0:
30,84,292222,1,0,0:0:0:0:
96,320,292465,2,0,P|124:248|24:192,1,200.000000596047
276,264,296197,5,0,0:0:0:0:
276,264,296359,1,0,0:0:0:0:
56,124,296683,2,0,P|49:207|138:241,1,190.000000596047
208,212,297170,2,0,P|256:204|304:232,1,95.0000002980235
376,292,297494,5,0,0:0:0:0:
236,292,297656,1,0,0:0:0:0:
364,88,297818,1,0,0:0:0:0:
484,272,297981,2,0,P|488:320|476:368,2,95.0000002980235
232,236,299438,6,0,B|189:244|189:244|177:222|177:222|108:222|35:173,1,200.000000596047
368,228,305435,5,0,0:0:0:0:
328,248,305597,1,0,0:0:0:0:
280,88,305922,6,0,P|376:80|456:108,1,123.499994734049
412,244,306246,1,0,0:0:0:0:
412,244,306408,1,0,0:0:0:0:
412,244,306570,1,0,0:0:0:0:
244,84,306733,5,0,0:0:0:0:
292,184,306895,1,0,0:0:0:0:
208,84,307057,1,0,0:0:0:0:
432,248,307219,6,0,P|428:292|332:332,1,123.499994734049
332,164,307543,5,0,0:0:0:0:
332,164,307706,5,0,0:0:0:0:
