osu file format v14

[General]
AudioFilename: Paradise ~ Grief of Ressentiment.mp3
AudioLeadIn: 0
PreviewTime: 130900
Countdown: 0
SampleSet: Soft
StackLeniency: 0.4
Mode: 0
LetterboxInBreaks: 0
WidescreenStoryboard: 1

[Editor]
Bookmarks: 474292
DistanceSpacing: 0.7
BeatDivisor: 4
GridSize: 4
TimelineZoom: 1.4

[Metadata]
Title:Mukau no Sato ~ Grief of Ressentiment
TitleUnicode:無何有の郷 ~ Grief of Ressentiment
Artist:Demetori
ArtistUnicode:Demetori
Creator:GoldenWolf
Version:Stage 1
Source:東方妖々夢 ~ Perfect Cherry Blossom.
Tags:Touhou Project th07 Stage 1 Letty Whiterock Paradise Deep Mountain 愧人贖悪 ~ Evil People as the True Object of Salvation ~ C88 Progressive Rock Metal ZUN woof
BeatmapID:769594
BeatmapSetID:348939

[Difficulty]
HPDrainRate:5
CircleSize:5.5
OverallDifficulty:8
ApproachRate:8.7
SliderMultiplier:1.4
SliderTickRate:1

[Events]
//Background and Video events
0,0,"orz126.jpg",0,0
//Break Periods
2,38091,56069
2,113301,116507
2,219069,222809
2,223654,227371
2,228216,231946
2,232791,236526
2,289861,297190
2,298580,301550
//Storyboard Layer 0 (Background)
//Storyboard Layer 1 (Fail)
//Storyboard Layer 2 (Pass)
//Storyboard Layer 3 (Foreground)
//Storyboard Sound Samples

[TimingPoints]
244,588.235294117647,4,2,1,85,1,0
535,-100,4,2,5,60,0,0
4655,-100,4,2,4,60,0,0
4949,-100,4,2,5,60,0,0
9361,-100,4,2,4,60,0,0
9655,-100,4,2,5,60,0,0
14067,-100,4,2,4,60,0,0
14361,-100,4,2,5,60,0,0
19067,-100,4,2,2,60,0,0
19361,-100,4,2,5,60,0,0
23479,-100,4,2,4,60,0,0
23773,-100,4,2,5,60,0,0
28185,-100,4,2,4,60,0,0
28479,-100,4,2,5,60,0,0
32891,-100,4,2,4,60,0,0
33185,-100,4,2,5,60,0,0
34949,-100,4,2,4,60,0,0
35538,-100,4,2,7,60,0,0
36420,-100,4,2,3,60,0,0
37891,-100,4,2,1,85,0,0
56714,-100,4,2,2,85,0,0
57008,-100,4,2,5,60,0,0
61126,-100,4,2,4,60,0,0
61420,-100,4,2,5,60,0,0
65832,-100,4,2,4,60,0,0
66126,-100,4,2,5,60,0,0
70538,-100,4,2,4,60,0,0
70832,-100,4,2,5,60,0,0
75538,-100,4,2,1,60,0,0
75832,-100,4,2,5,60,0,0
79949,-100,4,2,4,60,0,0
80243,-100,4,2,5,60,0,0
84655,-100,4,2,4,60,0,0
84949,-100,4,2,5,60,0,0
89361,-100,4,2,4,60,0,0
89655,-100,4,2,5,60,0,0
93185,-100,4,2,7,60,0,0
93479,-100,4,2,11,60,0,0
93773,-100,4,2,10,60,0,0
94361,-100,4,2,3,85,0,0
94655,-100,4,2,6,60,0,0
98773,-100,4,2,4,60,0,0
99067,-100,4,2,6,60,0,0
103773,-100,4,2,2,60,0,0
104067,-100,4,2,6,60,0,0
110243,-100,4,2,4,60,0,0
110832,618.556701030928,4,2,1,100,1,0
113306,549.450549450549,4,2,1,100,1,0
117152,555.555555555556,4,2,4,70,1,0
117429,621.761658031088,4,2,4,70,1,0
117739,588.235294117647,4,2,2,85,1,0
118327,552.995391705069,4,2,5,70,1,0
118879,555.555555555556,4,2,5,70,1,0
119434,569.80056980057,4,2,5,70,1,0
119718,550.45871559633,4,2,7,70,1,0
119993,553.50553505535,4,2,5,70,1,0
120546,552.995391705069,4,2,5,70,1,0
121098,551.470588235294,4,2,5,70,1,0
121649,552.995391705069,4,2,4,70,1,0
122201,550.45871559633,4,2,2,85,1,0
122476,-100,4,2,5,70,0,0
122751,545.454545454546,4,2,5,70,1,0
123296,553.50553505535,4,2,5,70,1,0
123849,555.555555555556,4,2,5,70,1,0
124126,-100,4,2,3,85,0,0
124404,540.540540540541,4,2,5,70,1,0
124944,558.139534883721,4,2,5,70,1,0
125502,540.540540540541,4,2,5,70,1,0
126042,553.50553505535,4,2,4,70,1,0
126595,549.450549450549,4,2,1,70,1,0
126869,-100,4,2,1,40,0,0
127144,-100,4,2,1,45,0,0
127419,-100,4,2,1,50,0,0
127693,-100,4,2,1,55,0,0
127968,-100,4,2,1,60,0,0
128243,-100,4,2,1,65,0,0
128518,-100,4,2,1,70,0,0
128793,544.21768707483,4,2,1,75,1,0
129065,-100,4,2,1,80,0,0
129337,-100,4,2,1,85,0,0
129609,-100,4,2,1,90,0,0
130969,545.454545454546,4,2,1,100,1,1
130969,-66.6666666666667,4,2,1,100,0,1
131241,-66.6666666666667,4,2,1,70,0,1
135332,-66.6666666666667,4,2,2,85,0,1
135605,-66.6666666666667,4,2,1,70,0,1
139150,-66.6666666666667,4,2,3,70,0,1
139696,-66.6666666666667,4,2,1,100,0,1
139969,-66.6666666666667,4,2,1,70,0,1
143923,-66.6666666666667,4,2,1,45,0,1
144059,-66.6666666666667,4,2,2,70,0,1
144332,-66.6666666666667,4,2,1,70,0,1
146105,-66.6666666666667,4,2,1,45,0,1
146241,-66.6666666666667,4,2,1,70,0,1
146787,-66.6666666666667,4,2,3,85,0,1
147059,-66.6666666666667,4,2,1,70,0,1
147605,-66.6666666666667,4,2,1,85,0,1
147741,-66.6666666666667,4,2,1,45,0,1
147878,-66.6666666666667,4,2,1,85,0,1
148150,-66.6666666666667,4,2,11,85,0,1
148423,-66.6666666666667,4,2,1,100,0,1
148696,-66.6666666666667,4,2,1,70,0,1
152787,-66.6666666666667,4,2,1,85,0,1
153059,-66.6666666666667,4,2,1,70,0,1
156605,-66.6666666666667,4,2,3,70,0,1
157150,-66.6666666666667,4,2,2,100,0,1
157423,-66.6666666666667,4,2,1,70,0,1
161378,-66.6666666666667,4,2,1,45,0,1
161514,-66.6666666666667,4,2,2,85,0,1
161787,-66.6666666666667,4,2,1,70,0,1
163559,-66.6666666666667,4,2,1,45,0,1
163696,-66.6666666666667,4,2,1,85,0,1
164241,-66.6666666666667,4,2,3,85,0,1
164514,-66.6666666666667,4,2,3,45,0,1
164582,-66.6666666666667,4,2,3,50,0,1
164650,-66.6666666666667,4,2,3,55,0,1
164719,-66.6666666666667,4,2,3,60,0,1
164787,-100,4,2,1,100,0,0
165059,-100,4,2,12,85,0,0
165332,-100,4,2,11,85,0,0
165605,-100,4,2,10,85,0,0
165878,-100,4,2,3,85,0,0
166150,-100,4,2,6,70,0,0
170241,-100,4,2,1,85,0,0
170514,-100,4,2,6,70,0,0
174605,-100,4,2,2,85,0,0
174878,-100,4,2,6,70,0,0
178969,-100,4,2,1,85,0,0
179241,-100,4,2,6,70,0,0
180878,-100,4,2,3,85,0,0
181150,-100,4,2,11,85,0,0
181332,-100,4,2,10,85,0,0
181423,-100,4,2,9,85,0,0
181969,-100,4,2,12,85,0,0
182423,-100,4,2,11,85,0,0
182787,-100,4,2,10,85,0,0
183332,-66.6666666666667,4,2,1,100,0,1
183605,-66.6666666666667,4,2,1,70,0,1
187696,-66.6666666666667,4,2,2,85,0,1
187969,-66.6666666666667,4,2,1,70,0,1
191514,-66.6666666666667,4,2,3,70,0,1
192059,-66.6666666666667,4,2,1,100,0,1
192332,-66.6666666666667,4,2,1,70,0,1
196423,-66.6666666666667,4,2,2,85,0,1
196696,-66.6666666666667,4,2,1,70,0,1
197514,-66.6666666666667,4,2,3,85,0,1
197787,-66.6666666666667,4,2,10,85,0,1
198059,-66.6666666666667,4,2,10,100,0,1
198332,-100,4,2,1,100,0,0
198400,-100,4,2,1,5,0,0
200787,563.115908024402,4,2,1,85,1,0
200787,-142.857142857143,4,2,1,85,0,0
201350,-142.857142857143,4,2,1,45,0,0
203564,556.586270871985,4,2,1,45,1,0
203564,-142.857142857143,4,2,1,45,0,0
205261,566.037735849057,4,2,1,45,1,0
205261,-142.857142857143,4,2,1,45,0,0
205827,571.428571428571,4,2,1,45,1,0
205827,-142.857142857143,4,2,1,45,0,0
208055,555.555555555556,4,2,1,45,1,0
208055,-142.857142857143,4,2,1,45,0,0
209758,568.181818181818,4,2,2,45,1,0
209758,-142.857142857143,4,2,2,45,0,0
210326,-142.857142857143,4,2,2,45,0,0
216576,573.339703774486,4,2,2,70,1,0
218869,573.202770480057,4,2,1,85,1,0
223454,570.342205323194,4,2,1,75,1,0
223454,-100,4,2,1,75,0,0
228016,571.973307912297,4,2,3,65,1,0
228016,-100,4,2,3,65,0,0
232591,572.519083969466,4,2,2,55,1,0
232591,-100,4,2,2,55,0,0
237171,560.747663551402,4,2,1,100,1,1
237171,-66.6666666666667,4,2,1,100,0,1
237451,-66.6666666666667,4,2,1,70,0,1
239413,555.555555555556,4,2,1,70,1,1
241635,551.977920883165,4,2,1,70,1,1
243842,546.448087431694,4,2,1,70,1,1
246027,545.454545454546,4,2,1,70,1,1
253117,-100,4,2,3,85,0,1
253390,-100,4,2,1,70,0,1
253663,-100,4,2,2,85,0,1
254481,-100,4,2,10,85,0,1
254754,-83.3333333333333,4,2,1,100,0,1
255027,-83.3333333333333,4,2,1,70,0,1
256117,-76.9230769230769,4,2,1,70,0,1
256936,-71.4285714285714,4,2,1,70,0,1
257481,-66.6666666666667,4,2,1,70,0,1
261299,-60.6060606060606,4,2,1,70,0,1
262936,-60.6060606060606,4,2,3,70,0,1
263481,-66.6666666666667,4,2,1,100,0,1
263754,-66.6666666666667,4,2,1,70,0,1
267845,-66.6666666666667,4,2,2,85,0,1
268117,-66.6666666666667,4,2,1,70,0,1
269481,540.540540540541,4,2,3,85,1,1
269481,-66.6666666666667,4,2,3,85,0,1
270021,544.464609800363,4,2,1,85,1,0
270021,-66.6666666666667,4,2,1,85,0,0
270066,-66.6666666666667,4,2,11,85,0,0
270157,-66.6666666666667,4,2,10,85,0,0
270293,-66.6666666666667,4,2,1,85,0,0
270520,-66.6666666666667,4,2,11,85,0,0
270610,-66.6666666666667,4,2,10,85,0,0
270701,-66.6666666666667,4,2,1,85,0,0
270928,-66.6666666666667,4,2,11,85,0,0
271019,-66.6666666666667,4,2,10,85,0,0
271109,-66.6666666666667,4,2,1,85,0,0
271336,-66.6666666666667,4,2,11,85,0,0
271427,-66.6666666666667,4,2,10,85,0,0
271518,-66.6666666666667,4,2,1,85,0,0
271654,-66.6666666666667,4,2,11,85,0,0
271745,-66.6666666666667,4,2,10,85,0,0
271835,-66.6666666666667,4,2,1,85,0,0
272198,564.440263405456,4,2,1,100,1,1
272198,-66.6666666666667,4,2,1,100,0,1
272480,545.454545454546,4,2,1,70,1,1
272480,-66.6666666666667,4,2,1,70,0,1
272752,545.454545454546,4,2,1,70,1,1
272752,-66.6666666666667,4,2,1,70,0,1
274389,545.454545454546,4,2,1,70,1,1
274389,-66.6666666666667,4,2,1,70,0,1
276570,-66.6666666666667,4,2,2,100,0,1
276661,-66.6666666666667,4,2,1,70,0,1
280934,-66.6666666666667,4,2,3,100,0,1
281025,-66.6666666666667,4,2,1,70,0,1
286934,-66.6666666666667,4,2,3,70,0,1
287479,-66.6666666666667,4,2,1,85,0,1
287889,-66.6666666666667,4,2,2,85,0,1
288298,-66.6666666666667,4,2,1,85,0,1
288707,-66.6666666666667,4,2,3,85,0,1
289116,-66.6666666666667,4,2,12,85,0,1
289298,-66.6666666666667,4,2,11,85,0,1
289479,-66.6666666666667,4,2,10,85,0,1
289661,544.959128065395,4,2,1,100,1,0
289661,-100,4,2,1,100,0,0
297835,-200,4,2,7,40,0,0
298380,-200,4,2,2,40,0,0
302195,-142.857142857143,4,2,7,50,0,0
302740,547.19562243502,4,2,2,60,1,0
303287,-100,4,2,4,50,0,0
303834,-100,4,2,3,70,0,0
304107,-100,4,2,3,55,0,0
304381,-100,4,2,3,65,0,0
304655,-100,4,2,3,75,0,0
304928,-100,4,2,3,85,0,0
305019,-100,4,2,3,55,0,0
305202,-100,4,2,3,85,0,0
305293,-100,4,2,3,55,0,0
305475,-100,4,2,12,85,0,0
305658,-100,4,2,9,85,0,0
305749,-100,4,2,11,85,0,0
305931,-100,4,2,10,85,0,0
306296,-100,4,2,3,85,0,0
307117,545.454545454546,4,2,1,100,1,1
307117,-66.6666666666667,4,2,1,100,0,1
307389,-66.6666666666667,4,2,1,70,0,1
311480,-66.6666666666667,4,2,2,85,0,1
311753,-66.6666666666667,4,2,1,70,0,1
315298,-66.6666666666667,4,2,3,70,0,1
315844,-66.6666666666667,4,2,1,100,0,1
316117,-66.6666666666667,4,2,1,70,0,1
320207,-66.6666666666667,4,2,2,85,0,1
320480,-66.6666666666667,4,2,1,70,0,1
321844,-66.6666666666667,4,2,3,85,0,1
322117,-66.6666666666667,4,2,2,70,0,0
324571,-66.6666666666667,4,2,1,100,0,1
324844,-66.6666666666667,4,2,1,70,0,1
328935,-66.6666666666667,4,2,2,85,0,1
329207,-66.6666666666667,4,2,1,70,0,1
332753,-66.6666666666667,4,2,3,70,0,1
333298,-66.6666666666667,4,2,1,100,0,1
333571,-66.6666666666667,4,2,1,70,0,1
337117,-66.6666666666667,4,2,3,70,0,1
337662,-66.6666666666667,4,2,1,100,0,1
337935,-66.6666666666667,4,2,2,70,0,1
338753,-66.6666666666667,4,2,3,85,0,1
339026,-66.6666666666667,4,2,10,85,0,1
339571,-100,4,2,1,100,0,0
339844,-100,4,2,7,70,0,0
340026,-100,4,2,7,55,0,0
340207,-100,4,2,7,70,0,0
340571,-100,4,2,12,85,0,0
340935,-100,4,2,11,85,0,0
341117,-100,4,2,9,85,0,0
341298,-100,4,2,11,85,0,0
341662,-100,4,2,10,85,0,0
342026,537.634408602151,4,2,1,100,1,0
342832,-100,4,2,11,70,0,0
344176,-100,4,2,10,70,0,0
346327,533.807829181495,4,2,1,85,1,0
347127,-100,4,2,10,70,0,0
349351,555.555555555556,4,2,9,85,1,0
349536,527.704485488127,4,2,1,85,1,0
349799,-100,4,2,2,65,0,0
350063,-100,4,2,2,75,0,0
350327,-100,4,2,2,85,0,0
350591,530.973451327434,4,2,3,100,1,1
350591,-66.6666666666667,4,2,3,100,0,1
351121,-66.6666666666667,4,2,1,70,0,1
352714,526.315789473684,4,2,1,100,1,1
352714,-66.6666666666667,4,2,1,100,0,1
352977,-66.6666666666667,4,2,1,70,0,1
358503,-66.6666666666667,4,2,3,70,0,1
359029,-66.6666666666667,4,2,2,100,0,1
359292,-66.6666666666667,4,2,1,70,0,1
361661,-66.6666666666667,4,2,3,70,0,1
363240,-66.6666666666667,4,2,1,70,0,1
364819,-66.6666666666667,4,2,2,85,0,1
365082,-66.6666666666667,4,2,1,70,0,1
366398,-66.6666666666667,4,2,2,70,0,1
366485,-66.6666666666667,4,2,2,55,0,1
366924,-66.6666666666667,4,2,3,70,0,1
367012,-66.6666666666667,4,2,3,55,0,1
367450,-66.6666666666667,4,2,1,70,0,1
370082,-66.6666666666667,4,2,3,70,0,1
370345,-66.6666666666667,4,2,1,70,0,1
371135,-66.6666666666667,4,2,1,100,0,1
371266,-66.6666666666667,4,2,1,70,0,1
371661,-66.6666666666667,4,2,3,70,0,1
371924,-66.6666666666667,4,2,1,70,0,1
373240,-66.6666666666667,4,2,2,70,0,1
373766,-66.6666666666667,4,2,3,70,0,1
375345,-66.6666666666667,4,2,10,85,0,1
375871,-66.6666666666667,4,2,1,85,0,1
376003,-66.6666666666667,4,2,1,70,0,1
377450,-66.6666666666667,4,2,2,70,0,1
377977,-66.6666666666667,4,2,3,70,0,1
378503,-66.6666666666667,4,2,2,70,0,1
379029,-66.6666666666667,4,2,3,70,0,1
380082,-66.6666666666667,4,2,1,85,0,1
380345,-66.6666666666667,4,2,3,70,0,1
381661,-66.6666666666667,4,2,2,85,0,1
382187,-66.6666666666667,4,2,3,85,0,1
382275,-66.6666666666667,4,2,3,50,0,1
382714,-66.6666666666667,4,2,3,70,0,1
382801,-66.6666666666667,4,2,3,50,0,1
382977,-66.6666666666667,4,2,3,70,0,1
383240,-66.6666666666667,4,2,1,70,0,1
383766,-66.6666666666667,4,2,1,85,0,1
383942,-66.6666666666667,4,2,1,70,0,1
384227,-66.6666666666667,4,2,1,100,0,0
384292,-66.6666666666667,4,2,1,100,0,1
384556,-66.6666666666667,4,2,1,70,0,1
388503,-66.6666666666667,4,2,1,100,0,1
388766,-66.6666666666667,4,2,1,70,0,1
391924,-66.6666666666667,4,2,3,85,0,1
392714,-66.6666666666667,4,2,1,100,0,1
392977,-66.6666666666667,4,2,1,70,0,1
393766,-66.6666666666667,4,2,3,70,0,1
394029,-66.6666666666667,4,2,1,70,0,1
394819,-66.6666666666667,4,2,3,85,0,1
395082,-66.6666666666667,4,2,2,70,0,1
395477,-66.6666666666667,4,2,3,70,0,1
395871,-66.6666666666667,4,2,2,100,0,1
396135,-66.6666666666667,4,2,3,70,0,1
396924,-66.6666666666667,4,2,1,100,0,1
397187,-66.6666666666667,4,2,1,70,0,1
398503,-66.6666666666667,4,2,3,70,0,1
399029,-66.6666666666667,4,2,3,85,0,1
399161,-66.6666666666667,4,2,1,40,0,1
399292,-66.6666666666667,4,2,1,55,0,1
399424,-66.6666666666667,4,2,1,70,0,1
399556,-66.6666666666667,4,2,1,85,0,1
400082,-66.6666666666667,4,2,12,85,0,1
400345,-66.6666666666667,4,2,11,85,0,1
400608,-66.6666666666667,4,2,10,85,0,1
401135,-66.6666666666667,4,2,1,100,0,1
401398,-66.6666666666667,4,2,1,70,0,1
405345,-66.6666666666667,4,2,2,100,0,1
405608,-66.6666666666667,4,2,1,70,0,1
409029,-66.6666666666667,4,2,3,85,0,1
409556,-66.6666666666667,4,2,2,100,0,1
409819,-66.6666666666667,4,2,1,70,0,1
412187,-66.6666666666667,4,2,3,70,0,1
413766,-66.6666666666667,4,2,1,100,0,1
414029,-66.6666666666667,4,2,1,70,0,1
416398,-66.6666666666667,4,2,3,85,0,1
416661,-66.6666666666667,4,2,3,70,0,1
417012,-66.6666666666667,4,2,3,55,0,1
417450,-66.6666666666667,4,2,3,70,0,1
417538,-66.6666666666667,4,2,3,55,0,1
417889,-66.6666666666667,4,2,1,55,0,0
417977,-66.6666666666667,4,2,1,100,0,1
418240,-66.6666666666667,4,2,1,70,0,1
420082,-66.6666666666667,4,2,1,100,0,1
420345,-66.6666666666667,4,2,1,70,0,1
420608,-66.6666666666667,4,2,3,85,0,1
420871,-66.6666666666667,4,2,1,70,0,1
421661,-66.6666666666667,4,2,2,70,0,1
421836,-66.6666666666667,4,2,1,70,0,1
422187,-66.6666666666667,4,2,3,100,0,1
422450,-66.6666666666667,4,2,1,70,0,1
423240,-66.6666666666667,4,2,2,70,0,1
424292,-66.6666666666667,4,2,3,70,0,1
425477,-66.6666666666667,4,2,3,45,0,1
425608,-66.6666666666667,4,2,3,55,0,1
425740,-66.6666666666667,4,2,3,65,0,1
425871,-66.6666666666667,4,2,3,75,0,1
426003,-66.6666666666667,4,2,3,85,0,1
426398,-66.6666666666667,4,2,2,100,0,1
426661,-66.6666666666667,4,2,1,70,0,1
427714,-66.6666666666667,4,2,3,70,0,1
428503,-66.6666666666667,4,2,2,70,0,1
428898,-66.6666666666667,4,2,3,70,0,1
429292,-66.6666666666667,4,2,1,100,0,1
429556,-66.6666666666667,4,2,3,70,0,1
430608,-66.6666666666667,4,2,1,70,0,1
431135,-66.6666666666667,4,2,3,70,0,1
432187,-66.6666666666667,4,2,2,70,0,1
432714,-66.6666666666667,4,2,3,70,0,1
432801,-66.6666666666667,4,2,3,55,0,1
433240,-66.6666666666667,4,2,3,70,0,1
433328,-66.6666666666667,4,2,3,55,0,1
433766,-66.6666666666667,4,2,2,70,0,1
434819,-66.6666666666667,4,2,2,100,0,1
435082,-66.6666666666667,4,2,1,70,0,1
438503,-66.6666666666667,4,2,3,70,0,1
439029,-66.6666666666667,4,2,3,100,0,1
439117,-66.6666666666667,4,2,1,70,0,1
441661,-66.6666666666667,4,2,3,70,0,1
442363,-66.6666666666667,4,2,11,85,0,1
442538,-66.6666666666667,4,2,9,85,0,1
442714,-66.6666666666667,4,2,10,85,0,1
442977,-66.6666666666667,4,2,9,85,0,1
443240,-66.6666666666667,4,2,1,100,0,1
443503,-66.6666666666667,4,2,1,70,0,1
444556,-125,4,2,1,70,0,1
445082,-86.9565217391304,4,2,1,70,0,1
445871,-66.6666666666667,4,2,1,70,0,1
446003,-200,4,2,1,40,0,1
446398,-66.6666666666667,4,2,1,70,0,1
448108,-200,4,2,1,40,0,1
448503,-66.6666666666667,4,2,1,70,0,1
449556,-66.6666666666667,4,2,3,85,0,1
449950,-66.6666666666667,4,2,2,85,0,1
450740,-66.6666666666667,4,2,3,85,0,1
450871,-66.6666666666667,4,2,1,40,0,1
450959,-66.6666666666667,4,2,1,55,0,1
451047,-66.6666666666667,4,2,1,70,0,1
451135,-66.6666666666667,4,2,1,85,0,1
451222,-66.6666666666667,4,2,12,70,0,1
451398,-66.6666666666667,4,2,11,85,0,1
451485,-66.6666666666667,4,2,10,85,0,1
451661,-66.6666666666667,4,2,1,100,0,1
451924,-66.6666666666667,4,2,1,70,0,1
452714,-86.9565217391304,4,2,1,70,0,1
453240,-66.6666666666667,4,2,1,70,0,1
456661,-66.6666666666667,4,2,1,55,0,1
456924,-66.6666666666667,4,2,1,70,0,1
459556,-66.6666666666667,4,2,3,85,0,1
460082,-66.6666666666667,4,2,1,100,0,1
460257,-66.6666666666667,4,2,1,70,0,1
462714,-66.6666666666667,4,2,2,85,0,1
462845,-66.6666666666667,4,2,2,70,0,1
463240,-66.6666666666667,4,2,3,70,0,1
465871,-66.6666666666667,4,2,2,70,0,1
466398,-66.6666666666667,4,2,1,70,0,1
466924,-66.6666666666667,4,2,3,70,0,1
468503,-100,4,2,1,100,0,0
468636,-100,4,2,1,5,0,0

[Colours]
Combo1 : 234,213,149
Combo2 : 128,202,202
Combo3 : 128,128,202
Combo4 : 128,165,202
Combo5 : 165,128,202
Combo6 : 234,149,149
Combo7 : 234,181,149
Combo8 : 234,149,181

[HitObjects]
36,240,244,5,6,0:0:0:0:
152,288,538,2,0,P|184:280|236:272,1,70,8|2,0:0|0:0,0:0:0:0:
400,324,1126,2,0,P|368:332|332:328,1,70,4|2,0:0|0:0,0:0:0:0:
376,156,1714,1,4,0:0:0:0:
364,260,2008,1,10,0:0:0:0:
36,240,2596,6,0,L|28:168,1,70,6|8,0:0|0:0,0:0:0:0:
168,104,3185,1,2,0:0:0:0:
168,104,3479,2,0,L|160:176,1,70,4|2,0:0|0:0,0:0:0:0:
276,176,4067,2,0,L|268:248,2,70,4|10|2,0:0|0:0|0:0,0:0:0:0:
420,104,4949,5,6,0:0:0:0:
472,220,5243,2,0,P|464:252|456:292,1,70,8|2,0:0|0:0,0:0:0:0:
276,176,5832,2,0,P|268:144|260:104,1,70,4|2,0:0|0:0,0:0:0:0:
132,240,6420,1,4,0:0:0:0:
112,344,6714,1,10,0:0:0:0:
340,120,7302,6,0,P|332:84|320:48,1,70,6|8,0:0|0:0,0:0:0:0:
240,240,7891,1,2,0:0:0:0:
240,240,8185,2,0,P|248:276|260:312,1,70,4|2,0:0|0:0,0:0:0:0:
96,176,8773,2,0,P|104:140|116:104,2,70,4|10|2,0:0|0:0|0:0,0:0:0:0:
196,340,9655,69,6,0:0:0:0:
320,308,9949,2,0,P|356:316|392:320,1,70,8|2,0:0|0:0,0:0:0:0:
240,240,10538,2,0,P|208:244|172:252,1,70,4|2,0:0|0:0,0:0:0:0:
36,148,11126,1,4,0:0:0:0:
140,168,11420,1,10,0:0:0:0:
408,40,12008,6,0,L|404:112,1,70,6|8,0:0|0:0,0:0:0:0:
288,208,12596,1,2,0:0:0:0:
288,208,12891,2,0,P|256:212|216:208,1,70,4|2,0:0|0:0,0:0:0:0:
384,300,13479,2,0,P|416:296|456:300,2,70,4|10|2,0:0|0:0|0:0,0:0:0:0:
232,356,14361,5,6,0:0:0:0:
148,264,14655,2,0,L|144:192,1,70,8|2,0:0|0:0,0:0:0:0:
316,300,15243,2,0,L|312:372,1,70,4|2,0:0|0:0,0:0:0:0:
80,292,15832,1,4,0:0:0:0:
72,188,16126,1,10,0:0:0:0:
316,300,16714,6,0,P|280:304|244:300,1,70,6|8,0:0|0:0,0:0:0:0:
136,195,17302,1,2,0:0:0:0:
136,195,17596,2,0,B|128:187|128:187|120:191|120:191|104:183|72:187,1,70,4|2,0:0|0:0,0:0:0:0:
92,264,18185,1,4,0:0:0:0:
252,180,18479,5,10,0:0:0:0:
216,36,18773,1,8,0:0:0:0:
284,48,18920,1,8,0:0:0:0:
352,60,19067,53,6,0:0:0:0:
252,180,19361,2,0,P|248:212|244:256,1,70,8|2,0:0|0:0,0:0:0:0:
424,88,19949,2,0,L|420:53|416:18,1,70,4|2,0:0|0:0,0:0:0:0:
356,200,20538,1,4,0:0:0:0:
460,220,20832,1,10,0:0:0:0:
148,160,21420,6,0,P|112:152|72:148,1,70,6|8,0:0|0:0,0:0:0:0:
32,288,22008,1,2,0:0:0:0:
32,288,22302,2,0,P|68:280|108:276,1,70,4|2,0:0|0:0,0:0:0:0:
232,304,22891,2,0,L|224:376,2,70,4|10|2,0:0|0:0|0:0,0:0:0:0:
308,188,23773,5,6,0:0:0:0:
216,84,24067,2,0,L|208:12,1,70,8|2,0:0|0:0,0:0:0:0:
352,112,24655,2,0,P|316:120|284:116,1,70,4|2,0:0|0:0,0:0:0:0:
148,52,25243,1,4,0:0:0:0:
160,156,25538,1,10,0:0:0:0:
352,340,26126,6,0,P|384:344|420:336,1,70,6|8,0:0|0:0,0:0:0:0:
260,224,26714,1,2,0:0:0:0:
260,224,27008,2,0,L|268:296,1,70,4|2,0:0|0:0,0:0:0:0:
400,160,27596,2,0,L|408:88,2,70,4|10|2,0:0|0:0|0:0,0:0:0:0:
260,224,28479,69,6,0:0:0:0:
144,176,28773,2,0,P|112:168|72:164,1,70,8|2,0:0|0:0,0:0:0:0:
60,288,29361,2,0,P|92:296|128:288,1,70,4|2,0:0|0:0,0:0:0:0:
144,176,29949,1,4,0:0:0:0:
40,164,30243,1,10,0:0:0:0:
232,328,30832,6,0,P|264:320|304:316,1,70,6|8,0:0|0:0,0:0:0:0:
428,212,31420,1,2,0:0:0:0:
428,212,31714,2,0,B|420:220|420:220|412:216|412:216|396:224|364:220,1,70,4|2,0:0|0:0,0:0:0:0:
248,128,32302,2,0,L|240:56,2,70,4|10|2,0:0|0:0|0:0,0:0:0:0:
176,256,33185,5,6,0:0:0:0:
72,184,33479,2,0,P|64:148|60:116,1,70,8|2,0:0|0:0,0:0:0:0:
176,256,34067,2,0,P|171:290|163:324,1,70,4|2,0:0|0:0,0:0:0:0:
72,184,34655,1,4,0:0:0:0:
184,144,34949,1,10,0:0:0:0:
156,356,35391,5,0,0:0:0:0:
156,356,35464,1,0,0:0:0:0:
156,356,35538,1,6,0:0:0:0:
280,260,35832,1,8,0:0:0:0:
72,184,36126,1,4,0:0:0:0:
360,288,36420,1,6,0:0:0:0:
208,232,37891,69,6,0:0:0:0:
208,232,56714,5,6,0:0:0:0:
256,108,57008,2,0,P|248:72|244:36,1,70,8|2,0:0|0:0,0:0:0:0:
384,176,57596,2,0,P|379:210|372:244,1,70,4|2,0:0|0:0,0:0:0:0:
252,316,58185,1,4,0:0:0:0:
120,268,58479,1,10,0:0:0:0:
88,132,58773,6,0,P|84:96|84:60,1,70,0|6,0:0|0:0,0:0:0:0:
200,160,59361,1,8,0:0:0:0:
60,208,59655,1,2,0:0:0:0:
200,160,59949,2,0,P|236:148|268:140,1,70,4|2,0:0|0:0,0:0:0:0:
384,252,60538,1,4,0:0:0:0:
252,316,60832,1,10,0:0:0:0:
128,236,61126,1,2,0:0:0:0:
304,176,61420,5,6,0:0:0:0:
336,340,61714,1,8,0:0:0:0:
168,348,62008,1,2,0:0:0:0:
168,348,62302,2,0,P|132:340|96:336,1,70,4|2,0:0|0:0,0:0:0:0:
311,245,62891,1,4,0:0:0:0:
311,245,63185,2,0,P|345:240|379:233,1,70,10|0,0:0|0:0,0:0:0:0:
164,104,63773,69,6,0:0:0:0:
120,200,64067,2,0,P|125:234|128:272,1,70,8|2,0:0|0:0,0:0:0:0:
311,245,64655,1,4,0:0:0:0:
336,72,64949,1,2,0:0:0:0:
164,104,65243,1,4,0:0:0:0:
311,245,65538,2,0,L|380:232,1,70,10|2,0:0|0:0,0:0:0:0:
164,104,66126,5,6,0:0:0:0:
92,208,66420,2,0,P|88:244|96:276,1,70,8|2,0:0|0:0,0:0:0:0:
303,314,67008,2,0,L|311:242,1,70,4|2,0:0|0:0,0:0:0:0:
172,236,67596,1,4,0:0:0:0:
303,314,67891,1,10,0:0:0:0:
420,216,68185,6,0,L|424:144,1,70,0|6,0:0|0:0,0:0:0:0:
264,76,68773,1,8,0:0:0:0:
280,180,69067,1,2,0:0:0:0:
160,140,69361,2,0,P|136:132|88:120,1,70,4|2,0:0|0:0,0:0:0:0:
8,312,69949,1,4,0:0:0:0:
144,346,70243,1,10,0:0:0:0:
178,212,70538,1,2,0:0:0:0:
44,176,70833,5,6,0:0:0:0:
120,284,71126,2,0,P|148:280|192:276,1,70,8|2,0:0|0:0,0:0:0:0:
360,340,71714,2,0,P|328:352|292:344,1,70,4|2,0:0|0:0,0:0:0:0:
178,212,72302,1,4,0:0:0:0:
328,180,72596,1,10,0:0:0:0:
178,212,72891,70,0,P|148:208|108:204,1,70,0|6,0:0|0:0,0:0:0:0:
280,84,73479,2,0,B|288:76|288:76|296:79|296:79|316:72|348:76,1,70,8|2,0:0|0:0,0:0:0:0:
448,224,74067,1,4,0:0:0:0:
252,264,74361,1,2,0:0:0:0:
384,132,74655,1,4,0:0:0:0:
360,360,74949,53,10,0:0:0:0:
252,264,75243,1,8,0:0:0:0:
184,248,75391,1,8,0:0:0:0:
116,232,75538,69,6,0:0:0:0:
248,136,75832,2,0,P|280:128|328:120,1,70,8|2,0:0|0:0,0:0:0:0:
284,328,76420,2,0,P|252:336|216:328,1,70,4|2,0:0|0:0,0:0:0:0:
380,192,77008,1,4,0:0:0:0:
368,296,77302,1,10,0:0:0:0:
248,136,77596,6,0,P|280:132|316:144,1,70,0|6,0:0|0:0,0:0:0:0:
184,248,78185,1,8,0:0:0:0:
88,204,78479,1,2,0:0:0:0:
248,136,78773,2,0,L|256:64,1,70,4|2,0:0|0:0,0:0:0:0:
88,204,79361,1,4,0:0:0:0:
240,300,79655,1,10,0:0:0:0:
336,148,79949,1,2,0:0:0:0:
88,204,80243,5,6,0:0:0:0:
240,300,80538,2,0,L|308:288,1,70,8|2,0:0|0:0,0:0:0:0:
140,284,81126,2,0,P|140:320|152:352,1,70,4|2,0:0|0:0,0:0:0:0:
312,352,81714,1,4,0:0:0:0:
340,216,82008,1,10,0:0:0:0:
240,120,82302,70,0,L|252:52,1,70,0|6,0:0|0:0,0:0:0:0:
340,216,82891,2,0,L|328:284,1,70,8|2,0:0|0:0,0:0:0:0:
188,364,83479,1,4,0:0:0:0:
80,264,83773,1,2,0:0:0:0:
252,208,84067,1,4,0:0:0:0:
20,128,84361,1,10,0:0:0:0:
120,328,84655,1,2,0:0:0:0:
244,140,84949,5,6,0:0:0:0:
112,200,85243,2,0,L|40:192,1,70,8|2,0:0|0:0,0:0:0:0:
216,64,85832,2,0,P|252:60|284:68,1,70,4|2,0:0|0:0,0:0:0:0:
368,180,86420,1,4,0:0:0:0:
304,304,86714,1,10,0:0:0:0:
472,312,87008,6,0,P|469:278|468:240,1,70,0|6,0:0|0:0,0:0:0:0:
304,304,87596,1,8,0:0:0:0:
204,340,87891,1,2,0:0:0:0:
96,268,88185,2,0,P|92:233|84:200,1,70,4|2,0:0|0:0,0:0:0:0:
304,304,88773,1,4,0:0:0:0:
96,268,89067,1,10,0:0:0:0:
336,196,89361,1,2,0:0:0:0:
188,352,89655,5,6,0:0:0:0:
96,268,89949,2,0,L|104:196,1,70,8|2,0:0|0:0,0:0:0:0:
244,256,90538,2,0,P|248:292|244:328,1,70,4|2,0:0|0:0,0:0:0:0:
212,152,91126,1,4,0:0:0:0:
212,152,91420,2,0,P|208:116|212:80,1,70,10|0,0:0|0:0,0:0:0:0:
360,268,92008,69,6,0:0:0:0:
360,268,92302,2,0,B|368:260|368:260|376:263|376:263|396:256|428:260,1,70,8|2,0:0|0:0,0:0:0:0:
244,352,92891,1,4,0:0:0:0:
144,176,93185,1,10,0:0:0:0:
324,56,93479,1,4,0:0:0:0:
360,268,93773,1,4,0:0:0:0:
324,56,94067,1,8,0:0:0:0:
360,268,94361,5,6,0:0:0:0:
152,296,94655,2,0,P|120:288|84:284,1,70,8|2,0:0|0:0,0:0:0:0:
0,168,95243,2,0,P|32:176|68:168,1,70,4|2,0:0|0:0,0:0:0:0:
156,16,95832,1,4,0:0:0:0:
156,16,96126,2,0,L|148:88,1,70,10|0,0:0|0:0,0:0:0:0:
196,188,96714,5,6,0:0:0:0:
340,132,97008,2,0,L|412:140,1,70,8|2,0:0|0:0,0:0:0:0:
232,256,97596,2,0,P|196:264|160:256,1,70,4|2,0:0|0:0,0:0:0:0:
292,196,98185,1,4,0:0:0:0:
192,332,98479,1,10,0:0:0:0:
64,224,98773,1,2,0:0:0:0:
164,88,99067,5,6,0:0:0:0:
292,196,99361,2,0,L|360:184,1,70,8|2,0:0|0:0,0:0:0:0:
340,52,99949,2,0,P|304:52|272:60,1,70,4|2,0:0|0:0,0:0:0:0:
308,276,100538,1,4,0:0:0:0:
308,276,100832,2,0,P|344:276|376:268,1,70,10|0,0:0|0:0,0:0:0:0:
460,176,101420,69,6,0:0:0:0:
352,116,101714,2,0,L|284:128,1,70,8|2,0:0|0:0,0:0:0:0:
176,220,102302,1,4,0:0:0:0:
316,336,102596,1,2,0:0:0:0:
352,116,102891,1,4,0:0:0:0:
108,244,103185,1,10,0:0:0:0:
380,368,103479,1,0,0:0:0:0:
280,100,103773,5,6,0:0:0:0:
176,220,104067,2,0,L|184:292,1,70,8|2,0:0|0:0,0:0:0:0:
368,272,104655,2,0,P|372:240|360:204,1,70,4|2,0:0|0:0,0:0:0:0:
248,316,105243,1,4,0:0:0:0:
380,368,105538,2,0,L|448:352,1,70,10|0,0:0|0:0,0:0:0:0:
484,244,106126,5,6,0:0:0:0:
372,212,106420,2,0,P|364:176|360:144,1,70,8|2,0:0|0:0,0:0:0:0:
260,247,107008,2,0,P|252:283|248:315,1,70,4|2,0:0|0:0,0:0:0:0:
156,208,107596,1,4,0:0:0:0:
248,104,107891,2,0,P|243:69|235:35,1,70,10|0,0:0|0:0,0:0:0:0:
132,12,108479,5,6,0:0:0:0:
68,96,108773,2,0,L|80:164,1,70,8|2,0:0|0:0,0:0:0:0:
224,236,109361,1,4,0:0:0:0:
140,348,109655,1,2,0:0:0:0:
36,220,109949,1,4,0:0:0:0:
268,172,110243,1,10,0:0:0:0:
184,292,110832,69,6,0:0:0:0:
144,268,117152,6,0,P|140:236|132:196,1,70,8|2,0:0|0:0,0:0:0:0:
228,64,117739,5,6,0:0:0:0:
200,220,118327,5,6,0:0:0:0:
320,80,118879,1,6,0:0:0:0:
200,220,119434,5,6,0:0:0:0:
120,12,119718,1,2,0:0:0:0:
412,96,119993,69,6,0:0:0:0:
268,184,120546,1,6,0:0:0:0:
464,176,121098,1,6,0:0:0:0:
268,184,121649,2,0,P|232:176|199:172,1,70,6|0,0:0|0:0,0:0:0:0:
136,200,122063,1,0,0:0:0:0:
72,228,122201,6,0,P|37:223|4:216,1,70,6|0,0:0|0:0,0:0:0:0:
56,116,122751,1,6,0:0:0:0:
88,332,123296,1,6,0:0:0:0:
3,216,123849,5,6,0:0:0:0:
280,248,124126,1,10,0:0:0:0:
88,332,124404,5,6,0:0:0:0:
56,116,124944,1,6,0:0:0:0:
56,116,125223,1,2,0:0:0:0:
152,164,125502,2,0,L|188:160,2,35,6|0|2,0:0|0:0|0:0,0:0:0:0:
332,68,126042,1,10,0:0:0:0:
332,68,126595,5,6,0:0:0:0:
332,68,126869,1,8,0:0:0:0:
296,204,127144,1,8,0:0:0:0:
196,104,127419,1,8,0:0:0:0:
332,68,127693,1,8,0:0:0:0:
278,273,127968,1,8,0:0:0:0:
128,122,128243,1,8,0:0:0:0:
332,68,128517,1,8,0:0:0:0:
386,271,128792,5,8,0:0:0:0:
183,325,129065,1,8,0:0:0:0:
128,122,129337,1,8,0:0:0:0:
332,68,129609,1,8,0:0:0:0:
386,271,130969,6,0,B|352:272|324:284|324:284|284:276|284:276|236:296|180:288,1,210.000008010865,6|10,0:0|0:0,0:0:0:0:
164,92,131787,2,0,P|212:80|268:84,1,105.000004005432,4|6,0:0|0:0,0:0:0:0:
224,212,132332,1,4,0:0:0:0:
64,160,132605,2,0,B|56:120|56:120|60:96|60:96|52:56,1,105.000004005432,10|4,0:0|0:0,0:0:0:0:
128,236,133150,6,0,P|81:260|29:255,1,105.000004005432,6|4,0:0|0:0,0:0:0:0:
160,164,133696,1,10,0:0:0:0:
308,220,133969,2,0,P|348:212|412:204,1,105.000004005432,4|6,0:0|0:0,0:0:0:0:
380,344,134514,1,4,0:0:0:0:
232,192,134787,1,10,0:0:0:0:
360,24,135059,1,4,0:0:0:0:
508,176,135332,70,0,B|512:208|512:208|500:240|460:260,1,105.000004005432,6|4,0:0|0:0,0:0:0:0:
292,144,135878,1,10,0:0:0:0:
128,236,136150,2,0,P|84:228|24:220,1,105.000004005432,4|6,0:0|0:0,0:0:0:0:
180,60,136696,1,4,0:0:0:0:
240,316,136969,1,10,0:0:0:0:
24,220,137241,1,4,0:0:0:0:
292,144,137514,6,0,P|340:132|400:120,1,105.000004005432,6|4,0:0|0:0,0:0:0:0:
376,288,138059,1,10,0:0:0:0:
244,248,138332,2,0,P|196:236|136:224,1,105.000004005432,4|6,0:0|0:0,0:0:0:0:
164,384,138878,1,4,0:0:0:0:
376,288,139150,1,10,0:0:0:0:
140,160,139423,1,4,0:0:0:0:
164,384,139696,6,0,P|216:384|264:364,1,105.000004005432,6|4,0:0|0:0,0:0:0:0:
140,160,140241,2,0,P|88:160|40:180,1,105.000004005432,10|4,0:0|0:0,0:0:0:0:
8,340,140787,1,6,0:0:0:0:
164,384,141059,1,4,0:0:0:0:
140,160,141332,1,10,0:0:0:0:
8,340,141605,1,4,0:0:0:0:
292,284,141878,6,0,P|300:236|304:180,1,105.000004005432,6|4,0:0|0:0,0:0:0:0:
76,256,142423,2,0,P|79:308|88:360,1,105.000004005432,10|4,0:0|0:0,0:0:0:0:
292,284,142969,1,6,0:0:0:0:
140,160,143241,1,4,0:0:0:0:
332,72,143514,2,0,P|376:64|436:56,1,105.000004005432,10|4,0:0|0:0,0:0:0:0:
360,160,143923,1,8,0:0:0:0:
356,164,143991,1,8,0:0:0:0:
352,168,144059,70,0,P|300:160|248:156,1,105.000004005432,6|4,0:0|0:0,0:0:0:0:
76,256,144605,1,10,0:0:0:0:
152,356,144878,2,0,P|200:364|252:344,1,105.000004005432,4|6,0:0|0:0,0:0:0:0:
140,160,145423,2,0,B|100:156|100:156|76:144|76:144|36:140,2,105.000004005432,4|10|4,0:0|0:0|0:0,0:0:0:0:
240,120,146105,1,8,0:0:0:0:
240,120,146173,1,8,0:0:0:0:
240,120,146241,6,0,P|280:116|344:112,1,105.000004005432,6|4,0:0|0:0,0:0:0:0:
476,248,146787,1,10,0:0:0:0:
212,312,147059,1,4,0:0:0:0:
348,40,147332,1,6,0:0:0:0:
212,312,147605,6,0,P|184:304|160:300,1,52.5000020027161,6|8,0:0|0:0,0:0:0:0:
156,292,147809,1,8,0:0:0:0:
152,284,147878,2,0,P|148:256|148:232,1,52.5000020027161,8|8,0:0|0:0,0:0:0:0:
168,148,148150,1,8,0:0:0:0:
168,148,148423,6,0,B|196:156|220:168|220:168|284:144|372:132,1,210.000008010865,6|10,0:0|0:0,0:0:0:0:
388,288,149241,2,0,P|344:308|288:300,1,105.000004005432,4|6,0:0|0:0,0:0:0:0:
228,188,149787,1,4,0:0:0:0:
312,96,150059,2,0,L|416:104,1,105.000004005432,10|4,0:0|0:0,0:0:0:0:
212,312,150605,69,6,0:0:0:0:
44,288,150878,1,4,0:0:0:0:
232,296,151150,1,10,0:0:0:0:
104,188,151423,1,4,0:0:0:0:
252,280,151696,1,6,0:0:0:0:
416,220,151969,1,4,0:0:0:0:
276,64,152241,1,10,0:0:0:0:
104,188,152514,1,4,0:0:0:0:
244,360,152787,6,0,P|292:348|348:340,1,105.000004005432,6|4,0:0|0:0,0:0:0:0:
207,206,153332,2,0,P|159:194|101:187,1,105.000004005432,10|4,0:0|0:0,0:0:0:0:
76,352,153878,2,0,P|116:372|176:372,1,105.000004005432,6|4,0:0|0:0,0:0:0:0:
220,132,154423,2,0,P|180:108|124:116,1,105.000004005432,10|4,0:0|0:0,0:0:0:0:
236,328,154969,6,0,B|260:344|260:344|296:348|336:332,1,105.000004005432,6|4,0:0|0:0,0:0:0:0:
408,180,155514,2,0,B|416:140|416:140|412:116|412:116|420:76,1,105.000004005432,10|4,0:0|0:0,0:0:0:0:
476,196,156059,1,6,0:0:0:0:
408,180,156196,1,8,0:0:0:0:
340,164,156332,1,4,0:0:0:0:
456,352,156605,1,10,0:0:0:0:
456,352,156878,1,4,0:0:0:0:
200,264,157150,6,0,B|172:257|148:256|148:256|130:237|104:224,1,105.000004005432,6|4,0:0|0:0,0:0:0:0:
188,160,157696,1,10,0:0:0:0:
160,340,157969,2,0,P|108:336|68:300,1,105.000004005432,4|6,0:0|0:0,0:0:0:0:
188,160,158514,1,4,0:0:0:0:
188,160,158787,1,10,0:0:0:0:
340,232,159059,1,4,0:0:0:0:
460,116,159332,70,0,P|460:68|432:20,1,105.000004005432,6|0,0:0|0:0,0:0:0:0:
340,232,159878,2,0,P|340:280|368:328,1,105.000004005432,10|0,0:0|0:0,0:0:0:0:
444,256,160423,1,6,0:0:0:0:
236,208,160696,1,4,0:0:0:0:
28,160,160969,2,0,B|12:140|12:140|12:100|36:64,1,105.000004005432,10|4,0:0|0:0,0:0:0:0:
136,136,161378,1,8,0:0:0:0:
136,136,161446,1,8,0:0:0:0:
136,136,161514,6,0,B|144:172|144:172|140:200|140:200|148:240,1,105.000004005432,6|4,0:0|0:0,0:0:0:0:
304,300,162059,1,10,0:0:0:0:
428,188,162332,2,0,P|428:132|400:92,1,105.000004005432,4|6,0:0|0:0,0:0:0:0:
304,300,162878,1,4,0:0:0:0:
204,144,163150,1,10,0:0:0:0:
144,336,163423,2,0,L|92:344,1,52.5000020027161,4|8,0:0|0:0,0:0:0:0:
80,340,163628,1,8,0:0:0:0:
68,336,163696,6,0,L|52:284,2,52.5000020027161,6|0|4,0:0|0:0|0:0,0:0:0:0:
256,352,164241,1,10,0:0:0:0:
444,368,164514,1,8,0:0:0:0:
448,356,164582,1,8,0:0:0:0:
452,344,164650,1,8,0:0:0:0:
456,332,164719,1,8,0:0:0:0:
460,320,164787,5,8,0:0:0:0:
200,204,165059,1,8,0:0:0:0:
304,300,165332,1,8,0:0:0:0:
436,248,165605,1,8,0:0:0:0:
200,204,165878,6,0,P|168:200|128:196,1,70,6|4,0:0|0:0,0:0:0:0:
28,188,166423,1,10,0:0:0:0:
28,188,166969,2,0,P|36:152|32:120,1,70,6|4,0:0|0:0,0:0:0:0:
4,48,167514,1,10,0:0:0:0:
108,88,167787,2,0,L|180:80,2,70,4|6|4,0:0|0:0|0:0,0:0:0:0:
272,128,168605,1,10,0:0:0:0:
272,128,169150,5,6,0:0:0:0:
184,284,169423,1,4,0:0:0:0:
108,88,169696,1,10,0:0:0:0:
108,88,169969,1,0,0:0:0:0:
304,196,170241,6,0,B|352:192|352:192|388:172|388:172|440:168,1,140,6|10,0:0|0:0,0:0:0:0:
438,168,171332,1,6,0:0:0:0:
352,304,171605,1,4,0:0:0:0:
192,284,171878,1,10,0:0:0:0:
176,124,172150,1,4,0:0:0:0:
280,140,172423,5,2,0:0:0:0:
184,204,172696,1,4,0:0:0:0:
80,164,172969,1,10,0:0:0:0:
80,164,173378,69,4,0:0:0:0:
84,168,173514,1,6,0:0:0:0:
192,284,173787,1,4,0:0:0:0:
280,140,174059,1,10,0:0:0:0:
80,164,174332,1,0,0:0:0:0:
192,284,174605,6,0,B|216:308|216:308|268:312|316:280,1,140,6|10,0:0|0:0,0:0:0:0:
316,279,175696,2,0,P|348:272|388:268,1,70,6|4,0:0|0:0,0:0:0:0:
260,372,176241,1,10,0:0:0:0:
192,284,176514,2,0,L|196:212,2,70,4|2|4,0:0|0:0|0:0,0:0:0:0:
112,364,177332,1,10,0:0:0:0:
112,364,177878,5,6,0:0:0:0:
100,252,178150,1,4,0:0:0:0:
84,140,178423,1,10,0:0:0:0:
224,204,178696,1,4,0:0:0:0:
240,92,178969,5,6,0:0:0:0:
240,92,179514,1,10,0:0:0:0:
240,92,180059,1,6,0:0:0:0:
84,140,180332,1,4,0:0:0:0:
132,296,180605,1,10,0:0:0:0:
288,248,180878,1,6,0:0:0:0:
240,92,181150,6,0,L|232:68,2,23.3333333333333,8|4|8,0:0|0:0|0:0,0:0:0:0:
152,88,181423,2,0,L|144:64,2,23.3333333333333,4|4|4,0:0|0:0|0:0,0:0:0:0:
84,140,181696,2,0,L|96:180,1,35,8|8,0:0|0:0,0:0:0:0:
132,296,181969,2,0,L|128:328,2,23.3333333333333,8|4|4,0:0|0:0|0:0,0:0:0:0:
168,224,182241,5,8,0:0:0:0:
194,207,182331,1,4,0:0:0:0:
224,200,182422,1,8,0:0:0:0:
255,202,182513,1,8,0:0:0:0:
283,214,182604,1,4,0:0:0:0:
307,233,182695,1,4,0:0:0:0:
324,260,182787,1,8,0:0:0:0:
340,286,182877,1,8,0:0:0:0:
364,306,182968,1,8,0:0:0:0:
392,317,183059,1,4,0:0:0:0:
423,320,183150,1,4,0:0:0:0:
453,312,183241,1,4,0:0:0:0:
480,296,183332,6,0,B|483:262|496:236|496:236|460:208|460:208|480:156|472:104,1,210.000008010865,6|10,0:0|0:0,0:0:0:0:
284,16,184150,1,4,0:0:0:0:
194,207,184423,2,0,B|182:243|182:243|198:311,1,105.000004005432,6|4,0:0|0:0,0:0:0:0:
352,164,184969,1,10,0:0:0:0:
152,100,185241,2,0,P|116:92|44:84,1,105.000004005432,4|6,0:0|0:0,0:0:0:0:
72,292,185787,5,4,0:0:0:0:
276,352,186059,2,0,P|324:344|380:340,2,105.000004005432,10|4|6,0:0|0:0|0:0,0:0:0:0:
72,292,186878,1,4,0:0:0:0:
240,104,187150,1,10,0:0:0:0:
276,352,187423,1,4,0:0:0:0:
16,236,187696,70,0,P|8:184|24:136,1,105.000004005432,6|4,0:0|0:0,0:0:0:0:
284,251,188241,2,0,P|292:303|276:351,1,105.000004005432,10|4,0:0|0:0,0:0:0:0:
92,192,188787,1,6,0:0:0:0:
312,104,189059,1,4,0:0:0:0:
212,292,189332,1,10,0:0:0:0:
24,135,189605,1,4,0:0:0:0:
312,104,189878,6,0,L|320:52,2,52.5000020027161,6|8|4,0:0|0:0|0:0,0:0:0:0:
212,292,190423,2,0,P|160:300|108:284,1,105.000004005432,10|4,0:0|0:0,0:0:0:0:
24,135,190969,1,6,0:0:0:0:
84,152,191105,1,8,0:0:0:0:
144,172,191241,2,0,P|160:169|196:165,1,52.5000020027161,4|0,0:0|0:0,0:0:0:0:
272,236,191514,2,0,B|292:252|292:252|328:252|372:240,1,105.000004005432,10|4,0:0|0:0,0:0:0:0:
216,132,192059,6,0,P|156:204|188:308,1,210.000008010865,6|10,0:0|0:0,0:0:0:0:
376,224,192878,1,4,0:0:0:0:
376,224,193150,2,0,P|328:228|268:236,1,105.000004005432,6|4,0:0|0:0,0:0:0:0:
20,108,193696,1,10,0:0:0:0:
115,152,193969,2,0,P|167:152|215:132,1,105.000004005432,4|6,0:0|0:0,0:0:0:0:
20,108,194514,5,4,0:0:0:0:
0,212,194787,2,0,B|8:250|8:250|24:268|24:268|36:312,2,105.000004005432,10|4|6,0:0|0:0|0:0,0:0:0:0:
115,152,195605,1,0,0:0:0:0:
180,308,195878,1,10,0:0:0:0:
292,84,196150,1,4,0:0:0:0:
424,312,196423,70,0,P|384:344|332:348,1,105.000004005432,6|4,0:0|0:0,0:0:0:0:
292,84,196969,1,10,0:0:0:0:
488,224,197241,1,4,0:0:0:0:
492,228,197378,1,4,0:0:0:0:
496,232,197514,1,10,0:0:0:0:
180,308,197787,1,4,0:0:0:0:
304,16,198059,1,8,0:0:0:0:
424,312,198332,5,6,0:0:0:0:
256,192,198400,12,6,200787,0:0:0:0:
208,256,201350,37,0,0:0:0:0:
120,208,201631,2,0,P|76:196|24:188,2,97.9999970092774
208,256,203564,5,0,0:0:0:0:
284,192,203842,2,0,L|292:92,1,97.9999970092774
208,256,205261,6,0,P|248:284|296:292,1,97.9999970092774
192,164,206112,2,0,L|92:172,2,97.9999970092774
380,104,208055,5,0,0:0:0:0:
448,192,208332,2,0,L|440:292,1,97.9999970092774
176,288,209758,70,0,P|164:240|176:192,1,97.9999970092774,2|0,0:0|0:0,0:0:0:0:
336,228,210610,2,0,L|236:240,2,97.9999970092774
292,120,212030,6,0,B|284:112|284:112|276:120|276:120|252:104|204:100,1,97.9999970092774
124,176,212883,2,0,P|168:196|216:188,1,97.9999970092774
124,176,214303,6,0,L|136:276,1,97.9999970092774
280,252,215155,2,0,P|280:204|264:156,1,97.9999970092774
84,236,216292,1,0,0:0:0:0:
148,280,218869,5,6,0:0:0:0:
208,100,223454,69,6,0:0:0:0:
328,308,228016,5,6,0:0:0:0:
64,196,232591,5,6,0:0:0:0:
152,300,237171,54,0,B|224:308|224:308|288:292|288:292|360:300,1,210.000008010865,6|10,0:0|0:0,0:0:0:0:
488,192,238012,1,4,0:0:0:0:
360,84,238292,2,0,B|288:92|288:92|224:76|224:76|152:84,1,210.000008010865,6|10,0:0|0:0,0:0:0:0:
24,192,239133,1,4,0:0:0:0:
152,300,239413,5,6,0:0:0:0:
184,311,239505,1,0,0:0:0:0:
219,307,239598,1,0,0:0:0:0:
247,288,239690,1,0,0:0:0:0:
275,268,239782,1,0,0:0:0:0:
310,264,239875,1,0,0:0:0:0:
342,276,239968,2,0,P|376:260|408:248,1,70,10|4,0:0|0:0,0:0:0:0:
436,100,240524,1,6,0:0:0:0:
409,77,240616,1,0,0:0:0:0:
378,62,240709,1,0,0:0:0:0:
343,54,240801,1,0,0:0:0:0:
309,55,240894,1,0,0:0:0:0:
275,65,240986,1,0,0:0:0:0:
245,83,241079,2,0,P|212:72|176:64,1,70,10|4,0:0|0:0,0:0:0:0:
84,284,241635,70,0,P|116:296|152:300,1,70,6|4,0:0|0:0,0:0:0:0:
340,284,242186,1,10,0:0:0:0:
352,251,242277,1,0,0:0:0:0:
348,217,242369,1,0,0:0:0:0:
329,188,242461,1,0,0:0:0:0:
299,170,242553,1,0,0:0:0:0:
264,169,242645,1,0,0:0:0:0:
232,183,242738,1,6,0:0:0:0:
200,197,242829,1,0,0:0:0:0:
165,195,242921,1,0,0:0:0:0:
135,178,243013,1,0,0:0:0:0:
116,149,243105,1,0,0:0:0:0:
112,114,243197,1,0,0:0:0:0:
124,82,243290,2,0,P|152:60|188:52,1,70,10|4,0:0|0:0,0:0:0:0:
354,61,243842,5,6,0:0:0:0:
383,78,243933,1,0,0:0:0:0:
403,107,244024,1,0,0:0:0:0:
409,141,244115,1,0,0:0:0:0:
401,174,244206,1,0,0:0:0:0:
378,201,244297,1,0,0:0:0:0:
348,217,244388,1,10,0:0:0:0:
316,232,244479,1,0,0:0:0:0:
294,258,244570,1,0,0:0:0:0:
285,292,244661,1,0,0:0:0:0:
291,326,244752,1,0,0:0:0:0:
311,355,244843,1,0,0:0:0:0:
341,372,244934,2,0,L|376:368,2,35,6|8|4,0:0|0:0|0:0,0:0:0:0:
184,312,245481,2,0,P|152:304|116:300,1,70,10|4,0:0|0:0,0:0:0:0:
16,200,246027,5,6,0:0:0:0:
48,212,246117,1,0,0:0:0:0:
83,216,246208,1,0,0:0:0:0:
117,211,246299,1,0,0:0:0:0:
150,197,246390,1,0,0:0:0:0:
177,176,246481,1,0,0:0:0:0:
199,149,246572,2,0,P|232:144|272:144,1,70,10|0,0:0|0:0,0:0:0:0:
400,280,247117,2,0,P|379:254|359:219,1,70,6|0,0:0|0:0,0:0:0:0:
413,40,247663,2,0,P|401:70|381:105,1,70,10|0,0:0|0:0,0:0:0:0:
199,149,248208,5,6,0:0:0:0:
168,134,248298,1,0,0:0:0:0:
152,104,248389,1,0,0:0:0:0:
158,70,248480,1,0,0:0:0:0:
184,48,248571,1,0,0:0:0:0:
218,46,248662,1,0,0:0:0:0:
246,66,248754,1,10,0:0:0:0:
271,90,248844,1,0,0:0:0:0:
303,103,248935,1,0,0:0:0:0:
338,105,249026,1,0,0:0:0:0:
371,93,249117,1,0,0:0:0:0:
397,70,249208,1,0,0:0:0:0:
413,39,249299,2,0,L|412:4,2,35,6|8|4,0:0|0:0|0:0,0:0:0:0:
360,220,249845,2,0,B|356:240|356:240|360:248|360:248|352:264|348:300,1,70,10|4,0:0|0:0,0:0:0:0:
456,188,250390,69,6,0:0:0:0:
439,157,250480,1,0,0:0:0:0:
413,134,250571,1,0,0:0:0:0:
381,120,250662,1,0,0:0:0:0:
346,118,250753,1,0,0:0:0:0:
312,128,250844,1,0,0:0:0:0:
284,147,250936,2,0,P|268:144|216:136,1,70,10|4,0:0|0:0,0:0:0:0:
36,284,251481,1,6,0:0:0:0:
57,311,251571,1,0,0:0:0:0:
87,328,251662,1,0,0:0:0:0:
122,333,251753,1,0,0:0:0:0:
156,325,251844,1,0,0:0:0:0:
184,305,251935,1,0,0:0:0:0:
203,276,252027,2,0,P|208:244|204:204,1,70,10|4,0:0|0:0,0:0:0:0:
112,56,252572,5,6,0:0:0:0:
97,87,252662,1,0,0:0:0:0:
98,122,252753,1,0,0:0:0:0:
116,152,252845,1,0,0:0:0:0:
133,182,252935,1,0,0:0:0:0:
134,216,253026,1,0,0:0:0:0:
120,248,253117,2,0,P|112:284|108:324,1,70,10|4,0:0|0:0,0:0:0:0:
300,360,253663,1,6,0:0:0:0:
384,184,253936,1,6,0:0:0:0:
208,100,254208,1,8,0:0:0:0:
272,72,254345,1,8,0:0:0:0:
336,44,254481,1,8,0:0:0:0:
300,360,254754,6,0,P|256:368|216:360,1,83.9999974365235,6|4,0:0|0:0,0:0:0:0:
144,312,255163,2,0,L|100:304,1,41.9999987182618,0|10,0:0|0:0,0:0:0:0:
268,144,255572,2,0,P|308:152|344:176,1,83.9999974365235,4|6,0:0|0:0,0:0:0:0:
96,216,256117,2,0,B|84:180|84:180|88:168|88:168|72:124,2,90.9999958343508,4|10|4,0:0|0:0|0:0,0:0:0:0:
300,360,256936,6,0,P|325:356|348:356,1,48.9999985046387,6|0,0:0|0:0,0:0:0:0:
372,252,257208,2,0,P|392:238|416:228,1,48.9999985046387,4|0,0:0|0:0,0:0:0:0:
391,123,257481,2,0,B|380:100|380:100|352:100|352:100|320:64|260:56,1,157.500006008148,10|0,0:0|0:0,0:0:0:0:
188,116,258027,2,0,B|164:128|164:128|136:124|136:124|96:148|36:136,1,157.500006008148,6|0,0:0|0:0,0:0:0:0:
104,68,258572,2,0,P|132:128|100:208,1,157.500006008148,10|0,0:0|0:0,0:0:0:0:
40,280,259117,70,0,B|68:304|68:304|100:292|100:292|144:324|200:324,1,157.500006008148,6|0,0:0|0:0,0:0:0:0:
268,292,259663,2,0,B|292:279|304:264|304:264|336:264|336:264|348:232|384:196,1,157.500006008148,10|0,0:0|0:0,0:0:0:0:
408,327,260208,2,0,B|376:336|376:336|352:308|352:308|308:312|268:292,1,157.500006008148,6|0,0:0|0:0,0:0:0:0:
200,224,260754,2,0,B|180:204|180:204|156:212|156:212|140:188|140:188|100:200|60:180,1,157.500006008148,10|0,0:0|0:0,0:0:0:0:
112,80,261299,6,0,B|128:72|128:72|136:84|136:84|152:64|152:64|172:80|172:80|208:56|260:64,1,173.250001652241,6|0,0:0|0:0,0:0:0:0:
336,152,261845,2,0,B|356:168|356:168|372:160|372:160|440:176|484:112,1,173.250001652241,10|0,0:0|0:0,0:0:0:0:
400,80,262390,2,0,B|400:104|396:124|396:124|428:152|428:152|404:184|400:232,1,173.250001652241,6|0,0:0|0:0,0:0:0:0:
340,320,262936,2,0,B|320:336|320:336|304:300|304:300|264:316|188:312,1,173.250001652241,10|0,0:0|0:0,0:0:0:0:
100,240,263481,6,0,B|92:217|76:200|76:200|95:187|112:168|112:168|72:128|80:60,1,210.000008010865,6|10,0:0|0:0,0:0:0:0:
284,72,264299,1,0,0:0:0:0:
303,110,264390,1,0,0:0:0:0:
286,148,264481,1,0,0:0:0:0:
295,189,264572,1,6,0:0:0:0:
280,220,264663,1,0,0:0:0:0:
276,256,264754,1,0,0:0:0:0:
252,280,264845,5,0,0:0:0:0:
240,304,264936,1,0,0:0:0:0:
212,304,265027,1,0,0:0:0:0:
188,316,265117,1,10,0:0:0:0:
168,308,265208,1,0,0:0:0:0:
148,308,265299,1,0,0:0:0:0:
128,312,265390,1,0,0:0:0:0:
117,291,265480,1,0,0:0:0:0:
104,271,265571,1,0,0:0:0:0:
89,253,265662,1,6,0:0:0:0:
72,237,265753,1,0,0:0:0:0:
53,224,265844,1,0,0:0:0:0:
33,212,265936,2,0,L|20:180,2,35.0000013351441
92,152,266208,2,0,L|87:116,2,35.0000013351441,10|0|0,0:0|0:0|0:0,0:0:0:0:
166,183,266481,69,0,0:0:0:0:
174,184,266549,1,0,0:0:0:0:
182,185,266617,1,0,0:0:0:0:
190,186,266685,1,0,0:0:0:0:
198,187,266754,2,0,L|232:192,3,26.2500010013581,6|0|0|0,0:0|0:0|0:0|0:0,0:0:0:0:
228,124,267027,2,0,L|253:121,3,26.2500010013581
192,64,267299,1,10,0:0:0:0:
109,239,267572,6,0,P|113:259|117:291,1,52.5000020027161,4|0,0:0|0:0,0:0:0:0:
188,264,267845,2,0,P|260:244|344:240,1,157.500006008148,6|0,0:0|0:0,0:0:0:0:
264,176,268390,2,0,P|212:160|160:152,1,105.000004005432,10|0,0:0|0:0,0:0:0:0:
256,100,268799,2,0,P|280:92|308:88,2,52.5000020027161,0|6|0,0:0|0:0|0:0,0:0:0:0:
192,64,269208,2,0,P|168:56|140:52,1,52.5000020027161,4|0,0:0|0:0,0:0:0:0:
248,16,269481,1,10,0:0:0:0:
196,280,270021,6,0,L|188:312,2,17.500000667572,8|8|4,0:0|0:0|0:0,0:0:0:0:
196,280,270157,2,0,P|221:269|248:264,1,52.5000020027161,8|4,0:0|0:0,0:0:0:0:
352,272,270429,2,0,L|376:276,6,17.500000667572,8|8|8|4|8|4|4,0:0|0:0|0:0|0:0|0:0|0:0|0:0,0:0:0:0:
264,192,270837,2,0,L|240:188,6,17.500000667572,8|8|8|4|8|4|4,0:0|0:0|0:0|0:0|0:0|0:0|0:0,0:0:0:0:
356,148,271246,2,0,L|380:144,6,17.500000667572,8|8|8|4|8|4|4,0:0|0:0|0:0|0:0|0:0|0:0|0:0,0:0:0:0:
268,88,271654,6,0,L|248:80,4,17.500000667572,8|4|8|4|4,0:0|0:0|0:0|0:0|0:0,0:0:0:0:
200,124,271926,2,0,L|148:132,1,52.5000020027161,8|8,0:0|0:0,0:0:0:0:
36,220,272198,70,0,P|20:268|40:320,1,105.000004005432,6|4,0:0|0:0,0:0:0:0:
267,283,272752,2,0,P|287:211|199:123,1,210.000008010865,10|6,0:0|0:0,0:0:0:0:
96,268,273570,1,4,0:0:0:0:
96,268,273842,2,0,B|114:260|114:260|140:260|140:260|168:248|200:240,1,105.000004005432,10|4,0:0|0:0,0:0:0:0:
388,276,274389,5,6,0:0:0:0:
422,277,274479,1,0,0:0:0:0:
454,264,274570,1,0,0:0:0:0:
476,237,274661,1,0,0:0:0:0:
485,204,274752,1,0,0:0:0:0:
477,170,274843,1,0,0:0:0:0:
455,143,274934,2,0,B|436:132|436:132|412:136|412:136|385:128|352:132,1,105.000004005432,10|4,0:0|0:0,0:0:0:0:
193,239,275479,1,6,0:0:0:0:
164,259,275569,1,0,0:0:0:0:
131,269,275660,1,0,0:0:0:0:
96,268,275751,1,0,0:0:0:0:
64,255,275842,1,0,0:0:0:0:
38,232,275933,1,0,0:0:0:0:
20,202,276025,2,0,B|24:176|24:176|16:152|16:152|28:92,1,105.000004005432,10|4,0:0|0:0,0:0:0:0:
212,24,276570,5,6,0:0:0:0:
243,39,276660,1,0,0:0:0:0:
266,65,276751,1,0,0:0:0:0:
279,97,276842,1,0,0:0:0:0:
280,132,276933,1,0,0:0:0:0:
269,165,277024,1,0,0:0:0:0:
247,192,277116,1,10,0:0:0:0:
225,218,277206,1,0,0:0:0:0:
213,251,277297,1,0,0:0:0:0:
214,286,277388,1,0,0:0:0:0:
228,318,277479,1,0,0:0:0:0:
251,344,277570,1,0,0:0:0:0:
282,360,277661,2,0,L|316:368,5,35.0000013351441,6|0|0|0|0|0,0:0|0:0|0:0|0:0|0:0|0:0,0:0:0:0:
312,268,278207,2,0,L|345:260,5,35.0000013351441,10|0|0|0|0|0,0:0|0:0|0:0|0:0|0:0|0:0,0:0:0:0:
320,160,278752,5,6,0:0:0:0:
304,121,278842,1,0,0:0:0:0:
271,96,278933,1,0,0:0:0:0:
230,92,279024,1,0,0:0:0:0:
193,111,279115,1,0,0:0:0:0:
172,147,279207,1,0,0:0:0:0:
150,182,279297,1,10,0:0:0:0:
113,201,279388,1,0,0:0:0:0:
72,197,279479,1,0,0:0:0:0:
39,172,279570,1,0,0:0:0:0:
24,134,279661,1,0,0:0:0:0:
30,88,279751,1,0,0:0:0:0:
60,54,279842,1,6,0:0:0:0:
105,44,279933,1,0,0:0:0:0:
148,61,280024,1,0,0:0:0:0:
173,99,280115,1,0,0:0:0:0:
172,147,280206,1,0,0:0:0:0:
150,182,280298,1,0,0:0:0:0:
113,201,280389,2,0,P|104:224|96:256,1,52.5000020027161,10|0,0:0|0:0,0:0:0:0:
192,304,280661,2,0,P|185:278|175:254,1,52.5000020027161
128,352,280934,69,6,0:0:0:0:
154,373,281024,1,0,0:0:0:0:
188,382,281115,1,0,0:0:0:0:
222,376,281206,1,0,0:0:0:0:
250,356,281297,1,0,0:0:0:0:
267,325,281388,1,0,0:0:0:0:
270,291,281479,1,10,0:0:0:0:
272,256,281569,1,0,0:0:0:0:
289,226,281660,1,0,0:0:0:0:
317,205,281751,1,0,0:0:0:0:
351,199,281842,1,0,0:0:0:0:
385,208,281933,1,0,0:0:0:0:
412,230,282025,2,0,L|448:240,5,35.0000013351441,6|0|0|0|0|0,0:0|0:0|0:0|0:0|0:0|0:0,0:0:0:0:
456,148,282570,2,0,L|492:141,5,35.0000013351441,10|0|0|0|0|0,0:0|0:0|0:0|0:0|0:0|0:0,0:0:0:0:
368,96,283116,5,6,0:0:0:0:
334,84,283206,1,0,0:0:0:0:
300,86,283297,1,0,0:0:0:0:
268,100,283388,1,0,0:0:0:0:
243,124,283479,1,0,0:0:0:0:
218,148,283569,1,0,0:0:0:0:
185,157,283660,1,10,0:0:0:0:
152,148,283751,1,0,0:0:0:0:
128,122,283842,1,0,0:0:0:0:
121,89,283933,1,0,0:0:0:0:
132,56,284024,1,0,0:0:0:0:
158,33,284115,1,0,0:0:0:0:
192,28,284207,5,6,0:0:0:0:
226,34,284297,1,0,0:0:0:0:
250,58,284388,1,0,0:0:0:0:
257,92,284479,1,0,0:0:0:0:
243,124,284570,1,0,0:0:0:0:
229,155,284660,1,0,0:0:0:0:
235,189,284751,1,10,0:0:0:0:
260,213,284842,1,0,0:0:0:0:
293,220,284934,1,0,0:0:0:0:
326,226,285024,1,0,0:0:0:0:
351,250,285115,1,0,0:0:0:0:
357,284,285206,1,0,0:0:0:0:
343,316,285298,5,6,0:0:0:0:
316,337,285388,1,0,0:0:0:0:
282,345,285479,1,0,0:0:0:0:
249,336,285570,1,0,0:0:0:0:
223,313,285661,1,0,0:0:0:0:
209,281,285752,1,0,0:0:0:0:
212,247,285843,1,10,0:0:0:0:
214,212,285933,1,0,0:0:0:0:
201,180,286024,1,0,0:0:0:0:
175,157,286115,1,0,0:0:0:0:
141,148,286206,1,0,0:0:0:0:
107,156,286297,1,0,0:0:0:0:
80,177,286389,69,6,0:0:0:0:
77,201,286479,1,0,0:0:0:0:
75,224,286570,1,0,0:0:0:0:
72,247,286661,1,0,0:0:0:0:
69,270,286752,1,0,0:0:0:0:
67,293,286843,1,0,0:0:0:0:
64,316,286934,6,0,P|92:328|116:332,1,52.5000020027161,10|0,0:0|0:0,0:0:0:0:
209,281,287207,2,0,P|236:269|260:265,1,52.5000020027161,10|0,0:0|0:0,0:0:0:0:
360,328,287479,6,0,P|412:336|456:312,1,105.000004005432,6|0,0:0|0:0,0:0:0:0:
376,164,287889,2,0,L|400:268,1,105.000004005432,6|0,0:0|0:0,0:0:0:0:
336,100,288298,2,0,P|284:92|240:116,1,105.000004005432,6|0,0:0|0:0,0:0:0:0:
320,264,288708,2,0,L|296:160,1,105.000004005432,6|0,0:0|0:0,0:0:0:0:
252,308,289116,5,8,0:0:0:0:
276,332,289206,1,4,0:0:0:0:
309,343,289297,1,8,0:0:0:0:
343,340,289389,1,4,0:0:0:0:
377,336,289479,1,8,0:0:0:0:
410,347,289570,1,4,0:0:0:0:
434,372,289661,5,6,0:0:0:0:
48,264,297835,6,0,L|44:228,1,35,2|0,0:0|0:0,0:0:0:0:
80,160,298380,1,2,0:0:0:0:
136,232,302195,6,0,L|132:280,1,48.9999985046387,2|0,0:0|0:0,0:0:0:0:
80,160,302740,1,6,0:0:0:0:
80,160,303287,1,2,0:0:0:0:
296,260,303834,5,6,0:0:0:0:
380,224,304107,1,8,0:0:0:0:
232,160,304381,1,8,0:0:0:0:
360,360,304655,1,8,0:0:0:0:
400,84,304928,5,8,0:0:0:0:
376,76,305019,1,8,0:0:0:0:
352,68,305111,1,8,0:0:0:0:
328,80,305202,1,8,0:0:0:0:
304,72,305293,1,8,0:0:0:0:
280,64,305385,1,8,0:0:0:0:
256,76,305475,5,8,0:0:0:0:
228,89,305566,1,4,0:0:0:0:
197,91,305657,1,4,0:0:0:0:
168,80,305749,1,8,0:0:0:0:
139,69,305840,1,4,0:0:0:0:
108,70,305931,1,8,0:0:0:0:
80,84,306022,1,4,0:0:0:0:
36,232,306296,5,10,0:0:0:0:
400,84,306707,1,10,0:0:0:0:
264,344,307117,86,0,B|232:360|196:360|196:360|160:344|160:344|108:360|60:344,1,210.000008010865,6|10,0:0|0:0,0:0:0:0:
104,148,307935,1,4,0:0:0:0:
104,148,308207,2,0,P|156:140|212:136,1,105.000004005432,6|4,0:0|0:0,0:0:0:0:
372,204,308753,1,10,0:0:0:0:
456,48,309026,2,0,P|408:32|352:32,1,105.000004005432,4|2,0:0|0:0,0:0:0:0:
208,136,309571,5,4,0:0:0:0:
32,108,309844,2,0,B|40:72|40:72|56:52|56:52|64:8,2,105.000004005432,10|4|6,0:0|0:0|0:0,0:0:0:0:
92,308,310662,1,4,0:0:0:0:
304,192,310935,1,10,0:0:0:0:
32,108,311207,1,4,0:0:0:0:
120,380,311480,6,0,P|168:384|220:364,1,105.000004005432,6|4,0:0|0:0,0:0:0:0:
132,91,312026,2,0,P|84:87|32:107,1,105.000004005432,10|4,0:0|0:0,0:0:0:0:
152,276,312571,1,6,0:0:0:0:
268,52,312844,1,4,0:0:0:0:
31,107,313117,1,10,0:0:0:0:
328,260,313389,1,4,0:0:0:0:
476,140,313662,6,0,P|480:88|464:36,1,105.000004005432,6|4,0:0|0:0,0:0:0:0:
236,220,314207,2,0,P|232:272|248:324,1,105.000004005432,6|4,0:0|0:0,0:0:0:0:
388,100,314753,1,6,0:0:0:0:
320,88,314889,1,8,0:0:0:0:
252,76,315026,1,4,0:0:0:0:
92,212,315298,2,0,B|80:240|80:240|96:256|96:256|80:272|72:316,1,105.000004005432,10|4,0:0|0:0,0:0:0:0:
204,152,315844,70,0,P|136:100|16:112,1,210.000008010865,6|10,0:0|0:0,0:0:0:0:
164,296,316662,1,4,0:0:0:0:
164,296,316935,2,0,P|208:288|272:280,1,105.000004005432,10|4,0:0|0:0,0:0:0:0:
480,160,317480,1,10,0:0:0:0:
404,212,317753,2,0,P|352:224|300:212,1,105.000004005432,4|6,0:0|0:0,0:0:0:0:
364,28,318298,6,0,L|352:132,1,105.000004005432,4|10,0:0|0:0,0:0:0:0:
164,296,318844,2,0,L|152:192,1,105.000004005432,4|6,0:0|0:0,0:0:0:0:
136,44,319389,1,4,0:0:0:0:
288,140,319662,1,10,0:0:0:0:
40,228,319935,1,4,0:0:0:0:
336,332,320207,6,0,P|388:324|428:292,1,105.000004005432,6|4,0:0|0:0,0:0:0:0:
248,116,320753,2,0,L|240:220,1,105.000004005432,10|4,0:0|0:0,0:0:0:0:
284,280,321162,1,4,0:0:0:0:
336,332,321298,1,6,0:0:0:0:
420,140,321571,1,4,0:0:0:0:
164,200,321844,2,0,P|120:192|56:184,1,105.000004005432,10|4,0:0|0:0,0:0:0:0:
12,248,322253,1,4,0:0:0:0:
60,312,322389,6,0,P|84:308|112:304,1,52.5000020027161,10|4,0:0|0:0,0:0:0:0:
248,264,322662,1,4,0:0:0:0:
320,296,322798,2,0,P|344:300|372:304,1,52.5000020027161,10|4,0:0|0:0,0:0:0:0:
420,140,323071,1,4,0:0:0:0:
348,108,323207,2,0,P|324:104|296:100,1,52.5000020027161,10|4,0:0|0:0,0:0:0:0:
164,200,323480,1,4,0:0:0:0:
92,232,323616,2,0,P|68:236|40:240,1,52.5000020027161,10|4,0:0|0:0,0:0:0:0:
68,96,323889,1,4,0:0:0:0:
140,64,324025,2,0,P|164:60|192:56,1,52.5000020027161,10|4,0:0|0:0,0:0:0:0:
248,264,324298,2,0,P|272:268|300:272,1,52.5000020027161,10|4,0:0|0:0,0:0:0:0:
464,188,324571,70,0,B|468:164|476:144|476:144|452:128|452:128|432:56|360:36,1,210.000008010865,6|10,0:0|0:0,0:0:0:0:
240,152,325389,1,4,0:0:0:0:
240,152,325662,2,0,P|288:164|340:148,1,105.000004005432,6|4,0:0|0:0,0:0:0:0:
180,68,326207,1,10,0:0:0:0:
104,168,326480,2,0,L|120:272,1,105.000004005432,4|6,0:0|0:0,0:0:0:0:
244,352,327026,5,4,0:0:0:0:
372,280,327298,2,0,P|424:268|476:264,2,105.000004005432,10|4|6,0:0|0:0|0:0,0:0:0:0:
244,352,328117,1,4,0:0:0:0:
104,168,328389,1,10,0:0:0:0:
364,128,328662,1,4,0:0:0:0:
244,352,328935,6,0,B|224:376|224:376|192:384|148:372,1,105.000004005432,6|4,0:0|0:0,0:0:0:0:
184,92,329480,2,0,B|204:68|204:68|236:60|280:72,1,105.000004005432,10|4,0:0|0:0,0:0:0:0:
356,332,330026,1,6,0:0:0:0:
56,288,330298,1,4,0:0:0:0:
364,128,330571,1,10,0:0:0:0:
244,352,330844,1,4,0:0:0:0:
56,288,331117,6,0,B|48:248|48:248|52:224|52:224|44:184,1,105.000004005432,6|4,0:0|0:0,0:0:0:0:
184,92,331662,2,0,B|176:132|176:132|180:156|180:156|172:196,1,105.000004005432,10|4,0:0|0:0,0:0:0:0:
244,352,332207,1,6,0:0:0:0:
312,336,332344,1,8,0:0:0:0:
380,320,332480,1,4,0:0:0:0:
460,152,332753,2,0,P|460:128|456:100,1,52.5000020027161,10|0,0:0|0:0,0:0:0:0:
340,196,333026,2,0,P|339:222|336:248,1,52.5000020027161,10|0,0:0|0:0,0:0:0:0:
240,112,333298,70,0,B|210:103|184:88|184:88|124:128|48:144,1,210.000008010865,6|10,0:0|0:0,0:0:0:0:
164,16,334117,1,4,0:0:0:0:
164,16,334389,2,0,B|160:40|160:40|148:56|148:56|136:116,1,105.000004005432,6|4,0:0|0:0,0:0:0:0:
200,256,334935,1,10,0:0:0:0:
340,196,335207,2,0,P|348:152|328:96,1,105.000004005432,4|6,0:0|0:0,0:0:0:0:
200,256,335753,5,4,0:0:0:0:
324,352,336026,2,0,B|364:348|364:348|384:336|384:336|428:332,2,105.000004005432,10|4|6,0:0|0:0|0:0,0:0:0:0:
200,256,336844,1,4,0:0:0:0:
416,108,337117,1,10,0:0:0:0:
324,352,337389,1,4,0:0:0:0:
76,160,337662,6,0,P|68:112|64:56,1,105.000004005432,6|4,0:0|0:0,0:0:0:0:
292,164,338207,2,0,P|288:216|279:268,1,105.000004005432,10|4,0:0|0:0,0:0:0:0:
208,304,338617,1,4,0:0:0:0:
136,336,338753,1,10,0:0:0:0:
244,96,339026,1,8,0:0:0:0:
396,308,339298,1,4,0:0:0:0:
136,336,339571,5,6,0:0:0:0:
32,212,339844,6,0,L|28:164,2,46.6666666666667,2|4|8,0:0|0:0|0:0,0:0:0:0:
144,124,340571,1,8,0:0:0:0:
232,244,340935,2,0,L|280:252,1,46.6666666666667,8|4,0:0|0:0,0:0:0:0:
352,224,341298,1,4,0:0:0:0:
352,224,341662,1,8,0:0:0:0:
364,304,341844,1,4,0:0:0:0:
376,384,342026,5,6,0:0:0:0:
112,296,342832,1,4,0:0:0:0:
368,72,344176,5,8,0:0:0:0:
352,224,344982,1,4,0:0:0:0:
132,108,346327,5,6,0:0:0:0:
148,260,347127,1,8,0:0:0:0:
352,224,348462,1,4,0:0:0:0:
132,108,349351,5,4,0:0:0:0:
132,108,349443,1,4,0:0:0:0:
132,108,349536,1,10,0:0:0:0:
176,336,349799,1,10,0:0:0:0:
404,292,350063,1,10,0:0:0:0:
360,64,350326,1,10,0:0:0:0:
132,108,350591,6,0,B|120:132|120:160|120:160|135:178|140:208|140:208|112:252|116:312,1,210.000008010865,6|10,0:0|0:0,0:0:0:0:
264,384,351387,1,4,0:0:0:0:
404,292,351652,2,0,P|412:240|396:188,1,105.000004005432,6|4,0:0|0:0,0:0:0:0:
296,248,352183,1,10,0:0:0:0:
488,304,352449,6,0,L|496:200,1,105.000004005432,4|6,0:0|0:0,0:0:0:0:
296,248,352977,1,4,0:0:0:0:
404,292,353240,1,10,0:0:0:0:
284,120,353503,2,0,P|240:108|180:100,1,105.000004005432,4|6,0:0|0:0,0:0:0:0:
124,140,353898,1,8,0:0:0:0:
60,120,354029,1,4,0:0:0:0:
272,32,354292,1,10,0:0:0:0:
240,260,354556,1,4,0:0:0:0:
60,120,354819,6,0,B|76:80|76:80|116:72|116:72|152:20|220:0,1,210.000008010865,6|10,0:0|0:0,0:0:0:0:
324,100,355608,1,4,0:0:0:0:
464,60,355871,1,6,0:0:0:0:
272,32,356135,1,4,0:0:0:0:
416,212,356398,1,10,0:0:0:0:
216,276,356661,70,0,P|168:268|112:264,1,105.000004005432,4|6,0:0|0:0,0:0:0:0:
60,120,357187,2,0,P|108:128|160:108,1,105.000004005432,4|10,0:0|0:0,0:0:0:0:
100,32,357714,1,4,0:0:0:0:
20,208,357977,1,6,0:0:0:0:
216,276,358240,1,4,0:0:0:0:
416,212,358503,1,10,0:0:0:0:
328,24,358766,1,4,0:0:0:0:
204,160,359029,6,0,B|156:252|260:252|200:360,1,210.000008010865,6|10,0:0|0:0,0:0:0:0:
136,300,359819,1,4,0:0:0:0:
272,204,360082,1,6,0:0:0:0:
44,156,360345,1,4,0:0:0:0:
136,300,360608,1,10,0:0:0:0:
408,108,360871,6,0,P|420:60|404:8,1,105.000004005432,4|6,0:0|0:0,0:0:0:0:
228,80,361398,1,4,0:0:0:0:
272,204,361661,1,10,0:0:0:0:
348,64,361924,1,4,0:0:0:0:
108,96,362187,2,0,P|88:140|72:196,1,105.000004005432,10|0,0:0|0:0,0:0:0:0:
80,208,362538,1,10,0:0:0:0:
88,220,362626,1,0,0:0:0:0:
96,232,362714,2,0,P|128:228|168:224,2,70.0000026702882,0|10|4,0:0|0:0|0:0,0:0:0:0:
252,328,363240,6,0,P|304:336|352:320,1,105.000004005432,6|8,0:0|0:0,0:0:0:0:
165,224,363766,1,6,0:0:0:0:
296,268,364029,1,4,0:0:0:0:
420,208,364292,1,10,0:0:0:0:
165,224,364556,1,0,0:0:0:0:
148,284,364687,1,8,0:0:0:0:
132,344,364819,1,6,0:0:0:0:
296,268,365082,69,8,0:0:0:0:
188,124,365345,1,6,0:0:0:0:
204,56,365477,2,0,L|216:0,1,52.5000020027161,8|4,0:0|0:0,0:0:0:0:
312,80,365740,1,4,0:0:0:0:
328,148,365872,2,0,L|340:204,1,52.5000020027161,10|4,0:0|0:0,0:0:0:0:
116,136,366135,2,0,L|128:80,1,52.5000020027161,10|0,0:0|0:0,0:0:0:0:
272,196,366398,5,6,0:0:0:0:
280,220,366485,1,8,0:0:0:0:
288,244,366573,1,8,0:0:0:0:
296,268,366661,1,8,0:0:0:0:
304,292,366749,1,8,0:0:0:0:
312,316,366836,1,8,0:0:0:0:
352,324,366924,5,6,0:0:0:0:
372,310,367011,1,8,0:0:0:0:
394,299,367099,1,8,0:0:0:0:
418,293,367187,1,8,0:0:0:0:
442,292,367274,1,8,0:0:0:0:
466,295,367362,1,8,0:0:0:0:
492,264,367450,6,0,B|508:216|508:216|472:184|472:184|500:140|496:76,1,210.000008010865,6|10,0:0|0:0,0:0:0:0:
308,104,368240,2,0,B|328:124|328:124|404:116,1,105.000004005432,4|6,0:0|0:0,0:0:0:0:
308,104,368766,1,4,0:0:0:0:
364,212,369029,1,10,0:0:0:0:
432,40,369292,70,0,B|412:20|412:20|336:28,1,105.000004005432,4|6,0:0|0:0,0:0:0:0:
232,40,369819,1,4,0:0:0:0:
364,212,370082,1,10,0:0:0:0:
176,300,370345,2,0,P|132:288|68:276,1,105.000004005432,4|6,0:0|0:0,0:0:0:0:
36,184,370784,2,0,B|71:182|71:182|108:192,1,70.0000026702882,4|4,0:0|0:0,0:0:0:0:
164,228,371135,2,0,P|200:232|240:216,1,70.0000026702882,6|4,0:0|0:0,0:0:0:0:
192,160,371485,1,4,0:0:0:0:
144,104,371661,6,0,B|124:72|124:72|132:4,1,105.000004005432,6|8,0:0|0:0,0:0:0:0:
264,108,372187,2,0,L|256:160,2,52.5000020027161,6|8|4,0:0|0:0|0:0,0:0:0:0:
280,4,372714,1,10,0:0:0:0:
372,192,372977,1,4,0:0:0:0:
240,356,373240,1,10,0:0:0:0:
148,168,373503,1,4,0:0:0:0:
280,4,373766,6,0,L|332:0,1,52.5000020027161,10|0,0:0|0:0,0:0:0:0:
316,112,374029,2,0,L|264:108,1,52.5000020027161,10|0,0:0|0:0,0:0:0:0:
136,48,374292,1,4,0:0:0:0:
136,48,374380,1,4,0:0:0:0:
136,48,374468,1,4,0:0:0:0:
136,48,374556,2,0,L|140:100,1,52.5000020027161,10|0,0:0|0:0,0:0:0:0:
252,228,374819,2,0,L|256:176,1,52.5000020027161,10|0,0:0|0:0,0:0:0:0:
108,224,375082,1,4,0:0:0:0:
116,292,375214,1,4,0:0:0:0:
124,360,375345,1,8,0:0:0:0:
316,312,375608,1,4,0:0:0:0:
508,264,375871,6,0,P|504:236|496:212,1,52.5000020027161,6|4,0:0|0:0,0:0:0:0:
452,160,376135,1,4,0:0:0:0:
444,92,376266,1,4,0:0:0:0:
460,24,376398,2,0,P|412:32|356:24,1,105.000004005432,10|4,0:0|0:0,0:0:0:0:
292,44,376792,1,4,0:0:0:0:
316,108,376924,1,6,0:0:0:0:
180,224,377187,1,4,0:0:0:0:
44,128,377450,70,0,P|32:76|24:24,1,105.000004005432,10|4,0:0|0:0,0:0:0:0:
280,204,377977,2,0,P|271:255|260:307,1,105.000004005432,10|4,0:0|0:0,0:0:0:0:
172,336,378371,1,4,0:0:0:0:
100,272,378503,2,0,P|108:220|119:168,1,105.000004005432,10|4,0:0|0:0,0:0:0:0:
316,108,379029,2,0,P|344:112|380:120,1,52.5000020027161,10|4,0:0|0:0,0:0:0:0:
448,212,379292,5,4,0:0:0:0:
452,220,379380,1,0,0:0:0:0:
456,228,379468,1,0,0:0:0:0:
460,236,379556,2,0,L|452:288,1,52.5000020027161,10|4,0:0|0:0,0:0:0:0:
348,236,379819,2,0,L|340:184,1,52.5000020027161,4|4,0:0|0:0,0:0:0:0:
249,271,380082,6,0,B|219:281|197:295|197:295|153:279|97:271,1,157.500006008148,10|0,0:0|0:0,0:0:0:0:
92,176,380608,2,0,P|136:160|196:160,1,105.000004005432,10|4,0:0|0:0,0:0:0:0:
256,352,381135,2,0,P|212:368|152:368,1,105.000004005432,10|4,0:0|0:0,0:0:0:0:
100,328,381529,1,4,0:0:0:0:
68,268,381661,1,10,0:0:0:0:
192,216,381924,2,0,P|195:189|199:161,1,52.5000020027161,8|8,0:0|0:0,0:0:0:0:
285,103,382187,5,6,0:0:0:0:
305,103,382274,1,8,0:0:0:0:
326,101,382362,1,8,0:0:0:0:
347,97,382450,1,8,0:0:0:0:
367,90,382537,1,8,0:0:0:0:
386,81,382625,1,8,0:0:0:0:
416,100,382714,69,6,0:0:0:0:
415,120,382801,1,8,0:0:0:0:
417,141,382889,1,8,0:0:0:0:
421,162,382977,1,8,0:0:0:0:
428,182,383064,1,8,0:0:0:0:
437,201,383152,1,8,0:0:0:0:
420,232,383240,6,0,P|412:264|404:300,1,70.0000026702882,6|4,0:0|0:0,0:0:0:0:
328,336,383591,1,4,0:0:0:0:
252,300,383766,2,0,P|244:268|236:232,1,70.0000026702882,6|4,0:0|0:0,0:0:0:0:
160,196,384117,1,4,0:0:0:0:
60,292,384292,6,0,P|92:328|148:336,1,105.000004005432,6|4,0:0|0:0,0:0:0:0:
160,196,384819,1,10,0:0:0:0:
8,336,385082,1,4,0:0:0:0:
252,300,385345,1,6,0:0:0:0:
68,92,385608,1,4,0:0:0:0:
8,336,385871,1,10,0:0:0:0:
252,300,386135,6,0,B|288:296|288:296|320:304|320:304|356:300,1,105.000004005432,4|6,0:0|0:0,0:0:0:0:
404,152,386661,1,4,0:0:0:0:
268,96,386924,1,10,0:0:0:0:
160,196,387187,2,0,B|140:208|140:208|128:196|128:196|104:204|60:196,1,105.000004005432,4|6,0:0|0:0,0:0:0:0:
152,44,387714,1,4,0:2:0:0:
156,56,387801,1,0,0:2:0:0:
160,68,387889,1,0,0:2:0:0:
164,80,387977,2,0,P|216:84|268:96,1,105.000004005432,10|4,0:0|0:0,0:0:0:0:
224,284,388503,70,0,P|176:300|120:296,1,105.000004005432,6|4,0:0|0:0,0:0:0:0:
244,180,389029,1,10,0:0:0:0:
404,152,389292,1,4,0:0:0:0:
282,324,389556,1,6,0:0:0:0:
122,296,389819,1,4,0:0:0:0:
152,136,390082,1,10,0:0:0:0:
312,164,390345,6,0,P|360:156|416:152,1,105.000004005432,4|6,0:0|0:0,0:0:0:0:
159,236,390871,2,0,P|143:188|152:136,1,105.000004005432,4|10,0:0|0:0,0:0:0:0:
312,164,391398,2,0,P|292:160|260:156,1,52.5000020027161,4|0,0:0|0:0,0:0:0:0:
224,216,391661,1,6,0:0:0:0:
288,236,391792,1,4,0:0:0:0:
352,256,391924,2,0,P|372:252|404:248,1,52.5000020027161,10|0,0:0|0:0,0:0:0:0:
292,328,392187,2,0,P|272:324|240:320,1,52.5000020027161,10|0,0:0|0:0,0:0:0:0:
156,320,392450,1,4,0:0:0:0:
32,164,392714,6,0,P|28:112|52:64,1,105.000004005432,6|8,0:0|0:0,0:0:0:0:
160,76,393108,1,4,0:0:0:0:
212,112,393240,2,0,P|164:116|108:128,1,105.000004005432,2|4,0:0|0:0,0:0:0:0:
184,260,393766,1,10,0:0:0:0:
220,44,394029,1,4,0:0:0:0:
16,120,394292,1,2,0:0:0:0:
184,260,394556,1,0,0:0:0:0:
248,240,394687,1,4,0:0:0:0:
312,220,394819,5,10,0:0:0:0:
100,192,395082,1,6,0:0:0:0:
268,328,395345,1,0,0:0:0:0:
272,332,395477,1,6,0:0:0:0:
276,336,395608,2,0,P|320:328|380:320,1,105.000004005432,0|6,0:0|0:0,0:0:0:0:
488,192,396135,1,4,0:0:0:0:
379,320,396398,1,10,0:0:0:0:
196,192,396661,1,4,0:0:0:0:
424,24,396924,70,0,B|420:60|420:60|404:88|404:88|400:124,1,105.000004005432,6|4,0:0|0:0,0:0:0:0:
488,192,397450,1,10,0:0:0:0:
340,28,397714,1,4,0:0:0:0:
196,192,397977,1,6,0:0:0:0:
340,356,398240,1,4,0:0:0:0:
488,192,398503,2,0,B|484:156|484:156|468:128|468:128|464:92,1,105.000004005432,10|0,0:0|0:0,0:0:0:0:
412,184,399029,6,0,P|384:192|360:196,1,52.5000020027161,6|8,0:0|0:0,0:0:0:0:
280,172,399292,1,8,0:0:0:0:
280,172,399424,1,8,0:0:0:0:
280,172,399556,1,8,0:0:0:0:
196,192,399687,1,8,0:0:0:0:
116,160,399819,1,8,0:0:0:0:
32,180,399950,1,8,0:0:0:0:
0,260,400082,5,8,0:0:0:0:
0,260,400148,1,8,0:0:0:0:
0,260,400214,2,0,L|8:312,1,52.5000020027161,4|8,0:0|0:0,0:0:0:0:
104,280,400477,1,4,0:0:0:0:
104,280,400542,1,4,0:0:0:0:
104,280,400608,2,0,L|96:332,1,52.5000020027161,8|8,0:0|0:0,0:0:0:0:
200,316,400871,2,0,L|192:264,1,52.5000020027161,4|4,0:0|0:0,0:0:0:0:
288,240,401135,6,0,P|304:284|292:340,1,105.000004005432,6|4,0:0|0:0,0:0:0:0:
140,224,401661,1,10,0:0:0:0:
384,168,401924,1,4,0:0:0:0:
236,372,402187,1,6,0:0:0:0:
44,76,402450,1,4,0:0:0:0:
384,168,402714,1,10,0:0:0:0:
236,372,402977,70,0,P|184:380|132:372,1,105.000004005432,4|6,0:0|0:0,0:0:0:0:
176,60,403503,1,4,0:0:0:0:
384,168,403766,1,10,0:0:0:0:
188,296,404029,2,0,B|164:304|164:304|144:296|144:296|120:304|84:300,1,105.000004005432,4|6,0:0|0:0,0:0:0:0:
256,128,404556,2,0,P|268:160|276:196,1,70.0000026702882,4|0,0:0|0:0,0:0:0:0:
288,216,404819,1,10,0:0:0:0:
308,228,404906,2,0,P|339:242|370:261,1,70.0000026702882,0|4,0:0|0:0,0:0:0:0:
480,156,405345,6,0,P|456:108|416:76,1,105.000004005432,6|4,0:0|0:0,0:0:0:0:
256,128,405871,2,0,B|224:128|196:140|196:140|168:128|168:128|128:156|52:152,1,210.000008010865,10|6,0:0|0:0,0:0:0:0:
248,228,406661,1,4,0:0:0:0:
340,176,406924,2,0,P|352:128|336:76,1,105.000004005432,10|4,0:0|0:0,0:0:0:0:
168,216,407450,2,0,L|184:320,1,105.000004005432,6|4,0:0|0:0,0:0:0:0:
400,328,407977,2,0,B|408:304|408:304|404:292|404:292|408:284|408:284|412:260|400:224,1,105.000004005432,10|4,0:0|0:0,0:0:0:0:
264,48,408503,2,0,B|272:72|272:72|268:84|268:84|272:92|272:92|276:116|264:152,1,105.000004005432,6|4,0:0|0:0,0:0:0:0:
472,252,409029,1,10,0:0:0:0:
472,252,409292,1,4,0:0:0:0:
264,149,409556,6,0,B|251:143|232:141|232:141|200:145|200:145|160:133|104:129,1,157.500006008148,6|0,0:0|0:0,0:0:0:0:
88,204,410082,2,0,P|136:236|228:212,1,157.500006008148,10|8,0:0|0:0,0:0:0:0:
88,204,410608,2,0,B|104:252|104:252|96:284|96:284|120:360,1,157.500006008148,6|0,0:0|0:0,0:0:0:0:
192,328,411135,2,0,B|176:280|176:280|184:248|184:248|160:176,1,157.500006008148,10|8,0:0|0:0,0:0:0:0:
280,148,411661,2,0,P|304:204|252:276,1,157.500006008148,6|0,0:0|0:0,0:0:0:0:
228,200,412187,2,0,B|256:204|276:216|276:216|304:204|304:204|336:216|380:216,1,157.500006008148,10|4,0:0|0:0,0:0:0:0:
464,204,412714,6,0,P|456:232|448:272,1,70.0000026702882,10|4,0:0|0:0,0:0:0:0:
316,300,413064,2,0,P|344:292|382:279,1,70.0000026702882,10|4,0:0|0:0,0:0:0:0:
473,380,413415,2,0,P|452:359|422:332,1,70.0000026702882,10|4,0:0|0:0,0:0:0:0:
192,328,413766,70,0,P|140:332|92:308,1,105.000004005432,6|4,0:0|0:0,0:0:0:0:
96,152,414292,1,6,0:0:0:0:
129,142,414379,1,0,0:0:0:0:
163,135,414467,1,0,0:0:0:0:
198,129,414555,1,4,0:0:0:0:
228,148,414643,1,0,0:0:0:0:
261,157,414730,1,0,0:0:0:0:
295,164,414818,1,10,0:0:0:0:
330,170,414906,1,0,0:0:0:0:
360,152,414994,1,0,0:0:0:0:
356,178,415081,1,0,0:0:0:0:
353,204,415169,1,0,0:0:0:0:
350,230,415257,1,0,0:0:0:0:
347,256,415345,2,0,B|376:252|376:252|396:256|396:256|416:248|452:240,1,105.000004005432,6|8,0:0|0:0,0:0:0:0:
468,92,415871,5,6,0:0:0:0:
468,92,416003,2,0,L|416:100,1,52.5000020027161,8|4,0:0|0:0,0:0:0:0:
344,88,416266,1,4,0:0:0:0:
272,72,416398,2,0,P|224:80|168:96,1,105.000004005432,10|4,0:0|0:0,0:0:0:0:
140,260,416924,5,6,0:0:0:0:
162,277,417011,1,8,0:0:0:0:
187,287,417099,1,8,0:0:0:0:
215,291,417187,1,8,0:0:0:0:
243,286,417274,1,8,0:0:0:0:
268,275,417362,1,8,0:0:0:0:
312,280,417450,5,6,0:0:0:0:
334,262,417537,1,8,0:0:0:0:
359,252,417625,1,8,0:0:0:0:
387,248,417713,1,8,0:0:0:0:
415,253,417800,1,8,0:0:0:0:
440,264,417888,1,8,0:0:0:0:
480,244,417977,70,0,B|496:212|496:212|480:140,1,105.000004005432,6|4,0:0|0:0,0:0:0:0:
312,280,418503,2,0,B|296:312|296:312|312:384,1,105.000004005432,10|4,0:0|0:0,0:0:0:0:
408,160,419029,1,6,0:0:0:0:
292,108,419292,1,4,0:0:0:0:
204,200,419556,2,0,P|152:208|100:220,1,105.000004005432,10|4,0:0|0:0,0:0:0:0:
16,120,420082,2,0,P|64:136|116:128,1,105.000004005432,6|4,0:0|0:0,0:0:0:0:
307,4,420608,2,0,L|292:108,1,105.000004005432,10|4,0:0|0:0,0:0:0:0:
284,296,421135,6,0,P|288:328|296:364,2,70.0000026702882,6|4|4,0:0|0:0|0:0,0:0:0:0:
152,248,421661,2,0,P|142:278|134:314,2,70.0000026702882,6|6|6,0:0|0:0|0:0,0:0:0:0:
252,128,422187,6,0,P|260:80|240:28,1,105.000004005432,6|8,0:0|0:0,0:0:0:0:
96,152,422714,2,0,P|140:168|200:180,1,105.000004005432,6|4,0:0|0:0,0:0:0:0:
420,60,423240,2,0,P|372:56|324:84,1,105.000004005432,10|0,0:0|0:0,0:0:0:0:
436,320,423766,6,0,L|448:216,1,105.000004005432,10|4,0:0|0:0,0:0:0:0:
372,236,424161,1,4,0:0:0:0:
296,256,424292,2,0,L|308:152,1,105.000004005432,6|4,0:0|0:0,0:0:0:0:
372,236,424687,1,4,0:0:0:0:
296,256,424819,2,0,L|244:248,1,52.5000020027161,10|0,0:0|0:0,0:0:0:0:
160,168,425082,2,0,L|108:176,1,52.5000020027161,10|0,0:0|0:0,0:0:0:0:
24,264,425345,69,6,0:0:0:0:
28,268,425477,1,8,0:0:0:0:
32,272,425608,1,8,0:0:0:0:
36,276,425740,1,8,0:0:0:0:
40,280,425871,1,4,0:0:0:0:
101,259,426002,1,8,0:0:0:0:
167,264,426134,1,8,0:0:0:0:
225,294,426265,1,8,0:0:0:0:
267,343,426398,6,0,B|300:332|300:332|336:348|384:348|384:348|416:328,1,157.500006008148,6|4,0:0|0:0,0:0:0:0:
484,236,426924,1,2,0:0:0:0:
484,236,427012,2,0,L|448:244,1,35.0000013351441
376,224,427187,1,4,0:0:0:0:
304,200,427319,1,4,0:0:0:0:
232,176,427450,2,0,P|204:180|180:188,1,52.5000020027161,10|0,0:0|0:0,0:0:0:0:
80,112,427714,2,0,P|124:128|180:116,1,105.000004005432,6|0,0:0|0:0,0:0:0:0:
232,48,428108,2,0,P|188:32|132:44,1,105.000004005432,6|0,0:0|0:0,0:0:0:0:
56,184,428503,6,0,L|64:288,1,105.000004005432,6|0,0:0|0:0,0:0:0:0:
168,244,428898,2,0,L|160:348,1,105.000004005432,6|0,0:0|0:0,0:0:0:0:
256,296,429292,2,0,P|284:288|308:284,1,52.5000020027161,6|0,0:0|0:0,0:0:0:0:
400,304,429556,2,0,P|428:312|452:316,2,52.5000020027161,10|0|0,0:0|0:0|0:0,0:0:0:0:
360,248,429906,6,0,P|352:212|352:180,1,70.0000026702882,10|4,0:0|0:0,0:0:0:0:
368,80,430257,1,8,0:0:0:0:
368,80,430433,1,8,0:0:0:0:
240,172,430608,70,0,B|220:180|220:180|200:172|200:172|172:184|132:180,1,105.000004005432,6|4,0:0|0:0,0:0:0:0:
92,60,431003,1,0,0:0:0:0:
152,4,431135,2,0,P|172:48|160:104,1,105.000004005432,10|4,0:0|0:0,0:0:0:0:
72,232,431661,1,10,0:0:0:0:
76,252,431749,1,0,0:0:0:0:
80,272,431836,1,0,0:0:0:0:
84,292,431924,2,0,P|112:296|140:304,1,52.5000020027161,4|4,0:0|0:0,0:0:0:0:
268,332,432187,1,10,0:0:0:0:
356,228,432450,2,0,L|352:176,1,52.5000020027161,8|8,0:0|0:0,0:0:0:0:
240,76,432714,5,6,0:0:0:0:
257,87,432801,1,8,0:0:0:0:
277,94,432889,1,8,0:0:0:0:
298,96,432977,1,8,0:0:0:0:
319,94,433064,1,8,0:0:0:0:
339,88,433152,1,8,0:0:0:0:
368,64,433240,5,6,0:0:0:0:
385,52,433327,1,8,0:0:0:0:
405,45,433415,1,8,0:0:0:0:
426,43,433503,1,8,0:0:0:0:
447,45,433590,1,8,0:0:0:0:
467,51,433678,1,8,0:0:0:0:
496,76,433766,6,0,L|488:148,1,70.0000026702882,6|4,0:0|0:0,0:0:0:0:
408,232,434117,1,4,0:0:0:0:
408,232,434205,1,0,0:0:0:0:
408,232,434292,1,6,0:0:0:0:
389,254,434379,1,0,0:0:0:0:
382,282,434467,1,4,0:0:0:0:
387,310,434555,1,0,0:0:0:0:
404,333,434642,1,4,0:0:0:0:
430,346,434730,1,0,0:0:0:0:
459,348,434819,70,0,B|472:332|492:320|492:320|472:292|472:292|508:232|472:160,1,210.000008010865,6|10,0:0|0:0,0:0:0:0:
312,56,435608,1,4,0:0:0:0:
312,56,435696,1,0,0:0:0:0:
312,56,435784,1,0,0:0:0:0:
312,56,435871,2,0,P|304:80|296:108,1,52.5000020027161,10|0,0:0|0:0,0:0:0:0:
228,240,436135,1,4,0:0:0:0:
228,240,436223,1,0,0:0:0:0:
228,240,436311,1,0,0:0:0:0:
228,240,436398,2,0,P|220:216|212:188,1,52.5000020027161,10|0,0:0|0:0,0:0:0:0:
112,64,436661,1,4,0:0:0:0:
112,64,436749,1,0,0:0:0:0:
112,64,436837,1,0,0:0:0:0:
112,64,436924,6,0,P|104:88|96:116,1,52.5000020027161,10|0,0:0|0:0,0:0:0:0:
140,184,437187,2,0,P|148:208|156:236,1,52.5000020027161,4|0,0:0|0:0,0:0:0:0:
88,316,437450,1,10,0:0:0:0:
99,338,437537,1,0,0:0:0:0:
118,354,437625,1,0,0:0:0:0:
143,362,437713,1,4,0:0:0:0:
169,362,437800,1,0,0:0:0:0:
193,353,437888,1,0,0:0:0:0:
212,333,437977,6,0,P|260:320|316:312,1,105.000004005432,10|4,0:0|0:0,0:0:0:0:
444,320,438503,2,0,L|480:324,2,35.0000013351441,10|0|0,0:0|0:0|0:0,0:0:0:0:
464,232,438766,2,0,L|500:228,2,35.0000013351441,10|0|0,0:0|0:0|0:0,0:0:0:0:
392,168,439029,1,10,0:0:0:0:
379,148,439116,1,0,0:0:0:0:
372,126,439204,1,0,0:0:0:0:
373,103,439292,1,4,0:0:0:0:
380,81,439379,1,0,0:0:0:0:
393,62,439467,1,0,0:0:0:0:
412,47,439556,6,0,P|384:52|360:52,1,52.5000020027161,10|0,0:0|0:0,0:0:0:0:
272,32,439819,2,0,P|243:27|219:27,1,52.5000020027161,4|0,0:0|0:0,0:0:0:0:
96,96,440082,1,10,0:0:0:0:
109,115,440169,1,0,0:0:0:0:
127,129,440257,1,0,0:0:0:0:
148,138,440345,1,4,0:0:0:0:
171,141,440432,1,0,0:0:0:0:
194,137,440520,1,0,0:0:0:0:
215,128,440609,1,10,0:0:0:0:
217,151,440696,1,0,0:0:0:0:
225,172,440784,1,0,0:0:0:0:
239,191,440872,1,4,0:0:0:0:
257,205,440959,1,0,0:0:0:0:
279,213,441047,1,0,0:0:0:0:
302,215,441135,70,0,P|312:236|320:264,1,52.5000020027161,10|0,0:0|0:0,0:0:0:0:
244,280,441398,2,0,P|234:301|226:329,1,52.5000020027161
304,372,441661,1,10,0:0:0:0:
464,180,441924,1,10,0:0:0:0:
244,56,442187,2,0,P|208:64|172:76,1,70.0000026702882,8|8,0:0|0:0,0:0:0:0:
168,100,442450,1,4,0:0:0:0:
160,124,442538,1,4,0:0:0:0:
152,148,442626,1,4,0:0:0:0:
180,176,442714,1,8,0:0:0:0:
184,192,442801,1,4,0:0:0:0:
188,208,442889,1,4,0:0:0:0:
192,224,442977,1,4,0:0:0:0:
196,240,443064,1,4,0:0:0:0:
200,256,443152,1,4,0:0:0:0:
176,284,443240,6,0,B|228:296|228:296|280:280|280:280|380:300,1,210.000008010865,10|10,0:0|0:0,0:0:0:0:
464,180,444029,2,0,L|460:128,1,52.5000020027161,4|0,0:0|0:0,0:0:0:0:
388,144,444292,2,0,L|384:92,1,52.5000020027161,10|0,0:0|0:0,0:0:0:0:
304,124,444556,6,0,P|298:152|308:180,1,56,4|10,0:0|0:0,0:0:0:0:
306,177,445082,6,0,P|288:172|264:168,1,40.2500007677078,4|0,0:0|0:0,0:0:0:0:
172,204,445345,2,0,P|232:256|306:241,1,161.000003070831,10|10,0:0|0:0,0:0:0:0:
306,241,446003,2,0,P|304:265|304:281,1,35
306,241,446398,70,0,B|312:201|328:169|328:169|308:129|308:129|324:89|320:41,3,210.000008010865,10|10|10|10,0:0|0:0|0:0|0:0,0:0:0:0:
320,41,448108,2,0,P|302:41|286:45,1,35
320,41,448503,6,0,L|325:94,1,52.5000020027161,10|0,0:0|0:0,0:0:0:0:
393,143,448766,2,0,P|409:99|393:43,2,105.000004005432,4|10|4,0:0|0:0|0:0,0:0:0:0:
260,132,449380,1,8,0:0:0:0:
248,136,449468,1,8,0:0:0:0:
236,140,449556,2,0,L|132:128,1,105.000004005432,10|0,0:0|0:0,0:0:0:0:
216,212,449950,2,0,L|320:224,1,105.000004005432,6|0,0:0|0:0,0:0:0:0:
236,284,450345,2,0,L|132:272,1,105.000004005432,6|0,0:0|0:0,0:0:0:0:
216,356,450740,6,0,L|268:344,1,52.5000020027161,6|8,0:0|0:0,0:0:0:0:
304,336,450958,1,8,0:0:0:0:
312,344,451046,1,8,0:0:0:0:
320,352,451135,1,8,0:0:0:0:
353,363,451222,1,8,0:0:0:0:
386,355,451310,1,4,0:0:0:0:
410,330,451398,1,8,0:0:0:0:
416,296,451485,1,4,0:0:0:0:
402,264,451573,1,4,0:0:0:0:
374,245,451661,6,0,B|351:235|324:232|324:232|280:252|280:252|232:232|172:224,1,210.000008010865,6|10,0:0|0:0,0:0:0:0:
216,356,452450,1,4,0:0:0:0:
280,176,452714,2,0,L|276:148,5,26.8333338451386,6|0|0|4|0|0,0:0|0:0|0:0|0:0|0:0|0:0,0:0:0:0:
224,112,453240,1,10,0:0:0:0:
224,112,453503,70,0,P|196:104|168:100,1,52.5000020027161,4|0,0:0|0:0,0:0:0:0:
280,176,453766,2,0,P|308:168|336:164,1,52.5000020027161,6|0,0:0|0:0,0:0:0:0:
228,248,454029,1,4,0:0:0:0:
284,312,454292,1,10,0:0:0:0:
400,264,454556,6,0,P|428:260|452:268,1,52.5000020027161,4|0,0:0|0:0,0:0:0:0:
420,324,454819,2,0,P|340:284|392:200,1,210.000008010865,6|10,0:0|0:0,0:0:0:0:
496,216,455608,1,4,0:0:0:0:
496,216,455740,1,8,0:0:0:0:
496,216,455871,6,0,L|488:164,1,52.5000020027161,6|0,0:0|0:0,0:0:0:0:
416,132,456135,2,0,L|424:80,1,52.5000020027161,4|0,0:0|0:0,0:0:0:0:
488,36,456398,1,10,0:0:0:0:
320,132,456661,1,4,0:0:0:0:
320,132,456792,1,8,0:0:0:0:
320,132,456924,2,0,L|328:184,1,52.5000020027161,6|0,0:0|0:0,0:0:0:0:
400,216,457188,2,0,L|392:268,1,52.5000020027161,4|0,0:0|0:0,0:0:0:0:
328,312,457451,1,10,0:0:0:0:
192,228,457714,6,0,P|168:220|140:216,1,52.5000020027161,4|8,0:0|0:0,0:0:0:0:
96,140,457977,2,0,P|120:132|148:128,1,52.5000020027161,6|0,0:0|0:0,0:0:0:0:
192,52,458240,2,0,P|168:44|140:40,1,52.5000020027161,4|0,0:0|0:0,0:0:0:0:
96,140,458503,2,0,L|104:192,1,52.5000020027161,10|0,0:0|0:0,0:0:0:0:
260,88,458766,2,0,L|268:36,1,52.5000020027161,4|8,0:0|0:0,0:0:0:0:
336,140,459029,2,0,L|344:88,1,52.5000020027161,6|8,0:0|0:0,0:0:0:0:
412,192,459292,2,0,P|416:216|412:244,1,52.5000020027161,4|0,0:0|0:0,0:0:0:0:
484,156,459556,2,0,P|472:104|484:52,1,105.000004005432,10|4,0:0|0:0,0:0:0:0:
352,280,460082,70,0,L|280:288,2,70.0000026702882,6|0|0,0:0|0:0|0:0,0:0:0:0:
216,224,460608,2,0,P|188:220|164:220,1,52.5000020027161,10|0,0:0|0:0,0:0:0:0:
100,284,460871,2,0,P|72:287|48:288,1,52.5000020027161,4|0,0:0|0:0,0:0:0:0:
12,192,461135,1,6,0:0:0:0:
12,192,461266,1,0,0:0:0:0:
12,192,461398,1,4,0:0:0:0:
76,156,461529,1,0,0:0:0:0:
148,172,461661,1,10,0:0:0:0:
212,136,461792,1,0,0:0:0:0:
276,100,461924,2,0,P|292:96|328:92,1,52.5000020027161,4|0,0:0|0:0,0:0:0:0:
384,172,462187,6,0,P|304:204|212:136,1,210.000008010865,10|10,0:0|0:0,0:0:0:0:
264,22,462845,2,0,L|276:102,1,78.7500030040742
67,125,463240,2,0,P|35:109|15:81,1,70.0000026702882,10|4,0:0|0:0,0:0:0:0:
135,101,463591,2,0,P|137:136|122:168,1,70.0000026702882,10|4,0:0|0:0,0:0:0:0:
83,57,463942,2,0,P|112:37|147:33,1,70.0000026702882,10|4,0:0|0:0,0:0:0:0:
123,167,464292,6,0,B|131:195|131:195|127:219|127:219|143:239|151:267,1,105.000004005432,6|8,0:0|0:0,0:0:0:0:
280,336,464819,2,0,P|304:327|332:320,1,52.5000020027161,6|8,0:0|0:0,0:0:0:0:
412,236,465082,2,0,P|376:248|332:240,1,78.7500030040742
368,172,465345,2,0,B|396:159|396:159|432:176|432:176|480:176|512:144,1,157.500006008148,10|8,0:0|0:0,0:0:0:0:
452,96,465871,1,6,0:0:0:0:
280,336,466135,1,8,0:0:0:0:
180,224,466398,6,0,P|184:200|192:172,1,52.5000020027161,6|8,0:0|0:0,0:0:0:0:
116,148,466661,2,0,P|112:124|104:96,1,52.5000020027161,4|4,0:0|0:0,0:0:0:0:
192,76,466924,2,0,P|236:92|292:76,1,105.000004005432,10|4,0:0|0:0,0:0:0:0:
400,8,467450,69,6,0:0:0:0:
396,28,467538,1,8,0:0:0:0:
392,48,467626,1,8,0:0:0:0:
388,68,467714,1,8,0:0:0:0:
384,88,467801,1,8,0:0:0:0:
380,108,467889,1,8,0:0:0:0:
408,128,467977,5,6,0:0:0:0:
412,148,468065,1,8,0:0:0:0:
416,168,468153,1,8,0:0:0:0:
420,188,468241,1,8,0:0:0:0:
424,208,468328,1,8,0:0:0:0:
428,228,468416,1,8,0:0:0:0:
404,256,468503,5,6,0:0:0:0:
256,192,468635,12,0,474292,0:0:0:0:
