osu file format v14

[General]
AudioFilename: audio.mp3
AudioLeadIn: 0
PreviewTime: 85029
Countdown: 1
SampleSet: Soft
StackLeniency: 0.4
Mode: 0
LetterboxInBreaks: 0
WidescreenStoryboard: 0

[Editor]
Bookmarks: 16075,16152,16228,25488,30080,35284,43856,44621,45080,49289,54264,54876,63754,64672,70794,70871,70947,71024,71100,74621,103856,124825,134621,143192,145488,150080,150157,150233,150310,151917,152376,154978,155055,155131,155208,157504,157580,157657,163856,173805,178549,180998,187427,198294,208090,208703,209162,227529,247121,251560,265641,271152,271764,272529,274213
DistanceSpacing: 1.1
BeatDivisor: 4
GridSize: 8
TimelineZoom: 1.7

[Metadata]
Title:Love-coloured Master Spark ~ Final Sorcery
TitleUnicode:恋色マスタースパーク ~ Final Sorcery
Artist:Demetori
ArtistUnicode:Demetori
Creator:LwL
Version:Extra Stage
Source:東方永夜抄 ~ Imperishable Night
Tags:love-colored begierde des zauberer touhou 8 Eiyashou marisa kirisame 東方Project
BeatmapID:1354816
BeatmapSetID:638702

[Difficulty]
HPDrainRate:5
CircleSize:4.5
OverallDifficulty:9
ApproachRate:9.3
SliderMultiplier:2
SliderTickRate:1

[Events]
//Background and Video events
0,0,"mastersparkbg.jpg",0,0
//Break Periods
//Storyboard Layer 0 (Background)
//Storyboard Layer 1 (Fail)
//Storyboard Layer 2 (Pass)
//Storyboard Layer 3 (Foreground)
//Storyboard Sound Samples

[TimingPoints]
1197,306.122448979592,4,3,1,60,1,0
1656,-100,4,3,2,60,0,0
2115,-100,4,3,1,60,0,0
4105,-100,4,3,2,60,0,0
4564,-100,4,3,1,60,0,0
5635,-100,4,3,2,60,0,0
6401,-100,4,3,1,60,0,0
8390,-100,4,3,3,60,0,0
8850,-100,4,3,1,60,0,0
9921,-100,4,3,2,60,0,0
10839,-100,4,3,1,60,0,0
11452,-100,4,3,2,60,0,0
11911,-100,4,3,1,60,0,0
13901,-100,4,3,2,60,0,0
14360,-100,4,3,1,60,0,0
15431,-100,4,3,4,60,0,0
15737,-100,4,3,2,60,0,0
16197,-100,4,3,1,60,0,0
20635,-100,4,3,3,60,0,0
21094,-100,4,3,5,60,0,0
21248,-100,4,3,1,60,0,0
22625,-100,4,3,4,60,0,0
22931,-100,4,3,1,60,0,0
23237,-100,4,3,6,60,0,0
24159,-100,4,3,7,60,0,0
24921,-100,4,3,1,60,0,0
25533,-117.647058823529,4,3,2,60,0,0
25992,-117.647058823529,4,3,1,60,0,0
35329,-117.647058823529,4,3,2,60,0,0
35788,-117.647058823529,4,3,1,60,0,0
44666,-117.647058823529,4,3,7,60,0,0
45125,-117.647058823529,4,3,1,60,0,0
49411,-117.647058823529,4,3,3,60,0,0
49870,-117.647058823529,4,3,1,60,0,0
54462,-117.647058823529,4,3,7,60,0,0
54921,-117.647058823529,4,3,1,60,0,0
72293,-117.647058823529,4,3,4,60,0,0
72370,-117.647058823529,4,3,1,60,0,0
72676,-117.647058823529,4,3,4,60,0,0
73288,-117.647058823529,4,3,2,60,0,0
73748,-117.647058823529,4,3,1,60,0,0
74666,-200,4,3,1,60,0,0
75125,-200,4,3,5,60,0,0
75584,-200,4,3,8,60,0,0
76350,-200,4,3,5,60,0,0
76809,-200,4,3,8,60,0,0
77498,-200,4,2,1,5,0,0
77574,-200,4,3,5,60,0,0
77957,-200,4,2,1,5,0,0
78033,-200,4,3,8,60,0,0
78645,-200,4,3,5,60,0,0
78799,-200,4,3,8,60,0,0
79105,-200,4,3,9,60,0,0
80023,-200,4,3,5,60,0,0
80482,-200,4,3,9,60,0,0
80788,-200,4,3,9,25,0,0
81248,-200,4,3,5,60,0,0
81554,-100,4,3,8,60,0,0
82013,-100,4,3,1,60,0,0
83237,-100,4,3,8,60,0,0
84156,-100,4,3,2,60,0,0
84462,-100,4,3,1,60,0,0
85533,-76.9230769230769,4,3,2,50,0,1
85686,-76.9230769230769,4,3,2,80,0,1
85992,-76.9230769230769,4,3,1,80,0,1
95329,-76.9230769230769,4,3,2,80,0,1
95482,-76.9230769230769,4,3,1,80,0,1
102217,-76.9230769230769,4,3,8,80,0,1
102676,-76.9230769230769,4,3,2,80,0,1
103135,-76.9230769230769,4,3,1,80,0,1
103288,-76.9230769230769,4,3,2,80,0,1
103748,-76.9230769230769,4,3,1,80,0,1
103901,-100,4,3,1,60,0,0
104360,-133.333333333333,4,3,1,60,0,0
104666,-133.333333333333,4,3,7,60,0,0
105278,-133.333333333333,4,3,1,60,0,0
110100,-133.333333333333,4,2,1,5,0,0
110176,-133.333333333333,4,3,1,60,0,0
114998,-133.333333333333,4,2,1,5,0,0
115074,-133.333333333333,4,3,1,60,0,0
119895,-133.333333333333,4,2,1,5,0,0
119972,-133.333333333333,4,3,1,60,0,0
124870,-100,4,3,2,60,0,0
125023,-100,4,3,1,60,0,0
125941,-133.333333333333,4,3,1,60,0,0
126094,-100,4,3,1,60,0,0
128390,-133.333333333333,4,3,1,60,0,0
128543,-100,4,3,1,60,0,0
130839,-133.333333333333,4,3,1,60,0,0
130992,-100,4,3,1,60,0,0
133288,-133.333333333333,4,3,1,60,0,0
133441,-100,4,3,1,60,0,0
134360,-100,4,3,4,60,0,0
134666,-100,4,3,1,60,0,0
143390,-100,4,3,8,60,0,0
143697,-100,4,3,1,60,0,0
143850,-100,4,3,8,60,0,0
144156,-100,4,3,1,25,0,0
144462,-100,4,3,1,60,0,0
144691,-100,4,2,1,5,0,0
144768,-100,4,3,1,60,0,0
145304,-100,4,2,1,5,0,0
145380,-100,4,3,1,60,0,0
145916,-100,4,2,1,5,0,0
145992,-100,4,3,1,60,0,0
146681,-100,4,2,1,5,0,0
146758,-100,4,3,1,60,0,0
146834,-100,4,2,1,5,0,0
146911,-100,4,3,1,60,0,0
147140,-100,4,2,1,5,0,0
147217,-100,4,3,1,60,0,0
147753,-100,4,2,1,5,0,0
147829,-100,4,3,1,60,0,0
148365,-100,4,2,1,5,0,0
148441,-100,4,3,1,60,0,0
149283,-100,4,2,1,5,0,0
149360,-100,4,3,1,60,0,0
149742,-100,4,2,1,5,0,0
149819,-100,4,3,1,60,0,0
149895,-100,4,2,1,5,0,0
149972,-100,4,3,1,60,0,0
150125,-100,4,2,1,5,0,0
150202,-100,4,3,1,60,0,0
150355,-100,4,2,1,5,0,0
150431,-100,4,3,1,60,0,0
150661,-100,4,2,1,5,0,0
150737,-100,4,3,1,60,0,0
150814,-100,4,2,1,5,0,0
150890,-100,4,3,1,60,0,0
151120,-100,4,2,1,5,0,0
151197,-100,4,3,1,60,0,0
151273,-100,4,2,1,5,0,0
151350,-100,4,3,1,60,0,0
151426,-100,4,2,1,5,0,0
151503,-100,4,3,1,60,0,0
151579,-100,4,2,1,5,0,0
151656,-100,4,3,1,60,0,0
151885,-100,4,2,1,5,0,0
151962,-100,4,3,1,60,0,0
152498,-100,4,2,1,5,0,0
152574,-100,4,3,1,60,0,0
152651,-100,4,2,1,5,0,0
152727,-100,4,3,1,60,0,0
153263,-100,4,2,1,5,0,0
153339,-100,4,3,1,60,0,0
153722,-100,4,2,1,5,0,0
153799,-100,4,3,9,60,0,0
154258,-100,4,3,1,60,0,0
154334,-100,4,2,1,5,0,0
154411,-100,4,3,1,60,0,0
154487,-100,4,2,1,5,0,0
154564,-100,4,3,1,60,0,0
154640,-100,4,2,1,5,0,0
154717,-100,4,3,1,60,0,0
154793,-100,4,2,1,5,0,0
154870,-100,4,3,1,60,0,0
154947,-100,4,2,1,5,0,0
155023,-100,4,3,1,60,0,0
155253,-100,4,2,1,5,0,0
155329,-100,4,3,1,60,0,0
155406,-100,4,2,1,5,0,0
155482,-100,4,3,1,60,0,0
155712,-100,4,2,1,5,0,0
155788,-100,4,3,1,60,0,0
156171,-100,4,2,1,5,0,0
156248,-100,4,3,1,60,0,0
156630,-100,4,2,1,5,0,0
156707,-100,4,3,1,60,0,0
156936,-100,4,2,1,5,0,0
157013,-100,4,3,1,60,0,0
157242,-100,4,2,1,5,0,0
157319,-100,4,3,1,60,0,0
157395,-100,4,2,1,5,0,0
157472,-100,4,3,1,60,0,0
157702,-100,4,2,1,5,0,0
157778,-100,4,3,1,60,0,0
158161,-100,4,2,1,5,0,0
158237,-100,4,3,1,60,0,0
159385,-100,4,2,1,5,0,0
159462,-100,4,3,1,60,0,0
161222,-100,4,2,1,5,0,0
161299,-100,4,3,1,60,0,0
161375,-100,4,2,1,5,0,0
161452,-100,4,3,1,60,0,0
161528,-100,4,2,1,5,0,0
161605,-100,4,3,1,60,0,0
161681,-100,4,2,1,5,0,0
161758,-100,4,3,1,60,0,0
161834,-100,4,2,1,5,0,0
161911,-100,4,3,1,60,0,0
161987,-100,4,2,1,5,0,0
162064,-100,4,3,1,60,0,0
162447,-100,4,2,1,5,0,0
162523,-100,4,3,1,60,0,0
162906,-100,4,2,1,5,0,0
162982,-100,4,3,1,60,0,0
163518,-100,4,3,9,60,0,0
163901,-100,4,3,8,60,0,0
164054,-100,4,3,2,60,0,0
164207,-100,4,3,1,60,0,0
167727,-100,4,3,10,60,0,0
168645,-100,4,3,1,60,0,0
168952,-100,4,3,2,60,0,0
169105,-100,4,3,1,60,0,0
172625,-100,4,3,8,60,0,0
173237,-100,4,3,1,60,0,0
173441,-100,4,3,8,60,0,0
173543,-100,4,3,8,25,0,0
173645,-100,4,3,8,60,0,0
175686,-100,4,3,1,25,0,0
176145,-100,4,3,1,60,0,0
176452,-100,4,3,7,60,0,0
176911,-100,4,3,9,60,0,0
177370,-100,4,3,2,60,0,0
178594,-117.647058823529,4,3,2,60,0,0
178901,-117.647058823529,4,3,1,60,0,0
183492,-117.647058823529,4,3,2,60,0,0
183799,-117.647058823529,4,3,1,60,0,0
187166,-117.647058823529,4,3,2,60,0,0
187625,-117.647058823529,4,3,1,60,0,0
187778,-117.647058823529,4,3,2,60,0,0
187931,-117.647058823529,4,3,1,60,0,0
197829,-117.647058823529,4,3,8,60,0,0
198339,-200,4,3,1,60,0,0
198799,-200,4,3,5,60,0,0
199258,-200,4,3,8,60,0,0
200023,-200,4,3,5,60,0,0
200482,-200,4,3,8,60,0,0
201171,-200,4,2,1,5,0,0
201248,-200,4,3,5,60,0,0
201630,-200,4,2,1,5,0,0
201707,-200,4,3,8,60,0,0
202319,-200,4,3,5,60,0,0
202472,-200,4,3,8,60,0,0
202778,-200,4,3,9,60,0,0
203237,-200,4,3,2,60,0,0
203697,-200,4,3,5,60,0,0
204156,-200,4,3,8,60,0,0
204462,-200,4,3,2,60,0,0
204921,-200,4,3,5,60,0,0
205227,-100,4,3,9,60,0,0
205686,-100,4,3,2,60,0,0
206145,-100,4,3,1,60,0,0
206911,-100,4,3,8,60,0,0
208135,-100,4,3,1,60,0,0
208339,-100,4,3,4,60,0,0
208748,-100,4,3,1,60,0,0
209207,-76.9230769230769,4,3,2,50,0,1
209360,-76.9230769230769,4,3,1,80,0,1
226350,-76.9230769230769,4,3,2,80,0,1
226809,-76.9230769230769,4,3,1,80,0,1
226962,-76.9230769230769,4,3,2,80,0,1
227421,-76.9230769230769,4,3,1,80,0,1
227574,-76.9230769230769,4,3,2,80,0,1
227727,-76.9230769230769,4,3,9,80,0,1
228799,-76.9230769230769,4,3,2,80,0,1
228952,-76.9230769230769,4,3,1,80,0,1
245482,-76.9230769230769,4,3,9,80,0,1
245941,-76.9230769230769,4,3,2,80,0,1
246401,-76.9230769230769,4,3,1,80,0,1
246554,-76.9230769230769,4,3,2,80,0,1
247013,-76.9230769230769,4,3,1,80,0,1
247166,-231.99999987008,4,3,2,60,0,0
252217,-100,4,3,1,60,0,0
271809,-100,4,3,2,60,0,0
274564,-100,4,2,1,5,0,0

[HitObjects]
180,255,1197,5,2,0:0:0:0:
293,160,1350,1,2,0:0:0:0:
281,300,1503,1,10,0:0:0:0:
153,147,1656,2,0,P|177:79|299:21,1,200,6|0,0:0|0:0,0:0:0:0:
293,24,2038,1,0,0:0:0:0:
301,28,2115,1,8,0:0:0:0:
153,147,2574,5,0,0:0:0:0:
293,160,2727,1,8,0:0:0:0:
153,147,3033,5,0,0:0:0:0:
167,194,3186,1,0,0:0:0:0:
279,113,3339,1,8,0:0:0:0:
55,275,3645,5,2,0:0:0:0:
181,331,3799,1,2,0:0:0:0:
167,194,3952,1,10,0:0:0:0:
354,279,4105,2,0,P|379:211|323:88,1,200,6|0,0:0|0:0,0:0:0:0:
324,94,4487,1,0,0:0:0:0:
313,93,4564,1,8,0:0:0:0:
357,280,4870,6,0,P|386:227|383:161,1,100,0|0,0:0|0:0,0:0:0:0:
260,195,5176,1,8,0:0:0:0:
479,35,5482,5,8,0:0:0:0:
187,69,5635,1,8,0:0:0:0:
479,35,5941,6,0,B|490:123|443:176|443:176|393:121,1,200,12|0,0:0|0:0,0:0:0:0:
267,86,6401,1,8,0:0:0:0:
285,185,6554,1,0,0:0:0:0:
378,44,6707,2,0,P|333:31|269:-3,1,100,0|0,0:0|0:0,0:0:0:0:
409,139,7013,1,8,0:0:0:0:
373,232,7166,1,0,0:0:0:0:
173,165,7319,5,0,0:0:0:0:
311,107,7472,1,0,0:0:0:0:
235,290,7625,1,8,0:0:0:0:
373,232,7778,1,0,0:0:0:0:
173,165,7931,2,0,P|186:120|219:56,1,100,0|0,0:0|0:0,0:0:0:0:
78,196,8237,1,8,0:0:0:0:
328,144,8390,6,0,B|414:125|471:167|471:167|421:222,1,200,12|0,0:0|0:0,0:0:0:0:
397,350,8850,1,8,0:0:0:0:
493,323,9003,1,0,0:0:0:0:
344,240,9156,2,0,P|334:285|306:352,1,100,0|0,0:0|0:0,0:0:0:0:
194,245,9462,1,8,0:0:0:0:
266,176,9615,1,0,0:0:0:0:
75,94,9768,5,8,0:0:0:0:
254,77,9921,1,12,0:0:0:0:
52,298,10227,1,12,0:0:0:0:
345,363,10533,1,12,0:0:0:0:
345,363,10839,5,8,0:0:0:0:
354,360,10916,1,8,0:0:0:0:
363,356,10992,1,2,0:0:0:0:
337,210,11145,1,2,0:0:0:0:
452,291,11299,1,10,0:0:0:0:
255,324,11452,2,0,P|208:268|218:133,1,200,4|0,0:0|0:0,0:0:0:0:
219,139,11834,1,0,0:0:0:0:
229,134,11911,1,8,0:0:0:0:
255,324,12370,5,0,0:0:0:0:
362,233,12523,1,8,0:0:0:0:
255,324,12829,5,0,0:0:0:0:
298,346,12982,1,0,0:0:0:0:
319,210,13135,1,8,0:0:0:0:
47,195,13441,5,2,0:0:0:0:
129,83,13594,1,2,0:0:0:0:
185,209,13748,1,10,0:0:0:0:
309,43,13901,2,0,P|364:89|377:223,1,200,4|0,0:0|0:0,0:0:0:0:
375,219,14283,1,0,0:0:0:0:
366,225,14360,1,8,0:0:0:0:
309,43,14666,6,0,P|338:82|352:131,1,100,0|0,0:0|0:0,0:0:0:0:
219,142,14972,1,8,0:0:0:0:
445,48,15278,2,0,L|465:93,1,50,8|8,0:0|0:0,0:0:0:0:
406,253,15431,2,8,L|379:193,3,50,8|8|8|8,0:0|0:0|0:0|0:0,0:0:0:0:
345,135,15737,6,0,B|274:81|204:95|204:95|220:143,1,200,12|0,0:0|0:0,0:0:0:0:
194,294,16197,1,8,0:0:0:0:
118,229,16350,1,0,0:0:0:0:
285,218,16503,2,0,P|273:266|270:316,1,100,0|0,0:0|0:0,0:0:0:0:
220,143,16809,1,8,0:0:0:0:
317,124,16962,1,0,0:0:0:0:
342,335,17115,5,0,0:0:0:0:
194,294,17268,1,0,0:0:0:0:
368,184,17421,1,8,0:0:0:0:
220,143,17574,1,0,0:0:0:0:
342,335,17727,2,0,P|299:353|228:369,1,100,0|0,0:0|0:0,0:0:0:0:
416,375,18033,1,8,0:0:0:0:
295,159,18186,6,0,B|268:75|203:46|203:46|180:117,1,200,0|0,0:0|0:0,0:0:0:0:
82,201,18645,1,8,0:0:0:0:
57,105,18799,1,0,0:0:0:0:
202,192,18952,2,0,P|168:223|124:280,1,100,0|0,0:0|0:0,0:0:0:0:
269,329,19258,1,8,0:0:0:0:
293,232,19411,1,0,0:0:0:0:
133,142,19564,5,0,0:0:0:0:
109,290,19717,1,0,0:0:0:0:
352,276,19870,1,8,0:0:0:0:
333,104,20023,1,0,0:0:0:0:
121,190,20176,1,2,0:0:0:0:
379,213,20329,2,0,P|420:177|445:131,1,100,2|0,0:0|0:0,0:0:0:0:
204,95,20635,6,0,B|116:107|76:165|76:165|142:200,1,200,12|0,0:0|0:0,0:0:0:0:
208,312,21094,1,8,0:0:0:0:
109,320,21248,1,0,0:0:0:0:
220,192,21401,2,0,P|244:230|293:284,1,100,0|0,0:0|0:0,0:0:0:0:
283,111,21707,1,8,0:0:0:0:
182,97,21860,1,0,0:0:0:0:
128,293,22013,5,0,0:0:0:0:
279,271,22166,1,0,0:0:0:0:
132,133,22319,1,10,0:0:0:0:
283,111,22472,1,0,0:0:0:0:
128,293,22625,2,8,P|149:305|171:318,1,50,8|8,0:0|0:0,0:0:0:0:
278,270,22778,2,8,P|256:257|235:245,1,50,8|8,0:0|0:0,0:0:0:0:
85,211,22931,1,8,0:0:0:0:
244,338,23084,1,0,0:0:0:0:
85,211,23237,5,10,0:0:0:0:
380,162,23390,1,10,0:0:0:0:
81,138,23697,5,10,0:0:0:0:
361,243,23850,1,10,0:0:0:0:
114,72,24156,5,8,0:0:0:0:
261,47,24309,1,8,0:0:0:0:
361,243,24462,1,8,0:0:0:0:
162,222,24615,1,8,0:0:0:0:
507,17,24921,5,10,0:0:0:0:
114,72,25227,5,10,0:0:0:0:
361,242,25533,6,0,B|360:183|360:183|328:135|328:135|328:79,1,170.000003242493,4|0,0:0|0:0,0:0:0:0:
464,136,25992,2,0,P|482:186|460:233,1,85.0000016212464,8|0,0:0|0:0,0:0:0:0:
281,203,26299,1,0,0:0:0:0:
328,81,26452,1,0,0:0:0:0:
411,183,26605,1,8,0:0:0:0:
199,102,26758,6,0,B|147:130|147:130|89:126|89:126|41:154,1,170.000003242493,0|0,0:0|0:0,0:0:0:0:
151,253,27217,2,0,P|203:243|233:201,1,85.0000016212464,8|0,0:0|0:0,0:0:0:0:
119,42,27523,1,0,0:0:0:0:
261,162,27676,1,0,0:0:0:0:
87,225,27829,1,8,0:0:0:0:
230,68,27982,6,0,B|295:52|295:52|421:67,1,170.000003242493,0|0,0:0|0:0,0:0:0:0:
343,182,28441,2,0,P|294:168|230:158,1,85.0000016212464,8|0,0:0|0:0,0:0:0:0:
87,225,28748,1,0,0:0:0:0:
199,284,28901,1,0,0:0:0:0:
195,158,29054,1,8,0:0:0:0:
99,337,29207,6,0,B|160:364|160:364|286:371,1,170.000003242493,0|0,0:0|0:0,0:0:0:0:
277,158,29666,2,0,P|233:149|171:171,1,85.0000016212464,8|0,0:0|0:0,0:0:0:0:
329,352,29972,1,0,0:0:0:0:
379,172,30125,1,2,0:0:0:0:
510,306,30278,1,8,0:0:0:0:
307,249,30431,6,0,B|253:244|253:244|203:272|203:272|144:267,1,170.000003242493,2|0,0:0|0:0,0:0:0:0:
209,131,30890,2,0,P|253:122|315:144,1,85.0000016212464,8|0,0:0|0:0,0:0:0:0:
261,326,31197,1,0,0:0:0:0:
144,267,31350,1,0,0:0:0:0:
252,194,31503,1,8,0:0:0:0:
135,355,31656,6,0,B|86:332|86:332|56:283|56:283|3:257,1,170.000003242493,0|0,0:0|0:0,0:0:0:0:
104,156,32115,2,0,P|146:170|189:220,1,85.0000016212464,8|0,0:0|0:0,0:0:0:0:
129,1,32421,1,0,0:0:0:0:
250,100,32574,1,0,0:0:0:0:
104,156,32727,1,8,0:0:0:0:
223,36,32880,5,0,0:0:0:0:
327,118,33033,1,0,0:0:0:0:
308,249,33186,1,0,0:0:0:0:
205,167,33339,1,8,0:0:0:0:
327,118,33492,6,0,P|386:139|419:176,1,85.0000016212464,0|0,0:0|0:0,0:0:0:0:
360,298,33799,1,0,0:0:0:0:
273,189,33952,1,8,0:0:0:0:
203,371,34105,2,0,P|262:370|292:341,1,85.0000016212464,0|0,0:0|0:0,0:0:0:0:
220,237,34411,1,0,0:0:0:0:
50,252,34564,2,0,L|100:332,1,85.0000016212464,8|0,0:0|0:0,0:0:0:0:
174,164,34870,1,0,0:0:0:0:
77,15,35023,2,0,L|27:95,1,85.0000016212464,2|0,0:0|0:0,0:0:0:0:
220,237,35329,6,0,B|274:232|274:232|318:196|318:196|377:190,1,170.000003242493,4|0,0:0|0:0,0:0:0:0:
343,338,35788,2,0,P|305:359|231:338,1,85.0000016212464,8|0,0:0|0:0,0:0:0:0:
248,163,36094,1,0,0:0:0:0:
376,191,36248,1,0,0:0:0:0:
288,288,36401,1,8,0:0:0:0:
393,112,36554,6,0,B|437:143|437:143|458:196|458:196|505:231,1,170.000003242493,0|0,0:0|0:0,0:0:0:0:
415,330,37013,2,0,P|377:302|357:244,1,85.0000016212464,8|0,0:0|0:0,0:0:0:0:
504,119,37319,1,0,0:0:0:0:
341,183,37472,1,0,0:0:0:0:
478,293,37625,1,8,0:0:0:0:
396,87,37778,6,0,B|335:60|335:60|209:53,1,170.000003242493,0|0,0:0|0:0,0:0:0:0:
140,180,38237,2,0,P|195:191|249:217,1,85.0000016212464,8|0,0:0|0:0,0:0:0:0:
305,359,38543,1,0,0:0:0:0:
184,314,38697,1,0,0:0:0:0:
284,232,38850,1,8,0:0:0:0:
162,380,39003,6,0,B|108:340|108:340|39:235,1,170.000003242493,0|0,0:0|0:0,0:0:0:0:
235,165,39462,2,0,P|268:194|285:257,1,85.0000016212464,8|0,0:0|0:0,0:0:0:0:
75,187,39768,1,0,0:0:0:0:
208,69,39921,1,2,0:0:0:0:
40,13,40074,1,8,0:0:0:0:
183,181,40227,6,0,B|232:203|232:203|288:195|288:195|342:219,1,170.000003242493,2|0,0:0|0:0,0:0:0:0:
239,330,40686,2,0,P|192:331|150:279,1,85.0000016212464,8|0,0:0|0:0,0:0:0:0:
241,130,40992,1,0,0:0:0:0:
342,218,41145,1,0,0:0:0:0:
216,262,41299,1,8,0:0:0:0:
327,112,41452,6,0,B|295:67|295:67|242:46|242:46|207:-1,1,170.000003242493,0|0,0:0|0:0,0:0:0:0:
155,134,41911,2,0,P|186:172|246:188,1,85.0000016212464,8|0,0:0|0:0,0:0:0:0:
11,221,42217,1,0,0:0:0:0:
157,304,42370,1,0,0:0:0:0:
157,134,42523,1,8,0:0:0:0:
87,305,42676,5,0,0:0:0:0:
207,346,42829,1,2,0:0:0:0:
331,321,42982,1,0,0:0:0:0:
248,227,43135,2,0,P|192:218|146:246,1,85.0000016212464,10|0,0:0|0:0,0:0:0:0:
341,142,43441,2,0,P|297:106|243:107,1,85.0000016212464,2|2,0:0|0:0,0:0:0:0:
424,236,43748,1,8,0:0:0:0:
226,268,43901,2,0,P|217:212|245:166,1,85.0000016212464,0|0,0:0|0:0,0:0:0:0:
401,120,44207,5,0,0:0:0:0:
372,304,44360,1,8,0:0:0:0:
226,186,44513,1,0,0:0:0:0:
401,120,44666,1,8,0:0:0:0:
283,265,44819,1,8,0:0:0:0:
318,54,44972,1,8,0:0:0:0:
405,284,45125,6,0,P|344:340|248:344,1,170.000003242493,4|0,0:0|0:0,0:0:0:0:
144,197,45584,2,0,P|195:181|249:198,1,85.0000016212464,10|0,0:0|0:0,0:0:0:0:
147,119,45890,1,2,0:0:0:0:
300,5,46043,2,0,P|288:57|246:95,1,85.0000016212464,0|10,0:0|0:0,0:0:0:0:
366,46,46350,1,0,0:0:0:0:
374,262,46503,6,0,P|334:225|322:170,1,85.0000016212464,2|0,0:0|0:0,0:0:0:0:
393,127,46809,1,10,0:0:0:0:
340,325,46962,2,0,P|291:322|251:328,1,85.0000016212464,0|2,0:0|0:0,0:0:0:0:
418,222,47268,1,0,0:0:0:0:
224,231,47421,1,10,0:0:0:0:
393,127,47574,6,0,P|394:77|375:31,1,85.0000016212464,0|0,0:0|0:0,0:0:0:0:
287,25,47880,1,0,0:0:0:0:
159,180,48033,2,0,P|195:219|250:231,1,85.0000016212464,10|0,0:0|0:0,0:0:0:0:
156,294,48339,1,2,0:0:0:0:
67,112,48492,2,0,L|171:66,1,85.0000016212464,0|2,0:0|0:0,0:0:0:0:
240,116,48799,1,0,0:0:0:0:
413,112,48952,6,0,L|425:225,1,85.0000016212464,2|0,0:0|0:0,0:0:0:0:
357,273,49258,1,2,0:0:0:0:
167,154,49411,6,0,P|221:118|280:122,1,85.0000016212464,4|0,0:0|0:0,0:0:0:0:
357,273,49717,1,4,0:0:0:0:
413,112,49870,1,8,0:0:0:0:
285,224,50023,6,0,P|244:196|194:67,1,170.000003242493,4|0,0:0|0:0,0:0:0:0:
374,39,50482,2,0,P|406:81|408:138,1,85.0000016212464,10|0,0:0|0:0,0:0:0:0:
457,19,50788,1,2,0:0:0:0:
275,93,50941,2,0,P|221:99|171:73,1,85.0000016212464,0|10,0:0|0:0,0:0:0:0:
249,174,51248,1,0,0:0:0:0:
85,76,51401,6,0,P|105:26|153:-3,1,85.0000016212464,2|0,0:0|0:0,0:0:0:0:
193,89,51707,1,10,0:0:0:0:
374,39,51860,2,0,P|389:79|418:118,1,85.0000016212464,0|2,0:0|0:0,0:0:0:0:
243,16,52166,1,0,0:0:0:0:
341,185,52319,1,10,0:0:0:0:
193,89,52472,6,0,P|140:100|102:142,1,85.0000016212464,4|0,0:0|0:0,0:0:0:0:
131,220,52778,1,0,0:0:0:0:
329,266,52931,2,0,P|344:215|327:161,1,85.0000016212464,10|0,0:0|0:0,0:0:0:0:
431,230,53237,1,2,0:0:0:0:
259,349,53390,2,0,L|209:246,1,85.0000016212464,0|10,0:0|0:0,0:0:0:0:
256,175,53697,1,0,0:0:0:0:
394,357,53850,5,8,0:0:0:0:
483,147,54003,1,8,0:0:0:0:
256,175,54156,1,8,0:0:0:0:
396,235,54309,1,0,0:0:0:0:
457,95,54462,1,8,0:0:0:0:
317,35,54615,1,8,0:0:0:0:
256,175,54768,1,8,0:0:0:0:
457,95,54921,6,0,B|462:149|462:149|497:194|497:194|504:252,1,170.000003242493,4|0,0:0|0:0,0:0:0:0:
360,270,55380,2,0,P|345:220|318:176,1,85.0000016212464,8|0,0:0|0:0,0:0:0:0:
142,179,55686,1,0,0:0:0:0:
219,280,55839,1,0,0:0:0:0:
268,163,55992,1,0,0:0:0:0:
133,266,56145,6,0,B|85:240|85:240|57:190|57:190|6:161,1,170.000003242493,0|0,0:0|0:0,0:0:0:0:
25,314,56605,2,0,P|65:340|129:334,1,85.0000016212464,8|0,0:0|0:0,0:0:0:0:
140,133,56911,1,0,0:0:0:0:
218,293,57064,1,0,0:0:0:0:
318,146,57217,1,8,0:0:0:0:
126,239,57370,6,0,B|79:190|79:190|29:74,1,170.000003242493,0|0,0:0|0:0,0:0:0:0:
190,73,57829,2,0,P|218:124|211:164,1,85.0000016212464,8|0,0:0|0:0,0:0:0:0:
46,252,58135,1,0,0:0:0:0:
136,153,58288,1,0,0:0:0:0:
177,281,58441,1,8,0:0:0:0:
28,145,58594,6,0,B|67:91|67:91|172:22,1,170.000003242493,0|0,0:0|0:0,0:0:0:0:
314,175,59054,2,0,P|273:228|231:239,1,85.0000016212464,8|0,0:0|0:0,0:0:0:0:
22,216,59360,1,0,0:0:0:0:
190,135,59513,1,2,0:0:0:0:
36,31,59666,1,8,0:0:0:0:
135,232,59819,6,0,B|189:233|189:233|238:204|238:204|296:204,1,170.000003242493,2|0,0:0|0:0,0:0:0:0:
234,347,60278,2,0,P|167:355|130:333,1,85.0000016212464,8|0,0:0|0:0,0:0:0:0:
167,163,60584,1,0,0:0:0:0:
244,280,60737,1,0,0:0:0:0:
105,289,60890,1,8,0:0:0:0:
246,195,61043,6,0,B|246:141|246:141|218:92|218:92|217:34,1,170.000003242493,0|0,0:0|0:0,0:0:0:0:
359,93,61503,2,0,P|368:144|354:188,1,85.0000016212464,8|0,0:0|0:0,0:0:0:0:
496,23,61809,1,0,0:0:0:0:
359,93,61962,1,0,0:0:0:0:
488,176,62115,1,8,0:0:0:0:
390,26,62268,5,0,0:0:0:0:
286,108,62421,1,0,0:0:0:0:
305,239,62574,1,0,0:0:0:0:
408,157,62727,1,8,0:0:0:0:
286,108,62880,6,0,P|227:129|194:166,1,85.0000016212464,0|0,0:0|0:0,0:0:0:0:
253,288,63186,1,0,0:0:0:0:
340,179,63339,1,8,0:0:0:0:
410,361,63492,2,0,P|351:360|321:331,1,85.0000016212464,0|0,0:0|0:0,0:0:0:0:
404,230,63799,5,0,0:0:0:0:
233,89,63952,1,10,0:0:0:0:
206,256,64105,1,0,0:0:0:0:
347,85,64258,1,10,0:0:0:0:
129,49,64411,1,0,0:0:0:0:
300,190,64564,1,10,0:0:0:0:
82,154,64717,6,0,B|68:206|68:206|28:246|28:246|12:302,1,170.000003242493,4|0,0:0|0:0,0:0:0:0:
164,297,65176,2,0,P|191:258|194:216,1,85.0000016212464,8|0,0:0|0:0,0:0:0:0:
9,172,65482,1,0,0:0:0:0:
88,281,65635,1,0,0:0:0:0:
143,159,65788,1,8,0:0:0:0:
17,324,65941,6,0,B|69:352|69:352|125:353|125:353|172:380,1,170.000003242493,0|0,0:0|0:0,0:0:0:0:
285,256,66401,2,0,P|250:206|201:194,1,85.0000016212464,8|0,0:0|0:0,0:0:0:0:
25,253,66707,1,0,0:0:0:0:
127,96,66860,1,0,0:0:0:0:
212,263,67013,1,8,0:0:0:0:
7,131,67166,6,0,B|41:73|41:73|141:-5,1,170.000003242493,0|0,0:0|0:0,0:0:0:0:
174,153,67625,2,0,P|141:188|115:234,1,85.0000016212464,8|0,0:0|0:0,0:0:0:0:
272,328,67931,1,0,0:0:0:0:
323,211,68084,1,0,0:0:0:0:
197,226,68237,1,8,0:0:0:0:
385,303,68390,6,0,B|401:237|401:237|386:112,1,170.000003242493,0|0,0:0|0:0,0:0:0:0:
203,144,68850,2,0,P|190:193|200:233,1,85.0000016212464,8|0,0:0|0:0,0:0:0:0:
8,99,69156,1,0,0:0:0:0:
183,66,69309,1,2,0:0:0:0:
125,235,69462,1,8,0:0:0:0:
343,201,69615,6,0,B|351:142|351:142|333:89|333:89|342:36,1,170.000003242493,2|0,0:0|0:0,0:0:0:0:
471,110,70074,2,0,P|480:169|451:214,1,85.0000016212464,8|0,0:0|0:0,0:0:0:0:
283,150,70380,1,0,0:0:0:0:
393,86,70533,1,0,0:0:0:0:
394,214,70686,1,10,0:0:0:0:
299,50,70839,6,0,B|240:56|240:56|193:88|193:88|139:93,1,170.000003242493,0|0,0:0|0:0,0:0:0:0:
9,31,71299,2,0,P|60:5|102:8,1,85.0000016212464,10|0,0:0|0:0,0:0:0:0:
74,225,71605,1,2,0:0:0:0:
245,151,71758,1,0,0:0:0:0:
224,337,71911,1,10,0:0:0:0:
135,133,72064,6,0,P|181:90|258:81,1,127.50000243187,4|8,0:0|0:0,0:0:0:0:
282,80,72370,1,8,0:0:0:0:
384,155,72523,1,8,0:0:0:0:
183,245,72676,2,0,P|210:196|267:163,1,85.0000016212464,8|8,0:0|0:0,0:0:0:0:
351,222,72982,1,8,0:0:0:0:
276,325,73135,1,8,0:0:0:0:
303,77,73288,6,0,P|339:105|343:233,1,170.000003242493,4|0,0:0|0:0,0:0:0:0:
231,177,73748,1,8,0:0:0:0:
97,45,73901,2,0,P|61:73|57:201,1,170.000003242493,4|0,0:0|0:0,0:0:0:0:
231,177,74360,2,0,P|242:130|197:86,1,85.0000016212464,8|0,0:0|0:0,0:0:0:0:
73,294,74666,6,0,B|138:342|161:291|227:339,1,150,4|8,0:0|0:0,0:0:0:0:
430,374,75584,5,8,0:0:0:0:
472,283,75737,1,8,0:0:0:0:
462,183,75890,2,0,B|396:134|373:185|307:137,1,150,8|8,0:0|0:0,0:0:0:0:
125,23,76809,5,8,0:0:0:0:
83,114,76962,1,8,0:0:0:0:
93,214,77115,2,0,B|145:264|181:219|230:252,1,125,8|0,0:0|0:0,0:0:0:0:
210,242,77574,6,0,P|203:193|253:125,1,125,8|0,0:0|0:0,0:0:0:0:
241,131,78033,1,8,0:0:0:0:
339,149,78186,1,8,0:0:0:0:
414,213,78339,2,0,B|445:249|471:219|502:256,1,100,8|8,0:0|0:0,0:0:0:0:
510,355,78799,1,8,0:0:0:0:
311,380,79105,5,8,0:0:0:0:
213,359,79258,1,8,0:0:0:0:
138,291,79411,1,8,0:0:0:0:
91,145,79564,2,0,B|152:91|179:139|240:86,1,150,4|8,0:0|0:0,0:0:0:0:
433,18,80482,5,8,0:0:0:0:
470,110,80635,1,8,0:0:0:0:
449,257,80788,2,0,B|387:310|360:262|299:315,1,150,4|8,0:0|0:0,0:0:0:0:
141,215,81554,5,8,0:0:0:0:
227,92,81707,1,8,0:0:0:0:
374,65,81860,1,8,0:0:0:0:
312,242,82013,6,0,B|216:225|242:150|138:131,1,200,4|0,0:0|0:0,0:0:0:0:
26,311,82472,1,8,0:0:0:0:
167,361,82625,1,8,0:0:0:0:
302,296,82778,1,8,0:0:0:0:
149,191,82931,6,0,P|108:203|56:159,1,100,8|0,0:0|0:0,0:0:0:0:
61,148,83161,1,0,0:0:0:0:
104,87,83237,5,8,0:0:0:0:
138,73,83314,1,8,0:0:0:0:
176,72,83390,1,8,0:0:0:0:
212,82,83467,1,8,0:0:0:0:
242,104,83543,1,8,0:0:0:0:
264,134,83620,1,8,0:0:0:0:
283,208,83697,5,8,0:0:0:0:
317,221,83773,1,8,0:0:0:0:
355,222,83850,1,8,0:0:0:0:
391,212,83926,1,8,0:0:0:0:
421,190,84003,1,8,0:0:0:0:
443,160,84079,1,8,0:0:0:0:
420,88,84156,6,0,P|361:89|308:57,1,100,4|0,0:0|0:0,0:0:0:0:
301,43,84385,1,0,0:0:0:0:
256,17,84462,5,8,0:0:0:0:
208,13,84538,1,8,0:0:0:0:
159,25,84615,1,8,0:0:0:0:
117,52,84691,1,8,0:0:0:0:
86,90,84768,1,8,0:0:0:0:
68,137,84844,1,8,0:0:0:0:
67,187,84921,1,10,0:0:0:0:
238,269,85074,5,0,0:0:0:0:
187,140,85227,1,0,0:0:0:0:
140,268,85380,1,0,0:0:0:0:
263,63,85533,6,0,B|335:71|335:71|405:102,1,129.999994049073,4|0,0:0|0:0,0:0:0:0:
447,238,85839,1,0,0:0:0:0:
238,269,85992,2,0,B|246:197|246:197|277:127,1,129.999994049073,8|0,0:0|0:0,0:0:0:0:
97,239,86299,1,0,0:0:0:0:
28,97,86452,1,0,0:0:0:0:
185,109,86605,1,8,0:0:0:0:
16,250,86758,6,0,B|44:307|95:315|95:315|83:351|83:351|149:350|206:394,1,259.999988098145,0|0,0:0|0:0,0:0:0:0:
288,370,87217,1,8,0:0:0:0:
353,299,87370,1,0,0:0:0:0:
373,205,87523,1,0,0:0:0:0:
211,233,87676,5,0,0:0:0:0:
268,79,87829,1,8,0:0:0:0:
250,295,87982,2,0,P|180:315|111:266,1,129.999994049073,0|0,0:0|0:0,0:0:0:0:
244,158,88288,1,0,0:0:0:0:
70,126,88441,2,0,P|17:176|25:260,1,129.999994049073,8|0,0:0|0:0,0:0:0:0:
81,5,88748,1,0,0:0:0:0:
266,63,88901,1,0,0:0:0:0:
124,195,89054,1,8,0:0:0:0:
222,0,89207,6,0,B|219:2|290:-32|330:29|330:29|370:11|370:11|395:63|500:50,1,259.999988098145,0|0,0:0|0:0,0:0:0:0:
497,137,89666,1,8,0:0:0:0:
497,235,89819,1,0,0:0:0:0:
295,117,89972,5,0,0:0:0:0:
294,351,90125,1,0,0:0:0:0:
412,149,90278,1,8,0:0:0:0:
222,339,90431,2,0,B|166:320|166:320|159:303|159:303|104:284,1,129.999994049073
62,110,90737,1,0,0:0:0:0:
271,210,90890,2,0,B|320:240|320:240|338:234|338:234|387:265,1,129.999994049073,8|0,0:0|0:0,0:0:0:0:
290,6,91197,1,0,0:0:0:0:
184,200,91350,1,0,0:0:0:0:
406,195,91503,1,8,0:0:0:0:
151,122,91656,6,0,B|117:134|106:167|106:167|106:166|75:150|43:166,1,129.999994049073,0|0,0:0|0:0,0:0:0:0:
209,365,91962,1,0,0:0:0:0:
307,124,92115,1,8,0:0:0:0:
87,262,92268,1,0,0:0:0:0:
346,279,92421,1,0,0:0:0:0:
147,114,92574,1,0,0:0:0:0:
209,365,92727,1,8,0:0:0:0:
214,74,92880,6,0,B|273:75|273:75|285:61|285:61|343:62,1,129.999994049073,4|0,0:0|0:0,0:0:0:0:
492,158,93186,1,0,0:0:0:0:
265,214,93339,2,0,B|205:215|205:215|193:201|193:201|135:202,1,129.999994049073,12|0,0:0|0:0,0:0:0:0:
299,374,93645,1,0,0:0:0:0:
346,183,93799,1,0,0:0:0:0:
210,325,93952,1,0,0:0:0:0:
447,258,94105,5,10,0:0:0:0:
127,79,94411,1,0,0:0:0:0:
494,75,94717,1,10,0:0:0:0:
252,78,94870,5,0,0:0:0:0:
393,216,95023,1,0,0:0:0:0:
340,26,95176,1,8,0:0:0:0:
344,264,95329,6,0,B|405:300|405:300|480:318,1,129.999994049073,4|0,0:0|0:0,0:0:0:0:
499,162,95635,1,0,0:0:0:0:
302,92,95788,2,0,B|282:161|282:161|284:238,1,129.999994049073,8|0,0:0|0:0,0:0:0:0:
144,95,96094,1,0,0:0:0:0:
45,216,96248,1,0,0:0:0:0:
200,242,96401,1,8,0:0:0:0:
88,45,96554,6,0,B|144:16|190:40|190:40|202:4|202:4|254:45|326:44,1,259.999988098145,0|0,0:0|0:0,0:0:0:0:
392,93,97013,1,8,0:0:0:0:
440,179,97166,1,0,0:0:0:0:
438,277,97319,1,0,0:0:0:0:
303,197,97472,5,0,0:0:0:0:
302,354,97625,1,8,0:0:0:0:
362,142,97778,2,0,P|290:128|226:183,1,129.999994049073,0|0,0:0|0:0,0:0:0:0:
369,276,98084,1,0,0:0:0:0:
201,324,98237,2,0,P|165:271|173:208,1,129.999994049073,8|0,0:0|0:0,0:0:0:0:
12,378,98543,1,0,0:0:0:0:
61,188,98697,1,0,0:0:0:0:
201,324,98850,1,8,0:0:0:0:
0,232,99003,6,0,B|2:235|-32:164|29:124|29:124|11:84|11:84|63:59|50:-46,1,259.999988098145,0|0,0:0|0:0,0:0:0:0:
149,0,99462,1,8,0:0:0:0:
236,45,99615,1,0,0:0:0:0:
99,234,99768,5,0,0:0:0:0:
330,198,99921,1,0,0:0:0:0:
112,114,100074,1,8,0:0:0:0:
355,292,100227,2,0,B|314:334|314:334|295:333|295:333|255:375,1,129.999994049073,4|0,0:0|0:0,0:0:0:0:
96,289,100533,1,0,0:0:0:0:
282,147,100686,2,0,B|331:114|331:114|333:95|333:95|381:63,1,129.999994049073,8|0,0:0|0:0,0:0:0:0:
106,104,100992,1,0,0:0:0:0:
281,238,101145,1,0,0:0:0:0:
310,20,101299,1,8,0:0:0:0:
213,261,101452,6,0,B|225:294|258:305|258:305|257:305|241:337|257:369,1,129.999994049073,0|0,0:0|0:0,0:0:0:0:
504,291,101758,1,0,0:0:0:0:
168,326,101911,1,10,0:0:0:0:
304,104,102064,1,0,0:0:0:0:
44,98,102217,1,8,0:0:0:0:
28,140,102293,1,8,0:0:0:0:
23,185,102370,1,8,0:0:0:0:
26,231,102447,1,8,0:0:0:0:
39,274,102523,1,8,0:0:0:0:
375,173,102676,6,0,B|423:201|428:236|428:236|399:264|399:264|423:306|423:306|380:332|382:378|382:378,1,259.999988098145,4|0,0:0|0:0,0:0:0:0:
121,231,103135,1,8,0:0:0:0:
422,50,103288,2,0,B|394:2|359:-3|359:-3|331:26|331:26|289:2|289:2|263:45|217:43|217:43,1,259.999988098145,4|4,0:0|0:0,0:0:0:0:
385,292,103748,1,8,0:0:0:0:
86,313,103901,6,0,B|58:300|46:278|46:278|79:250|39:219|39:219|80:177|42:135|42:135,1,200,4|8,0:0|0:0,0:0:0:0:
127,85,104360,1,8,0:0:0:0:
240,64,104513,1,8,0:0:0:0:
348,167,104666,1,8,0:0:0:0:
245,274,104819,1,8,0:0:0:0:
137,171,104972,1,8,0:0:0:0:
240,64,105125,1,8,0:0:0:0:
316,237,105278,5,4,0:0:0:0:
326,254,105355,1,0,0:0:0:0:
338,270,105431,1,0,0:0:0:0:
351,285,105508,1,0,0:0:0:0:
365,298,105584,1,0,0:0:0:0:
381,311,105661,1,0,0:0:0:0:
398,322,105737,1,0,0:0:0:0:
416,331,105814,1,0,0:0:0:0:
453,344,105890,1,8,0:0:0:0:
453,344,106197,5,0,0:0:0:0:
448,324,106273,1,0,0:0:0:0:
445,304,106350,1,0,0:0:0:0:
443,284,106426,1,0,0:0:0:0:
444,264,106503,1,0,0:0:0:0:
446,245,106579,1,0,0:0:0:0:
451,225,106656,1,0,0:0:0:0:
457,206,106732,1,0,0:0:0:0:
464,188,106809,1,0,0:0:0:0:
305,208,107115,5,8,0:0:0:0:
295,211,107191,1,0,0:0:0:0:
286,215,107268,1,0,0:0:0:0:
277,219,107344,1,0,0:0:0:0:
268,223,107421,1,0,0:0:0:0:
196,188,107727,5,0,0:0:0:0:
196,168,107804,1,0,0:0:0:0:
198,148,107880,1,0,0:0:0:0:
202,128,107957,1,0,0:0:0:0:
208,110,108033,1,0,0:0:0:0:
215,91,108110,1,0,0:0:0:0:
224,73,108186,1,0,0:0:0:0:
235,56,108263,1,0,0:0:0:0:
261,26,108339,1,8,0:0:0:0:
261,27,108645,5,0,0:0:0:0:
267,47,108722,1,0,0:0:0:0:
275,66,108799,1,0,0:0:0:0:
283,84,108875,1,0,0:0:0:0:
294,101,108952,1,0,0:0:0:0:
305,116,109028,1,0,0:0:0:0:
319,131,109105,1,0,0:0:0:0:
334,145,109181,1,0,0:0:0:0:
349,157,109258,1,0,0:0:0:0:
189,167,109564,5,8,0:0:0:0:
178,165,109640,1,0,0:0:0:0:
168,164,109717,1,0,0:0:0:0:
158,163,109793,1,0,0:0:0:0:
148,162,109870,2,0,B|135:194|148:218|148:218|161:246|148:274,1,112.500004291535,0|0,0:0|0:0,0:0:0:0:
139,291,110176,5,0,0:0:0:0:
116,291,110253,1,0,0:0:0:0:
94,287,110329,1,0,0:0:0:0:
73,279,110406,1,0,0:0:0:0:
54,267,110482,1,0,0:0:0:0:
38,251,110559,1,0,0:0:0:0:
26,232,110635,1,0,0:0:0:0:
18,212,110712,1,0,0:0:0:0:
14,167,110788,1,8,0:0:0:0:
14,167,111094,5,0,0:0:0:0:
33,178,111171,1,0,0:0:0:0:
54,186,111248,1,0,0:0:0:0:
77,189,111324,1,0,0:0:0:0:
99,188,111401,1,0,0:0:0:0:
121,182,111477,1,0,0:0:0:0:
141,172,111554,1,0,0:0:0:0:
158,159,111630,1,0,0:0:0:0:
173,141,111707,1,0,0:0:0:0:
224,266,112013,5,8,0:0:0:0:
229,275,112089,1,0,0:0:0:0:
233,284,112166,1,0,0:0:0:0:
237,293,112242,1,0,0:0:0:0:
240,302,112319,1,0,0:0:0:0:
367,346,112625,5,0,0:0:0:0:
386,335,112702,1,0,0:0:0:0:
403,321,112778,1,0,0:0:0:0:
418,303,112855,1,0,0:0:0:0:
428,283,112931,1,0,0:0:0:0:
434,261,113008,1,0,0:0:0:0:
435,239,113084,1,0,0:0:0:0:
432,218,113161,1,0,0:0:0:0:
413,177,113237,1,8,0:0:0:0:
413,176,113543,5,0,0:0:0:0:
403,195,113620,1,0,0:0:0:0:
388,213,113697,1,0,0:0:0:0:
370,227,113773,1,0,0:0:0:0:
350,237,113850,1,0,0:0:0:0:
328,243,113926,1,0,0:0:0:0:
306,244,114003,1,0,0:0:0:0:
285,241,114079,1,0,0:0:0:0:
263,233,114156,1,0,0:0:0:0:
324,351,114462,5,12,0:0:0:0:
335,353,114538,1,0,0:0:0:0:
345,354,114615,1,0,0:0:0:0:
355,355,114691,1,0,0:0:0:0:
365,356,114768,2,0,B|378:324|365:300|365:300|352:272|365:244,1,112.500004291535,0|0,0:0|0:0,0:0:0:0:
379,226,115074,5,0,0:0:0:0:
397,207,115151,1,0,0:0:0:0:
409,184,115227,1,0,0:0:0:0:
414,158,115304,1,0,0:0:0:0:
412,132,115380,1,0,0:0:0:0:
402,108,115457,1,0,0:0:0:0:
386,88,115533,1,0,0:0:0:0:
364,73,115610,1,0,0:0:0:0:
313,64,115686,1,8,0:0:0:0:
313,64,115992,5,0,0:0:0:0:
319,89,116069,1,0,0:0:0:0:
318,115,116145,1,0,0:0:0:0:
310,140,116222,1,0,0:0:0:0:
295,161,116299,1,0,0:0:0:0:
274,177,116375,1,0,0:0:0:0:
250,187,116452,1,0,0:0:0:0:
224,189,116528,1,0,0:0:0:0:
198,183,116605,1,0,0:0:0:0:
317,274,116911,5,8,0:0:0:0:
327,270,116987,1,0,0:0:0:0:
338,266,117064,1,0,0:0:0:0:
348,262,117140,1,0,0:0:0:0:
359,259,117217,1,0,0:0:0:0:
322,172,117523,5,0,0:0:0:0:
296,165,117600,1,0,0:0:0:0:
270,166,117676,1,0,0:0:0:0:
245,174,117753,1,0,0:0:0:0:
224,189,117829,1,0,0:0:0:0:
208,210,117906,1,0,0:0:0:0:
198,234,117982,1,0,0:0:0:0:
196,260,118059,1,0,0:0:0:0:
214,309,118135,1,8,0:0:0:0:
214,310,118441,5,0,0:0:0:0:
233,292,118518,1,0,0:0:0:0:
256,280,118594,1,0,0:0:0:0:
282,274,118671,1,0,0:0:0:0:
307,277,118748,1,0,0:0:0:0:
332,287,118824,1,0,0:0:0:0:
352,303,118901,1,0,0:0:0:0:
367,324,118977,1,0,0:0:0:0:
375,350,119054,1,0,0:0:0:0:
387,200,119360,5,8,0:0:0:0:
391,190,119436,1,0,0:0:0:0:
395,181,119513,1,0,0:0:0:0:
399,172,119589,1,0,0:0:0:0:
402,162,119666,2,0,B|374:141|347:147|347:147|317:152|293:133,1,112.500004291535,0|0,0:0|0:0,0:0:0:0:
275,119,119972,5,4,0:0:0:0:
252,105,120049,1,0,0:0:0:0:
226,99,120125,1,0,0:0:0:0:
200,101,120202,1,0,0:0:0:0:
176,110,120278,1,0,0:0:0:0:
155,126,120355,1,0,0:0:0:0:
139,146,120431,1,0,0:0:0:0:
131,171,120508,1,0,0:0:0:0:
135,223,120584,1,8,0:0:0:0:
135,224,120890,5,0,0:0:0:0:
158,212,120967,1,0,0:0:0:0:
183,206,121043,1,0,0:0:0:0:
210,207,121120,1,0,0:0:0:0:
233,216,121197,1,0,0:0:0:0:
255,232,121273,1,0,0:0:0:0:
270,253,121350,1,0,0:0:0:0:
279,277,121426,1,0,0:0:0:0:
280,304,121503,1,0,0:0:0:0:
340,166,121809,5,8,0:0:0:0:
344,155,121885,1,0,0:0:0:0:
349,145,121962,1,0,0:0:0:0:
353,135,122038,1,0,0:0:0:0:
358,124,122115,1,0,0:0:0:0:
177,17,122421,5,4,0:0:0:0:
143,15,122498,1,0,0:0:0:0:
111,25,122574,1,0,0:0:0:0:
85,46,122651,1,0,0:0:0:0:
68,75,122727,1,0,0:0:0:0:
63,108,122804,1,0,0:0:0:0:
69,141,122880,1,0,0:0:0:0:
87,170,122957,1,0,0:0:0:0:
146,199,123033,1,8,0:0:0:0:
146,199,123339,5,0,0:0:0:0:
161,169,123416,1,0,0:0:0:0:
186,146,123492,1,0,0:0:0:0:
217,134,123569,1,0,0:0:0:0:
251,134,123645,1,0,0:0:0:0:
282,146,123722,1,0,0:0:0:0:
307,168,123799,1,0,0:0:0:0:
323,198,123875,1,0,0:0:0:0:
319,264,123952,1,8,0:0:0:0:
401,87,124258,5,8,0:0:0:0:
368,67,124334,1,8,0:0:0:0:
334,52,124411,1,8,0:0:0:0:
299,40,124487,1,8,0:0:0:0:
262,34,124564,1,8,0:0:0:0:
224,31,124640,1,8,0:0:0:0:
187,34,124717,1,8,0:0:0:0:
150,40,124793,1,8,0:0:0:0:
80,67,124870,1,4,0:0:0:0:
81,216,125023,1,0,0:0:0:0:
265,140,125176,5,8,0:0:0:0:
116,140,125329,1,0,0:0:0:0:
315,141,125482,2,0,P|357:175|356:247,1,100,0|0,0:0|0:0,0:0:0:0:
220,255,125788,1,8,0:0:0:0:
409,143,125941,2,0,L|493:90,1,75.0000028610231,0|0,0:0|0:0,0:0:0:0:
390,44,126248,1,0,0:0:0:0:
429,240,126401,5,8,0:0:0:0:
295,90,126554,1,0,0:0:0:0:
337,287,126707,1,0,0:0:0:0:
361,164,126860,1,0,0:0:0:0:
243,205,127013,1,8,0:0:0:0:
337,287,127166,1,0,0:0:0:0:
288,145,127319,1,0,0:0:0:0:
260,293,127472,1,0,0:0:0:0:
456,257,127625,5,8,0:0:0:0:
310,221,127778,1,0,0:0:0:0:
505,269,127931,2,0,P|514:311|482:377,1,100,0|0,0:0|0:0,0:0:0:0:
353,313,128237,1,8,0:0:0:0:
408,128,128390,2,0,L|438:37,1,75.0000028610231,0|0,0:0|0:0,0:0:0:0:
330,60,128697,1,0,0:0:0:0:
490,180,128850,5,8,0:0:0:0:
307,259,129003,1,0,0:0:0:0:
505,282,129156,1,0,0:0:0:0:
397,217,129309,1,0,0:0:0:0:
433,20,129462,1,10,0:0:0:0:
494,128,129615,1,0,0:0:0:0:
318,45,129768,1,0,0:0:0:0:
331,191,129921,1,0,0:0:0:0:
142,124,130074,5,8,0:0:0:0:
291,120,130227,1,0,0:0:0:0:
91,125,130380,2,0,P|53:171|60:241,1,100,0|0,0:0|0:0,0:0:0:0:
197,227,130686,1,8,0:0:0:0:
57,64,130839,2,0,L|11:6,1,75.0000028610231,0|0,0:0|0:0,0:0:0:0:
110,3,131145,1,0,0:0:0:0:
77,201,131299,5,8,0:0:0:0:
205,47,131452,1,0,0:0:0:0:
172,245,131605,1,0,0:0:0:0:
143,123,131758,1,0,0:0:0:0:
264,159,131911,1,8,0:0:0:0:
172,245,132064,1,0,0:0:0:0:
338,94,132217,1,4,0:0:0:0:
449,194,132370,1,0,0:0:0:0:
264,272,132523,5,8,0:0:0:0:
373,169,132676,1,0,0:0:0:0:
228,307,132829,2,0,P|178:297|133:251,1,100,0|0,0:0|0:0,0:0:0:0:
190,123,133135,1,8,0:0:0:0:
350,254,133288,2,0,L|429:318,1,75.0000028610231,0|0,0:0|0:0,0:0:0:0:
317,343,133594,2,0,L|272:305,1,50,0|0,0:0|0:0,0:0:0:0:
382,164,133748,5,10,0:0:0:0:
199,246,133901,1,0,0:0:0:0:
317,84,134054,1,8,0:0:0:0:
291,60,134130,1,8,0:0:0:0:
258,49,134207,1,8,0:0:0:0:
224,53,134283,1,8,0:0:0:0:
195,72,134360,5,8,0:0:0:0:
171,79,134436,1,8,0:0:0:0:
150,66,134513,1,8,0:0:0:0:
144,43,134589,1,8,0:0:0:0:
157,22,134666,5,4,0:0:0:0:
43,148,134819,1,0,0:0:0:0:
267,199,134972,1,10,0:0:0:0:
100,231,135125,1,0,0:0:0:0:
326,189,135278,2,0,P|332:138|308:71,1,100,2|0,0:0|0:0,0:0:0:0:
155,70,135584,1,10,0:0:0:0:
395,144,135737,1,0,0:0:0:0:
395,144,135890,2,0,P|401:195|377:262,1,100,2|0,0:0|0:0,0:0:0:0:
163,190,136197,5,10,0:0:0:0:
332,346,136350,1,0,0:0:0:0:
265,127,136503,1,2,0:0:0:0:
160,71,136656,1,0,0:0:0:0:
104,176,136809,1,10,0:0:0:0:
209,232,136962,1,0,0:0:0:0:
94,312,137115,1,2,0:0:0:0:
221,372,137268,1,0,0:0:0:0:
189,144,137421,5,10,0:0:0:0:
49,238,137574,1,0,0:0:0:0:
236,104,137727,2,0,P|281:128|322:186,1,100,2|0,0:0|0:0,0:0:0:0:
166,262,138033,1,10,0:0:0:0:
311,73,138186,1,0,0:0:0:0:
311,73,138339,2,0,P|272:38|204:20,1,100,2|0,0:0|0:0,0:0:0:0:
137,233,138645,5,10,0:0:0:0:
108,4,138799,1,0,0:0:0:0:
248,188,138952,1,2,0:0:0:0:
232,307,139105,1,0,0:0:0:0:
113,291,139258,1,10,0:0:0:0:
129,172,139411,1,0,0:0:0:0:
21,352,139564,1,4,0:0:0:0:
27,213,139717,1,0,0:0:0:0:
232,307,139870,5,0,0:0:0:0:
129,172,140023,1,0,0:0:0:0:
272,351,140176,2,2,P|323:327|361:252,1,100,2|0,0:0|0:0,0:0:0:0:
247,157,140482,1,10,0:0:0:0:
105,350,140635,1,0,0:0:0:0:
105,350,140788,2,0,P|54:326|16:251,1,100,2|0,0:0|0:0,0:0:0:0:
232,187,141094,5,10,0:0:0:0:
1,175,141248,1,0,0:0:0:0:
196,301,141401,1,2,0:0:0:0:
313,276,141554,1,0,0:0:0:0:
235,124,141707,1,10,0:0:0:0:
118,149,141860,1,0,0:0:0:0:
292,17,142013,1,4,0:0:0:0:
154,35,142166,1,0,0:0:0:0:
308,205,142319,5,2,0:0:0:0:
383,52,142472,1,0,0:0:0:0:
285,260,142625,2,0,P|232:247|185:199,1,100,0|0,0:0|0:0,0:0:0:0:
296,34,142931,1,8,0:0:0:0:
385,141,143084,1,0,0:0:0:0:
165,82,143237,6,0,P|110:88|48:149,1,100,8|8,0:0|0:0,0:0:0:0:
45,153,143467,1,8,0:0:0:0:
40,202,143543,1,8,0:0:0:0:
202,366,143697,2,0,P|224:315|202:231,1,100,8|8,0:0|0:0,0:0:0:0:
200,226,143926,1,8,0:0:0:0:
160,198,144003,1,8,0:0:0:0:
10,70,144156,5,8,0:0:0:0:
36,29,144232,1,0,0:0:0:0:
80,5,144309,1,0,0:0:0:0:
130,1,144385,1,0,0:0:0:0:
175,22,144462,2,0,B|217:34|245:91|245:91|306:81,1,150,2|0,0:0|0:0,0:0:0:0:
340,67,144768,1,8,0:0:0:0:
479,293,144921,6,0,B|425:329|376:305|376:305|335:286|288:305|288:305|229:262,1,250
228,228,145380,2,0,B|273:178|242:130|242:130|189:144|150:128|150:128|102:116|56:142|56:142|14:112,1,350,8|0,0:0|0:0,0:0:0:0:
1,63,145992,2,0,L|86:9,1,100,8|0,0:0|0:0,0:0:0:0:
172,59,146299,2,0,L|257:5,1,100,0|0,0:0|0:0,0:0:0:0:
432,77,146605,6,0,P|453:116|441:156,1,50,8|0,0:0|0:0,0:0:0:0:
416,155,146758,2,0,P|381:147|344:160,1,50,0|0,0:0|0:0,0:0:0:0:
342,192,146911,2,0,B|396:245|316:288|394:350,1,150,0|0,0:0|0:0,0:0:0:0:
416,360,147217,1,0,0:0:0:0:
251,245,147370,6,0,B|194:218|137:232|137:232|47:258|25:168,1,250,0|0,0:0|0:0,0:0:0:0:
50,138,147829,2,0,B|102:107|101:58|101:58|168:120|215:45|286:85|286:85|366:43,1,350,8|0,0:0|0:0,0:0:0:0:
360,16,148441,2,0,L|466:58,1,100,0|0,0:0|0:0,0:0:0:0:
393,133,148748,1,0,0:0:0:0:
187,14,148901,6,0,B|126:25|124:78|124:78|226:75|253:175,1,250,0|0,0:0|0:0,0:0:0:0:
220,194,149360,2,0,B|274:234|312:164|391:226,1,150,4|0,0:0|0:0,0:0:0:0:
393,250,149666,2,0,P|429:239|440:208,1,50,8|0,0:0|0:0,0:0:0:0:
427,180,149819,2,0,P|438:146|475:119,1,50,0|0,0:0|0:0,0:0:0:0:
487,105,149972,6,0,P|455:58|380:45,1,100,0|0,0:0|0:0,0:0:0:0:
378,75,150202,2,0,P|326:99|255:73,1,100,0|0,0:0|0:0,0:0:0:0:
245,64,150431,2,0,B|188:72|159:124|159:124|96:94,1,150,0|0,0:0|0:0,0:0:0:0:
92,65,150737,2,0,P|71:54|39:57,1,50,0|0,0:0|0:0,0:0:0:0:
17,96,150890,1,8,0:0:0:0:
17,146,150967,1,0,0:0:0:0:
43,187,151043,2,0,P|66:196|99:189,1,50,0|0,0:0|0:0,0:0:0:0:
138,176,151197,6,0,P|172:185|195:230,1,50,0|0,0:0|0:0,0:0:0:0:
177,244,151350,2,0,P|197:258|221:262,1,50,0|0,0:0|0:0,0:0:0:0:
271,255,151503,2,0,P|285:275|289:299,1,50,8|0,0:0|0:0,0:0:0:0:
275,347,151656,1,0,0:0:0:0:
231,370,151732,1,0,0:0:0:0:
181,364,151809,6,0,P|160:342|101:341,1,50,0|0,0:0|0:0,0:0:0:0:
100,363,151962,1,0,0:0:0:0:
53,345,152038,1,0,0:0:0:0:
19,309,152115,1,8,0:0:0:0:
6,261,152191,1,0,0:0:0:0:
15,213,152268,1,0,0:0:0:0:
45,173,152344,1,0,0:0:0:0:
90,152,152421,6,0,P|116:146|159:175,1,50,0|0,0:0|0:0,0:0:0:0:
177,183,152574,2,0,P|200:189|224:183,1,50,0|0,0:0|0:0,0:0:0:0:
258,145,152727,1,8,0:0:0:0:
270,97,152804,1,0,0:0:0:0:
250,52,152880,1,0,0:0:0:0:
208,28,152957,1,0,0:0:0:0:
159,34,153033,6,0,B|108:48|44:25|44:25|8:67,1,150,0|0,0:0|0:0,0:0:0:0:
33,98,153339,2,0,P|56:121|65:166,1,50,10|0,0:0|0:0,0:0:0:0:
67,186,153492,1,0,0:0:0:0:
52,234,153569,1,0,0:0:0:0:
21,272,153645,2,0,P|12:311|39:339,1,50,0|0,0:0|0:0,0:0:0:0:
34,334,153799,1,8,0:0:0:0:
57,340,153875,1,8,0:0:0:0:
100,314,153952,5,8,0:0:0:0:
123,320,154028,1,8,0:0:0:0:
166,294,154105,5,8,0:0:0:0:
189,300,154181,1,8,0:0:0:0:
232,274,154258,6,0,P|251:260|288:255,1,50,4|0,0:0|0:0,0:0:0:0:
290,206,154411,2,0,P|270:192|233:187,1,50,0|0,0:0|0:0,0:0:0:0:
222,141,154564,2,0,P|241:127|278:122,1,50,8|0,0:0|0:0,0:0:0:0:
280,73,154717,2,0,P|260:59|223:54,1,50,0|0,0:0|0:0,0:0:0:0:
202,15,154870,2,0,P|172:25|141:74,1,50,0|0,0:0|0:0,0:0:0:0:
158,86,155023,2,0,B|115:114|61:95|61:95|57:125|40:151,1,150,0|0,0:0|0:0,0:0:0:0:
64,188,155329,6,0,P|103:190|128:208,1,50,0|0,0:0|0:0,0:0:0:0:
147,230,155482,2,0,B|221:239|206:154|307:171,1,150,0|0,0:0|0:0,0:0:0:0:
326,179,155788,1,8,0:0:0:0:
376,177,155865,1,0,0:0:0:0:
419,152,155941,1,0,0:0:0:0:
442,107,156018,6,0,P|414:84|396:19,1,100,0|0,0:0|0:0,0:0:0:0:
347,38,156248,2,0,P|324:66|259:84,1,100,0|10,0:0|0:0,0:0:0:0:
257,133,156477,2,0,P|292:167|303:215,1,100,0|0,0:0|0:0,0:0:0:0:
253,226,156707,6,0,B|200:211|164:253|164:253|100:237,1,150,0|0,0:0|0:0,0:0:0:0:
64,247,157013,1,8,0:0:0:0:
33,286,157089,1,0,0:0:0:0:
31,336,157166,2,0,P|47:357|84:370,1,50,0|0,0:0|0:0,0:0:0:0:
112,344,157319,2,0,P|133:331|157:328,1,50,0|0,0:0|0:0,0:0:0:0:
200,354,157472,2,0,B|259:337|280:296|280:296|303:316|363:318,1,150,0|0,0:0|0:0,0:0:0:0:
366,286,157778,6,0,B|362:215|398:195|398:195|354:135|396:55,1,250,0|0,0:0|0:0,0:0:0:0:
439,29,158237,2,0,L|516:119,1,100,8|0,0:0|0:0,0:0:0:0:
332,125,158543,2,0,P|274:123|227:159,1,100
208,104,158773,1,0,0:0:0:0:
159,115,158850,1,8,0:0:0:0:
183,19,159003,1,0,0:0:0:0:
334,217,159156,6,0,B|311:268|258:271|258:271|221:317,1,150,4|0,0:0|0:0,0:0:0:0:
202,355,159462,1,8,0:0:0:0:
355,310,159615,1,0,0:0:0:0:
240,200,159768,2,0,L|106:221,1,100,0|0,0:0|0:0,0:0:0:0:
154,116,160074,1,8,0:0:0:0:
61,154,160227,2,0,L|82:288,1,100,0|0,0:0|0:0,0:0:0:0:
155,313,160533,1,0,0:0:0:0:
249,280,160686,2,0,L|228:414,1,100,8|0,0:0|0:0,0:0:0:0:
139,163,160992,6,0,B|161:107|213:102|213:102|246:37,1,150,0|0,0:0|0:0,0:0:0:0:
229,8,161299,2,0,P|259:4|298:12,1,50,10|0,0:0|0:0,0:0:0:0:
308,46,161452,2,0,P|332:47|357:44,1,50,0|0,0:0|0:0,0:0:0:0:
403,63,161605,2,0,P|412:102|402:143,1,50,0|0,0:0|0:0,0:0:0:0:
377,148,161758,2,0,P|349:118|337:78,1,50,0|0,0:0|0:0,0:0:0:0:
297,124,161911,2,0,P|287:163|298:204,1,50,0|0,0:0|0:0,0:0:0:0:
238,179,162064,6,0,B|190:140|196:82|196:82|136:72|121:38|121:38|82:40|42:27,1,250,0|0,0:0|0:0,0:0:0:0:
24,49,162523,1,0,0:0:0:0:
42,147,162676,1,0,0:0:0:0:
254,27,162829,2,0,P|304:31|334:56,1,50,2|0,0:0|0:0,0:0:0:0:
304,80,162982,2,0,B|263:96|206:92|206:92|221:162|158:185|191:261,1,250,0|0,0:0|0:0,0:0:0:0:
200,268,163441,1,8,0:0:0:0:
225,291,163518,1,8,0:0:0:0:
256,308,163594,1,8,0:0:0:0:
290,316,163671,1,8,0:0:0:0:
325,316,163748,1,8,0:0:0:0:
358,306,163824,1,8,0:0:0:0:
393,270,163901,5,8,0:0:0:0:
437,246,163977,1,8,0:0:0:0:
487,250,164054,2,0,P|502:278|448:335,1,100,4|0,0:0|0:0,0:0:0:0:
319,236,164360,1,8,0:0:0:0:
321,186,164436,2,0,B|327:155|353:136|353:136|414:160|475:106,1,150,0|0,0:0|0:0,0:0:0:0:
391,42,164819,1,0,0:0:0:0:
118,129,164972,6,0,P|94:179|107:243,1,100,10|0,0:0|0:0,0:0:0:0:
175,284,165278,1,2,0:0:0:0:
274,299,165431,1,0,0:0:0:0:
251,120,165584,1,10,0:0:0:0:
349,104,165737,1,0,0:0:0:0:
441,139,165890,1,2,0:0:0:0:
503,215,166043,1,0,0:0:0:0:
345,280,166197,2,0,P|336:230|377:212,1,100,10|0,0:0|0:0,0:0:0:0:
116,244,166503,6,0,P|81:215|51:170,1,100,2|0,0:0|0:0,0:0:0:0:
155,23,166809,1,10,0:0:0:0:
224,262,166962,2,0,P|251:303|289:336,1,100,0|8,0:0|0:0,0:0:0:0:
388,345,167268,1,0,0:0:0:0:
319,70,167421,2,0,P|368:57|431:72,1,100,10|0,0:0|0:0,0:0:0:0:
332,246,167727,5,2,0:0:0:0:
240,140,167880,1,2,0:0:0:0:
202,336,168033,1,8,0:0:0:0:
202,336,168186,1,0,0:0:0:0:
314,170,168339,5,2,0:0:0:0:
173,179,168492,1,2,0:0:0:0:
285,14,168645,1,10,0:0:0:0:
81,87,168799,6,0,P|52:76|39:48,1,50,0|0,0:0|0:0,0:0:0:0:
74,160,168952,2,0,P|84:212|109:258,1,100,4|0,0:0|0:0,0:0:0:0:
273,318,169258,1,10,0:0:0:0:
141,131,169411,2,0,P|169:96|232:66,1,100,0|2,0:0|0:0,0:0:0:0:
316,73,169717,1,0,0:0:0:0:
440,343,169870,6,0,P|393:359|329:356,1,100,10|0,0:0|0:0,0:0:0:0:
251,319,170176,1,2,0:0:0:0:
191,240,170329,1,0,0:0:0:0:
361,183,170482,1,10,0:0:0:0:
305,99,170635,1,0,0:0:0:0:
214,54,170788,1,2,0:0:0:0:
112,60,170941,1,0,0:0:0:0:
191,240,171094,2,0,P|238:222|233:178,1,100,10|0,0:0|0:0,0:0:0:0:
472,327,171401,6,0,P|491:286|492:223,1,100,0|0,0:0|0:0,0:0:0:0:
389,85,171707,1,8,0:0:0:0:
296,310,171860,2,0,P|269:346|215:379,1,100,0|0,0:0|0:0,0:0:0:0:
124,377,172166,1,0,0:0:0:0:
117,162,172319,1,12,0:0:0:0:
216,148,172472,1,0,0:0:0:0:
465,340,172625,6,0,P|485:292|478:220,1,100,8|8,0:0|0:0,0:0:0:0:
441,154,172931,1,8,0:0:0:0:
111,64,173084,2,0,P|104:115|129:183,1,100,0|8,0:0|0:0,0:0:0:0:
270,250,173441,5,8,0:0:0:0:
361,170,173543,6,0,P|354:118|336:84,1,66.6666666666667,0|8,0:0|0:0,0:0:0:0:
57,111,173850,1,2,0:0:0:0:
196,254,174003,1,2,0:0:0:0:
5,200,174156,1,8,0:0:0:0:
198,151,174309,1,12,0:0:0:0:
381,77,175686,5,2,0:0:0:0:
312,50,176145,1,0,0:0:0:0:
303,62,176222,1,0,0:0:0:0:
294,74,176299,5,10,0:0:0:0:
418,230,176452,1,8,0:0:0:0:
233,157,176605,1,8,0:0:0:0:
430,128,176758,1,8,0:0:0:0:
212,223,176911,2,0,P|170:190|176:121,1,100,8|0,0:0|0:0,0:0:0:0:
175,113,177140,1,8,0:0:0:0:
202,91,177217,1,8,0:0:0:0:
2,240,177370,5,4,0:0:0:0:
472,334,177676,1,4,0:0:0:0:
43,122,177982,1,4,0:0:0:0:
512,216,178288,1,4,0:0:0:0:
244,61,178594,6,0,B|239:119|239:119|267:170|267:170|262:226,1,170.000003242493,4|0,0:0|0:0,0:0:0:0:
122,165,179054,2,0,P|110:120|123:82,1,85.0000016212464,8|0,0:0|0:0,0:0:0:0:
307,106,179360,1,0,0:0:0:0:
262,223,179513,1,0,0:0:0:0:
184,126,179666,1,8,0:0:0:0:
387,202,179819,6,0,B|361:255|361:255|311:285|311:285|288:335,1,170.000003242493,0|0,0:0|0:0,0:0:0:0:
432,342,180278,2,0,P|461:313|470:266,1,85.0000016212464,8|0,0:0|0:0,0:0:0:0:
283,160,180584,1,0,0:0:0:0:
469,175,180737,1,0,0:0:0:0:
363,328,180890,1,8,0:0:0:0:
388,115,181043,6,0,B|338:72|338:72|234:44,1,170.000003242493,0|0,0:0|0:0,0:0:0:0:
124,158,181503,2,0,P|165:160|209:177,1,85.0000016212464,8|0,0:0|0:0,0:0:0:0:
257,354,181809,1,0,0:0:0:0:
143,296,181962,1,0,0:0:0:0:
251,227,182115,1,8,0:0:0:0:
125,377,182268,6,0,B|80:342|80:342|38:237,1,170.000003242493,0|0,0:0|0:0,0:0:0:0:
251,227,182727,2,0,P|263:278|246:324,1,85.0000016212464,8|0,0:0|0:0,0:0:0:0:
66,163,183033,1,0,0:0:0:0:
247,120,183186,1,2,0:0:0:0:
89,23,183339,1,2,0:0:0:0:
188,192,183492,6,0,B|243:211|243:211|299:197|299:197|352:216,1,170.000003242493,4|0,0:0|0:0,0:0:0:0:
334,354,183952,2,0,P|286:353|233:328,1,85.0000016212464,8|0,0:0|0:0,0:0:0:0:
247,143,184258,1,0,0:0:0:0:
349,215,184411,1,0,0:0:0:0:
236,268,184564,1,8,0:0:0:0:
348,112,184717,6,0,B|403:131|403:131|458:117|458:117|509:135,1,170.000003242493,0|0,0:0|0:0,0:0:0:0:
428,234,185176,2,0,P|383:233|343:210,1,85.0000016212464,8|0,0:0|0:0,0:0:0:0:
494,372,185482,1,0,0:0:0:0:
361,295,185635,1,0,0:0:0:0:
495,219,185788,1,8,0:0:0:0:
395,356,185941,5,0,0:0:0:0:
291,281,186094,1,0,0:0:0:0:
303,153,186248,1,0,0:0:0:0:
408,228,186401,1,8,0:0:0:0:
291,281,186554,2,0,P|252:250|242:207,1,85.0000016212464,0|0,0:0|0:0,0:0:0:0:
379,159,186860,1,0,0:0:0:0:
395,294,187013,1,8,0:0:0:0:
477,117,187166,6,0,L|394:56,1,85.0000016212464,4|0,0:0|0:0,0:0:0:0:
170,71,187472,2,0,L|253:132,1,85.0000016212464,4|8,0:0|0:0,0:0:0:0:
472,80,187778,2,4,L|389:19,1,85.0000016212464,4|12,0:0|0:0,0:0:0:0:
314,174,188084,1,8,0:0:0:0:
474,263,188237,1,8,0:0:0:0:
354,96,188390,6,0,B|295:91|295:91|245:119|245:119|191:115,1,170.000003242493,4|0,0:0|0:0,0:0:0:0:
271,236,188850,2,0,P|332:226|362:198,1,85.0000016212464,8|0,0:0|0:0,0:0:0:0:
228,52,189156,1,0,0:0:0:0:
221,179,189309,1,0,0:0:0:0:
335,122,189462,1,8,0:0:0:0:
126,112,189615,6,0,B|110:167|110:167|66:205|66:205|52:257,1,170.000003242493,0|0,0:0|0:0,0:0:0:0:
199,251,190074,2,0,P|235:204|225:153,1,85.0000016212464,8|0,0:0|0:0,0:0:0:0:
40,107,190380,1,0,0:0:0:0:
176,37,190533,1,0,0:0:0:0:
169,190,190686,1,8,0:0:0:0:
9,41,190839,6,0,B|68:24|68:24|182:37,1,170.000003242493,0|0,0:0|0:0,0:0:0:0:
169,190,191299,2,0,P|124:185|67:190,1,85.0000016212464,8|0,0:0|0:0,0:0:0:0:
14,360,191605,1,0,0:0:0:0:
147,285,191758,1,0,0:0:0:0:
16,208,191911,1,8,0:0:0:0:
125,374,192064,6,0,B|192:368|192:368|315:306,1,170.000003242493,0|0,0:0|0:0,0:0:0:0:
196,161,192523,2,0,P|150:169|115:196,1,85.0000016212464,8|0,0:0|0:0,0:0:0:0:
99,228,192753,1,0,0:0:0:0:
95,270,192829,1,0,0:0:0:0:
284,227,192982,1,0,0:0:0:0:
304,188,193059,1,0,0:0:0:0:
307,146,193135,1,8,0:0:0:0:
157,18,193288,6,0,B|118:61|118:61|63:77|63:77|28:119,1,170.000003242493,4|0,0:0|0:0,0:0:0:0:
151,196,193748,2,0,P|195:167|221:124,1,85.0000016212464,8|0,0:0|0:0,0:0:0:0:
79,5,194054,1,0,0:0:0:0:
89,157,194207,1,0,0:0:0:0:
216,73,194360,1,8,0:0:0:0:
22,100,194513,6,0,B|4:155|4:155|17:210|17:210|0:262,1,170.000003242493,0|0,0:0|0:0,0:0:0:0:
149,267,194972,2,0,P|169:218|161:164,1,85.0000016212464,8|0,0:0|0:0,0:0:0:0:
319,344,195278,1,0,0:0:0:0:
300,158,195431,1,0,0:0:0:0:
149,267,195584,1,8,0:0:0:0:
389,252,195737,6,0,P|396:206|375:148,1,85.0000016212464,0|0,0:0|0:0,0:0:0:0:
243,77,196043,1,0,0:0:0:0:
235,247,196197,1,8,0:0:0:0:
462,138,196350,2,0,P|426:100|361:97,1,85.0000016212464,0|8,0:0|0:0,0:0:0:0:
342,253,196656,1,0,0:0:0:0:
381,267,196732,1,0,0:0:0:0:
422,259,196809,1,0,0:0:0:0:
290,93,196962,6,0,L|174:99,1,85.0000016212464,10|0,0:0|0:0,0:0:0:0:
230,308,197268,2,0,L|114:302,1,85.0000016212464,10|0,0:0|0:0,0:0:0:0:
95,79,197574,2,0,P|42:84|14:119,1,85.0000016212464,8|0,0:0|0:0,0:0:0:0:
7,159,197829,5,8,0:0:0:0:
19,213,197931,5,8,0:0:0:0:
57,254,198033,5,8,0:0:0:0:
111,269,198135,5,8,0:0:0:0:
165,254,198237,5,8,0:0:0:0:
204,214,198339,6,0,B|239:141|185:127|221:54,1,150,4|8,0:0|0:0,0:0:0:0:
455,46,199258,5,8,0:0:0:0:
476,143,199411,1,8,0:0:0:0:
445,237,199564,2,0,B|404:269|348:218|291:253,1,150,8|8,0:0|0:0,0:0:0:0:
54,349,200482,5,8,0:0:0:0:
34,250,200635,1,8,0:0:0:0:
66,154,200788,2,0,B|104:114|148:167|207:132,1,125,8|0,0:0|0:0,0:0:0:0:
185,141,201248,6,0,P|176:210|217:271,1,125,8|0,0:0|0:0,0:0:0:0:
201,257,201707,1,8,0:0:0:0:
294,292,201860,1,8,0:0:0:0:
391,275,202013,2,0,B|416:239|383:211|420:163,1,100,8|8,0:0|0:0,0:0:0:0:
471,100,202472,1,8,0:0:0:0:
267,32,202778,5,8,0:0:0:0:
175,71,202931,1,8,0:0:0:0:
114,150,203084,1,8,0:0:0:0:
98,299,203237,2,0,B|122:326|201:303|255:354,1,150,4|8,0:0|0:0,0:0:0:0:
422,154,204156,5,8,0:0:0:0:
363,72,204309,1,8,0:0:0:0:
227,6,204462,2,0,B|181:45|132:19|77:64,1,150,4|8,0:0|0:0,0:0:0:0:
102,282,205227,5,8,0:0:0:0:
251,295,205380,1,8,0:0:0:0:
366,199,205533,1,8,0:0:0:0:
191,133,205686,6,0,B|142:217|216:245|164:337,1,200,4|0,0:0|0:0,0:0:0:0:
4,211,206145,1,8,0:0:0:0:
67,75,206299,1,8,0:0:0:0:
207,23,206452,1,8,0:0:0:0:
177,208,206605,6,0,P|123:230|107:277,1,100,8|0,0:0|0:0,0:0:0:0:
114,289,206834,1,0,0:0:0:0:
158,349,206911,5,8,0:0:0:0:
192,363,206987,1,8,0:0:0:0:
230,364,207064,1,8,0:0:0:0:
266,354,207140,1,8,0:0:0:0:
296,332,207217,1,8,0:0:0:0:
318,302,207293,1,8,0:0:0:0:
337,228,207370,5,8,0:0:0:0:
371,215,207447,1,8,0:0:0:0:
409,214,207523,1,8,0:0:0:0:
445,224,207600,1,8,0:0:0:0:
475,246,207676,1,8,0:0:0:0:
497,276,207753,1,8,0:0:0:0:
480,348,207829,6,0,P|423:343|368:367,1,100
350,376,208059,1,0,0:0:0:0:
300,371,208135,5,10,0:0:0:0:
440,68,208339,5,8,0:0:0:0:
108,99,208543,5,8,0:0:0:0:
364,132,208748,5,8,0:0:0:0:
274,246,208901,1,0,0:0:0:0:
269,107,209054,1,0,0:0:0:0:
335,337,209207,6,0,B|406:347|406:347|482:336,1,129.999994049073,4|0,0:0|0:0,0:0:0:0:
500,187,209513,1,0,0:0:0:0:
292,193,209666,2,0,B|246:249|246:249|219:320,1,129.999994049073,8|0,0:0|0:0,0:0:0:0:
205,109,209972,1,0,0:0:0:0:
86,210,210125,1,0,0:0:0:0:
59,57,210278,1,8,0:0:0:0:
231,193,210431,6,0,B|288:165|296:114|296:114|332:126|332:126|331:60|375:3,1,259.999988098145,0|0,0:0|0:0,0:0:0:0:
459,40,210890,1,8,0:0:0:0:
510,125,211043,1,0,0:0:0:0:
485,221,211197,1,0,0:0:0:0:
344,139,211350,5,0,0:0:0:0:
344,303,211503,1,8,0:0:0:0:
403,90,211656,2,0,P|354:61|267:65,1,129.999994049073,0|0,0:0|0:0,0:0:0:0:
352,220,211962,1,0,0:0:0:0:
177,200,212115,2,0,P|176:143|223:69,1,129.999994049073,8|0,0:0|0:0,0:0:0:0:
91,281,212421,1,0,0:0:0:0:
271,208,212574,1,0,0:0:0:0:
118,89,212727,1,8,0:0:0:0:
244,287,212880,6,0,B|307:300|340:252|340:252|369:278|369:278|391:214|463:194,1,259.999988098145,0|0,0:0|0:0,0:0:0:0:
450,103,213339,1,8,0:0:0:0:
420,23,213492,1,0,0:0:0:0:
285,214,213645,5,0,0:0:0:0:
188,2,213799,1,0,0:0:0:0:
379,138,213952,1,8,0:0:0:0:
128,45,214105,2,0,B|92:89|92:89|73:90|73:90|40:132,1,129.999994049073
36,314,214411,1,0,0:0:0:0:
201,148,214564,2,0,B|247:110|247:110|247:92|247:92|288:59,1,129.999994049073,8|0,0:0|0:0,0:0:0:0:
430,293,214870,1,0,0:0:0:0:
217,233,215023,1,0,0:0:0:0:
376,79,215176,1,8,0:0:0:0:
240,307,215329,6,0,B|206:319|176:300|176:300|177:301|163:333|128:340,1,129.999994049073,0|0,0:0|0:0,0:0:0:0:
92,84,215635,1,0,0:0:0:0:
331,185,215788,1,8,0:0:0:0:
78,243,215941,1,0,0:0:0:0:
249,47,216094,1,0,0:0:0:0:
225,305,216248,1,0,0:0:0:0:
92,84,216401,1,8,0:0:0:0:
308,293,216554,6,0,B|343:248|343:248|362:247|362:247|398:201,1,129.999994049073,4|0,0:0|0:0,0:0:0:0:
420,25,216860,1,0,0:0:0:0:
253,194,217013,2,0,B|206:231|206:231|206:249|206:249|160:286,1,129.999994049073,12|0,0:0|0:0,0:0:0:0:
135,50,217319,1,0,0:0:0:0:
312,129,217472,1,0,0:0:0:0:
120,150,217625,1,8,0:0:0:0:
322,1,217778,5,10,0:0:0:0:
247,357,218084,1,0,0:0:0:0:
134,12,218390,1,10,0:0:0:0:
205,234,218543,5,0,0:0:0:0:
318,73,218697,1,10,0:0:0:0:
141,157,218850,1,8,0:0:0:0:
373,115,219003,6,0,B|402:181|402:181|410:257,1,129.999994049073
331,374,219309,1,0,0:0:0:0:
188,222,219462,2,0,B|230:163|230:163|292:118,1,129.999994049073,8|0,0:0|0:0,0:0:0:0:
84,153,219768,1,0,0:0:0:0:
182,32,219921,1,0,0:0:0:0:
29,8,220074,1,8,0:0:0:0:
176,147,220227,6,0,B|166:209|120:233|120:233|143:263|143:263|80:283|39:342,1,259.999988098145,0|0,0:0|0:0,0:0:0:0:
132,380,220686,1,8,0:0:0:0:
227,359,220839,1,0,0:0:0:0:
279,276,220992,1,0,0:0:0:0:
125,223,221145,5,0,0:0:0:0:
248,117,221299,1,8,0:0:0:0:
126,300,221452,2,0,P|56:280|5:216,1,129.999994049073,0|0,0:0|0:0,0:0:0:0:
76,82,221758,1,0,0:0:0:0:
265,196,221911,2,0,P|245:265|180:316,1,129.999994049073,8|0,0:0|0:0,0:0:0:0:
383,153,222217,1,0,0:0:0:0:
188,167,222370,1,0,0:0:0:0:
298,329,222523,1,8,0:0:0:0:
258,105,222676,6,0,B|206:67|157:83|157:83|152:46|152:46|98:77|23:63,1,259.999988098145,0|0,0:0|0:0,0:0:0:0:
15,160,223135,1,8,0:0:0:0:
64,245,223288,1,0,0:0:0:0:
277,149,223441,1,0,0:0:0:0:
197,369,223594,1,0,0:0:0:0:
157,139,223748,1,8,0:0:0:0:
311,379,223901,6,0,B|363:357|363:357|380:366|380:366|434:344,1,129.999994049073,4|0,0:0|0:0,0:0:0:0:
504,179,224207,1,0,0:0:0:0:
267,205,224360,2,0,B|207:213|207:213|198:229|198:229|140:238,1,129.999994049073,8|0,0:0|0:0,0:0:0:0:
3,15,224666,1,0,0:0:0:0:
200,113,224819,1,0,0:0:0:0:
17,234,224972,1,8,0:0:0:0:
177,39,225125,6,0,B|211:27|241:46|241:46|240:45|254:13|289:6,1,129.999994049073,0|0,0:0|0:0,0:0:0:0:
420,252,225431,1,0,0:0:0:0:
162,269,225584,1,8,0:0:0:0:
359,101,225737,1,0,0:0:0:0:
297,354,225890,1,0,0:0:0:0:
200,113,226043,1,0,0:0:0:0:
420,252,226197,1,8,0:0:0:0:
78,343,226350,6,0,B|30:315|25:280|25:280|54:252|54:252|30:210|30:210|73:184|71:138|71:138,1,259.999988098145,4|0,0:0|0:0,0:0:0:0:
298,331,226809,1,8,0:0:0:0:
501,54,226962,2,0,B|473:5|438:0|438:0|410:29|410:29|368:5|368:5|342:48|296:46|296:46,1,259.999988098145,4|4,0:0|0:0,0:0:0:0:
473,288,227421,1,8,0:0:0:0:
160,123,227574,6,0,B|111:151|106:186|106:186|137:206|137:228|137:228,1,129.999994049073,4|0,0:0|0:0,0:0:0:0:
160,284,227829,5,0,0:0:0:0:
202,338,227931,5,0,0:0:0:0:
265,366,228033,5,0,0:0:0:0:
334,363,228135,5,0,0:0:0:0:
393,328,228237,5,0,0:0:0:0:
430,270,228339,6,0,P|443:215|415:142,1,129.999994049073,8|0,0:0|0:0,0:0:0:0:
277,129,228645,1,0,0:0:0:0:
265,366,228799,6,0,B|214:373|214:373|122:358,1,129.999994049073,4|0,0:0|0:0,0:0:0:0:
74,189,229105,1,0,0:0:0:0:
277,129,229258,2,0,B|308:169|308:169|341:256,1,129.999994049073,8|0,0:0|0:0,0:0:0:0:
154,238,229564,1,0,0:0:0:0:
212,65,229717,1,0,0:0:0:0:
249,244,229870,1,8,0:0:0:0:
128,108,230023,6,0,B|71:139|65:190|65:190|29:179|29:179|35:241|-9:303,1,259.999988098145,0|0,0:0|0:0,0:0:0:0:
100,371,230482,1,8,0:0:0:0:
229,359,230635,1,0,0:0:0:0:
311,259,230788,1,0,0:0:0:0:
141,161,230941,5,0,0:0:0:0:
268,308,231094,1,8,0:0:0:0:
101,109,231248,2,0,P|109:84|204:11,1,129.999994049073,0|0,0:0|0:0,0:0:0:0:
365,128,231554,1,0,0:0:0:0:
197,299,231707,2,0,P|172:290|99:195,1,129.999994049073,8|0,0:0|0:0,0:0:0:0:
299,45,232013,1,0,0:0:0:0:
374,252,232166,1,0,0:0:0:0:
206,111,232319,1,8,0:0:0:0:
456,230,232472,6,0,B|474:167|442:127|442:127|475:109|475:109|427:70|414:-4,1,259.999988098145,0|0,0:0|0:0,0:0:0:0:
288,7,232931,1,8,0:0:0:0:
192,94,233084,1,0,0:0:0:0:
378,276,233237,5,0,0:0:0:0:
128,212,233390,1,0,0:0:0:0:
387,210,233543,1,8,0:0:0:0:
72,214,233697,2,0,B|81:157|81:157|97:147|97:147|104:94,1,129.999994049073,0|0,0:0|0:0,0:0:0:0:
290,0,234003,1,0,0:0:0:0:
269,260,234156,2,0,B|261:316|261:316|273:330|273:330|265:383,1,129.999994049073,8|0,0:0|0:0,0:0:0:0:
452,147,234462,1,0,0:0:0:0:
205,88,234615,1,0,0:0:0:0:
390,263,234768,1,8,0:0:0:0:
211,17,234921,6,0,B|175:14|150:40|150:40|151:39|129:11|94:14,1,129.999994049073,0|0,0:0|0:0,0:0:0:0:
365,170,235227,1,0,0:0:0:0:
142,384,235380,1,8,0:0:0:0:
195,77,235533,1,0,0:0:0:0:
332,357,235686,1,0,0:0:0:0:
57,212,235839,1,0,0:0:0:0:
365,170,235992,1,8,0:0:0:0:
88,332,236145,6,0,B|80:275|80:275|64:265|64:265|56:207,1,129.999994049073
111,9,236452,1,0,0:0:0:0:
177,261,236605,2,0,B|188:316|188:316|177:331|177:331|189:389,1,129.999994049073,8|0,0:0|0:0,0:0:0:0:
428,256,236911,1,0,0:0:0:0:
232,153,237064,1,0,0:0:0:0:
351,341,237217,1,8,0:0:0:0:
269,76,237370,5,10,0:0:0:0:
505,356,237676,1,10,0:0:0:0:
161,232,237982,1,10,0:0:0:0:
421,329,238135,5,0,0:0:0:0:
238,204,238288,1,10,0:0:0:0:
461,221,238441,1,0,0:0:0:0:
175,156,238594,6,0,B|180:108|180:108|217:18,1,129.999994049073,10|0,0:0|0:0,0:0:0:0:
393,21,238901,1,0,0:0:0:0:
361,240,239054,2,0,B|313:235|313:235|223:198,1,129.999994049073,8|0,0:0|0:0,0:0:0:0:
362,336,239360,1,0,0:0:0:0:
358,154,239513,1,0,0:0:0:0:
271,314,239666,1,8,0:0:0:0:
447,127,239819,6,0,B|416:70|365:63|365:63|376:27|376:27|314:34|252:-10,1,259.999988098145,0|0,0:0|0:0,0:0:0:0:
140,31,240278,1,8,0:0:0:0:
73,143,240431,1,0,0:0:0:0:
104,269,240584,1,0,0:0:0:0:
269,165,240737,5,0,0:0:0:0:
79,208,240890,1,8,0:0:0:0:
332,149,241043,2,0,P|368:167|409:268,1,129.999994049073,0|0,0:0|0:0,0:0:0:0:
221,345,241350,1,0,0:0:0:0:
209,111,241503,2,0,P|227:75|328:34,1,129.999994049073,8|0,0:0|0:0,0:0:0:0:
64,136,241809,1,0,0:0:0:0:
282,171,241962,1,0,0:0:0:0:
111,32,242115,1,8,0:0:0:0:
292,263,242268,6,0,B|355:247|374:199|374:199|406:218|406:218|416:157|473:109,1,259.999988098145,0|0,0:0|0:0,0:0:0:0:
379,19,242727,1,8,0:0:0:0:
250,5,242880,1,0,0:0:0:0:
397,218,243033,5,0,0:0:0:0:
140,239,243186,1,0,0:0:0:0:
353,93,243339,1,8,0:0:0:0:
96,270,243492,2,0,B|73:217|73:217|55:211|55:211|32:157,1,129.999994049073,4|0,0:0|0:0,0:0:0:0:
140,12,243799,1,0,0:0:0:0:
254,244,243952,2,0,B|284:292|284:292|278:310|278:310|309:360,1,129.999994049073,12|0,0:0|0:0,0:0:0:0:
413,77,244258,1,0,0:0:0:0:
170,124,244411,1,0,0:0:0:0:
404,205,244564,1,8,0:0:0:0:
177,50,244717,6,0,B|141:47|116:73|116:73|117:72|95:44|60:47,1,129.999994049073,0|0,0:0|0:0,0:0:0:0:
166,340,245023,1,0,0:0:0:0:
393,41,245176,1,10,0:0:0:0:
410,352,245329,1,0,0:0:0:0:
240,92,245482,1,8,0:0:0:0:
185,96,245559,1,8,0:0:0:0:
132,111,245635,1,8,0:0:0:0:
83,137,245712,1,8,0:0:0:0:
40,172,245788,1,8,0:0:0:0:
347,349,245941,6,0,B|400:363|429:341|429:341|428:301|428:301|474:288|474:288|462:240|496:208|496:208,1,259.999988098145,4|0,0:0|0:0,0:0:0:0:
163,254,246401,1,8,0:0:0:0:
451,5,246554,6,0,B|493:40|492:76|492:76|458:98|458:98|475:144|475:144|428:162|422:208|422:208,1,259.999988098145,4|4,0:0|0:0,0:0:0:0:
139,22,247013,1,8,0:0:0:0:
248,304,247166,2,0,L|353:378|353:378|311:258|311:258|412:182|412:182|285:185|285:185|244:65|244:65|208:187|208:187|83:188|83:188|186:261|186:261|148:381|148:381|249:304|249:304,1,1250,4|0,0:0|0:0,0:0:0:0:
374,242,252217,5,2,0:0:0:0:
316,193,252370,1,0,0:0:0:0:
309,117,252523,1,10,0:0:0:0:
251,68,252676,1,0,0:0:0:0:
104,107,252829,1,2,0:0:0:0:
129,178,252982,1,0,0:0:0:0:
97,247,253135,1,10,0:0:0:0:
123,319,253288,1,0,0:0:0:0:
328,319,253441,5,2,0:0:0:0:
331,244,253594,1,0,0:0:0:0:
267,203,253748,1,10,0:0:0:0:
264,278,253901,1,0,0:0:0:0:
123,319,254054,1,2,0:0:0:0:
120,244,254207,1,0,0:0:0:0:
187,278,254360,1,10,0:0:0:0:
184,203,254513,1,0,0:0:0:0:
40,68,254666,5,2,0:0:0:0:
111,44,254819,1,0,0:0:0:0:
184,58,254972,1,10,0:0:0:0:
240,107,255125,1,0,0:0:0:0:
115,193,255278,1,2,0:0:0:0:
164,249,255431,1,0,0:0:0:0:
234,273,255584,1,10,0:0:0:0:
307,259,255737,1,0,0:0:0:0:
348,64,255890,5,2,0:0:0:0:
420,78,256043,1,0,0:0:0:0:
476,126,256197,1,10,0:0:0:0:
501,196,256350,1,0,0:0:0:0:
350,200,256503,1,2,0:0:0:0:
293,150,256656,1,0,0:0:0:0:
307,76,256809,1,10,0:0:0:0:
236,100,256962,1,0,0:0:0:0:
308,286,257115,5,2,0:0:0:0:
212,315,257268,1,0,0:0:0:0:
123,267,257421,1,10,0:0:0:0:
27,296,257574,1,0,0:0:0:0:
12,146,257727,1,2,0:0:0:0:
109,123,257880,1,0,0:0:0:0:
162,37,258033,1,10,0:0:0:0:
260,14,258186,1,0,0:0:0:0:
216,249,258339,5,2,0:0:0:0:
315,251,258492,1,0,0:0:0:0:
367,165,258645,1,10,0:0:0:0:
268,163,258799,1,0,0:0:0:0:
221,3,258952,1,2,0:0:0:0:
320,4,259105,1,0,0:0:0:0:
269,90,259258,1,10,0:0:0:0:
368,92,259411,1,0,0:0:0:0:
435,294,259564,5,2,0:0:0:0:
341,330,259717,1,0,0:0:0:0:
241,314,259870,1,10,0:0:0:0:
162,250,260023,1,0,0:0:0:0:
220,107,260176,1,2,0:0:0:0:
121,122,260329,1,0,0:0:0:0:
42,186,260482,1,2,0:0:0:0:
6,281,260635,1,0,0:0:0:0:
228,250,260788,5,2,0:0:0:0:
322,214,260941,1,0,0:0:0:0:
422,230,261094,1,10,0:0:0:0:
500,294,261248,1,0,0:0:0:0:
304,369,261401,5,0,0:0:0:0:
279,365,261477,1,0,0:0:0:0:
254,362,261554,1,0,0:0:0:0:
229,359,261630,1,0,0:0:0:0:
204,355,261707,1,8,0:0:0:0:
132,287,261860,1,0,0:0:0:0:
201,57,262013,6,0,P|253:54|309:84,1,100,2|0,0:0|0:0,0:0:0:0:
387,250,262319,2,0,P|335:253|279:223,1,100,10|0,0:0|0:0,0:0:0:0:
94,85,262625,2,0,P|65:128|63:192,1,100,2|0,0:0|0:0,0:0:0:0:
168,342,262931,2,0,P|196:298|198:234,1,100,10|0,0:0|0:0,0:0:0:0:
131,27,263237,5,2,0:0:0:0:
237,196,263390,1,0,0:0:0:0:
321,72,263543,2,0,P|375:98|420:159,1,100,10|0,0:0|0:0,0:0:0:0:
371,325,263850,2,0,P|317:299|272:238,1,100,2|0,0:0|0:0,0:0:0:0:
98,328,264156,2,0,P|78:271|89:196,1,100,10|0,0:0|0:0,0:0:0:0:
273,68,264462,6,0,L|308:173,1,100,2|0,0:0|0:0,0:0:0:0:
198,332,264768,2,0,L|163:227,1,100,10|0,0:0|0:0,0:0:0:0:
229,47,265074,2,0,L|264:152,1,100,2|0,0:0|0:0,0:0:0:0:
154,311,265380,2,0,L|119:206,1,100,10|0,0:0|0:0,0:0:0:0:
349,269,265686,6,0,L|454:234,1,100,2|0,0:0|0:0,0:0:0:0:
463,38,265992,2,0,L|358:73,1,100,2|0,0:0|0:0,0:0:0:0:
276,189,266299,1,2,0:0:0:0:
218,49,266452,1,0,0:0:0:0:
339,142,266605,1,8,0:0:0:0:
188,122,266758,1,0,0:0:0:0:
367,249,266911,5,10,0:0:0:0:
193,327,267064,1,0,0:0:0:0:
262,150,267217,1,0,0:0:0:0:
339,324,267370,1,0,0:0:0:0:
344,104,267523,5,8,0:0:0:0:
180,200,267676,1,0,0:0:0:0:
294,48,267829,1,0,0:0:0:0:
245,232,267982,1,0,0:0:0:0:
58,61,268135,5,10,0:0:0:0:
253,136,268288,1,0,0:0:0:0:
62,220,268441,1,2,0:0:0:0:
137,24,268594,1,0,0:0:0:0:
191,270,268748,5,10,0:0:0:0:
371,166,268901,1,0,0:0:0:0:
121,150,269054,5,10,0:0:0:0:
303,255,269207,1,0,0:0:0:0:
381,34,269360,5,0,0:0:0:0:
338,9,269436,1,0,0:0:0:0:
289,0,269513,1,0,0:0:0:0:
240,4,269589,1,0,0:0:0:0:
194,25,269666,1,0,0:0:0:0:
157,58,269742,1,0,0:0:0:0:
132,101,269819,2,0,P|122:134|121:164,1,50,0|0,0:0|0:0,0:0:0:0:
316,207,269972,5,0,0:0:0:0:
303,255,270049,1,0,0:0:0:0:
274,296,270125,1,0,0:0:0:0:
237,327,270202,1,0,0:0:0:0:
190,345,270278,1,0,0:0:0:0:
140,348,270355,1,0,0:0:0:0:
92,335,270431,2,0,P|61:318|39:298,1,50,0|0,0:0|0:0,0:0:0:0:
185,148,270584,5,0,0:0:0:0:
227,123,270661,1,0,0:0:0:0:
277,114,270737,1,0,0:0:0:0:
325,119,270814,1,0,0:0:0:0:
371,139,270890,1,0,0:0:0:0:
409,172,270967,1,0,0:0:0:0:
433,215,271043,2,0,P|443:247|444:278,1,50,0|0,0:0|0:0,0:0:0:0:
243,248,271197,5,8,0:0:0:0:
179,263,271299,5,8,0:0:0:0:
117,242,271401,5,8,0:0:0:0:
76,190,271503,5,8,0:0:0:0:
70,125,271605,5,8,0:0:0:0:
101,67,271707,5,8,0:0:0:0:
158,35,271809,6,0,P|225:30|348:111,1,200,4|0,0:0|0:0,0:0:0:0:
383,348,272268,2,0,P|316:353|193:272,1,200,8|0,0:0|0:0,0:0:0:0:
202,263,272651,1,0,0:0:0:0:
206,238,272727,6,0,P|272:243|395:162,1,200,12|0,0:0|0:0,0:0:0:0:
192,14,273186,2,0,P|125:8|2:89,1,200,8|0,0:0|0:0,0:0:0:0:
7,97,273569,1,0,0:0:0:0:
7,121,273645,6,0,P|70:116|129:135,1,100,8|0,0:0|0:0,0:0:0:0:
127,135,273875,1,0,0:0:0:0:
140,156,273952,6,0,B|75:186|73:247|94:296|148:306|148:306|178:241|239:239|288:260|306:337,1,400,12|0,0:0|0:0,0:0:0:0:
